osu file format v14

[General]
AudioFilename: audio.mp3
AudioLeadIn: 0
PreviewTime: 221632
Countdown: 0
SampleSet: Normal
StackLeniency: 0.7
Mode: 1
LetterboxInBreaks: 0
WidescreenStoryboard: 1

[Editor]
DistanceSpacing: 2.9
BeatDivisor: 12
GridSize: 32
TimelineZoom: 2

[Metadata]
Title:Future Parade
TitleUnicode:Future Parade
Artist:Nijigasaki High School Idol Club
ArtistUnicode:虹ヶ咲学園スクールアイドル同好会
Creator:makimen
Version:HeLLFly's Oni
Source:ラブライブ!虹ヶ咲学園スクールアイドル同好会
Tags:makimen419 _hellfly_ -Maruko- Sammu anime Japanese love live! nijigaku ニジガク jpop j-pop female vocal lovelive school idol project 上原歩夢 Uehara Ayumu 中須かすみ Nakasu Kasumi 桜坂しずく Osaka Shizuku 朝香果林 Asaka Karin 宮下愛 Miyashita Ai 近江彼方 Konoe Kanata 優木せつな Yuki Setsuna エマ・ヴェルデ Emma Verde 天王寺璃奈 Tennoji Rina 三船栞子 Mifune Shioriko ミア・テイラー Mia Taylor 鐘嵐珠 Zhong Lanzhu
BeatmapID:4044398
BeatmapSetID:1950655

[Difficulty]
HPDrainRate:5
CircleSize:2
OverallDifficulty:5.5
ApproachRate:10
SliderMultiplier:1.4
SliderTickRate:1

[Events]
//Background and Video events
0,0,"future parade image.png",0,151
//Break Periods
//Storyboard Layer 0 (Background)
//Storyboard Layer 1 (Fail)
//Storyboard Layer 2 (Pass)
//Storyboard Layer 3 (Foreground)
//Storyboard Layer 4 (Overlay)
//Storyboard Sound Samples

[TimingPoints]
3979,413.793103448276,4,1,0,100,1,0
17220,-96.1538461538461,4,1,0,100,0,0
30461,-90.9090909090909,4,1,0,100,0,0
60254,413.793103448276,4,1,0,100,1,1
60254,-83.3333333333333,4,1,0,100,0,1
93357,-95.2380952380952,4,1,0,100,0,0
106391,-96.1538461538461,4,1,0,100,0,0
119840,-90.9090909090909,4,1,0,100,0,0
149633,413.793103448276,4,1,0,100,1,1
149633,-83.3333333333333,4,1,0,100,0,1
179426,-83.3333333333333,4,1,0,100,0,0
179839,-90.9090909090909,4,1,0,100,0,0
208391,413.793103448276,4,1,0,100,1,0
208391,-90.9090909090909,4,1,0,100,0,0
215011,-83.3333333333333,4,1,0,100,0,1
239839,-83.3333333333333,4,1,0,100,0,0
239942,-82.9875518672199,4,1,0,100,0,0
240046,-82.6446280991736,4,1,0,100,0,0
240149,-82.3045267489712,4,1,0,100,0,0
240253,-81.9672131147541,4,1,0,100,0,0
240459,-81.3008130081301,4,1,0,100,0,0
240563,-80.9716599190283,4,1,0,100,0,0
240666,-80.6451612903226,4,1,0,100,0,0
240873,-80,4,1,0,100,0,0
241080,-79.3650793650794,4,1,0,100,0,0
241184,-79.0513833992095,4,1,0,100,0,0
241287,-78.7401574803149,4,1,0,100,0,0
241494,-78.125,4,1,0,100,0,1
269632,-83.3333333333333,4,1,0,100,0,0

[HitObjects]
330,259,3979,5,8,1:0:0:0:
330,259,4392,1,0,1:0:0:0:
330,259,4599,1,8,1:0:0:0:
330,259,5013,1,0,1:0:0:0:
330,259,5220,1,8,1:0:0:0:
330,259,5634,1,0,1:0:0:0:
330,259,5841,1,8,1:0:0:0:
330,259,6254,1,8,1:0:0:0:
330,259,6461,1,0,1:0:0:0:
330,259,6875,1,0,1:0:0:0:
330,259,7082,1,0,1:0:0:0:
330,259,7289,1,8,1:0:0:0:
330,259,7703,1,0,1:0:0:0:
330,259,7910,1,8,1:0:0:0:
330,259,8323,1,0,1:0:0:0:
330,259,8530,1,8,1:0:0:0:
330,259,8944,1,0,1:0:0:0:
330,259,9151,1,8,1:0:0:0:
330,259,9565,1,8,1:0:0:0:
330,259,9772,1,0,1:0:0:0:
330,259,10185,1,8,1:0:0:0:
330,259,10392,1,0,1:0:0:0:
330,259,10599,1,8,1:0:0:0:
330,259,11013,1,0,1:0:0:0:
330,259,11220,1,8,1:0:0:0:
330,259,11634,1,0,1:0:0:0:
330,259,11841,1,8,1:0:0:0:
330,259,12254,1,0,1:0:0:0:
330,259,12461,1,8,1:0:0:0:
330,259,12875,1,8,1:0:0:0:
330,259,13082,1,0,1:0:0:0:
330,259,13496,1,0,1:0:0:0:
330,259,13703,1,0,1:0:0:0:
330,259,13910,1,8,1:0:0:0:
330,259,14323,1,0,1:0:0:0:
330,259,14530,1,8,1:0:0:0:
330,259,14944,1,0,1:0:0:0:
330,259,15151,1,8,1:0:0:0:
330,259,15565,1,0,1:0:0:0:
330,259,15772,1,8,1:0:0:0:
330,259,16185,1,8,1:0:0:0:
330,259,16392,1,0,1:0:0:0:
330,259,16806,1,8,1:0:0:0:
330,259,17013,1,0,1:0:0:0:
330,259,17220,1,8,1:0:0:0:
330,259,17427,1,0,1:0:0:0:
330,259,17634,1,0,1:0:0:0:
330,259,17841,1,0,1:0:0:0:
330,259,18047,1,8,1:0:0:0:
322,249,18461,1,0,1:0:0:0:
324,254,18875,1,8,1:0:0:0:
335,247,19082,1,0,1:0:0:0:
335,247,19289,1,8,1:0:0:0:
335,247,19496,1,8,1:0:0:0:
324,254,19910,1,8,1:0:0:0:
321,251,20116,1,8,1:0:0:0:
335,247,20530,1,8,1:0:0:0:
330,243,20737,1,0,1:0:0:0:
330,243,20944,1,0,1:0:0:0:
330,243,21151,1,0,1:0:0:0:
335,247,21358,1,8,1:0:0:0:
330,243,21772,1,0,1:0:0:0:
330,243,21979,1,8,1:0:0:0:
315,234,22392,1,0,1:0:0:0:
315,234,22599,1,8,1:0:0:0:
315,234,22806,1,0,1:0:0:0:
315,229,23013,1,8,1:0:0:0:
315,234,23220,1,8,1:0:0:0:
315,234,23427,1,0,1:0:0:0:
315,234,23841,1,8,1:0:0:0:
306,231,24047,1,0,1:0:0:0:
303,228,24254,1,8,1:0:0:0:
303,226,24461,1,8,1:0:0:0:
303,226,24668,1,0,1:0:0:0:
306,231,25082,1,8,1:0:0:0:
309,216,25496,1,8,1:0:0:0:
309,216,25703,1,0,1:0:0:0:
310,218,25910,1,8,1:0:0:0:
295,213,26116,1,8,1:0:0:0:
323,223,26530,1,8,1:0:0:0:
323,223,26737,1,8,1:0:0:0:
308,217,27151,1,0,1:0:0:0:
310,216,27565,1,0,1:0:0:0:
310,216,27772,1,8,1:0:0:0:
308,217,27979,1,8,1:0:0:0:
313,192,28392,1,12,1:0:0:0:
308,200,29841,1,0,1:0:0:0:
308,200,30047,1,8,1:0:0:0:
308,200,30254,1,0,1:0:0:0:
256,192,30461,1,12,0:0:0:0:
320,192,30668,1,0,0:0:0:0:
320,192,30772,1,0,0:0:0:0:
320,192,30875,1,8,0:0:0:0:
320,192,31082,1,0,0:0:0:0:
320,192,31289,1,8,0:0:0:0:
320,192,31496,1,8,0:0:0:0:
320,192,31599,1,8,0:0:0:0:
320,192,31703,1,0,0:0:0:0:
320,192,31910,1,8,0:0:0:0:
320,192,32323,1,8,0:0:0:0:
320,192,32427,1,8,0:0:0:0:
320,192,32530,1,0,0:0:0:0:
320,192,32737,1,0,0:0:0:0:
320,192,32944,1,8,0:0:0:0:
288,192,33151,1,0,0:0:0:0:
320,192,33254,1,8,0:0:0:0:
320,192,33358,1,8,0:0:0:0:
320,192,33565,1,0,0:0:0:0:
288,192,33772,1,8,0:0:0:0:
288,192,33979,1,8,0:0:0:0:
288,192,34082,1,8,0:0:0:0:
320,192,34185,1,0,0:0:0:0:
288,192,34392,1,0,0:0:0:0:
288,192,34599,1,8,0:0:0:0:
288,192,34806,1,0,0:0:0:0:
288,192,34910,1,8,0:0:0:0:
288,192,35013,1,0,0:0:0:0:
288,192,35220,1,8,0:0:0:0:
288,192,35634,1,8,0:0:0:0:
288,192,35737,1,8,0:0:0:0:
288,192,35841,1,0,0:0:0:0:
288,192,36047,1,8,0:0:0:0:
288,192,36254,1,0,0:0:0:0:
288,192,36358,1,8,0:0:0:0:
288,192,36461,1,0,0:0:0:0:
288,192,36565,1,0,0:0:0:0:
288,192,36668,1,8,0:0:0:0:
288,192,36875,1,0,0:0:0:0:
256,192,37082,1,8,0:0:0:0:
320,192,37289,1,0,0:0:0:0:
320,192,37392,1,8,0:0:0:0:
320,192,37496,1,8,0:0:0:0:
320,192,37703,1,0,0:0:0:0:
320,192,37910,1,8,0:0:0:0:
320,192,38116,1,8,0:0:0:0:
320,192,38220,1,8,0:0:0:0:
320,192,38323,1,0,0:0:0:0:
320,192,38530,1,0,0:0:0:0:
320,192,38737,1,8,0:0:0:0:
320,192,39151,1,8,0:0:0:0:
320,192,39358,1,0,0:0:0:0:
320,192,39565,1,8,0:0:0:0:
288,192,39772,1,8,0:0:0:0:
320,192,39875,1,0,0:0:0:0:
320,192,39979,1,8,0:0:0:0:
320,192,40185,1,0,0:0:0:0:
288,192,40392,1,8,0:0:0:0:
288,192,40599,1,0,0:0:0:0:
288,192,40703,1,8,0:0:0:0:
320,192,40806,1,8,0:0:0:0:
288,192,41013,1,0,0:0:0:0:
288,192,41220,1,8,0:0:0:0:
288,192,41427,1,8,0:0:0:0:
288,192,41530,1,8,0:0:0:0:
288,192,41634,1,0,0:0:0:0:
288,192,41841,1,8,0:0:0:0:
288,192,42047,1,0,0:0:0:0:
288,192,42461,1,0,0:0:0:0:
288,192,42668,1,8,0:0:0:0:
288,192,42875,1,8,0:0:0:0:
288,192,42979,1,8,0:0:0:0:
288,192,43082,1,0,0:0:0:0:
288,192,43185,1,0,0:0:0:0:
288,192,43289,1,8,0:0:0:0:
288,192,43496,1,0,0:0:0:0:
288,192,43703,1,12,0:0:0:0:
319,204,44116,1,0,1:0:0:0:
319,204,44323,1,8,1:0:0:0:
320,203,44737,1,0,1:0:0:0:
319,204,44944,1,8,1:0:0:0:
319,204,45151,1,8,1:0:0:0:
312,202,45358,1,0,1:0:0:0:
320,203,45668,1,0,1:0:0:0:
320,203,45772,1,8,1:0:0:0:
319,204,45979,1,8,1:0:0:0:
320,202,46392,1,0,1:0:0:0:
320,203,46599,1,8,1:0:0:0:
319,204,46806,1,0,1:0:0:0:
328,195,46875,1,0,1:0:0:0:
319,204,46944,1,0,1:0:0:0:
319,204,47013,1,8,1:0:0:0:
319,204,47427,1,8,1:0:0:0:
319,204,47634,1,0,1:0:0:0:
320,203,48047,1,0,1:0:0:0:
319,204,48254,1,12,1:0:0:0:
322,210,49289,1,0,1:0:0:0:
322,210,49496,1,8,1:0:0:0:
315,200,49599,1,8,0:0:0:0:
316,200,49703,1,0,0:0:0:0:
322,210,49806,1,0,1:0:0:0:
320,203,49910,1,8,1:0:0:0:
319,204,50116,1,0,1:0:0:0:
319,204,50323,1,12,1:0:0:0:
322,210,50530,1,0,1:0:0:0:
322,210,50634,1,0,1:0:0:0:
319,210,50737,1,8,1:0:0:0:
319,210,50944,1,0,1:0:0:0:
319,210,51151,1,8,1:0:0:0:
319,210,51358,1,8,1:0:0:0:
319,210,51461,1,8,1:0:0:0:
322,210,51565,1,0,1:0:0:0:
316,199,51772,1,8,1:0:0:0:
319,210,51979,1,0,1:0:0:0:
306,210,52185,1,8,1:0:0:0:
306,210,52289,1,0,1:0:0:0:
306,210,52392,1,8,1:0:0:0:
306,210,52599,1,0,1:0:0:0:
306,210,52806,1,8,1:0:0:0:
306,210,52910,1,0,1:0:0:0:
306,210,53013,1,8,1:0:0:0:
306,210,53116,1,8,1:0:0:0:
306,210,53220,1,0,1:0:0:0:
306,210,53427,1,0,1:0:0:0:
306,210,53530,1,0,1:0:0:0:
306,210,53634,1,12,1:0:0:0:
306,210,54254,1,8,1:0:0:0:
296,189,54358,1,0,1:0:0:0:
297,201,54461,1,8,1:0:0:0:
306,210,54875,1,0,1:0:0:0:
306,210,55289,1,8,1:0:0:0:
306,210,55599,1,0,1:0:0:0:
306,210,55910,1,0,1:0:0:0:
306,210,56116,1,8,1:0:0:0:
306,210,56220,1,8,1:0:0:0:
306,210,56323,1,0,1:0:0:0:
306,210,56530,1,8,1:0:0:0:
290,205,56737,1,0,1:0:0:0:
303,197,56841,1,0,1:0:0:0:
306,210,56944,1,12,1:0:0:0:
299,199,57565,1,0,1:0:0:0:
301,198,57668,1,0,1:0:0:0:
301,198,57772,1,8,1:0:0:0:
301,198,58599,1,0,1:0:0:0:
301,198,58703,1,0,1:0:0:0:
282,201,58806,1,0,1:0:0:0:
301,198,59013,1,8,1:0:0:0:
301,198,59116,1,8,1:0:0:0:
301,198,59220,1,8,1:0:0:0:
298,211,59427,1,8,1:0:0:0:
301,208,59841,1,0,1:0:0:0:
293,194,60254,1,12,1:0:0:0:
301,208,60460,1,0,1:0:0:0:
301,208,60564,1,0,1:0:0:0:
296,214,60667,1,8,1:0:0:0:
296,214,60874,1,0,1:0:0:0:
296,214,61081,1,8,1:0:0:0:
296,214,61185,1,8,1:0:0:0:
296,214,61288,1,0,1:0:0:0:
294,212,61391,1,0,1:0:0:0:
294,212,61495,1,8,1:0:0:0:
289,221,61702,1,0,1:0:0:0:
296,214,61909,1,8,1:0:0:0:
296,214,62116,1,8,1:0:0:0:
296,214,62219,1,8,1:0:0:0:
287,209,62322,1,0,1:0:0:0:
289,221,62529,1,0,1:0:0:0:
289,221,62736,1,0,1:0:0:0:
289,221,62840,1,8,1:0:0:0:
289,221,62943,1,0,1:0:0:0:
289,221,63047,1,0,1:0:0:0:
289,221,63150,1,8,1:0:0:0:
289,221,63357,1,8,1:0:0:0:
289,221,63460,1,0,1:0:0:0:
286,203,63564,1,12,1:0:0:0:
286,203,63978,1,0,1:0:0:0:
286,203,64185,1,0,1:0:0:0:
286,203,64288,1,0,1:0:0:0:
286,203,64391,1,8,1:0:0:0:
286,203,64598,1,0,1:0:0:0:
286,203,64805,1,0,1:0:0:0:
286,203,64909,1,8,1:0:0:0:
286,203,65012,1,8,1:0:0:0:
286,203,65116,1,0,1:0:0:0:
286,203,65219,1,8,1:0:0:0:
286,203,65426,1,0,1:0:0:0:
278,193,65529,1,0,1:0:0:0:
278,193,65633,1,8,1:0:0:0:
278,192,65840,1,0,1:0:0:0:
278,192,66047,1,8,1:0:0:0:
278,192,66150,1,0,1:0:0:0:
278,192,66254,1,8,1:0:0:0:
277,193,66357,1,8,1:0:0:0:
277,193,66460,1,0,1:0:0:0:
278,193,66667,1,0,1:0:0:0:
247,198,66771,1,0,1:0:0:0:
278,192,66874,1,12,1:0:0:0:
278,192,67185,1,0,1:0:0:0:
278,192,67288,1,8,1:0:0:0:
277,193,67495,1,0,1:0:0:0:
278,192,67702,1,8,1:0:0:0:
278,192,68012,1,0,1:0:0:0:
278,192,68116,1,8,1:0:0:0:
277,193,68322,1,0,1:0:0:0:
278,192,68529,1,8,1:0:0:0:
269,192,68736,1,8,1:0:0:0:
278,192,68840,1,0,1:0:0:0:
278,192,68943,1,8,1:0:0:0:
277,193,69150,1,0,1:0:0:0:
278,192,69357,1,8,1:0:0:0:
270,192,69564,1,8,1:0:0:0:
278,192,69667,1,0,1:0:0:0:
278,192,69771,1,8,1:0:0:0:
277,193,69978,1,0,1:0:0:0:
262,178,70047,1,0,1:0:0:0:
270,165,70116,1,0,1:0:0:0:
262,178,70185,1,8,1:0:0:0:
270,184,70495,1,8,1:0:0:0:
259,175,70805,1,0,1:0:0:0:
259,175,71012,1,8,1:0:0:0:
259,175,71322,1,0,1:0:0:0:
272,170,71633,1,0,1:0:0:0:
258,186,71736,1,0,1:0:0:0:
258,186,71840,1,8,1:0:0:0:
258,186,71943,1,8,1:0:0:0:
258,186,72047,1,0,1:0:0:0:
267,180,72254,1,0,1:0:0:0:
267,180,72460,1,8,1:0:0:0:
267,180,72564,1,0,1:0:0:0:
267,180,72667,1,8,1:0:0:0:
275,184,73081,1,8,1:0:0:0:
293,194,73495,1,12,1:0:0:0:
301,208,73702,1,0,1:0:0:0:
301,208,73805,1,0,1:0:0:0:
296,214,73909,1,8,1:0:0:0:
296,214,74116,1,0,1:0:0:0:
296,214,74322,1,8,1:0:0:0:
296,214,74426,1,8,1:0:0:0:
296,214,74529,1,0,1:0:0:0:
294,212,74633,1,0,1:0:0:0:
294,212,74736,1,8,1:0:0:0:
289,221,74943,1,0,1:0:0:0:
296,214,75150,1,8,1:0:0:0:
296,214,75357,1,8,1:0:0:0:
296,214,75460,1,8,1:0:0:0:
287,209,75564,1,0,1:0:0:0:
289,221,75771,1,0,1:0:0:0:
289,221,75978,1,0,1:0:0:0:
289,221,76081,1,8,1:0:0:0:
289,221,76185,1,0,1:0:0:0:
289,221,76288,1,0,1:0:0:0:
289,221,76391,1,8,1:0:0:0:
289,221,76598,1,8,1:0:0:0:
289,221,76702,1,0,1:0:0:0:
286,203,76805,1,12,1:0:0:0:
274,223,77219,1,8,1:0:0:0:
274,223,77426,1,4,1:0:0:0:
274,223,77840,1,0,1:0:0:0:
274,223,78047,1,12,1:0:0:0:
274,223,78667,1,0,1:0:0:0:
274,223,78874,1,8,1:0:0:0:
274,223,79081,1,0,1:0:0:0:
274,223,79185,1,0,1:0:0:0:
274,223,79288,1,8,1:0:0:0:
277,214,79391,1,8,1:0:0:0:
277,214,79495,1,8,1:0:0:0:
276,210,79702,1,0,1:0:0:0:
276,210,79805,1,0,1:0:0:0:
276,210,79909,1,0,1:0:0:0:
276,210,80116,1,12,1:0:0:0:
267,222,80426,1,0,1:0:0:0:
267,222,80529,1,8,1:0:0:0:
257,217,80736,1,0,1:0:0:0:
257,217,80943,1,8,1:0:0:0:
257,217,81254,1,0,1:0:0:0:
257,217,81357,1,8,1:0:0:0:
257,217,81564,1,0,1:0:0:0:
257,217,81771,1,8,1:0:0:0:
257,217,82081,1,0,1:0:0:0:
257,217,82185,1,8,1:0:0:0:
257,217,82391,1,0,1:0:0:0:
256,207,82598,1,8,1:0:0:0:
256,207,82805,1,0,1:0:0:0:
256,207,82909,1,8,1:0:0:0:
256,207,83012,1,8,1:0:0:0:
259,206,83219,1,8,1:0:0:0:
260,192,83322,1,0,1:0:0:0:
260,192,83426,1,12,1:0:0:0:
256,207,83633,1,0,1:0:0:0:
250,196,83840,1,8,1:0:0:0:
238,202,84047,1,8,1:0:0:0:
238,202,84150,1,8,1:0:0:0:
235,199,84254,1,4,1:0:0:0:
250,201,84460,1,0,1:0:0:0:
252,197,84667,1,8,1:0:0:0:
250,196,84874,1,8,1:0:0:0:
252,197,84978,1,0,1:0:0:0:
252,197,85081,1,12,1:0:0:0:
235,183,85288,1,0,1:0:0:0:
233,185,85495,1,8,1:0:0:0:
232,216,85598,1,8,1:0:0:0:
227,181,85702,1,8,1:0:0:0:
242,189,85909,1,0,1:0:0:0:
235,183,86116,1,0,1:0:0:0:
235,183,86219,1,8,1:0:0:0:
235,183,86322,1,8,1:0:0:0:
235,183,86426,1,8,1:0:0:0:
240,182,86529,1,0,1:0:0:0:
247,177,86736,1,12,1:0:0:0:
235,183,87047,1,0,1:0:0:0:
235,183,87357,1,0,1:0:0:0:
235,183,87460,1,0,1:0:0:0:
240,182,87564,1,8,1:0:0:0:
235,180,87874,1,0,1:0:0:0:
235,183,88185,1,8,1:0:0:0:
235,183,88288,1,8,1:0:0:0:
235,183,88391,1,4,1:0:0:0:
235,183,89426,1,0,1:0:0:0:
235,183,89633,1,8,1:0:0:0:
235,183,89840,1,0,1:0:0:0:
235,183,90047,1,12,1:0:0:0:
235,183,90667,1,12,1:0:0:0:
235,183,91288,1,12,1:0:0:0:
330,259,93357,1,8,1:0:0:0:
330,259,93771,1,0,1:0:0:0:
330,259,93978,1,8,1:0:0:0:
330,259,94391,1,0,1:0:0:0:
330,259,94598,1,8,1:0:0:0:
330,259,95012,1,0,1:0:0:0:
330,259,95219,1,8,1:0:0:0:
330,259,95633,1,8,1:0:0:0:
330,259,95840,1,0,1:0:0:0:
320,256,96047,1,8,0:0:0:0:
320,256,96254,1,8,0:0:0:0:
330,259,96667,1,8,1:0:0:0:
330,259,97081,1,0,1:0:0:0:
330,259,97288,1,8,1:0:0:0:
330,259,97702,1,0,1:0:0:0:
330,259,97909,1,8,1:0:0:0:
330,259,98322,1,0,1:0:0:0:
330,259,98529,1,8,1:0:0:0:
330,259,98943,1,8,1:0:0:0:
330,259,99150,1,0,1:0:0:0:
320,256,99357,1,0,0:0:0:0:
330,259,99564,1,8,1:0:0:0:
330,259,99978,1,8,1:0:0:0:
330,259,100391,1,0,1:0:0:0:
330,259,100598,1,8,1:0:0:0:
330,259,101012,1,0,1:0:0:0:
330,259,101219,1,8,1:0:0:0:
330,259,101633,1,0,1:0:0:0:
330,259,101840,1,8,1:0:0:0:
330,259,102254,1,8,1:0:0:0:
330,259,102460,1,0,1:0:0:0:
320,256,102667,1,8,0:0:0:0:
330,259,102874,1,8,1:0:0:0:
330,259,103081,1,0,1:0:0:0:
330,259,103288,1,8,1:0:0:0:
330,259,103702,1,0,1:0:0:0:
330,259,103909,1,8,1:0:0:0:
330,259,104322,1,0,1:0:0:0:
330,259,104529,1,12,1:0:0:0:
320,224,106391,1,0,1:0:0:0:
320,224,106495,1,0,1:0:0:0:
330,259,106598,1,8,1:0:0:0:
330,259,106805,1,0,1:0:0:0:
330,259,107012,1,0,1:0:0:0:
330,259,107219,1,0,1:0:0:0:
330,259,107426,1,8,1:0:0:0:
322,249,107840,1,0,1:0:0:0:
324,254,108254,1,8,1:0:0:0:
335,247,108460,1,0,1:0:0:0:
335,247,108667,1,8,1:0:0:0:
335,247,108874,1,8,1:0:0:0:
324,254,109288,1,8,1:0:0:0:
321,251,109495,1,8,1:0:0:0:
335,247,109909,1,8,1:0:0:0:
330,243,110116,1,0,1:0:0:0:
330,243,110322,1,0,1:0:0:0:
330,243,110529,1,0,1:0:0:0:
335,247,110736,1,8,1:0:0:0:
330,243,111150,1,0,1:0:0:0:
330,243,111357,1,8,1:0:0:0:
315,234,111771,1,0,1:0:0:0:
315,234,111978,1,8,1:0:0:0:
315,234,112185,1,0,1:0:0:0:
315,229,112391,1,8,1:0:0:0:
315,234,112598,1,8,1:0:0:0:
320,256,112702,1,8,0:0:0:0:
315,234,112805,1,8,1:0:0:0:
320,256,113012,1,8,0:0:0:0:
315,234,113219,1,0,1:0:0:0:
306,231,113426,1,8,1:0:0:0:
303,228,113633,1,8,1:0:0:0:
303,226,113840,1,0,1:0:0:0:
303,226,114047,1,8,1:0:0:0:
306,231,114460,1,8,1:0:0:0:
309,216,114874,1,8,1:0:0:0:
309,216,115081,1,0,1:0:0:0:
310,218,115288,1,8,1:0:0:0:
295,213,115495,1,8,1:0:0:0:
323,223,115909,1,8,1:0:0:0:
323,223,116116,1,8,1:0:0:0:
308,217,116529,1,0,1:0:0:0:
310,216,116943,1,0,1:0:0:0:
310,216,117150,1,8,1:0:0:0:
308,217,117357,1,8,1:0:0:0:
313,192,117771,1,12,1:0:0:0:
320,192,118391,1,0,0:0:0:0:
320,192,118805,1,0,0:0:0:0:
308,200,119219,1,8,1:0:0:0:
288,192,119322,1,8,0:0:0:0:
308,200,119426,1,0,1:0:0:0:
308,200,119633,1,0,1:0:0:0:
288,192,119736,1,0,0:0:0:0:
256,192,119840,1,12,0:0:0:0:
320,192,120047,1,0,0:0:0:0:
320,192,120150,1,0,0:0:0:0:
320,192,120254,1,8,0:0:0:0:
320,192,120460,1,0,0:0:0:0:
320,192,120667,1,8,0:0:0:0:
320,192,120874,1,8,0:0:0:0:
320,192,120978,1,8,0:0:0:0:
320,192,121081,1,0,0:0:0:0:
320,192,121288,1,8,0:0:0:0:
320,192,121702,1,8,0:0:0:0:
320,192,121805,1,8,0:0:0:0:
320,192,121909,1,0,0:0:0:0:
320,192,122116,1,0,0:0:0:0:
320,192,122322,1,8,0:0:0:0:
288,192,122529,1,0,0:0:0:0:
320,192,122633,1,8,0:0:0:0:
320,192,122736,1,8,0:0:0:0:
320,192,122943,1,0,0:0:0:0:
288,192,123150,1,8,0:0:0:0:
288,192,123357,1,8,0:0:0:0:
288,192,123460,1,8,0:0:0:0:
320,192,123564,1,0,0:0:0:0:
288,192,123771,1,0,0:0:0:0:
288,192,123978,1,8,0:0:0:0:
288,192,124185,1,0,0:0:0:0:
288,192,124288,1,8,0:0:0:0:
288,192,124391,1,0,0:0:0:0:
288,192,124598,1,8,0:0:0:0:
288,192,125012,1,8,0:0:0:0:
288,192,125116,1,8,0:0:0:0:
288,192,125219,1,0,0:0:0:0:
288,192,125426,1,8,0:0:0:0:
288,192,125633,1,0,0:0:0:0:
288,192,125736,1,8,0:0:0:0:
288,192,125840,1,0,0:0:0:0:
288,192,125943,1,0,0:0:0:0:
288,192,126047,1,8,0:0:0:0:
288,192,126254,1,0,0:0:0:0:
256,192,126460,1,8,0:0:0:0:
320,192,126667,1,0,0:0:0:0:
320,192,126771,1,8,0:0:0:0:
320,192,126874,1,8,0:0:0:0:
320,192,127081,1,0,0:0:0:0:
320,192,127288,1,8,0:0:0:0:
320,192,127495,1,8,0:0:0:0:
320,192,127598,1,8,0:0:0:0:
320,192,127702,1,0,0:0:0:0:
320,192,127909,1,0,0:0:0:0:
320,192,128116,1,8,0:0:0:0:
320,192,128529,1,8,0:0:0:0:
320,192,128736,1,0,0:0:0:0:
320,192,128943,1,8,0:0:0:0:
288,192,129150,1,8,0:0:0:0:
320,192,129254,1,0,0:0:0:0:
320,192,129357,1,8,0:0:0:0:
320,192,129564,1,0,0:0:0:0:
288,192,129771,1,8,0:0:0:0:
288,192,129978,1,0,0:0:0:0:
288,192,130081,1,8,0:0:0:0:
320,192,130185,1,8,0:0:0:0:
288,192,130391,1,0,0:0:0:0:
288,192,130598,1,8,0:0:0:0:
288,192,130805,1,8,0:0:0:0:
288,192,130909,1,8,0:0:0:0:
288,192,131012,1,0,0:0:0:0:
288,192,131219,1,8,0:0:0:0:
288,192,131426,1,0,0:0:0:0:
288,192,131840,1,0,0:0:0:0:
288,192,132047,1,8,0:0:0:0:
288,192,132254,1,8,0:0:0:0:
288,192,132357,1,8,0:0:0:0:
288,192,132460,1,0,0:0:0:0:
288,192,132564,1,0,0:0:0:0:
288,192,132667,1,8,0:0:0:0:
288,192,132874,1,0,0:0:0:0:
288,192,133081,1,12,0:0:0:0:
319,204,133495,1,8,1:0:0:0:
319,204,133702,1,4,1:0:0:0:
320,203,134116,1,0,1:0:0:0:
319,204,134322,1,8,1:0:0:0:
319,204,134529,1,8,1:0:0:0:
312,202,134736,1,0,1:0:0:0:
320,203,135047,1,0,1:0:0:0:
320,203,135150,1,8,1:0:0:0:
319,204,135357,1,8,1:0:0:0:
320,202,135771,1,0,1:0:0:0:
320,203,135978,1,8,1:0:0:0:
319,204,136185,1,0,1:0:0:0:
328,195,136254,1,0,1:0:0:0:
319,204,136322,1,0,1:0:0:0:
319,204,136391,1,8,1:0:0:0:
319,204,136805,1,8,1:0:0:0:
319,204,137012,1,4,1:0:0:0:
320,203,137426,1,0,1:0:0:0:
319,204,137633,1,12,1:0:0:0:
322,210,138667,1,0,1:0:0:0:
322,210,138874,1,8,1:0:0:0:
312,208,138978,1,0,1:0:0:0:
322,210,139185,1,0,0:0:0:0:
320,203,139288,1,8,1:0:0:0:
319,204,139495,1,0,1:0:0:0:
319,204,139702,1,8,1:0:0:0:
322,210,139909,1,0,1:0:0:0:
322,210,140012,1,0,1:0:0:0:
319,210,140116,1,8,1:0:0:0:
319,210,140322,1,0,1:0:0:0:
319,210,140529,1,8,1:0:0:0:
319,210,140736,1,8,1:0:0:0:
319,210,140840,1,8,1:0:0:0:
322,210,140943,1,0,1:0:0:0:
316,199,141150,1,8,1:0:0:0:
319,210,141357,1,0,1:0:0:0:
306,210,141564,1,8,1:0:0:0:
306,210,141667,1,0,1:0:0:0:
306,210,141771,1,8,1:0:0:0:
306,210,141978,1,0,1:0:0:0:
306,210,142185,1,8,1:0:0:0:
306,210,142288,1,0,1:0:0:0:
306,210,142391,1,8,1:0:0:0:
306,210,142495,1,8,1:0:0:0:
306,210,142598,1,0,1:0:0:0:
306,210,142805,1,0,1:0:0:0:
306,210,142909,1,0,1:0:0:0:
306,210,143012,1,8,1:0:0:0:
306,210,143633,1,8,1:0:0:0:
296,189,143736,1,0,1:0:0:0:
297,201,143840,1,8,1:0:0:0:
306,210,144254,1,0,1:0:0:0:
306,210,144667,1,8,1:0:0:0:
306,210,144978,1,0,1:0:0:0:
306,210,145288,1,0,1:0:0:0:
306,210,145495,1,8,1:0:0:0:
306,210,145598,1,8,1:0:0:0:
306,210,145702,1,0,1:0:0:0:
306,210,145909,1,8,1:0:0:0:
290,205,146116,1,0,1:0:0:0:
303,197,146219,1,0,1:0:0:0:
306,210,146322,1,8,1:0:0:0:
297,199,146943,1,0,1:0:0:0:
301,198,147047,1,0,1:0:0:0:
301,198,147150,1,8,1:0:0:0:
301,198,147978,1,0,1:0:0:0:
301,198,148081,1,0,1:0:0:0:
282,201,148185,1,0,1:0:0:0:
301,198,148391,1,8,1:0:0:0:
301,198,148495,1,8,1:0:0:0:
301,198,148598,1,8,1:0:0:0:
298,211,148805,1,8,1:0:0:0:
288,224,149012,1,0,0:0:0:0:
301,208,149219,1,8,1:0:0:0:
293,194,149633,1,12,1:0:0:0:
301,208,149839,1,0,1:0:0:0:
301,208,149943,1,0,1:0:0:0:
296,214,150046,1,8,1:0:0:0:
296,214,150253,1,0,1:0:0:0:
296,214,150460,1,8,1:0:0:0:
296,214,150564,1,8,1:0:0:0:
296,214,150667,1,0,1:0:0:0:
294,212,150770,1,0,1:0:0:0:
294,212,150874,1,8,1:0:0:0:
289,221,151081,1,0,1:0:0:0:
296,214,151288,1,8,1:0:0:0:
296,214,151495,1,8,1:0:0:0:
296,214,151598,1,8,1:0:0:0:
287,209,151701,1,0,1:0:0:0:
289,221,151908,1,0,1:0:0:0:
289,221,152115,1,0,1:0:0:0:
289,221,152219,1,8,1:0:0:0:
289,221,152322,1,0,1:0:0:0:
289,221,152426,1,0,1:0:0:0:
289,221,152529,1,8,1:0:0:0:
289,221,152736,1,8,1:0:0:0:
289,221,152839,1,0,1:0:0:0:
286,203,152943,1,12,1:0:0:0:
286,203,153357,1,0,1:0:0:0:
286,203,153564,1,0,1:0:0:0:
286,203,153667,1,0,1:0:0:0:
286,203,153770,1,8,1:0:0:0:
286,203,153977,1,0,1:0:0:0:
286,203,154184,1,0,1:0:0:0:
286,203,154288,1,8,1:0:0:0:
286,203,154391,1,8,1:0:0:0:
286,203,154495,1,0,1:0:0:0:
286,203,154598,1,8,1:0:0:0:
286,203,154805,1,0,1:0:0:0:
278,193,154908,1,0,1:0:0:0:
278,193,155012,1,8,1:0:0:0:
278,192,155219,1,0,1:0:0:0:
278,192,155426,1,8,1:0:0:0:
278,192,155529,1,0,1:0:0:0:
278,192,155633,1,8,1:0:0:0:
277,193,155736,1,8,1:0:0:0:
277,193,155839,1,0,1:0:0:0:
278,193,156046,1,0,1:0:0:0:
247,198,156150,1,0,1:0:0:0:
278,192,156253,1,12,1:0:0:0:
278,192,156564,1,0,1:0:0:0:
278,192,156667,1,8,1:0:0:0:
277,193,156874,1,0,1:0:0:0:
278,192,157081,1,8,1:0:0:0:
278,192,157391,1,0,1:0:0:0:
278,192,157495,1,8,1:0:0:0:
277,193,157701,1,0,1:0:0:0:
278,192,157908,1,8,1:0:0:0:
269,192,158115,1,8,1:0:0:0:
278,192,158219,1,0,1:0:0:0:
278,192,158322,1,8,1:0:0:0:
277,193,158529,1,0,1:0:0:0:
278,192,158736,1,8,1:0:0:0:
270,192,158943,1,8,1:0:0:0:
278,192,159046,1,0,1:0:0:0:
278,192,159150,1,8,1:0:0:0:
277,193,159357,1,0,1:0:0:0:
262,178,159426,1,0,1:0:0:0:
270,165,159495,1,0,1:0:0:0:
262,178,159564,1,8,1:0:0:0:
270,184,159874,1,8,1:0:0:0:
259,175,160184,1,0,1:0:0:0:
259,175,160391,1,8,1:0:0:0:
259,175,160701,1,0,1:0:0:0:
272,170,161012,1,0,1:0:0:0:
258,186,161115,1,0,1:0:0:0:
258,186,161219,1,8,1:0:0:0:
258,186,161322,1,8,1:0:0:0:
258,186,161426,1,0,1:0:0:0:
267,180,161633,1,0,1:0:0:0:
267,180,161839,1,8,1:0:0:0:
267,180,161943,1,0,1:0:0:0:
267,180,162046,1,8,1:0:0:0:
275,184,162460,1,8,1:0:0:0:
293,194,162874,1,12,1:0:0:0:
301,208,163081,1,0,1:0:0:0:
301,208,163184,1,0,1:0:0:0:
296,214,163288,1,8,1:0:0:0:
296,214,163495,1,0,1:0:0:0:
296,214,163701,1,8,1:0:0:0:
296,214,163805,1,8,1:0:0:0:
296,214,163908,1,0,1:0:0:0:
294,212,164012,1,0,1:0:0:0:
294,212,164115,1,8,1:0:0:0:
289,221,164322,1,0,1:0:0:0:
296,214,164529,1,8,1:0:0:0:
296,214,164736,1,8,1:0:0:0:
296,214,164839,1,8,1:0:0:0:
287,209,164943,1,0,1:0:0:0:
289,221,165150,1,0,1:0:0:0:
289,221,165357,1,0,1:0:0:0:
289,221,165460,1,8,1:0:0:0:
289,221,165564,1,0,1:0:0:0:
289,221,165667,1,0,1:0:0:0:
289,221,165770,1,8,1:0:0:0:
289,221,165977,1,8,1:0:0:0:
289,221,166081,1,0,1:0:0:0:
286,203,166184,1,12,1:0:0:0:
274,223,166598,1,8,1:0:0:0:
274,223,166805,1,4,1:0:0:0:
274,223,167219,1,0,1:0:0:0:
274,223,167426,1,12,1:0:0:0:
274,223,168046,1,0,1:0:0:0:
274,223,168253,1,8,1:0:0:0:
274,223,168460,1,0,1:0:0:0:
274,223,168564,1,0,1:0:0:0:
274,223,168667,1,8,1:0:0:0:
277,214,168770,1,8,1:0:0:0:
277,214,168874,1,8,1:0:0:0:
276,210,169081,1,0,1:0:0:0:
276,210,169184,1,0,1:0:0:0:
276,210,169288,1,0,1:0:0:0:
276,210,169495,1,12,1:0:0:0:
267,222,169805,1,0,1:0:0:0:
267,222,169908,1,8,1:0:0:0:
257,217,170115,1,0,1:0:0:0:
257,217,170322,1,8,1:0:0:0:
257,217,170633,1,0,1:0:0:0:
257,217,170736,1,8,1:0:0:0:
257,217,170943,1,0,1:0:0:0:
257,217,171150,1,8,1:0:0:0:
257,217,171460,1,0,1:0:0:0:
257,217,171564,1,8,1:0:0:0:
257,217,171770,1,0,1:0:0:0:
256,207,171977,1,8,1:0:0:0:
256,207,172184,1,0,1:0:0:0:
256,207,172288,1,8,1:0:0:0:
256,207,172391,1,8,1:0:0:0:
259,206,172598,1,8,1:0:0:0:
260,192,172701,1,0,1:0:0:0:
260,192,172805,1,12,1:0:0:0:
256,207,173012,1,0,1:0:0:0:
250,196,173219,1,8,1:0:0:0:
238,202,173426,1,8,1:0:0:0:
238,202,173529,1,8,1:0:0:0:
235,199,173633,1,4,1:0:0:0:
250,201,173839,1,0,1:0:0:0:
252,197,174046,1,8,1:0:0:0:
250,196,174253,1,8,1:0:0:0:
252,197,174357,1,0,1:0:0:0:
252,197,174460,1,12,1:0:0:0:
235,183,174667,1,0,1:0:0:0:
233,185,174874,1,8,1:0:0:0:
232,216,174977,1,8,1:0:0:0:
227,181,175081,1,8,1:0:0:0:
242,189,175288,1,0,1:0:0:0:
235,183,175495,1,0,1:0:0:0:
235,183,175598,1,8,1:0:0:0:
235,183,175701,1,8,1:0:0:0:
235,183,175805,1,8,1:0:0:0:
240,182,175908,1,0,1:0:0:0:
247,177,176115,1,12,1:0:0:0:
235,183,176426,1,0,1:0:0:0:
235,183,176736,1,0,1:0:0:0:
235,183,176839,1,0,1:0:0:0:
240,182,176943,1,8,1:0:0:0:
235,180,177253,1,0,1:0:0:0:
235,183,177564,1,8,1:0:0:0:
235,183,177667,1,8,1:0:0:0:
235,183,177770,1,4,1:0:0:0:
235,183,178805,1,0,1:0:0:0:
235,183,179012,1,8,1:0:0:0:
235,183,179219,1,0,1:0:0:0:
235,183,179426,1,12,1:0:0:0:
256,192,179633,8,0,182322,1:0:0:0:
352,147,182529,5,0,1:0:0:0:
352,147,182633,1,0,1:0:0:0:
352,147,182736,1,8,1:0:0:0:
256,192,182943,8,0,185839,1:0:0:0:
299,219,186046,5,0,1:0:0:0:
256,192,186253,8,0,188943,1:0:0:0:
322,234,189150,5,0,1:0:0:0:
322,234,189253,1,0,1:0:0:0:
322,234,189357,1,8,1:0:0:0:
256,192,189564,8,0,192253,1:0:0:0:
324,213,192667,5,0,1:0:0:0:
324,213,193495,1,8,1:0:0:0:
324,213,194322,1,0,1:0:0:0:
324,213,195150,1,8,1:0:0:0:
324,213,195977,1,0,1:0:0:0:
324,213,196805,1,8,1:0:0:0:
324,213,197633,1,8,1:0:0:0:
324,213,198253,1,0,1:0:0:0:
324,213,198460,1,8,1:0:0:0:
324,213,199288,1,12,1:0:0:0:
324,213,199908,1,0,1:0:0:0:
324,213,200012,1,0,1:0:0:0:
324,213,200115,1,8,1:0:0:0:
310,212,200322,1,0,1:0:0:0:
310,212,200529,1,8,1:0:0:0:
310,212,200736,1,12,1:0:0:0:
308,213,201150,1,0,1:0:0:0:
310,212,201357,1,8,1:0:0:0:
310,212,201564,1,8,1:0:0:0:
308,213,201770,1,0,1:0:0:0:
317,208,201977,1,8,1:0:0:0:
317,208,202184,1,0,1:0:0:0:
302,204,202391,1,0,1:0:0:0:
302,207,202598,1,8,1:0:0:0:
308,213,202805,1,0,1:0:0:0:
305,208,203012,1,8,1:0:0:0:
305,208,203219,1,8,1:0:0:0:
302,207,203633,1,0,1:0:0:0:
308,213,203736,1,0,1:0:0:0:
308,213,203839,1,12,1:0:0:0:
256,192,204046,8,0,205495,1:0:0:0:
332,226,205701,5,0,1:0:0:0:
332,226,205908,1,8,1:0:0:0:
332,226,206529,1,0,1:0:0:0:
332,226,206736,1,8,1:0:0:0:
332,226,206943,1,0,1:0:0:0:
332,226,207150,1,0,1:0:0:0:
332,226,207357,1,0,1:0:0:0:
332,226,207460,1,0,1:0:0:0:
332,226,207564,1,8,1:0:0:0:
332,226,207667,1,8,1:0:0:0:
332,226,207770,1,8,1:0:0:0:
321,214,207977,1,0,1:0:0:0:
321,214,208081,1,0,1:0:0:0:
321,214,208184,1,0,1:0:0:0:
321,214,208391,1,12,1:0:0:0:
317,223,208804,1,8,1:0:0:0:
338,219,209011,1,0,1:0:0:0:
338,219,209115,1,0,1:0:0:0:
338,219,209218,1,8,1:0:0:0:
338,219,209425,1,0,1:0:0:0:
317,223,209632,1,8,1:0:0:0:
317,223,209839,1,4,1:0:0:0:
317,223,210253,1,8,1:0:0:0:
317,223,210356,1,8,1:0:0:0:
317,223,210459,1,0,1:0:0:0:
317,223,210666,1,0,1:0:0:0:
317,223,210873,1,8,1:0:0:0:
317,223,211080,1,8,1:0:0:0:
317,223,211287,1,8,1:0:0:0:
317,223,211391,1,0,1:0:0:0:
317,223,211494,1,0,1:0:0:0:
317,223,211597,1,0,1:0:0:0:
317,223,211701,1,12,1:0:0:0:
317,223,212322,1,0,1:0:0:0:
311,219,212425,1,8,1:0:0:0:
311,219,212528,1,0,1:0:0:0:
311,219,212735,1,12,1:0:0:0:
313,213,213149,1,0,1:0:0:0:
313,213,213356,1,8,1:0:0:0:
311,219,213563,1,0,1:0:0:0:
311,219,213666,1,0,1:0:0:0:
311,219,213770,1,8,1:0:0:0:
313,213,213977,1,8,1:0:0:0:
313,213,214184,1,0,1:0:0:0:
313,213,214391,1,8,1:0:0:0:
311,219,214597,1,8,1:0:0:0:
278,192,215011,1,12,1:0:0:0:
278,192,215322,1,0,1:0:0:0:
278,192,215425,1,8,1:0:0:0:
277,193,215632,1,0,1:0:0:0:
278,192,215839,1,8,1:0:0:0:
278,192,216149,1,0,1:0:0:0:
278,192,216253,1,8,1:0:0:0:
277,193,216459,1,0,1:0:0:0:
278,192,216666,1,8,1:0:0:0:
269,192,216873,1,8,1:0:0:0:
278,192,216977,1,0,1:0:0:0:
278,192,217080,1,8,1:0:0:0:
277,193,217287,1,0,1:0:0:0:
278,192,217494,1,8,1:0:0:0:
270,192,217701,1,8,1:0:0:0:
278,192,217804,1,0,1:0:0:0:
278,192,217908,1,8,1:0:0:0:
277,193,218115,1,0,1:0:0:0:
262,178,218184,1,0,1:0:0:0:
270,165,218253,1,0,1:0:0:0:
262,178,218322,1,8,1:0:0:0:
277,182,218528,1,0,1:0:0:0:
270,184,218632,1,8,1:0:0:0:
259,175,218942,1,0,1:0:0:0:
259,175,219149,1,8,1:0:0:0:
259,175,219459,1,8,1:0:0:0:
277,182,219563,1,0,1:0:0:0:
272,170,219770,1,8,1:0:0:0:
258,186,219873,1,0,1:0:0:0:
258,186,219977,1,8,1:0:0:0:
258,186,220080,1,8,1:0:0:0:
258,186,220184,1,0,1:0:0:0:
267,180,220391,1,0,1:0:0:0:
267,180,220597,1,8,1:0:0:0:
267,180,220701,1,0,1:0:0:0:
267,180,220804,1,8,1:0:0:0:
275,184,221218,1,8,1:0:0:0:
293,194,221632,1,12,1:0:0:0:
301,208,221839,1,0,1:0:0:0:
301,208,221942,1,0,1:0:0:0:
296,214,222046,1,8,1:0:0:0:
296,214,222253,1,0,1:0:0:0:
296,214,222459,1,8,1:0:0:0:
296,214,222563,1,8,1:0:0:0:
296,214,222666,1,0,1:0:0:0:
294,212,222770,1,0,1:0:0:0:
294,212,222873,1,8,1:0:0:0:
289,221,223080,1,0,1:0:0:0:
296,214,223287,1,8,1:0:0:0:
296,214,223494,1,8,1:0:0:0:
296,214,223597,1,8,1:0:0:0:
287,209,223701,1,0,1:0:0:0:
289,221,223908,1,0,1:0:0:0:
289,221,224115,1,0,1:0:0:0:
289,221,224218,1,8,1:0:0:0:
289,221,224322,1,0,1:0:0:0:
289,221,224425,1,0,1:0:0:0:
289,221,224528,1,8,1:0:0:0:
289,221,224735,1,8,1:0:0:0:
289,221,224839,1,0,1:0:0:0:
286,203,224942,1,12,1:0:0:0:
274,223,225356,1,8,1:0:0:0:
274,223,225563,1,4,1:0:0:0:
274,223,225977,1,0,1:0:0:0:
274,223,226184,1,12,1:0:0:0:
274,223,226804,1,0,1:0:0:0:
274,223,227011,1,8,1:0:0:0:
274,223,227218,1,0,1:0:0:0:
274,223,227322,1,0,1:0:0:0:
274,223,227425,1,8,1:0:0:0:
277,214,227528,1,8,1:0:0:0:
277,214,227632,1,8,1:0:0:0:
276,210,227839,1,0,1:0:0:0:
276,210,227942,1,0,1:0:0:0:
276,210,228046,1,0,1:0:0:0:
276,210,228253,1,12,1:0:0:0:
267,222,228563,1,0,1:0:0:0:
267,222,228666,1,8,1:0:0:0:
257,217,228873,1,0,1:0:0:0:
257,217,229080,1,8,1:0:0:0:
257,217,229391,1,0,1:0:0:0:
257,217,229494,1,8,1:0:0:0:
257,217,229701,1,0,1:0:0:0:
257,217,229908,1,8,1:0:0:0:
257,217,230218,1,0,1:0:0:0:
257,217,230322,1,8,1:0:0:0:
257,217,230528,1,0,1:0:0:0:
256,207,230735,1,8,1:0:0:0:
256,207,230942,1,0,1:0:0:0:
256,207,231046,1,8,1:0:0:0:
256,207,231149,1,8,1:0:0:0:
259,206,231356,1,8,1:0:0:0:
260,192,231459,1,0,1:0:0:0:
260,192,231563,1,12,1:0:0:0:
256,207,231770,1,0,1:0:0:0:
250,196,231977,1,8,1:0:0:0:
238,202,232184,1,8,1:0:0:0:
238,202,232287,1,8,1:0:0:0:
235,199,232391,1,4,1:0:0:0:
250,201,232597,1,0,1:0:0:0:
252,197,232804,1,8,1:0:0:0:
250,196,233011,1,8,1:0:0:0:
252,197,233115,1,0,1:0:0:0:
252,197,233218,1,12,1:0:0:0:
235,183,233425,1,0,1:0:0:0:
233,185,233632,1,8,1:0:0:0:
234,195,233735,1,8,1:0:0:0:
227,181,233839,1,8,1:0:0:0:
242,189,234046,1,0,1:0:0:0:
235,183,234253,1,8,1:0:0:0:
227,202,234356,1,0,1:0:0:0:
235,183,234459,1,8,1:0:0:0:
235,183,234563,1,8,1:0:0:0:
240,182,234666,1,0,1:0:0:0:
247,177,234873,1,12,1:0:0:0:
235,183,235184,1,0,1:0:0:0:
235,183,235494,1,0,1:0:0:0:
235,183,235597,1,0,1:0:0:0:
240,182,235701,1,8,1:0:0:0:
235,180,236011,1,0,1:0:0:0:
235,183,236322,1,8,1:0:0:0:
235,183,236425,1,8,1:0:0:0:
235,183,236528,1,4,1:0:0:0:
235,183,237563,1,0,1:0:0:0:
235,183,237770,1,8,1:0:0:0:
235,183,237977,1,0,1:0:0:0:
235,183,238184,1,12,1:0:0:0:
235,183,238804,1,12,1:0:0:0:
235,183,239425,1,12,1:0:0:0:
235,183,239839,1,8,1:0:0:0:
235,183,239942,1,0,1:0:0:0:
235,183,240046,1,8,1:0:0:0:
235,183,240149,1,8,1:0:0:0:
235,183,240253,1,0,1:0:0:0:
230,191,240459,1,0,1:0:0:0:
230,191,240563,1,8,1:0:0:0:
230,191,240666,1,0,1:0:0:0:
230,191,240873,1,8,1:0:0:0:
230,191,241080,1,8,1:0:0:0:
235,183,241184,1,8,1:0:0:0:
235,183,241287,1,0,1:0:0:0:
230,191,241494,1,12,1:0:0:0:
230,191,241701,1,0,1:0:0:0:
230,191,241804,1,0,1:0:0:0:
230,191,241908,1,8,1:0:0:0:
230,191,242115,1,0,1:0:0:0:
234,191,242322,1,8,1:0:0:0:
230,191,242425,1,8,1:0:0:0:
230,191,242528,1,0,1:0:0:0:
230,191,242632,1,0,1:0:0:0:
230,191,242735,1,8,1:0:0:0:
230,191,242942,1,8,1:0:0:0:
230,191,243046,1,0,1:0:0:0:
230,191,243149,1,8,1:0:0:0:
230,191,243356,1,0,1:0:0:0:
230,191,243563,1,8,1:0:0:0:
230,191,243666,1,8,1:0:0:0:
230,191,243770,1,0,1:0:0:0:
230,191,243977,1,0,1:0:0:0:
230,191,244080,1,0,1:0:0:0:
230,191,244184,1,8,1:0:0:0:
230,191,244391,1,8,1:0:0:0:
230,191,244804,1,0,1:0:0:0:
230,191,245011,1,8,1:0:0:0:
230,191,245115,1,8,1:0:0:0:
230,191,245218,1,0,1:0:0:0:
230,191,245425,1,0,1:0:0:0:
234,191,245632,1,0,1:0:0:0:
230,191,245735,1,0,1:0:0:0:
230,191,245839,1,8,1:0:0:0:
230,191,245942,1,8,1:0:0:0:
230,191,246046,1,0,1:0:0:0:
230,191,246253,1,8,1:0:0:0:
230,191,246356,1,8,1:0:0:0:
230,191,246459,1,0,1:0:0:0:
230,191,246666,1,0,1:0:0:0:
230,191,246873,1,0,1:0:0:0:
230,191,246977,1,8,1:0:0:0:
230,191,247080,1,8,1:0:0:0:
230,191,247287,1,0,1:0:0:0:
230,191,247391,1,8,1:0:0:0:
230,191,247494,1,8,1:0:0:0:
237,190,247597,1,8,1:0:0:0:
230,191,247701,1,0,1:0:0:0:
230,191,248115,1,12,1:0:0:0:
230,191,248322,1,0,1:0:0:0:
230,191,248425,1,0,1:0:0:0:
230,191,248528,1,8,1:0:0:0:
230,191,248735,1,0,1:0:0:0:
234,191,248942,1,0,1:0:0:0:
230,191,249046,1,8,1:0:0:0:
230,191,249149,1,0,1:0:0:0:
230,191,249253,1,0,1:0:0:0:
230,191,249356,1,8,1:0:0:0:
230,191,249563,1,8,1:0:0:0:
230,191,249666,1,8,1:0:0:0:
230,191,249770,1,0,1:0:0:0:
230,191,249977,1,0,1:0:0:0:
230,191,250184,1,8,1:0:0:0:
230,191,250287,1,0,1:0:0:0:
230,191,250391,1,8,1:0:0:0:
230,191,250597,1,0,1:0:0:0:
230,191,250701,1,8,1:0:0:0:
230,191,250804,1,0,1:0:0:0:
230,191,251011,1,8,1:0:0:0:
230,191,251425,1,0,1:0:0:0:
230,191,251632,1,8,1:0:0:0:
230,191,251735,1,8,1:0:0:0:
230,191,251839,1,0,1:0:0:0:
230,191,252046,1,8,1:0:0:0:
234,191,252253,1,0,1:0:0:0:
230,191,252356,1,8,1:0:0:0:
230,191,252459,1,0,1:0:0:0:
230,191,252563,1,8,1:0:0:0:
230,191,252666,1,8,1:0:0:0:
230,191,252873,1,8,1:0:0:0:
230,191,252977,1,8,1:0:0:0:
230,191,253080,1,0,1:0:0:0:
230,191,253287,1,0,1:0:0:0:
230,191,253494,1,8,1:0:0:0:
230,191,253597,1,0,1:0:0:0:
230,191,253701,1,8,1:0:0:0:
230,191,253908,1,0,1:0:0:0:
230,191,254011,1,8,1:0:0:0:
230,191,254115,1,0,1:0:0:0:
237,190,254218,1,0,1:0:0:0:
230,191,254322,1,8,1:0:0:0:
230,191,254735,1,12,1:0:0:0:
230,191,254942,1,0,1:0:0:0:
230,191,255046,1,0,1:0:0:0:
230,191,255149,1,8,1:0:0:0:
230,191,255356,1,0,1:0:0:0:
234,191,255563,1,8,1:0:0:0:
230,191,255666,1,8,1:0:0:0:
230,191,255770,1,0,1:0:0:0:
230,191,255873,1,0,1:0:0:0:
230,191,255977,1,8,1:0:0:0:
230,191,256184,1,8,1:0:0:0:
230,191,256287,1,8,1:0:0:0:
230,191,256391,1,0,1:0:0:0:
230,191,256597,1,8,1:0:0:0:
230,191,256804,1,0,1:0:0:0:
230,191,256908,1,0,1:0:0:0:
230,191,257011,1,8,1:0:0:0:
230,191,257218,1,8,1:0:0:0:
230,191,257322,1,8,1:0:0:0:
230,191,257425,1,0,1:0:0:0:
230,191,257632,1,8,1:0:0:0:
230,191,258046,1,0,1:0:0:0:
230,191,258253,1,8,1:0:0:0:
230,191,258356,1,0,1:0:0:0:
230,191,258459,1,8,1:0:0:0:
230,191,258666,1,0,1:0:0:0:
234,191,258873,1,0,1:0:0:0:
230,191,258977,1,8,1:0:0:0:
230,191,259080,1,0,1:0:0:0:
230,191,259184,1,8,1:0:0:0:
230,191,259287,1,8,1:0:0:0:
230,191,259494,1,8,1:0:0:0:
230,191,259597,1,0,1:0:0:0:
230,191,259701,1,8,1:0:0:0:
230,191,260115,1,8,1:0:0:0:
230,191,260218,1,8,1:0:0:0:
230,191,260322,1,0,1:0:0:0:
230,191,260528,1,0,1:0:0:0:
230,191,260632,1,8,1:0:0:0:
230,191,260735,1,8,1:0:0:0:
237,190,260839,1,8,1:0:0:0:
230,191,260942,1,0,1:0:0:0:
226,204,261149,1,0,1:0:0:0:
226,204,261253,1,0,1:0:0:0:
230,191,261356,1,12,1:0:0:0:
230,191,261563,1,0,1:0:0:0:
213,193,261770,1,8,1:0:0:0:
217,196,261977,1,8,1:0:0:0:
216,196,262184,1,0,1:0:0:0:
216,196,262391,1,0,1:0:0:0:
216,196,262597,1,8,1:0:0:0:
213,193,262804,1,8,1:0:0:0:
217,196,262908,1,8,1:0:0:0:
216,196,263011,1,0,1:0:0:0:
216,196,263218,1,0,1:0:0:0:
216,196,263425,1,8,1:0:0:0:
216,196,263632,1,0,1:0:0:0:
213,193,263839,1,8,1:0:0:0:
216,196,264046,1,8,1:0:0:0:
216,196,264253,1,0,1:0:0:0:
216,196,264459,1,0,1:0:0:0:
216,196,264563,1,0,1:0:0:0:
216,196,264666,1,12,1:0:0:0:
217,199,265080,1,0,1:0:0:0:
217,199,265287,1,12,1:0:0:0:
199,198,265701,1,0,1:0:0:0:
199,197,265908,1,12,1:0:0:0:
217,199,266322,1,0,1:0:0:0:
219,202,266528,1,12,1:0:0:0:
200,219,266942,1,0,1:0:0:0:
200,219,267149,1,8,1:0:0:0:
200,219,267356,1,8,1:0:0:0:
203,215,267563,1,0,1:0:0:0:
200,219,267770,1,12,1:0:0:0:
256,192,267977,8,0,269632,1:0:0:0:
