osu file format v14

[General]
AudioFilename: audio.ogg
AudioLeadIn: 0
PreviewTime: 53946
Countdown: 0
SampleSet: Normal
StackLeniency: 0.7
Mode: 1
LetterboxInBreaks: 0
WidescreenStoryboard: 1

[Editor]
DistanceSpacing: 1.8
BeatDivisor: 4
GridSize: 4
TimelineZoom: 4.199998

[Metadata]
Title:Colorful Dreams! Colorful Smiles! (TV Size)
TitleUnicode:Colorful Dreams! Colorful Smiles! (TV Size)
Artist:Nijigasaki High School Idol Club
ArtistUnicode:虹ヶ咲学園スクールアイドル同好会
Creator:Tenchaa
Version:Muzukashii
Source:ラブライブ!虹ヶ咲学園スクールアイドル同好会
Tags:love live anime japanese opening season 2 two 2期 op short pop jpop j-pop 上原歩夢 Uehara Ayumu 大西亜玖璃 Onishi Aguri 中須かすみ Nakasu Kasumi 相良茉優 Sagara Mayu 桜坂しずく Osaka Shizuku 前田佳織里 Maeda Kaori 朝香果林 Asaka Karin 久保田未夢 Kubota Miyu 宮下愛 Miyashita Ai 村上奈津実 Murakami Natsumi 近江彼方 Konoe Kanata 鬼頭明里 Kito Akari 優木せつ菜 Yuki Setsuna 楠木ともり Kusunoki Tomori エマ・ヴェルデ Emma Verde 指出毬亜 Sashide Maria 天王寺璃奈 Tennoji Rina 田中ちえ美 Tanaka Chiemi 三船栞子 Mifune Shioriko 小泉萌香 Koizumi Moeka 鐘嵐珠 ショウ・ランジュ Lanzhu Zhong 法元明菜 Houmoto Akina ミア・テイラー Mia Taylor 内田秀 Uchida Shu shuu oonishi ousaka kitou yuuki tennouji homoto ayaka miyake 要田健 ken youda carlos k. tasuku colourful toara_fict live! 2nd
BeatmapID:3610078
BeatmapSetID:1763762

[Difficulty]
HPDrainRate:7
CircleSize:5
OverallDifficulty:5
ApproachRate:5
SliderMultiplier:1.4
SliderTickRate:1

[Events]
//Background and Video events
0,0,"ad99b4c8c37bab4f7b78acd8bd7f43f2.jpg",0,120
//Break Periods
//Storyboard Layer 0 (Background)
//Storyboard Layer 1 (Fail)
//Storyboard Layer 2 (Pass)
//Storyboard Layer 3 (Foreground)
//Storyboard Layer 4 (Overlay)
//Storyboard Sound Samples

[TimingPoints]
109,324.324324324324,4,1,0,80,1,0
35460,-100,4,1,0,70,0,0
41622,-100,4,1,0,75,0,0
46811,-100,4,1,0,80,0,0
54595,-100,4,1,0,90,0,1
75352,-100,4,1,0,70,0,0
80541,-100,4,1,0,90,0,1
87676,-100,4,1,0,90,0,0

[HitObjects]
256,191,109,5,4,0:0:0:0:
256,191,433,1,2,0:0:0:0:
256,191,595,1,0,0:0:0:0:
256,191,919,1,0,0:0:0:0:
256,191,1081,1,2,0:0:0:0:
256,191,1892,1,0,0:0:0:0:
256,191,2054,1,2,0:0:0:0:
256,191,2379,1,2,0:0:0:0:
256,191,2703,1,4,0:0:0:0:
256,191,3027,1,2,0:0:0:0:
256,191,3190,1,0,0:0:0:0:
256,192,3676,12,0,4649,0:0:0:0:
255,190,5298,5,4,0:0:0:0:
255,190,5622,1,2,0:0:0:0:
255,190,5946,1,2,0:0:0:0:
255,190,6108,1,0,0:0:0:0:
255,190,6271,1,2,0:0:0:0:
255,190,6433,1,0,0:0:0:0:
255,190,6919,1,2,0:0:0:0:
255,190,7244,1,0,0:0:0:0:
255,190,7406,1,0,0:0:0:0:
255,190,7487,1,0,0:0:0:0:
255,190,7568,1,0,0:0:0:0:
255,190,7730,1,2,0:0:0:0:
255,190,7892,1,0,0:0:0:0:
255,190,8217,1,2,0:0:0:0:
255,190,8541,1,0,0:0:0:0:
255,190,8703,1,0,0:0:0:0:
255,190,8865,1,2,0:0:0:0:
255,190,9027,1,0,0:0:0:0:
255,190,9514,1,2,0:0:0:0:
255,190,9838,1,0,0:0:0:0:
255,190,10000,1,2,0:0:0:0:
255,190,10081,1,2,0:0:0:0:
255,190,10163,1,2,0:0:0:0:
256,192,10487,12,0,12757,0:0:0:0:
254,193,13081,5,6,0:0:0:0:
254,193,13244,1,6,0:0:0:0:
254,193,13568,1,6,0:0:0:0:
254,193,13892,1,6,0:0:0:0:
254,193,14217,1,4,0:0:0:0:
254,193,14703,1,0,0:0:0:0:
254,193,15027,1,2,0:0:0:0:
254,193,15676,1,4,0:0:0:0:
254,193,16000,1,2,0:0:0:0:
254,193,16163,1,0,0:0:0:0:
254,193,16325,1,2,0:0:0:0:
254,193,16487,1,2,0:0:0:0:
254,193,16649,1,0,0:0:0:0:
254,193,16973,1,2,0:0:0:0:
254,193,17298,1,0,0:0:0:0:
254,193,17460,1,0,0:0:0:0:
254,193,17622,1,2,0:0:0:0:
254,193,17946,1,0,0:0:0:0:
254,193,18271,1,2,0:0:0:0:
254,193,18595,1,2,0:0:0:0:
254,193,18757,1,2,0:0:0:0:
254,193,18919,1,0,0:0:0:0:
254,193,19244,1,2,0:0:0:0:
254,193,19568,1,0,0:0:0:0:
254,193,19730,1,0,0:0:0:0:
254,193,19892,1,2,0:0:0:0:
254,193,20054,1,0,0:0:0:0:
254,193,20217,1,2,0:0:0:0:
254,193,20865,1,0,0:0:0:0:
254,193,21190,1,2,0:0:0:0:
254,193,21352,1,2,0:0:0:0:
254,193,21514,1,0,0:0:0:0:
254,193,21676,1,0,0:0:0:0:
254,193,21838,1,2,0:0:0:0:
254,193,22163,1,0,0:0:0:0:
254,193,22487,1,2,0:0:0:0:
254,193,22811,1,0,0:0:0:0:
254,193,23136,1,0,0:0:0:0:
254,193,23298,1,2,0:0:0:0:
254,193,23460,1,2,0:0:0:0:
254,193,23784,1,0,0:0:0:0:
254,193,23946,1,0,0:0:0:0:
254,193,24108,1,2,0:0:0:0:
254,193,24271,1,0,0:0:0:0:
254,193,24595,1,4,0:0:0:0:
254,193,25081,1,2,0:0:0:0:
254,193,25244,1,0,0:0:0:0:
254,193,25568,1,2,0:0:0:0:
254,193,25730,1,2,0:0:0:0:
254,193,25892,1,2,0:0:0:0:
254,193,26054,1,4,0:0:0:0:
254,193,26379,1,0,0:0:0:0:
254,193,26541,1,2,0:0:0:0:
254,193,26703,1,2,0:0:0:0:
254,193,27027,1,0,0:0:0:0:
254,193,27190,1,0,0:0:0:0:
254,193,27352,1,2,0:0:0:0:
254,193,27676,1,0,0:0:0:0:
254,193,27838,1,2,0:0:0:0:
254,193,28000,1,2,0:0:0:0:
254,193,28325,1,2,0:0:0:0:
100,193,28487,1,0,0:0:0:0:
254,193,28649,1,2,0:0:0:0:
254,193,28973,1,2,0:0:0:0:
254,193,29136,1,0,0:0:0:0:
254,193,29460,1,0,0:0:0:0:
254,193,29622,1,2,0:0:0:0:
254,193,29784,1,2,0:0:0:0:
254,193,29946,1,0,0:0:0:0:
254,193,30271,1,2,0:0:0:0:
254,193,30757,1,0,0:0:0:0:
254,193,30919,1,2,0:0:0:0:
254,193,31081,1,2,0:0:0:0:
254,193,31244,1,4,0:0:0:0:
254,193,31568,1,2,0:0:0:0:
254,193,31730,1,0,0:0:0:0:
254,193,32054,1,2,0:0:0:0:
254,193,32217,1,2,0:0:0:0:
254,193,32379,1,4,0:0:0:0:
254,193,32703,1,2,0:0:0:0:
254,193,32865,1,0,0:0:0:0:
254,193,33027,1,2,0:0:0:0:
254,193,33352,1,0,0:0:0:0:
254,193,33514,1,0,0:0:0:0:
254,193,33676,1,2,0:0:0:0:
254,193,33838,1,6,0:0:0:0:
254,193,34163,1,0,0:0:0:0:
254,193,34325,1,2,0:0:0:0:
254,193,34649,1,2,0:0:0:0:
254,193,34973,1,6,0:0:0:0:
254,193,35298,1,0,0:0:0:0:
254,193,35460,1,2,0:0:0:0:
254,193,35784,1,2,0:0:0:0:
254,193,36433,1,4,0:0:0:0:
254,193,36919,1,2,0:0:0:0:
254,193,37081,1,0,0:0:0:0:
254,193,37406,1,2,0:0:0:0:
254,193,37568,1,2,0:0:0:0:
254,193,37730,1,0,0:0:0:0:
254,193,38054,1,0,0:0:0:0:
254,193,38379,1,2,0:0:0:0:
254,193,39027,1,2,0:0:0:0:
254,193,39514,1,2,0:0:0:0:
254,193,39676,1,0,0:0:0:0:
254,193,40000,1,2,0:0:0:0:
254,193,40163,1,0,0:0:0:0:
254,193,40325,1,2,0:0:0:0:
254,193,40649,1,2,0:0:0:0:
254,193,40973,1,2,0:0:0:0:
254,193,41622,1,4,0:0:0:0:
254,193,41946,1,2,0:0:0:0:
254,193,42108,1,0,0:0:0:0:
254,193,42433,1,2,0:0:0:0:
254,193,42595,1,2,0:0:0:0:
254,193,42757,1,0,0:0:0:0:
254,193,43081,1,0,0:0:0:0:
254,193,43244,1,0,0:0:0:0:
254,193,43406,1,2,0:0:0:0:
254,193,43568,1,2,0:0:0:0:
254,193,43649,1,2,0:0:0:0:
254,193,43730,1,2,0:0:0:0:
254,193,43892,1,0,0:0:0:0:
254,193,44054,1,0,0:0:0:0:
254,193,44379,1,2,0:0:0:0:
254,193,44541,1,0,0:0:0:0:
254,193,44703,1,2,0:0:0:0:
254,193,45027,1,2,0:0:0:0:
254,193,45190,1,2,0:0:0:0:
254,193,45352,1,0,0:0:0:0:
254,193,45676,1,2,0:0:0:0:
254,193,45838,1,2,0:0:0:0:
254,193,45919,1,2,0:0:0:0:
254,193,46000,1,2,0:0:0:0:
254,193,46487,1,2,0:0:0:0:
254,193,46811,1,4,0:0:0:0:
254,193,47136,1,0,0:0:0:0:
254,193,47298,1,0,0:0:0:0:
254,193,47460,1,2,0:0:0:0:
254,193,47622,1,0,0:0:0:0:
254,193,47703,1,0,0:0:0:0:
254,193,47784,1,0,0:0:0:0:
254,193,47946,1,2,0:0:0:0:
254,193,48271,1,2,0:0:0:0:
254,193,48433,1,2,0:0:0:0:
254,193,48595,1,2,0:0:0:0:
254,193,48757,1,0,0:0:0:0:
254,193,48838,1,0,0:0:0:0:
254,193,48919,1,0,0:0:0:0:
254,193,49081,1,2,0:0:0:0:
254,193,49406,1,6,0:0:0:0:
254,193,49568,1,4,0:0:0:0:
254,193,49892,1,6,0:0:0:0:
254,193,50054,1,4,0:0:0:0:
254,193,50379,1,6,0:0:0:0:
254,193,50541,1,6,0:0:0:0:
254,193,51027,1,2,0:0:0:0:
254,193,51352,1,0,0:0:0:0:
254,193,51514,1,0,0:0:0:0:
254,193,51676,1,2,0:0:0:0:
254,193,52000,1,6,0:0:0:0:
254,193,52163,1,4,0:0:0:0:
254,193,52487,1,6,0:0:0:0:
254,193,52649,1,6,0:0:0:0:
254,193,52973,1,4,0:0:0:0:
254,193,53136,1,6,0:0:0:0:
254,193,53460,1,4,0:0:0:0:
254,193,53622,1,4,0:0:0:0:
254,193,53946,1,2,0:0:0:0:
254,193,54595,1,4,0:0:0:0:
254,193,54919,1,2,0:0:0:0:
254,193,55081,1,2,0:0:0:0:
254,193,55244,1,0,0:0:0:0:
254,193,55568,1,2,0:0:0:0:
254,193,55730,1,0,0:0:0:0:
254,193,56054,1,0,0:0:0:0:
254,193,56217,1,2,0:0:0:0:
254,193,56298,1,2,0:0:0:0:
254,193,56379,1,2,0:0:0:0:
254,193,56541,1,0,0:0:0:0:
254,193,56865,1,0,0:0:0:0:
254,193,57027,1,2,0:0:0:0:
254,193,57352,1,2,0:0:0:0:
254,193,57514,1,2,0:0:0:0:
254,193,57676,1,0,0:0:0:0:
254,193,57838,1,2,0:0:0:0:
254,193,57919,1,2,0:0:0:0:
254,193,58000,1,2,0:0:0:0:
254,193,58163,1,0,0:0:0:0:
254,193,58325,1,2,0:0:0:0:
254,193,58811,1,0,0:0:0:0:
254,193,58973,1,0,0:0:0:0:
254,193,59136,1,2,0:0:0:0:
254,193,59460,1,2,0:0:0:0:
254,193,59784,1,6,0:0:0:0:
254,193,60108,1,0,0:0:0:0:
254,193,60271,1,0,0:0:0:0:
254,193,60433,1,6,0:0:0:0:
254,193,60757,1,0,0:0:0:0:
254,193,60919,1,0,0:0:0:0:
254,193,61081,1,6,0:0:0:0:
254,193,61406,1,0,0:0:0:0:
254,193,61568,1,2,0:0:0:0:
254,193,61892,1,0,0:0:0:0:
254,193,62054,1,0,0:0:0:0:
254,193,62217,1,2,0:0:0:0:
254,193,62379,1,0,0:0:0:0:
254,193,62703,1,2,0:0:0:0:
254,193,62865,1,0,0:0:0:0:
254,193,63027,1,0,0:0:0:0:
254,193,63190,1,2,0:0:0:0:
254,193,63352,1,2,0:0:0:0:
254,193,63514,1,0,0:0:0:0:
254,193,64000,1,2,0:0:0:0:
254,193,64325,1,2,0:0:0:0:
254,193,64973,1,4,0:0:0:0:
254,193,65298,1,2,0:0:0:0:
254,193,65460,1,2,0:0:0:0:
254,193,65622,1,0,0:0:0:0:
254,193,65946,1,2,0:0:0:0:
254,193,66108,1,0,0:0:0:0:
254,193,66433,1,0,0:0:0:0:
254,193,66595,1,2,0:0:0:0:
254,193,66676,1,2,0:0:0:0:
254,193,66757,1,2,0:0:0:0:
254,193,66919,1,0,0:0:0:0:
254,193,67244,1,0,0:0:0:0:
254,193,67406,1,2,0:0:0:0:
254,193,67730,1,0,0:0:0:0:
254,193,67892,1,2,0:0:0:0:
254,193,68054,1,0,0:0:0:0:
254,193,68217,1,2,0:0:0:0:
254,193,68298,1,2,0:0:0:0:
254,193,68379,1,2,0:0:0:0:
254,193,68541,1,0,0:0:0:0:
254,193,68703,1,2,0:0:0:0:
254,193,69190,1,2,0:0:0:0:
254,193,69352,1,0,0:0:0:0:
254,193,69514,1,2,0:0:0:0:
254,193,69838,1,2,0:0:0:0:
254,193,70163,1,6,0:0:0:0:
254,193,70487,1,0,0:0:0:0:
254,193,70649,1,0,0:0:0:0:
254,193,70811,1,6,0:0:0:0:
254,193,71136,1,0,0:0:0:0:
254,193,71298,1,0,0:0:0:0:
254,193,71460,1,6,0:0:0:0:
254,193,71784,1,2,0:0:0:0:
254,193,71946,1,2,0:0:0:0:
254,193,72271,1,0,0:0:0:0:
254,193,72433,1,2,0:0:0:0:
254,193,72757,1,2,0:0:0:0:
254,193,73081,1,0,0:0:0:0:
254,193,73244,1,2,0:0:0:0:
254,193,73406,1,0,0:0:0:0:
254,193,73568,1,2,0:0:0:0:
254,193,73730,1,2,0:0:0:0:
254,193,73892,1,0,0:0:0:0:
254,193,74379,1,2,0:0:0:0:
254,193,74703,1,2,0:0:0:0:
254,193,75352,1,4,0:0:0:0:
254,193,75676,1,2,0:0:0:0:
254,193,75838,1,2,0:0:0:0:
254,193,76000,1,0,0:0:0:0:
254,193,76325,1,2,0:0:0:0:
254,193,76649,1,0,0:0:0:0:
254,193,76811,1,0,0:0:0:0:
254,193,76973,1,2,0:0:0:0:
254,193,77298,1,0,0:0:0:0:
254,193,77622,1,2,0:0:0:0:
254,193,77946,1,0,0:0:0:0:
254,193,78271,1,2,0:0:0:0:
254,193,78433,1,2,0:0:0:0:
254,193,78595,1,0,0:0:0:0:
254,193,78919,1,0,0:0:0:0:
254,193,79081,1,2,0:0:0:0:
254,193,79406,1,0,0:0:0:0:
254,193,79568,1,2,0:0:0:0:
254,193,79730,1,0,0:0:0:0:
254,193,79892,1,2,0:0:0:0:
254,193,79973,1,2,0:0:0:0:
254,193,80054,1,2,0:0:0:0:
254,193,80217,1,2,0:0:0:0:
254,193,80541,1,4,0:0:0:0:
254,193,81190,1,0,0:0:0:0:
254,193,81352,1,2,0:0:0:0:
254,193,81514,1,0,0:0:0:0:
254,193,81676,1,6,0:0:0:0:
254,193,82000,1,0,0:0:0:0:
254,193,82163,1,2,0:0:0:0:
254,193,82487,1,0,0:0:0:0:
254,193,82649,1,2,0:0:0:0:
254,193,82811,1,0,0:0:0:0:
254,193,82973,1,6,0:0:0:0:
254,193,83298,1,0,0:0:0:0:
254,193,83379,1,0,0:0:0:0:
254,193,83460,1,0,0:0:0:0:
254,193,83622,1,0,0:0:0:0:
254,193,83784,1,2,0:0:0:0:
254,193,83946,1,2,0:0:0:0:
254,193,84108,1,0,0:0:0:0:
254,193,84433,1,4,0:0:0:0:
254,193,84757,1,6,0:0:0:0:
254,193,84919,1,4,0:0:0:0:
254,193,85244,1,0,0:0:0:0:
254,193,85568,1,6,0:0:0:0:
256,192,85892,12,0,87676,0:0:0:0:
