osu file format v14

[General]
AudioFilename: audio.mp3
AudioLeadIn: 0
PreviewTime: 54391
Countdown: 0
SampleSet: Soft
StackLeniency: 0.3
Mode: 0
LetterboxInBreaks: 0
WidescreenStoryboard: 1

[Editor]
DistanceSpacing: 1.4
BeatDivisor: 4
GridSize: 32
TimelineZoom: 1.4

[Metadata]
Title:Colorful Dreams! Colorful Smiles! (TV Size)
TitleUnicode:Colorful Dreams! Colorful Smiles! (TV Size)
Artist:Nijigasaki High School Idol Club
ArtistUnicode:虹ヶ咲学園スクールアイドル同好会
Creator:Sarawatlism
Version:alevi's Insane!
Source:ラブライブ!虹ヶ咲学園スクールアイドル同好会
Tags:Love Live Anime Japanese Opening Season 2 Two 2期 OP Short Pop JPop J-Pop 上原歩夢 Uehara Ayumu 大西亜玖璃 Onishi Aguri 中須かすみ Nakasu Kasumi 相良茉優 Sagara Mayu 桜坂しずく Osaka Shizuku 前田佳織里 Maeda Kaori 朝香果林 Asaka Karin 久保田未夢 Kubota Miyu 宮下愛 Miyashita Ai 村上奈津実 Murakami Natsumi 近江彼方 Konoe Kanata 鬼頭明里 Kito Akari 優木せつ菜 Yuki Setsuna 楠木ともり Kusunoki Tomori エマ・ヴェルデ Emma Verde 指出毬亜 Sashide Maria 天王寺璃奈 Tennoji Rina 田中ちえ美 Tanaka Chiemi 三船栞子 Mifune Shioriko 小泉萌香 Koizumi Moeka 鐘嵐珠 ショウ・ランジュ Lanzhu Zhong 法元明菜 Houmoto Akina ミア・テイラー Mia Taylor 内田秀 Uchida Shu Female Vocals wanpachi Cycopton [_lost_] conner c_o_n_n_e_r alevi hakashii asukow grazuko Sekai Sekaii Sekai-nyan
BeatmapID:3588659
BeatmapSetID:1742983

[Difficulty]
HPDrainRate:5.2
CircleSize:4
OverallDifficulty:8.2
ApproachRate:8.8
SliderMultiplier:1.59
SliderTickRate:1

[Events]
//Background and Video events
0,0,"BG.jpg",0,0
Video,0,"VD.mp4"
//Break Periods
//Storyboard Layer 0 (Background)
//Storyboard Layer 1 (Fail)
//Storyboard Layer 2 (Pass)
//Storyboard Layer 3 (Foreground)
//Storyboard Layer 4 (Overlay)
//Storyboard Sound Samples

[TimingPoints]
635,324.324324324324,4,2,10,60,1,0
878,-100,4,2,1,5,0,0
959,-100,4,2,1,60,0,0
1121,-100,4,2,11,60,0,0
1364,-100,4,2,1,5,0,0
1445,-100,4,2,1,60,0,0
1607,-100,4,2,12,60,0,0
2743,-100,4,2,10,60,0,0
2905,-100,4,2,14,60,0,0
3229,-100,4,2,10,60,0,0
3553,-100,4,2,1,60,0,0
3716,-100,4,2,11,60,0,0
3959,-100,4,2,11,5,0,0
4040,-100,4,2,1,60,0,0
4202,-200,4,2,13,60,0,0
5012,-200,4,2,13,5,0,0
5175,-125,4,2,1,40,0,0
5499,-100,4,2,1,50,0,0
5824,-100,4,2,1,70,0,0
6067,-100,4,2,1,5,0,0
6148,-100,4,2,11,70,0,0
6472,-100,4,2,16,70,0,0
6634,-100,4,2,11,70,0,0
6796,-100,4,2,1,70,0,0
6959,-100,4,2,11,70,0,0
7283,-100,4,2,1,70,0,0
7445,-100,4,2,11,70,0,0
7770,-100,4,2,16,70,0,0
7932,-100,4,2,11,70,0,0
8256,-100,4,2,1,70,0,0
8743,-100,4,2,11,70,0,0
9067,-100,4,2,16,70,0,0
9229,-100,4,2,11,70,0,0
9391,-100,4,2,1,70,0,0
9553,-100,4,2,11,70,0,0
9877,-100,4,2,1,70,0,0
10040,-100,4,2,11,70,0,0
10364,-100,4,2,16,70,0,0
10526,-100,4,2,11,70,0,0
10688,-100,4,2,1,70,0,0
10850,-100,4,2,14,70,0,0
11013,-100,4,2,10,70,0,0
11175,-100,4,2,1,70,0,0
12391,-100,4,2,1,5,0,0
12472,-100,4,2,1,70,0,0
12877,-100,4,2,1,5,0,0
12959,-100,4,2,1,70,0,0
13526,-100,4,2,1,5,0,0
13607,-100,4,2,1,70,0,0
16202,-142.857142857143,4,2,15,60,0,0
16445,-142.857142857143,4,2,1,5,0,0
16526,-142.857142857143,4,2,1,60,0,0
16689,-142.857142857143,4,2,17,60,0,0
17013,-142.857142857143,4,2,1,60,0,0
17337,-142.857142857143,4,2,18,60,0,0
17418,-142.857142857143,4,2,1,60,0,0
17499,-142.857142857143,4,2,12,60,0,0
17661,-142.857142857143,4,2,1,60,0,0
17986,-142.857142857143,4,2,19,60,0,0
18148,-142.857142857143,4,2,17,60,0,0
18472,-142.857142857143,4,2,1,60,0,0
18634,-142.857142857143,4,2,17,60,0,0
18797,-142.857142857143,4,2,15,60,0,0
19121,-142.857142857143,4,2,17,60,0,0
19283,-142.857142857143,4,2,19,60,0,0
19607,-142.857142857143,4,2,17,60,0,0
20013,-142.857142857143,4,2,1,60,0,0
20094,-142.857142857143,4,2,15,60,0,0
20256,-142.857142857143,4,2,1,60,0,0
20418,-142.857142857143,4,2,17,60,0,0
20580,-142.857142857143,4,2,19,60,0,0
20742,-142.857142857143,4,2,1,60,0,0
20905,-142.857142857143,4,2,12,60,0,0
21634,-142.857142857143,4,2,1,5,0,0
21715,-142.857142857143,4,2,15,60,0,0
21878,-142.857142857143,4,2,17,60,0,0
22040,-142.857142857143,4,2,1,60,0,0
22202,-142.857142857143,4,2,15,60,0,0
22364,-142.857142857143,4,2,1,60,0,0
22526,-142.857142857143,4,2,17,60,0,0
22607,-142.857142857143,4,2,1,60,0,0
22851,-142.857142857143,4,2,19,60,0,0
23337,-142.857142857143,4,2,1,60,0,0
23499,-142.857142857143,4,2,12,60,0,0
23986,-142.857142857143,4,2,12,70,0,0
24148,-142.857142857143,4,2,1,70,0,0
24310,-142.857142857143,4,2,15,70,0,0
24472,-142.857142857143,4,2,17,70,0,0
24797,-142.857142857143,4,2,19,70,0,0
24959,-142.857142857143,4,2,1,70,0,0
25121,-142.857142857143,4,2,11,70,0,0
26094,-125,4,2,12,70,0,0
26580,-111.111111111111,4,2,12,70,0,0
26823,-111.111111111111,4,2,1,5,0,0
26904,-111.111111111111,4,2,1,70,0,0
27067,-111.111111111111,4,2,11,70,0,0
27553,-111.111111111111,4,2,1,70,0,0
27715,-111.111111111111,4,2,12,70,0,0
28121,-111.111111111111,4,2,1,5,0,0
28202,-111.111111111111,4,2,1,70,0,0
28364,-111.111111111111,4,2,10,70,0,0
28851,-111.111111111111,4,2,11,70,0,0
29013,-111.111111111111,4,2,10,70,0,0
29175,-111.111111111111,4,2,14,70,0,0
29499,-111.111111111111,4,2,13,70,0,0
29662,-111.111111111111,4,2,14,70,0,0
29824,-111.111111111111,4,2,1,70,0,0
29986,-111.111111111111,4,2,10,70,0,0
30310,-111.111111111111,4,2,11,70,0,0
30472,-111.111111111111,4,2,1,70,0,0
30715,-111.111111111111,4,2,1,5,0,0
30796,-111.111111111111,4,2,1,70,0,0
31283,-111.111111111111,4,2,18,70,0,0
31607,-111.111111111111,4,2,16,70,0,0
31770,-111.111111111111,4,2,11,70,0,0
32013,-111.111111111111,4,2,11,5,0,0
32094,-111.111111111111,4,2,16,70,0,0
32256,-111.111111111111,4,2,18,70,0,0
32499,-111.111111111111,4,2,18,5,0,0
32580,-111.111111111111,4,2,16,70,0,0
32743,-111.111111111111,4,2,18,70,0,0
32905,-111.111111111111,4,2,12,70,0,0
33148,-111.111111111111,4,2,12,5,0,0
33229,-111.111111111111,4,2,11,70,0,0
33391,-111.111111111111,4,2,16,70,0,0
33553,-111.111111111111,4,2,11,70,0,0
34040,-111.111111111111,4,2,10,70,0,0
34202,-111.111111111111,4,2,14,70,0,0
34364,-111.111111111111,4,2,13,70,0,0
34607,-111.111111111111,4,2,13,5,0,0
34689,-111.111111111111,4,2,14,70,0,0
34851,-111.111111111111,4,2,10,70,0,0
35175,-111.111111111111,4,2,11,70,0,0
35580,-111.111111111111,4,2,1,70,0,0
35986,-111.111111111111,4,2,12,70,0,0
36310,-111.111111111111,4,2,18,70,0,0
36634,-111.111111111111,4,2,16,70,0,0
36959,-125,4,2,11,50,0,0
37445,-125,4,2,16,50,0,0
37607,-125,4,2,11,50,0,0
38094,-125,4,2,16,50,0,0
38256,-125,4,2,11,50,0,0
38418,-125,4,2,16,50,0,0
38580,-125,4,2,18,50,0,0
38743,-125,4,2,12,50,0,0
39229,-125,4,2,1,50,0,0
39553,-125,4,2,18,50,0,0
39877,-125,4,2,1,50,0,0
40040,-125,4,2,12,50,0,0
40202,-125,4,2,18,50,0,0
40689,-125,4,2,12,50,0,0
40851,-125,4,2,18,50,0,0
41013,-125,4,2,12,50,0,0
41175,-125,4,2,15,50,0,0
41337,-125,4,2,17,50,0,0
41499,-125,4,2,1,60,0,0
42148,-125,4,2,11,60,0,0
42310,-125,4,2,16,60,0,0
42472,-125,4,2,11,60,0,0
42634,-125,4,2,10,60,0,0
42959,-125,4,2,11,60,0,0
43121,-125,4,2,10,60,0,0
43283,-125,4,2,14,60,0,0
43445,-125,4,2,1,60,0,0
43607,-125,4,2,12,60,0,0
43931,-125,4,2,14,60,0,0
44094,-125,4,2,1,60,0,0
44256,-125,4,2,13,60,0,0
44337,-125,4,2,1,60,0,0
44418,-125,4,2,14,60,0,0
44580,-125,4,2,10,70,0,0
44904,-125,4,2,15,70,0,0
45067,-125,4,2,20,70,0,0
45229,-111.111111111111,4,2,12,70,0,0
45553,-111.111111111111,4,2,11,70,0,0
45716,-111.111111111111,4,2,16,70,0,0
45878,-100,4,2,11,70,0,0
46364,-100,4,2,16,70,0,0
46526,-100,4,2,12,70,0,0
46850,-100,4,2,1,70,0,0
47337,-100,4,2,22,70,0,0
47661,-100,4,2,21,70,0,0
47986,-100,4,2,1,70,0,0
48148,-100,4,2,22,70,0,0
48310,-100,4,2,1,70,0,0
48472,-100,4,2,18,70,0,0
48634,-100,4,2,1,70,0,0
48797,-100,4,2,18,70,0,0
48959,-100,4,2,23,70,0,0
49121,-100,4,2,11,70,0,0
49607,-100,4,2,10,70,0,0
49932,-100,4,2,11,70,0,0
50094,-100,4,2,23,70,0,0
50418,-100,4,2,11,70,0,0
50580,-100,4,2,23,70,0,0
50905,-100,4,2,11,70,0,0
51067,-100,4,2,23,70,0,0
51391,-100,4,2,13,70,0,0
51553,-100,4,2,14,70,0,0
51716,-100,4,2,10,70,0,0
52202,-100,4,2,23,70,0,0
52526,-100,4,2,10,70,0,0
52689,-100,4,2,11,70,0,0
53013,-100,4,2,23,70,0,0
53175,-100,4,2,11,70,0,0
53499,-100,4,2,10,70,0,0
53662,-100,4,2,11,70,0,0
53986,-100,4,2,22,70,0,0
54472,-125,4,2,13,50,0,0
54715,-125,4,2,13,5,0,0
54797,-125,4,2,14,60,0,0
55040,-125,4,2,14,5,0,0
55121,-125,4,2,10,80,0,1
55445,-83.3333333333333,4,2,10,80,0,1
55607,-83.3333333333333,4,2,11,80,0,1
55770,-83.3333333333333,4,2,10,80,0,1
56094,-83.3333333333333,4,2,12,80,0,1
56256,-83.3333333333333,4,2,10,80,0,1
56580,-83.3333333333333,4,2,11,80,0,1
56743,-83.3333333333333,4,2,10,80,0,1
56905,-83.3333333333333,4,2,14,80,0,1
57067,-83.3333333333333,4,2,10,80,0,1
57391,-83.3333333333333,4,2,12,80,0,1
57553,-83.3333333333333,4,2,10,80,0,1
58202,-83.3333333333333,4,2,11,80,0,1
58364,-83.3333333333333,4,2,10,80,0,1
58526,-83.3333333333333,4,2,1,80,0,1
58689,-83.3333333333333,4,2,14,80,0,1
58851,-83.3333333333333,4,2,13,80,0,1
59337,-83.3333333333333,4,2,14,80,0,1
59662,-83.3333333333333,4,2,10,80,0,1
59986,-83.3333333333333,4,2,11,80,0,1
60310,-166.666666666667,4,2,14,80,0,1
60553,-166.666666666667,4,2,14,5,0,1
60634,-83.3333333333333,4,2,14,80,0,1
60959,-166.666666666667,4,2,14,80,0,1
61202,-166.666666666667,4,2,14,5,0,1
61283,-83.3333333333333,4,2,14,80,0,1
61607,-83.3333333333333,4,2,13,80,0,1
61850,-83.3333333333333,4,2,13,5,0,1
61932,-83.3333333333333,4,2,14,80,0,1
62094,-83.3333333333333,4,2,10,80,0,1
62337,-83.3333333333333,4,2,1,5,0,1
62418,-83.3333333333333,4,2,14,80,0,1
62580,-83.3333333333333,4,2,10,80,0,1
62742,-83.3333333333333,4,2,11,80,0,1
62905,-83.3333333333333,4,2,12,80,0,1
63391,-83.3333333333333,4,2,11,80,0,1
63472,-83.3333333333333,4,2,11,5,0,1
63716,-83.3333333333333,4,2,14,80,0,1
63797,-83.3333333333333,4,2,14,5,0,1
63878,-83.3333333333333,4,2,14,80,0,1
64040,-83.3333333333333,4,2,10,80,0,1
64283,-83.3333333333333,4,2,10,5,0,1
64364,-83.3333333333333,4,2,1,80,0,1
64851,-83.3333333333333,4,2,13,80,0,1
64932,-83.3333333333333,4,2,1,80,0,1
65175,-83.3333333333333,4,2,14,80,0,1
65256,-83.3333333333333,4,2,1,80,0,1
65499,-83.3333333333333,4,2,10,80,0,1
65986,-83.3333333333333,4,2,11,80,0,1
66148,-83.3333333333333,4,2,10,80,0,1
66310,-83.3333333333333,4,2,1,80,0,1
66472,-83.3333333333333,4,2,12,80,0,1
66634,-83.3333333333333,4,2,10,80,0,1
66958,-83.3333333333333,4,2,11,80,0,1
67121,-83.3333333333333,4,2,10,80,0,1
67283,-83.3333333333333,4,2,14,80,0,1
67445,-83.3333333333333,4,2,10,80,0,1
67607,-83.3333333333333,4,2,1,80,0,1
67770,-83.3333333333333,4,2,12,80,0,1
67932,-83.3333333333333,4,2,10,80,0,1
68175,-83.3333333333333,4,2,1,5,0,1
68256,-83.3333333333333,4,2,10,80,0,1
68580,-83.3333333333333,4,2,11,80,0,1
68743,-83.3333333333333,4,2,10,80,0,1
68905,-83.3333333333333,4,2,1,80,0,1
69067,-83.3333333333333,4,2,14,80,0,1
69229,-83.3333333333333,4,2,13,80,0,1
69716,-83.3333333333333,4,2,14,80,0,1
70040,-83.3333333333333,4,2,10,80,0,1
70202,-83.3333333333333,4,2,1,80,0,1
70364,-83.3333333333333,4,2,11,80,0,1
70689,-166.666666666667,4,2,14,80,0,1
70932,-166.666666666667,4,2,14,5,0,1
71013,-83.3333333333333,4,2,14,80,0,1
71337,-166.666666666667,4,2,14,80,0,1
71499,-166.666666666667,4,2,1,80,0,1
71580,-166.666666666667,4,2,1,5,0,1
71661,-83.3333333333333,4,2,14,80,0,1
71986,-83.3333333333333,4,2,13,80,0,1
72229,-83.3333333333333,4,2,13,5,0,1
72310,-83.3333333333333,4,2,14,80,0,1
72472,-83.3333333333333,4,2,10,80,0,1
72715,-83.3333333333333,4,2,1,5,0,1
72796,-83.3333333333333,4,2,14,80,0,1
72959,-83.3333333333333,4,2,10,80,0,1
73121,-83.3333333333333,4,2,11,80,0,1
73283,-83.3333333333333,4,2,12,80,0,1
73526,-83.3333333333333,4,2,12,5,0,1
73607,-83.3333333333333,4,2,12,80,0,1
73770,-83.3333333333333,4,2,11,80,0,1
73851,-83.3333333333333,4,2,11,5,0,1
74094,-83.3333333333333,4,2,14,80,0,1
74175,-83.3333333333333,4,2,14,5,0,1
74256,-83.3333333333333,4,2,1,80,0,1
74418,-83.3333333333333,4,2,10,80,0,1
74661,-83.3333333333333,4,2,10,5,0,1
74743,-83.3333333333333,4,2,10,80,0,1
74905,-83.3333333333333,4,2,13,80,0,1
75148,-83.3333333333333,4,2,13,5,0,1
75229,-83.3333333333333,4,2,14,80,0,1
75553,-83.3333333333333,4,2,10,80,0,1
75716,-83.3333333333333,4,2,11,80,0,1
75878,-100,4,2,12,70,0,0
76364,-100,4,2,16,70,0,0
76689,-100,4,2,1,70,0,0
76851,-100,4,2,11,70,0,0
77013,-100,4,2,1,70,0,0
77337,-100,4,2,22,70,0,0
77580,-100,4,2,22,5,0,0
77662,-100,4,2,22,70,0,0
77824,-100,4,2,12,70,0,0
77986,-100,4,2,12,5,0,0
78148,-100,4,2,15,70,0,0
78472,-100,4,2,1,70,0,0
78715,-100,4,2,1,5,0,0
78797,-100,4,2,12,70,0,0
78959,-100,4,2,1,70,0,0
79121,-100,4,2,16,70,0,0
79283,-100,4,2,1,70,0,0
79445,-100,4,2,11,70,0,0
79607,-100,4,2,10,70,0,0
79688,-100,4,2,1,70,0,0
79932,-100,4,2,11,70,0,0
80094,-100,4,2,16,70,0,0
80256,-100,4,2,11,70,0,0
80418,-100,4,2,1,70,0,0
81391,-100,4,2,12,70,0,0
81716,-100,4,2,10,70,0,0
82040,-100,4,2,14,70,0,0
82202,-100,4,2,13,70,0,0
82689,-100,4,2,14,70,0,0
83013,-100,4,2,10,70,0,0
83175,-100,4,2,1,70,0,0
83337,-100,4,2,14,70,0,0
83499,-100,4,2,13,70,0,0
84310,-100,4,2,1,70,0,0
84472,-100,4,2,12,70,0,0
84797,-100,4,2,1,70,0,0
84959,-100,4,2,10,70,0,0
85040,-100,4,2,10,5,0,0
85283,-100,4,2,24,70,0,0
85364,-100,4,2,24,5,0,0
85445,-100,4,2,10,70,0,0
85688,-100,4,2,1,5,0,0
85769,-100,4,2,11,50,0,0
86094,-100,4,2,14,70,0,0
88202,-100,4,2,14,5,0,0

[Colours]
Combo1 : 202,140,208
Combo2 : 243,156,181
Combo3 : 255,240,155
Combo4 : 196,138,81

[HitObjects]
428,88,635,6,0,B|340:121|393:160|313:192,1,159,6|10,1:2|2:0,2:0:0:0:
257,126,1121,2,0,P|281:190|301:289,1,159,2|10,1:2|2:0,2:0:0:0:
358,323,1526,1,8,2:0:0:0:
368,331,1607,1,6,1:2:0:0:
368,331,2418,5,2,2:0:0:0:
436,291,2580,1,2,2:0:0:0:
324,219,2743,1,2,2:0:0:0:
451,117,2905,2,0,B|471:150|471:150|457:200,1,79.5,2|0,2:0|2:0,2:0:0:0:
298,67,3229,6,0,B|240:88|240:88|222:123|222:123|153:147,1,159,6|10,1:2|2:0,2:0:0:0:
137,210,3716,2,0,B|123:159|123:159|126:144|126:144|110:94,1,119.25,2|0,1:2|2:0,2:0:0:0:
110,95,4040,1,10,2:0:0:0:
261,208,4202,6,0,B|309:217|342:257|307:292|338:334|392:346,1,198.75,6|0,1:2|2:0,2:0:0:0:
456,213,5175,2,0,P|450:194|439:171,3,31.8,2|2|2|2,2:0|2:0|2:0|2:0,2:0:0:0:
366,89,5499,2,0,P|372:70|383:47,3,39.75,2|2|2|2,2:0|2:0|2:0|2:0,2:0:0:0:
353,98,5824,6,0,P|294:76|228:57,1,119.25,6|0,1:2|2:0,2:0:0:0:
240,60,6148,2,0,B|226:98|226:98|242:136,1,79.5,10|0,2:0|2:0,2:0:0:0:
89,254,6472,1,2,1:2:0:0:
89,254,6634,2,0,B|103:216|103:216|87:178,1,79.5,2|10,1:2|2:0,2:0:0:0:
219,238,6959,6,0,B|303:280|245:306|328:346,1,159,2|2,1:2|1:2,2:0:0:0:
438,208,7445,2,0,P|396:220|372:255,1,79.5,10|0,2:0|2:0,2:0:0:0:
447,94,7770,1,2,1:2:0:0:
447,94,7932,2,0,P|478:124|520:127,2,79.5,2|8|2,1:2|2:0|2:0,2:0:0:0:
345,7,8418,5,2,1:2:0:0:
335,18,8743,2,0,P|296:32|252:52,1,79.5,10|0,2:0|2:0,2:0:0:0:
130,141,9067,1,2,1:2:0:0:
130,141,9229,2,0,P|169:155|213:175,1,79.5,2|10,1:2|2:0,2:0:0:0:
380,256,9553,6,0,B|296:298|354:324|271:364,1,159,2|2,1:2|1:2,2:0:0:0:
154,248,10040,2,0,P|170:285|179:329,1,79.5,10|0,2:0|2:0,2:0:0:0:
292,200,10364,1,2,1:2:0:0:
292,200,10526,2,0,P|300:161|316:124,2,79.5,2|10|2,1:2|2:0|2:0,2:0:0:0:
70,112,11013,5,6,1:2:0:0:
189,181,11175,1,2,2:0:0:0:
323,49,11337,5,10,2:0:0:0:
226,103,11499,1,2,2:0:0:0:
121,33,11662,5,2,2:0:0:0:
133,19,11824,1,2,1:2:0:0:
140,38,11986,1,2,1:2:0:0:
6,150,12148,6,0,P|29:204|40:278,1,119.25,14|0,2:0|2:0,2:0:0:0:
40,264,12472,1,0,1:2:0:0:
244,199,12634,2,0,P|185:191|116:164,1,119.25,6|0,2:3|2:0,2:0:0:0:
129,171,12959,1,2,1:2:0:0:
244,331,13121,1,2,1:2:0:0:
91,384,13283,2,0,P|126:337|184:290,1,119.25,10|0,2:0|2:0,2:0:0:0:
172,298,13607,5,10,2:0:0:0:
78,97,13770,1,10,2:0:0:0:
343,218,14094,5,10,2:0:0:0:
32,317,14418,5,10,2:0:0:0:
190,19,14743,5,14,2:0:0:0:
315,277,16202,6,0,P|367:255|430:237,1,111.299996603394,6|0,1:2|1:2,2:0:0:0:
485,123,16689,1,2,1:2:0:0:
485,123,16851,2,0,P|472:147|465:182,1,55.6499983016968,2|4,1:2|2:3,2:0:0:0:
394,117,17175,2,0,P|379:93|352:70,1,55.6499983016968,2|10,1:2|2:3,2:0:0:0:
326,77,17418,1,8,2:3:0:0:
326,77,17499,6,0,P|296:93|263:105,1,55.6499983016968,2|2,1:2|1:2,2:0:0:0:
171,181,17824,2,0,P|201:197|234:209,1,55.6499983016968,2|2,1:2|2:0,2:0:0:0:
345,285,18148,2,0,B|285:311|324:337|260:366,1,111.299996603394,2|2,1:2|1:2,2:0:0:0:
159,294,18634,2,0,P|162:276|171:258,1,27.8249991508484,10|8,2:0|2:0,2:0:0:0:
110,357,18797,6,0,P|80:370|51:388,1,55.6499983016968,2|0,1:2|2:0,2:0:0:0:
61,381,19121,1,2,1:2:0:0:
0,233,19283,2,0,P|30:246|59:264,1,55.6499983016968,6|0,2:3|1:2,2:0:0:0:
153,133,19607,1,6,2:3:0:0:
153,133,19770,2,0,P|123:146|94:164,1,55.6499983016968,2|6,1:2|2:3,2:0:0:0:
77,147,20013,1,8,2:3:0:0:
77,147,20094,6,0,P|71:116|59:91,1,55.6499983016968,2|2,1:2|1:2,2:0:0:0:
183,0,20418,1,2,1:2:0:0:
183,0,20580,2,0,P|171:25|166:52,1,55.6499983016968,2|2,2:0|1:2,2:0:0:0:
288,155,20905,5,2,2:0:0:0:
353,121,21067,1,6,2:3:0:0:
417,84,21229,1,10,2:0:0:0:
289,169,21391,6,0,B|229:195|268:221|204:250,1,111.299996603394,2|2,1:2|1:2,2:0:0:0:
83,199,21878,2,0,P|111:208|143:232,1,55.6499983016968,6|2,2:3|1:2,2:0:0:0:
255,324,22202,2,0,P|227:333|195:357,1,55.6499983016968,6|2,2:3|1:2,2:0:0:0:
349,248,22526,1,10,2:3:0:0:
349,248,22607,1,8,2:3:0:0:
349,248,22689,5,2,1:2:0:0:
413,287,22851,1,2,1:2:0:0:
481,195,23013,2,0,P|474:164|459:130,1,55.6499983016968,2|0,1:2|2:0,2:0:0:0:
430,75,23337,1,2,1:2:0:0:
304,132,23499,5,2,2:0:0:0:
234,107,23661,1,2,1:2:0:0:
163,86,23823,1,2,2:0:0:0:
236,208,23986,1,6,2:3:0:0:
236,208,24148,5,10,2:0:0:0:
159,265,24310,1,10,2:0:0:0:
102,174,24472,5,10,2:0:0:0:
278,278,24634,1,10,2:0:0:0:
357,152,24797,5,10,2:0:0:0:
154,273,24959,1,2,1:2:0:0:
207,48,25121,5,14,2:0:0:0:
207,48,26094,6,0,L|195:10,1,31.8,6|0,2:3|2:0,2:0:0:0:
325,116,26256,6,0,L|337:78,1,31.8,6|0,2:3|2:0,2:0:0:0:
162,195,26418,6,0,L|150:157,1,31.8,6|0,2:3|2:0,2:0:0:0:
316,267,26580,6,0,B|387:297|340:328|416:362,1,143.099995632935,6|8,1:2|2:0,2:0:0:0:
508,255,27067,1,2,2:0:0:0:
508,255,27229,2,0,P|476:269|439:290,1,71.5499978164674,2|0,1:2|2:0,2:0:0:0:
292,374,27553,2,0,P|260:356|228:342,1,71.5499978164674,10|2,2:0|2:0,2:0:0:0:
97,223,27878,6,0,P|161:200|165:127,1,143.099995632935,2|8,1:2|2:0,2:0:0:0:
305,63,28364,1,2,2:0:0:0:
305,63,28526,2,0,P|292:102|284:148,1,71.5499978164674,2|0,1:2|2:0,2:0:0:0:
134,54,28851,1,10,2:0:0:0:
202,14,29013,1,2,2:0:0:0:
93,124,29175,6,0,B|59:111|23:99|24:99,1,71.5499978164674,2|0,1:2|2:0,2:0:0:0:
169,221,29499,1,10,2:0:0:0:
169,221,29662,2,0,B|203:208|239:196|238:196,1,71.5499978164674,2|2,2:0|1:2,2:0:0:0:
67,298,29986,2,0,B|33:285|-3:273|-2:273,1,71.5499978164674,2|8,2:0|2:0,2:0:0:0:
46,212,30310,1,2,2:0:0:0:
168,307,30472,6,0,P|180:345|186:386,2,71.5499978164674,2|0|10,1:2|2:0|2:0,2:0:0:0:
271,211,30959,2,0,P|277:175|288:141,1,71.5499978164674,2|2,2:0|1:2,2:0:0:0:
117,31,31283,1,2,1:2:0:0:
238,87,31445,1,10,2:0:0:0:
184,140,31607,1,2,2:0:0:0:
281,220,31770,6,0,P|228:247|179:279,1,107.324996724701,6|0,1:2|2:0,2:0:0:0:
187,272,32094,1,10,2:0:0:0:
21,153,32256,6,0,P|74:180|123:212,1,107.324996724701,6|0,1:2|2:0,2:0:0:0:
114,205,32580,1,2,1:2:0:0:
11,311,32743,1,10,2:0:0:0:
124,201,32905,6,0,P|112:145|94:95,1,107.324996724701,6|0,1:2|2:0,2:0:0:0:
95,97,33229,1,2,1:2:0:0:
238,17,33391,1,10,2:0:0:0:
358,128,33553,6,0,P|365:91|377:59,1,71.5499978164674,6|0,1:2|2:0,2:0:0:0:
436,14,33878,1,2,1:2:0:0:
280,99,34040,1,10,2:0:0:0:
351,136,34202,1,2,2:0:0:0:
254,255,34364,6,0,P|196:231|135:213,1,107.324996724701,6|0,1:2|2:0,2:0:0:0:
153,217,34689,1,10,2:0:0:0:
26,64,34851,2,0,P|39:99|51:143,1,71.5499978164674,2|0,1:2|2:0,2:0:0:0:
33,47,35175,2,0,P|46:82|58:126,1,71.5499978164674,2|8,1:2|2:0,2:0:0:0:
152,216,35499,2,0,P|158:197|169:176,1,35.7749989082337,6|2,1:2|2:0,2:0:0:0:
57,220,35662,6,0,P|40:226|23:232,3,35.7749989082337,2|2|2|2,2:0|2:0|1:2|2:0,2:0:0:0:
143,304,35986,2,0,P|159:310|176:316,3,35.7749989082337,10|0|0|0,2:0|2:0|2:0|2:0,2:0:0:0:
60,353,36310,2,0,P|55:334|47:315,3,35.7749989082337,2|0|0|0,2:0|2:0|2:0|2:0,2:0:0:0:
171,148,36634,2,0,P|157:187|152:226,1,71.5499978164674,10|0,2:0|2:0,2:0:0:0:
275,337,36959,6,0,P|334:316|402:298,1,127.2,2|0,2:0|2:0,2:0:0:0:
396,299,37445,1,2,2:0:0:0:
491,212,37607,2,0,P|426:192|402:141,1,127.2,2|0,2:0|2:0,2:0:0:0:
402,141,38094,1,2,2:0:0:0:
445,49,38256,6,0,P|477:61|517:72,2,63.6,2|2|2,2:0|2:0|1:2,2:0:0:0:
379,0,38743,1,2,2:0:0:0:
379,0,38905,2,0,B|320:37|369:68|299:105,1,127.2,2|2,2:0|2:0,2:0:0:0:
126,194,39553,6,0,P|184:214|208:280,1,127.2,2|2,1:2|2:0,2:0:0:0:
208,271,40040,1,2,2:0:0:0:
297,360,40202,2,0,B|347:339|347:339|358:321|358:321|414:300,1,127.2,2|0,2:0|2:0,2:0:0:0:
406,302,40689,1,2,2:0:0:0:
349,221,40851,6,0,P|340:188|324:157,1,63.6,2|2,2:0|2:0,2:0:0:0:
417,124,41175,2,0,P|426:91|442:60,1,63.6,2|2,1:2|2:0,2:0:0:0:
254,0,41499,5,10,2:0:0:0:
327,34,41662,1,2,1:2:0:0:
188,129,41824,5,2,1:2:0:0:
164,52,41986,1,0,2:0:0:0:
281,162,42148,6,0,P|270:197|263:237,2,63.6,6|2|2,1:2|1:2|1:2,2:0:0:0:
163,285,42634,2,0,P|156:253|146:223,1,63.6,2|8,2:0|2:0,2:0:0:0:
103,160,42959,1,2,1:2:0:0:
29,147,43121,1,2,2:0:0:0:
0,217,43283,1,2,1:2:0:0:
86,320,43445,5,2,1:2:0:0:
86,320,43607,2,0,P|51:341|27:360,2,63.6,2|2|2,1:2|2:0|1:2,2:0:0:0:
222,225,44094,1,10,2:0:0:0:
222,225,44175,1,0,1:2:0:0:
222,225,44256,2,0,P|245:238|264:245,1,31.8,10|8,2:3|2:3,2:0:0:0:
301,300,44418,1,10,2:0:0:0:
110,217,44580,6,0,P|99:149|79:84,1,127.2,6|2,1:2|1:2,2:0:0:0:
206,141,45067,1,10,2:0:0:0:
359,17,45229,6,0,P|338:86|327:158,1,143.099995632935,6|2,1:2|1:2,2:0:0:0:
390,255,45716,1,10,2:0:0:0:
206,141,45878,6,0,B|128:180|188:215|101:263,1,159,6|2,1:2|1:2,2:0:0:0:
10,152,46364,1,10,2:0:0:0:
116,263,46526,6,0,B|194:302|134:337|221:385,1,159,6|2,1:2|1:2,2:0:0:0:
347,263,47013,1,10,2:0:0:0:
282,302,47175,1,6,2:3:0:0:
359,354,47337,5,6,1:2:0:0:
263,187,47499,2,0,P|272:215|276:233,2,39.75,8|8|2,2:0|2:0|1:2,2:0:0:0:
385,79,47824,2,0,P|376:107|372:125,2,39.75,10|8|2,2:0|2:0|1:2,2:0:0:0:
429,235,48148,2,0,P|447:226|476:217,2,39.75,10|8|2,2:0|2:0|1:2,2:0:0:0:
278,93,48472,1,10,2:0:0:0:
278,93,48553,1,8,2:0:0:0:
278,93,48634,6,0,P|260:84|231:75,1,39.75,2|0,1:2|1:0,2:0:0:0:
184,25,48797,2,0,P|166:34|137:43,1,39.75,10|8,2:0|2:0,2:0:0:0:
98,101,48959,1,2,1:2:0:0:
240,234,49121,1,10,2:0:0:0:
240,234,49202,1,8,2:0:0:0:
240,234,49283,6,0,P|258:225|287:216,1,39.75,10|8,2:0|2:0,2:0:0:0:
391,176,49445,2,0,P|373:167|344:158,1,39.75,8|8,2:0|2:0,2:0:0:0:
373,293,49607,2,0,P|366:271|360:244,1,39.75,10|8,2:0|2:0,2:0:0:0:
278,93,49770,2,0,P|273:112|267:131,1,39.75,8|8,2:0|2:0,2:0:0:0:
197,311,49932,5,6,1:2:0:0:
197,311,50094,1,2,1:2:0:0:
71,176,50256,1,8,2:0:0:0:
29,241,50418,5,2,1:2:0:0:
79,182,50580,1,2,1:2:0:0:
154,201,50742,1,0,2:0:0:0:
274,290,50905,5,10,2:0:0:0:
364,76,51067,1,2,1:2:0:0:
364,76,51391,1,2,1:2:0:0:
413,141,51553,1,10,2:0:0:0:
378,210,51716,1,2,2:0:0:0:
496,311,51878,6,0,P|476:270|470:227,1,79.5,2|0,1:2|2:0,2:0:0:0:
265,140,52202,2,0,P|285:181|291:224,1,79.5,10|0,2:0|2:0,2:0:0:0:
197,311,52526,5,10,2:0:0:0:
413,141,52689,1,10,2:0:0:0:
125,161,53013,5,10,2:0:0:0:
324,281,53175,1,10,2:0:0:0:
68,316,53499,5,10,2:0:0:0:
207,223,53662,1,10,2:0:0:0:
31,194,53986,5,10,2:0:0:0:
134,248,54148,1,10,2:0:0:0:
134,248,54472,6,0,P|111:212|112:156,1,95.4,2|0,2:0|2:0,2:0:0:0:
183,135,54797,2,0,P|206:171|205:227,1,95.4,2|0,2:0|2:0,2:0:0:0:
197,303,55121,5,6,1:2:0:0:
197,303,55283,1,2,2:0:0:0:
348,199,55445,2,0,B|404:217|374:240|438:259,1,95.3999970886231,10|2,2:0|2:0,2:0:0:0:
454,183,55770,1,2,1:2:0:0:
454,183,55932,1,0,1:2:0:0:
283,69,56094,1,10,2:0:0:0:
388,12,56256,6,0,P|371:82|347:200,1,190.799994177246,2|2,1:2|1:2,2:0:0:0:
197,303,56743,2,0,P|154:285|99:270,1,95.3999970886231,10|2,2:0|2:0,2:0:0:0:
52,218,57067,1,2,1:2:0:0:
52,218,57229,1,0,2:0:0:0:
219,132,57391,1,10,2:0:0:0:
128,22,57553,6,0,B|142:90|142:90|130:133|130:133|149:209,1,190.799994177246,2|2,1:2|1:2,2:0:0:0:
328,304,58040,2,0,P|292:275|236:271,1,95.3999970886231,10|2,2:0|2:0,2:0:0:0:
266,347,58364,1,2,1:2:0:0:
266,347,58526,1,2,1:2:0:0:
407,215,58689,1,10,2:0:0:0:
286,86,58851,6,0,B|181:118|245:169|136:202,1,190.799994177246,2|0,1:2|1:2,2:0:0:0:
11,95,59337,2,0,P|33:134|45:198,1,95.3999970886231,10|0,2:0|2:0,2:0:0:0:
168,35,59662,2,0,P|123:34|61:12,1,95.3999970886231,2|0,1:2|2:0,2:0:0:0:
141,200,59986,2,0,P|163:161|213:119,1,95.3999970886231,10|0,2:0|2:0,2:0:0:0:
364,98,60310,6,0,P|336:76|328:41,1,71.5499978164674,6|0,1:2|2:0,2:0:0:0:
378,113,60634,2,0,P|363:160|347:230,1,95.3999970886231,10|0,2:0|2:0,2:0:0:0:
193,280,60959,6,0,P|221:258|229:223,1,71.5499978164674,2|0,1:2|2:0,2:0:0:0:
180,293,61283,2,0,P|195:340|211:410,1,95.3999970886231,10|0,2:0|2:0,2:0:0:0:
395,317,61607,6,0,B|445:295|445:295|461:266|461:266|516:244,1,143.099995632935,6|0,1:2|2:0,2:0:0:0:
512,245,61932,1,10,2:0:0:0:
391,100,62094,2,0,B|278:73|315:160|210:135,1,190.799994177246,2|2,1:2|1:2,2:0:0:0:
368,227,62580,2,0,P|389:269|392:332,1,95.3999970886231,10|2,2:0|2:0,2:0:0:0:
213,135,62905,6,0,P|217:87|239:45,1,95.3999970886231,6|0,1:2|2:0,2:0:0:0:
288,212,63229,1,10,2:0:0:0:
195,317,63391,6,0,P|173:308|145:300,1,47.6999985443116,2|0,1:2|2:0,2:0:0:0:
184,325,63716,2,0,P|162:316|134:308,1,47.6999985443116,2|0,1:2|2:0,2:0:0:0:
13,165,63878,1,8,2:0:0:0:
15,291,64040,6,0,B|65:269|65:269|81:240|81:240|136:218,1,143.099995632935,6|0,1:2|2:0,2:0:0:0:
210,216,64364,2,0,P|208:193|190:166,1,47.6999985443116,2|0,1:2|1:2,2:0:0:0:
43,86,64526,2,0,P|78:102|134:99,1,95.3999970886231,10|0,2:0|2:0,2:0:0:0:
257,52,64851,5,14,2:3:0:0:
257,52,64932,1,8,2:3:0:0:
257,52,65013,2,0,P|239:64|226:90,1,47.6999985443116,8|4,2:0|2:3,2:0:0:0:
356,167,65175,1,14,2:3:0:0:
356,167,65256,1,8,2:3:0:0:
356,167,65337,2,0,P|345:145|326:131,1,47.6999985443116,4|4,2:3|2:3,2:0:0:0:
210,216,65499,5,6,1:2:0:0:
210,216,65662,1,2,2:0:0:0:
357,290,65824,2,0,P|400:274|464:256,1,95.3999970886231,10|2,2:0|2:0,2:0:0:0:
471,187,66148,1,2,1:2:0:0:
471,187,66310,1,2,2:0:0:0:
325,37,66472,1,10,2:0:0:0:
478,26,66634,6,0,B|415:49|415:49|390:100|390:100|325:128,1,190.799994177246,2|2,1:2|1:2,2:0:0:0:
150,49,67121,2,0,P|171:95|180:151,1,95.3999970886231,10|2,2:0|2:0,2:0:0:0:
240,198,67445,1,2,1:2:0:0:
240,198,67607,1,2,1:2:0:0:
126,335,67770,1,10,2:0:0:0:
76,175,67932,6,0,B|181:207|117:258|226:291,1,190.799994177246,2|2,1:2|1:2,2:0:0:0:
400,218,68418,2,0,P|354:238|323:286,1,95.3999970886231,10|2,2:0|2:0,2:0:0:0:
315,352,68743,1,2,1:2:0:0:
315,352,68905,1,2,1:2:0:0:
240,198,69067,1,10,2:0:0:0:
401,128,69229,6,0,B|299:152|331:64|221:91,1,190.799994177246,6|0,1:2|1:2,2:0:0:0:
156,243,69716,2,0,P|199:216|251:194,1,95.3999970886231,10|0,2:0|2:0,2:0:0:0:
65,108,70040,2,0,P|66:158|59:214,1,95.3999970886231,2|2,1:2|1:2,2:0:0:0:
223,90,70364,2,0,P|178:66|133:32,1,95.3999970886231,10|0,2:0|2:0,2:0:0:0:
336,159,70689,6,0,P|370:140|408:125,1,71.5499978164674,6|0,1:2|2:0,2:0:0:0:
327,175,71013,2,0,P|342:218|352:279,1,95.3999970886231,10|0,2:0|2:0,2:0:0:0:
159,258,71337,6,0,P|125:239|87:224,1,71.5499978164674,2|0,1:2|2:0,2:0:0:0:
168,274,71661,2,0,P|153:317|143:378,1,95.3999970886231,10|0,2:0|2:0,2:0:0:0:
282,302,71986,6,0,B|360:330|317:358|397:384,1,143.099995632935,2|0,1:2|2:0,2:0:0:0:
395,383,72310,1,10,2:0:0:0:
496,236,72472,2,0,P|397:199|393:109,1,190.799994177246,2|2,1:2|1:2,2:0:0:0:
204,45,72959,2,0,P|226:90|241:145,1,95.3999970886231,10|2,2:0|2:0,2:0:0:0:
334,257,73283,6,0,P|354:187|386:122,1,143.099995632935,6|0,1:2|2:0,2:0:0:0:
385,124,73607,1,10,2:0:0:0:
233,225,73770,6,0,P|211:235|180:254,1,47.6999985443116,2|0,1:2|2:0,2:0:0:0:
227,242,74094,2,0,P|205:252|174:271,1,47.6999985443116,2|0,1:2|2:0,2:0:0:0:
24,161,74256,1,10,2:0:0:0:
85,307,74418,6,0,P|99:237|128:155,1,143.099995632935,6|0,1:2|2:0,2:0:0:0:
176,115,74743,2,0,P|154:99|129:93,1,47.6999985443116,0|0,1:2|1:2,2:0:0:0:
233,225,74905,2,0,P|289:199|378:170,1,143.099995632935,10|0,2:0|2:0,2:0:0:0:
366,173,75229,5,10,2:0:0:0:
487,254,75391,1,0,2:0:0:0:
412,324,75553,1,6,2:3:0:0:
469,372,75716,1,2,1:2:0:0:
346,285,75878,6,0,B|263:318|309:355|216:389,1,159,6|0,1:2|1:2,2:0:0:0:
127,234,76364,2,0,P|145:275|156:322,1,79.5,6|0,2:3|1:2,2:0:0:0:
109,380,76689,1,4,2:3:0:0:
240,241,76851,2,0,P|250:202|266:166,1,79.5,2|8,1:2|2:3,2:0:0:0:
291,144,77094,1,8,2:3:0:0:
291,144,77175,5,2,1:2:0:0:
164,69,77337,2,0,B|99:102|141:126|77:161,1,119.25,6|0,2:3|2:0,2:0:0:0:
86,155,77662,1,0,1:2:0:0:
2,267,77824,2,0,P|44:282|82:305,1,79.5,2|0,1:2|2:0,2:0:0:0:
199,201,78148,2,0,P|157:216|119:239,1,79.5,2|8,1:2|2:0,2:0:0:0:
248,366,78472,6,0,P|290:323|268:274,1,119.25,2|0,1:2|2:0,2:0:0:0:
269,274,78797,1,2,1:2:0:0:
373,176,78959,1,4,2:3:0:0:
439,222,79121,1,2,1:2:0:0:
510,136,79283,1,4,2:3:0:0:
444,92,79445,1,2,1:2:0:0:
511,0,79607,2,0,P|504:20|498:50,1,39.75,10|8,2:3|2:3,2:0:0:0:
358,99,79770,6,0,P|324:78|288:61,1,79.5,2|6,1:2|2:3,2:0:0:0:
159,143,80094,1,2,1:2:0:0:
182,71,80256,2,0,P|177:51|166:29,1,39.75,2|0,2:0|1:2,2:0:0:0:
267,145,80418,1,12,2:3:0:0:
267,145,80499,1,8,2:3:0:0:
267,145,80580,2,0,P|258:163|253:182,1,39.75,4|8,2:3|2:3,2:0:0:0:
161,260,80743,2,0,P|156:240|147:222,3,39.75,12|8|8|4,2:3|2:3|2:3|2:3,2:0:0:0:
244,322,81067,5,14,2:0:0:0:
253,330,81391,1,2,2:0:0:0:
315,284,81553,1,0,2:0:0:0:
222,210,81716,1,2,2:0:0:0:
347,126,81878,1,4,2:3:0:0:
170,53,82040,1,10,2:0:0:0:
304,205,82202,5,14,2:0:0:0:
320,199,82526,1,4,2:3:0:0:
182,282,82689,2,0,P|142:266|93:253,1,79.5,2|0,1:2|1:2,2:0:0:0:
195,129,83013,2,0,P|233:117|269:103,1,79.5,2|6,1:2|2:3,2:0:0:0:
349,28,83337,1,6,2:3:0:0:
186,142,83499,5,14,2:0:0:0:
177,156,83824,5,0,1:2:0:0:
292,235,83986,1,4,2:3:0:0:
150,310,84148,1,4,2:3:0:0:
298,380,84310,1,10,2:0:0:0:
132,228,84472,1,10,2:0:0:0:
322,124,84634,1,10,2:0:0:0:
119,26,84797,1,10,2:0:0:0:
335,131,84959,6,0,P|341:110|349:87,1,39.75,10|0,2:0|2:0,2:0:0:0:
19,273,85283,2,0,P|13:252|5:229,1,39.75,10|0,2:0|2:0,2:0:0:0:
150,310,85445,2,0,P|217:280|302:254,1,159,6|2,1:2|2:0,2:0:0:0:
68,84,86094,5,6,1:2:0:0:
256,192,86175,12,0,88202,2:0:0:0:
