osu file format v14

[General]
AudioFilename: audio.mp3
AudioLeadIn: 0
PreviewTime: 54391
Countdown: 0
SampleSet: Soft
StackLeniency: 0.3
Mode: 0
LetterboxInBreaks: 0
WidescreenStoryboard: 1

[Editor]
DistanceSpacing: 1
BeatDivisor: 4
GridSize: 32
TimelineZoom: 1.6

[Metadata]
Title:Colorful Dreams! Colorful Smiles! (TV Size)
TitleUnicode:Colorful Dreams! Colorful Smiles! (TV Size)
Artist:Nijigasaki High School Idol Club
ArtistUnicode:虹ヶ咲学園スクールアイドル同好会
Creator:Sarawatlism
Version:Wanpachi's Normal!
Source:ラブライブ!虹ヶ咲学園スクールアイドル同好会
Tags:Love Live Anime Japanese Opening Season 2 Two 2期 OP Short Pop JPop J-Pop 上原歩夢 Uehara Ayumu 大西亜玖璃 Onishi Aguri 中須かすみ Nakasu Kasumi 相良茉優 Sagara Mayu 桜坂しずく Osaka Shizuku 前田佳織里 Maeda Kaori 朝香果林 Asaka Karin 久保田未夢 Kubota Miyu 宮下愛 Miyashita Ai 村上奈津実 Murakami Natsumi 近江彼方 Konoe Kanata 鬼頭明里 Kito Akari 優木せつ菜 Yuki Setsuna 楠木ともり Kusunoki Tomori エマ・ヴェルデ Emma Verde 指出毬亜 Sashide Maria 天王寺璃奈 Tennoji Rina 田中ちえ美 Tanaka Chiemi 三船栞子 Mifune Shioriko 小泉萌香 Koizumi Moeka 鐘嵐珠 ショウ・ランジュ Lanzhu Zhong 法元明菜 Houmoto Akina ミア・テイラー Mia Taylor 内田秀 Uchida Shu Female Vocals wanpachi Cycopton [_lost_] conner c_o_n_n_e_r alevi hakashii asukow grazuko Sekai Sekaii Sekai-nyan
BeatmapID:3590390
BeatmapSetID:1742983

[Difficulty]
HPDrainRate:4
CircleSize:3
OverallDifficulty:4
ApproachRate:5.5
SliderMultiplier:1
SliderTickRate:1

[Events]
//Background and Video events
0,0,"BG.jpg",0,0
Video,0,"VD.mp4"
//Break Periods
2,37159,40299
//Storyboard Layer 0 (Background)
//Storyboard Layer 1 (Fail)
//Storyboard Layer 2 (Pass)
//Storyboard Layer 3 (Foreground)
//Storyboard Layer 4 (Overlay)
//Storyboard Sound Samples

[TimingPoints]
635,324.324324324324,4,2,10,60,1,0
878,-100,4,2,1,5,0,0
959,-100,4,2,1,60,0,0
1121,-100,4,2,11,60,0,0
1364,-100,4,2,1,5,0,0
1445,-100,4,2,1,60,0,0
1607,-100,4,2,12,60,0,0
2580,-100,4,2,12,60,0,0
2905,-100,4,2,14,60,0,0
3229,-100,4,2,10,60,0,0
3553,-100,4,2,1,60,0,0
3716,-100,4,2,11,60,0,0
4040,-100,4,2,1,60,0,0
4202,-100,4,2,13,60,0,0
5175,-100,4,2,1,40,0,0
5499,-100,4,2,1,50,0,0
5824,-100,4,2,1,70,0,0
6148,-100,4,2,11,70,0,0
6472,-100,4,2,16,70,0,0
6634,-100,4,2,11,70,0,0
6797,-100,4,2,1,70,0,0
6958,-100,4,2,11,70,0,0
7283,-100,4,2,1,70,0,0
7769,-100,4,2,16,70,0,0
7932,-100,4,2,11,70,0,0
8418,-100,4,2,1,70,0,0
8743,-100,4,2,11,70,0,0
9067,-100,4,2,16,70,0,0
9229,-100,4,2,11,70,0,0
9877,-100,4,2,1,70,0,0
10040,-100,4,2,11,70,0,0
10364,-100,4,2,16,70,0,0
10526,-100,4,2,11,70,0,0
10688,-100,4,2,1,70,0,0
10851,-100,4,2,14,70,0,0
11013,-100,4,2,10,70,0,0
11175,-100,4,2,1,70,0,0
12391,-100,4,2,1,5,0,0
12472,-100,4,2,1,70,0,0
16202,-111.111111111111,4,2,15,60,0,0
16445,-111.111111111111,4,2,1,5,0,0
16526,-111.111111111111,4,2,1,60,0,0
16689,-111.111111111111,4,2,17,60,0,0
17013,-111.111111111111,4,2,1,60,0,0
17499,-111.111111111111,4,2,12,60,0,0
17662,-111.111111111111,4,2,1,60,0,0
17986,-111.111111111111,4,2,19,60,0,0
18148,-111.111111111111,4,2,17,60,0,0
18472,-111.111111111111,4,2,1,60,0,0
18797,-111.111111111111,4,2,15,60,0,0
19040,-111.111111111111,4,2,1,5,0,0
19121,-111.111111111111,4,2,17,60,0,0
19283,-111.111111111111,4,2,19,60,0,0
19607,-111.111111111111,4,2,17,60,0,0
20094,-111.111111111111,4,2,15,60,0,0
20256,-111.111111111111,4,2,1,60,0,0
20418,-111.111111111111,4,2,17,60,0,0
20580,-111.111111111111,4,2,19,60,0,0
20743,-111.111111111111,4,2,1,60,0,0
20823,-111.111111111111,4,2,1,5,0,0
20904,-111.111111111111,4,2,12,60,0,0
21634,-111.111111111111,4,2,1,5,0,0
21715,-111.111111111111,4,2,15,60,0,0
21878,-111.111111111111,4,2,17,60,0,0
22202,-111.111111111111,4,2,15,60,0,0
22526,-111.111111111111,4,2,17,60,0,0
22607,-111.111111111111,4,2,1,60,0,0
22850,-111.111111111111,4,2,19,60,0,0
23337,-111.111111111111,4,2,1,60,0,0
23662,-111.111111111111,4,2,12,60,0,0
23986,-111.111111111111,4,2,12,70,0,0
24148,-111.111111111111,4,2,1,70,0,0
24310,-111.111111111111,4,2,15,70,0,0
24472,-111.111111111111,4,2,17,70,0,0
24797,-111.111111111111,4,2,19,70,0,0
24959,-111.111111111111,4,2,1,70,0,0
25121,-111.111111111111,4,2,11,70,0,0
26094,-111.111111111111,4,2,12,70,0,0
26580,-100,4,2,12,70,0,0
26823,-100,4,2,1,5,0,0
26904,-100,4,2,1,70,0,0
27067,-100,4,2,11,70,0,0
27472,-100,4,2,1,5,0,0
27553,-100,4,2,1,70,0,0
27878,-100,4,2,12,70,0,0
28121,-100,4,2,1,5,0,0
28202,-100,4,2,1,70,0,0
28364,-100,4,2,10,70,0,0
28851,-100,4,2,11,70,0,0
29013,-100,4,2,10,70,0,0
29175,-100,4,2,14,70,0,0
29499,-100,4,2,13,70,0,0
29662,-100,4,2,14,70,0,0
29986,-100,4,2,10,70,0,0
30310,-100,4,2,11,70,0,0
30472,-100,4,2,1,70,0,0
30715,-100,4,2,1,5,0,0
30796,-100,4,2,1,70,0,0
31283,-100,4,2,18,70,0,0
31770,-100,4,2,11,70,0,0
32013,-100,4,2,1,5,0,0
32094,-100,4,2,16,70,0,0
32256,-100,4,2,18,70,0,0
32580,-100,4,2,16,70,0,0
32742,-100,4,2,18,70,0,0
32905,-100,4,2,12,70,0,0
33148,-100,4,2,1,5,0,0
33229,-100,4,2,11,70,0,0
33391,-100,4,2,16,70,0,0
33553,-100,4,2,11,70,0,0
34040,-100,4,2,10,70,0,0
34202,-100,4,2,14,70,0,0
34364,-100,4,2,13,70,0,0
34607,-100,4,2,1,5,0,0
34688,-100,4,2,14,70,0,0
34851,-100,4,2,10,70,0,0
35175,-100,4,2,11,70,0,0
35580,-100,4,2,1,70,0,0
35986,-100,4,2,12,70,0,0
36310,-100,4,2,18,70,0,0
36634,-100,4,2,16,70,0,0
36959,-100,4,2,11,50,0,0
41499,-111.111111111111,4,2,1,60,0,0
42148,-111.111111111111,4,2,11,60,0,0
42310,-111.111111111111,4,2,16,60,0,0
42472,-111.111111111111,4,2,11,60,0,0
42634,-111.111111111111,4,2,10,60,0,0
42797,-111.111111111111,4,2,1,60,0,0
42958,-111.111111111111,4,2,11,60,0,0
43283,-111.111111111111,4,2,14,60,0,0
43445,-111.111111111111,4,2,1,60,0,0
43607,-111.111111111111,4,2,12,60,0,0
43932,-111.111111111111,4,2,14,60,0,0
44094,-111.111111111111,4,2,1,60,0,0
44256,-111.111111111111,4,2,13,60,0,0
44418,-111.111111111111,4,2,14,60,0,0
44580,-111.111111111111,4,2,10,70,0,0
44905,-100,4,2,15,70,0,0
45067,-100,4,2,20,70,0,0
45229,-100,4,2,12,70,0,0
45554,-100,4,2,11,70,0,0
45716,-100,4,2,16,70,0,0
45878,-100,4,2,11,70,0,0
46365,-100,4,2,16,70,0,0
46526,-100,4,2,12,70,0,0
46850,-100,4,2,1,70,0,0
47337,-100,4,2,22,70,0,0
47499,-100,4,2,1,70,0,0
47661,-100,4,2,21,70,0,0
47905,-100,4,2,1,70,0,0
48148,-100,4,2,22,70,0,0
48310,-100,4,2,1,70,0,0
48472,-100,4,2,18,70,0,0
48553,-100,4,2,1,70,0,0
48796,-100,4,2,18,70,0,0
48959,-100,4,2,23,70,0,0
49283,-100,4,2,11,70,0,0
49364,-100,4,2,1,70,0,0
49607,-100,4,2,10,70,0,0
49689,-100,4,2,1,70,0,0
49932,-100,4,2,11,70,0,0
50094,-100,4,2,23,70,0,0
50418,-100,4,2,11,70,0,0
50580,-100,4,2,23,70,0,0
50905,-100,4,2,11,70,0,0
51067,-100,4,2,23,70,0,0
51391,-100,4,2,13,70,0,0
51553,-100,4,2,14,70,0,0
51715,-100,4,2,10,70,0,0
52202,-100,4,2,23,70,0,0
52526,-100,4,2,10,70,0,0
52689,-100,4,2,11,70,0,0
53013,-100,4,2,23,70,0,0
53175,-100,4,2,11,70,0,0
53499,-100,4,2,10,70,0,0
53662,-100,4,2,11,70,0,0
53986,-100,4,2,22,70,0,0
54472,-100,4,2,13,50,0,0
54716,-100,4,2,1,5,0,0
54796,-100,4,2,14,60,0,0
55121,-90.9090909090909,4,2,10,80,0,1
55607,-90.9090909090909,4,2,11,80,0,1
55770,-90.9090909090909,4,2,10,80,0,1
55932,-90.9090909090909,4,2,1,80,0,1
56094,-90.9090909090909,4,2,12,80,0,1
56256,-90.9090909090909,4,2,10,80,0,1
56580,-90.9090909090909,4,2,11,80,0,1
56743,-90.9090909090909,4,2,10,80,0,1
56905,-90.9090909090909,4,2,14,80,0,1
57067,-90.9090909090909,4,2,10,80,0,1
57310,-90.9090909090909,4,2,1,5,0,1
57391,-90.9090909090909,4,2,12,80,0,1
57553,-90.9090909090909,4,2,10,80,0,1
58202,-90.9090909090909,4,2,11,80,0,1
58364,-90.9090909090909,4,2,10,80,0,1
58526,-90.9090909090909,4,2,1,80,0,1
58688,-90.9090909090909,4,2,14,80,0,1
58851,-90.9090909090909,4,2,13,80,0,1
59337,-90.9090909090909,4,2,14,80,0,1
59662,-90.9090909090909,4,2,10,80,0,1
59986,-90.9090909090909,4,2,11,80,0,1
60310,-90.9090909090909,4,2,14,80,0,1
60553,-90.9090909090909,4,2,1,5,0,1
60634,-90.9090909090909,4,2,14,80,0,1
61202,-90.9090909090909,4,2,1,5,0,1
61283,-90.9090909090909,4,2,14,80,0,1
61607,-90.9090909090909,4,2,13,80,0,1
61931,-90.9090909090909,4,2,14,80,0,1
62094,-90.9090909090909,4,2,10,80,0,1
62337,-90.9090909090909,4,2,1,5,0,1
62418,-90.9090909090909,4,2,14,80,0,1
62580,-90.9090909090909,4,2,10,80,0,1
62905,-90.9090909090909,4,2,12,80,0,1
63391,-90.9090909090909,4,2,11,80,0,1
63716,-90.9090909090909,4,2,14,80,0,1
64040,-90.9090909090909,4,2,10,80,0,1
64364,-90.9090909090909,4,2,1,80,0,1
64851,-90.9090909090909,4,2,13,80,0,1
64932,-90.9090909090909,4,2,1,80,0,1
65175,-90.9090909090909,4,2,14,80,0,1
65499,-90.9090909090909,4,2,10,80,0,1
65986,-90.9090909090909,4,2,11,80,0,1
66148,-90.9090909090909,4,2,10,80,0,1
66310,-90.9090909090909,4,2,1,80,0,1
66472,-90.9090909090909,4,2,12,80,0,1
66634,-90.9090909090909,4,2,10,80,0,1
66959,-90.9090909090909,4,2,11,80,0,1
67121,-90.9090909090909,4,2,10,80,0,1
67283,-90.9090909090909,4,2,14,80,0,1
67445,-90.9090909090909,4,2,10,80,0,1
67607,-90.9090909090909,4,2,1,80,0,1
67769,-90.9090909090909,4,2,12,80,0,1
67932,-90.9090909090909,4,2,10,80,0,1
68580,-90.9090909090909,4,2,11,80,0,1
68743,-90.9090909090909,4,2,10,80,0,1
68905,-90.9090909090909,4,2,1,80,0,1
69067,-90.9090909090909,4,2,14,80,0,1
69229,-90.9090909090909,4,2,13,80,0,1
69716,-90.9090909090909,4,2,14,80,0,1
70040,-90.9090909090909,4,2,10,80,0,1
70364,-90.9090909090909,4,2,11,80,0,1
70689,-90.9090909090909,4,2,14,80,0,1
70932,-90.9090909090909,4,2,1,5,0,1
71013,-90.9090909090909,4,2,14,80,0,1
71499,-90.9090909090909,4,2,1,80,0,1
71580,-90.9090909090909,4,2,1,5,0,1
71661,-90.9090909090909,4,2,14,80,0,1
71986,-90.9090909090909,4,2,13,80,0,1
72310,-90.9090909090909,4,2,14,80,0,1
72472,-90.9090909090909,4,2,10,80,0,1
72715,-90.9090909090909,4,2,1,5,0,1
72796,-90.9090909090909,4,2,14,80,0,1
72959,-90.9090909090909,4,2,10,80,0,1
73283,-90.9090909090909,4,2,12,80,0,1
73770,-90.9090909090909,4,2,11,80,0,1
74094,-90.9090909090909,4,2,14,80,0,1
74418,-90.9090909090909,4,2,10,80,0,1
74661,-90.9090909090909,4,2,1,5,0,1
74742,-90.9090909090909,4,2,1,80,0,1
74905,-90.9090909090909,4,2,13,80,0,1
75229,-90.9090909090909,4,2,14,80,0,1
75553,-90.9090909090909,4,2,10,80,0,1
75715,-90.9090909090909,4,2,11,80,0,1
75878,-100,4,2,12,70,0,0
76202,-100,4,2,1,70,0,0
76364,-100,4,2,16,70,0,0
76526,-100,4,2,1,70,0,0
76850,-100,4,2,11,70,0,0
77175,-100,4,2,1,70,0,0
77337,-100,4,2,22,70,0,0
77499,-100,4,2,1,70,0,0
77824,-100,4,2,12,70,0,0
78148,-100,4,2,15,70,0,0
78472,-100,4,2,1,70,0,0
78796,-100,4,2,12,70,0,0
79121,-100,4,2,16,70,0,0
79283,-100,4,2,1,70,0,0
79445,-100,4,2,11,70,0,0
79607,-100,4,2,10,70,0,0
79689,-100,4,2,1,70,0,0
79931,-100,4,2,11,70,0,0
80094,-100,4,2,16,70,0,0
80256,-100,4,2,11,70,0,0
80337,-100,4,2,1,70,0,0
81391,-100,4,2,12,70,0,0
81716,-100,4,2,10,70,0,0
82040,-100,4,2,14,70,0,0
82202,-100,4,2,13,70,0,0
82445,-100,4,2,1,5,0,0
82526,-100,4,2,1,70,0,0
82689,-100,4,2,14,70,0,0
83013,-100,4,2,10,70,0,0
83175,-100,4,2,1,70,0,0
83337,-100,4,2,14,70,0,0
83499,-100,4,2,13,70,0,0
83661,-100,4,2,1,5,0,0
83823,-100,4,2,1,70,0,0
84472,-100,4,2,12,70,0,0
84797,-100,4,2,1,70,0,0
84959,-100,4,2,10,70,0,0
85283,-100,4,2,24,70,0,0
85445,-100,4,2,10,70,0,0
85770,-100,4,2,11,50,0,0
86094,-100,4,2,14,70,0,0
88202,-100,4,2,14,5,0,0

[Colours]
Combo1 : 202,140,208
Combo2 : 243,156,181
Combo3 : 255,240,155
Combo4 : 196,138,81

[HitObjects]
7,44,635,6,0,P|72:53|125:57,1,100,6|10,1:2|2:0,2:0:0:0:
145,86,1121,2,0,P|184:33|245:34,1,100,2|10,1:2|2:0,2:0:0:0:
258,49,1607,2,0,B|373:63|315:117|446:138,1,200,6|0,1:2|2:0,2:0:0:0:
502,207,2580,1,2,2:0:0:0:
432,279,2905,1,2,2:0:0:0:
449,377,3229,6,0,P|365:351|322:348,1,100,6|10,1:2|2:0,2:0:0:0:
317,314,3716,2,0,P|239:324|212:372,1,100,2|10,1:2|2:0,2:0:0:0:
183,361,4202,2,0,B|170:247|109:302|96:162,1,200,6|0,1:2|2:0,2:0:0:0:
100,84,5175,2,0,P|76:88|45:92,2,50,2|2|2,2:0|2:0|2:0,2:0:0:0:
149,77,5662,1,2,2:0:0:0:
149,77,5824,5,6,1:2:0:0:
237,31,6148,2,0,P|251:97|276:154,1,100,10|2,2:0|1:2,2:0:0:0:
300,159,6634,2,0,P|283:206|274:255,1,100,2|2,1:2|1:2,2:0:0:0:
329,345,7283,1,2,1:2:0:0:
329,345,7445,2,0,P|377:320|438:329,1,100,10|2,2:0|1:2,2:0:0:0:
464,358,7932,1,2,1:2:0:0:
464,358,8094,1,8,2:0:0:0:
506,266,8418,5,2,1:2:0:0:
432,198,8743,2,0,P|425:146|467:85,1,100,10|2,2:0|1:2,2:0:0:0:
491,85,9229,1,2,1:2:0:0:
406,32,9553,2,0,P|341:47|288:56,1,100,2|2,1:2|1:2,2:0:0:0:
275,90,10040,1,10,2:0:0:0:
195,29,10364,2,0,P|135:43|120:96,1,100,2|10,1:2|2:0,2:0:0:0:
91,116,10851,1,2,2:0:0:0:
91,116,11013,6,0,P|62:107|43:103,2,50,6|2|10,1:2|2:0|2:0,2:0:0:0:
140,202,11662,2,0,P|168:193|188:189,2,50,2|2|2,2:0|1:2|1:2,2:0:0:0:
101,234,12148,2,0,P|115:276|120:354,1,100,14|0,2:0|1:2,2:0:0:0:
155,367,12634,1,6,2:3:0:0:
252,345,12959,1,2,1:2:0:0:
288,252,13283,1,10,2:0:0:0:
385,274,13608,5,10,2:0:0:0:
385,274,13770,1,10,2:0:0:0:
453,201,14094,1,10,2:0:0:0:
424,105,14418,1,10,2:0:0:0:
327,83,14743,1,14,2:0:0:0:
29,357,16202,6,0,P|6:317|16:261,1,89.9999972534181,6|0,1:2|1:2,2:0:0:0:
39,241,16689,1,2,1:2:0:0:
39,241,16851,2,0,P|55:180|66:139,1,89.9999972534181,2|2,1:2|1:2,2:0:0:0:
48,65,17499,2,0,P|109:81|150:92,1,89.9999972534181,2|2,1:2|1:2,2:0:0:0:
175,118,17986,1,2,2:0:0:0:
175,118,18148,2,0,P|236:102|277:91,1,89.9999972534181,2|2,1:2|1:2,2:0:0:0:
340,50,18797,6,0,P|406:57|434:105,1,89.9999972534181,2|2,1:2|1:2,2:0:0:0:
443,109,19283,1,6,2:3:0:0:
397,186,19607,1,6,2:3:0:0:
397,186,19770,1,2,1:2:0:0:
455,254,20094,2,0,P|445:314|439:358,1,89.9999972534181,2|2,1:2|1:2,2:0:0:0:
406,371,20580,2,0,P|358:343|308:341,1,89.9999972534181,2|2,2:0|2:0,2:0:0:0:
284,359,21067,1,6,2:3:0:0:
239,280,21391,6,0,P|249:220|255:176,1,89.9999972534181,2|2,1:2|1:2,2:0:0:0:
229,152,21878,1,6,2:3:0:0:
277,76,22202,1,6,2:3:0:0:
206,20,22526,2,0,P|155:18|103:37,1,89.9999972534181,10|2,2:3|1:2,2:0:0:0:
73,22,23013,2,0,P|81:83|88:146,1,89.9999972534181,2|2,1:2|1:2,2:0:0:0:
97,200,23662,1,2,1:2:0:0:
53,278,23986,6,0,P|105:290|144:321,1,89.9999972534181,6|10,2:3|2:0,2:0:0:0:
167,348,24472,2,0,P|199:342|228:336,1,44.999998626709,10|10,2:0|2:0,2:0:0:0:
246,311,24797,2,0,P|278:317|307:323,1,44.999998626709,10|2,2:0|1:2,2:0:0:0:
333,330,25121,1,14,2:0:0:0:
255,71,26094,2,0,P|247:34|241:11,2,44.999998626709,6|6|6,2:3|2:3|2:3,2:0:0:0:
272,117,26580,6,0,P|313:79|371:77,1,100,6|8,1:2|2:0,2:0:0:0:
403,86,27067,1,2,2:0:0:0:
403,86,27229,2,0,P|415:143|432:194,1,100,2|10,1:2|2:0,2:0:0:0:
488,262,27878,2,0,B|434:275|461:305|401:327,1,100,2|8,1:2|2:0,2:0:0:0:
377,358,28364,1,2,2:0:0:0:
377,358,28526,1,2,1:2:0:0:
289,308,28851,2,0,P|256:313|218:325,1,50,10|2,2:0|2:0,2:0:0:0:
201,349,29175,6,0,P|145:348|115:299,1,100,2|10,1:2|2:0,2:0:0:0:
81,283,29662,1,2,2:0:0:0:
146,207,29986,1,2,2:0:0:0:
89,124,30310,1,2,2:0:0:0:
89,124,30472,2,0,P|114:69|130:13,1,100,2|10,1:2|2:0,2:0:0:0:
172,12,30959,2,0,B|233:20|212:37|278:51,1,100,2|2,2:0|1:2,2:0:0:0:
314,42,31445,1,10,2:0:0:0:
272,133,31770,6,0,P|261:199|256:256,1,100,6|10,1:2|2:0,2:0:0:0:
239,278,32256,1,6,1:2:0:0:
324,330,32580,2,0,P|358:314|392:303,1,50,2|10,1:2|2:0,2:0:0:0:
416,328,32905,2,0,P|451:298|456:235,1,100,6|2,1:2|1:2,2:0:0:0:
429,206,33391,1,10,2:0:0:0:
429,206,33553,1,6,1:2:0:0:
472,115,33878,2,0,P|503:120|535:124,2,50,2|10|2,1:2|2:0|2:0,2:0:0:0:
436,80,34364,6,0,P|379:89|335:121,1,100,6|10,1:2|2:0,2:0:0:0:
317,153,34851,1,2,1:2:0:0:
227,108,35175,1,2,1:2:0:0:
161,183,35499,2,0,P|176:236|191:318,1,100,6|2,1:2|1:2,2:0:0:0:
221,314,35986,1,10,2:0:0:0:
133,362,36310,1,2,2:0:0:0:
48,308,36634,1,10,2:0:0:0:
76,222,36959,5,2,2:0:0:0:
79,69,41499,6,0,L|19:60,2,44.999998626709,10|2|2,2:0|1:2|1:2,2:0:0:0:
149,125,42148,6,0,L|140:185,2,44.999998626709,6|2|2,1:2|1:2|1:2,2:0:0:0:
184,97,42634,2,0,P|237:76|296:99,1,89.9999972534181,2|2,2:0|1:2,2:0:0:0:
340,27,43283,2,0,P|361:80|338:139,1,89.9999972534181,2|2,1:2|1:2,2:0:0:0:
338,152,43770,1,2,2:0:0:0:
338,152,43932,2,0,P|356:205|376:270,1,89.9999972534181,2|10,1:2|2:3,2:0:0:0:
380,280,44418,1,10,2:0:0:0:
380,280,44580,5,6,1:2:0:0:
301,342,44905,2,0,P|281:338|225:337,1,50,2|10,1:2|2:0,2:0:0:0:
206,356,45229,1,6,1:2:0:0:
144,277,45554,2,0,P|148:257|149:201,1,50,2|10,1:2|2:0,2:0:0:0:
121,186,45878,1,6,1:2:0:0:
183,107,46203,2,0,P|179:87|178:31,1,50,2|10,1:2|2:0,2:0:0:0:
213,24,46526,2,0,B|272:30|248:52|305:59,1,100,6|2,1:2|1:2,2:0:0:0:
349,37,47013,1,10,2:0:0:0:
434,89,47337,6,0,P|423:141|416:216,1,100,6|2,1:2|1:2,2:0:0:0:
392,231,47824,2,0,P|437:260|441:318,1,100,10|10,2:0|2:0,2:0:0:0:
411,339,48310,1,2,1:2:0:0:
411,339,48472,2,0,P|350:328|292:321,1,100,10|10,2:0|2:0,2:0:0:0:
266,343,48959,1,2,1:2:0:0:
219,254,49283,2,0,P|227:212|236:167,1,50,10|8,2:0|2:0,2:0:0:0:
267,173,49607,2,0,P|259:131|250:86,1,50,10|8,2:0|2:0,2:0:0:0:
246,74,49932,5,6,1:2:0:0:
246,74,50094,1,2,1:2:0:0:
153,36,50418,1,2,1:2:0:0:
153,36,50580,1,2,1:2:0:0:
66,86,50905,1,10,2:0:0:0:
66,86,51067,1,2,1:2:0:0:
46,183,51391,1,2,1:2:0:0:
46,183,51553,2,0,P|60:217|64:253,1,50,10|2,2:0|2:0,2:0:0:0:
92,270,51878,2,0,P|85:294|75:316,2,50,2|0|10,1:2|2:0|2:0,2:0:0:0:
184,231,52526,5,10,2:0:0:0:
184,231,52689,1,10,2:0:0:0:
252,304,53013,1,10,2:0:0:0:
252,304,53175,1,10,2:0:0:0:
323,234,53499,1,10,2:0:0:0:
323,234,53662,1,10,2:0:0:0:
424,265,53986,1,10,2:0:0:0:
424,265,54148,1,10,2:0:0:0:
437,166,54472,2,0,P|431:103|434:51,1,100,2|2,2:0|2:0,2:0:0:0:
327,31,55121,6,0,P|301:40|244:53,1,55.0000016784668,6|2,1:2|2:0,2:0:0:0:
234,84,55445,2,0,P|208:75|151:62,1,55.0000016784668,10|2,2:0|2:0,2:0:0:0:
131,45,55770,2,0,P|95:98|109:157,1,110.000003356934,2|10,1:2|2:0,2:0:0:0:
140,178,56256,1,2,1:2:0:0:
74,266,56580,1,2,1:2:0:0:
74,266,56743,2,0,P|69:299|53:342,1,55.0000016784668,10|2,2:0|2:0,2:0:0:0:
100,359,57067,2,0,B|165:355|137:324|215:325,1,110.000003356934,2|10,1:2|2:0,2:0:0:0:
250,352,57553,5,2,1:2:0:0:
335,282,57878,1,2,1:2:0:0:
335,282,58040,2,0,P|368:270|401:256,1,55.0000016784668,10|2,2:0|2:0,2:0:0:0:
436,285,58364,2,0,P|473:239|452:172,1,110.000003356934,2|10,1:2|2:0,2:0:0:0:
421,159,58851,2,0,P|431:103|446:37,1,110.000003356934,2|0,1:2|1:2,2:0:0:0:
405,10,59337,1,10,2:0:0:0:
302,50,59662,1,2,1:2:0:0:
256,150,59986,1,10,2:0:0:0:
153,105,60310,6,0,P|138:53|149:0,1,110.000003356934,6|10,1:2|2:0,2:0:0:0:
35,63,60959,2,0,P|51:120|35:176,1,110.000003356934,2|10,1:2|2:0,2:0:0:0:
85,292,61607,6,0,P|104:243|156:232,1,110.000003356934,6|10,1:2|2:0,2:0:0:0:
205,208,62094,2,0,P|256:234|323:249,1,110.000003356934,2|2,1:2|1:2,2:0:0:0:
348,282,62580,1,10,2:0:0:0:
390,180,62905,6,0,P|377:115|383:46,1,110.000003356934,6|10,1:2|2:0,2:0:0:0:
340,31,63391,1,2,1:2:0:0:
445,0,63716,1,2,1:2:0:0:
484,102,64040,2,0,P|497:167|491:236,1,110.000003356934,6|2,1:2|1:2,2:0:0:0:
464,255,64526,1,10,2:0:0:0:
454,364,64851,2,0,P|418:354|377:349,1,55.0000016784668,14|8,2:3|2:0,2:0:0:0:
350,374,65175,1,14,2:3:0:0:
253,323,65499,6,0,P|257:284|265:246,1,55.0000016784668,6|2,1:2|2:0,2:0:0:0:
304,236,65824,2,0,P|299:208|297:181,1,55.0000016784668,10|2,2:0|2:0,2:0:0:0:
263,138,66148,2,0,P|289:78|263:18,1,110.000003356934,2|10,1:2|2:0,2:0:0:0:
227,15,66634,1,2,1:2:0:0:
131,70,66959,1,2,1:2:0:0:
131,70,67121,2,0,P|111:78|69:90,1,55.0000016784668,10|2,2:0|2:0,2:0:0:0:
40,126,67445,2,0,B|27:188|73:175|55:253,1,110.000003356934,2|10,1:2|2:0,2:0:0:0:
28,278,67932,5,2,1:2:0:0:
113,346,68256,1,2,1:2:0:0:
113,346,68418,2,0,P|146:333|190:327,1,55.0000016784668,10|2,2:0|2:0,2:0:0:0:
200,286,68743,2,0,P|267:301|282:359,1,110.000003356934,2|10,1:2|2:0,2:0:0:0:
322,372,69229,2,0,P|385:353|445:343,1,110.000003356934,6|0,1:2|1:2,2:0:0:0:
477,371,69716,1,10,2:0:0:0:
491,262,70040,1,2,1:2:0:0:
394,210,70364,1,10,2:0:0:0:
454,117,70689,6,0,P|450:62|468:11,1,110.000003356934,6|10,1:2|2:0,2:0:0:0:
326,29,71337,2,0,P|330:83|312:135,1,110.000003356934,2|10,1:2|2:0,2:0:0:0:
307,278,71986,6,0,B|257:265|281:239|209:230,1,110.000003356934,2|10,1:2|2:0,2:0:0:0:
173,190,72472,2,0,B|101:198|125:224|75:237,1,110.000003356934,2|2,1:2|1:2,2:0:0:0:
42,280,72959,1,10,2:0:0:0:
13,173,73283,6,0,P|28:104|40:42,1,110.000003356934,6|10,1:2|2:0,2:0:0:0:
11,15,73770,1,2,1:2:0:0:
120,3,74094,1,2,1:2:0:0:
193,86,74418,2,0,P|262:86|311:42,1,110.000003356934,6|0,1:2|1:2,2:0:0:0:
326,19,74905,1,10,2:0:0:0:
425,64,75229,2,0,P|433:104|442:137,1,55.0000016784668,10|0,2:0|2:0,2:0:0:0:
413,167,75553,2,0,P|421:207|430:240,1,55.0000016784668,6|2,2:3|1:2,2:0:0:0:
392,259,75878,6,0,B|484:258|442:297|550:292,2,150,6|6|2,1:2|2:3|1:2,2:0:0:0:
312,317,77175,1,2,1:2:0:0:
312,317,77337,2,0,P|300:235|285:192,1,100,6|0,2:3|1:2,2:0:0:0:
252,191,77824,1,2,1:2:0:0:
306,107,78148,1,2,1:2:0:0:
235,36,78472,6,0,P|176:47|145:87,1,100,2|2,1:2|1:2,2:0:0:0:
56,111,79121,2,0,P|89:146|94:195,1,100,2|2,1:2|1:2,2:0:0:0:
68,238,79607,2,0,P|79:289|93:373,1,100,10|6,2:3|2:3,2:0:0:0:
131,360,80094,1,2,1:2:0:0:
131,360,80256,2,0,B|223:345|185:291|296:281,1,150,2|12,2:0|2:3,2:0:0:0:
332,354,81067,5,14,2:0:0:0:
420,308,81391,1,2,2:0:0:0:
445,210,81716,2,0,P|439:180|436:136,1,50,2|4,2:0|2:3,2:0:0:0:
466,120,82040,1,10,2:0:0:0:
466,120,82202,2,0,P|416:113|367:103,1,100,14|4,2:0|2:3,2:0:0:0:
320,120,82689,1,2,1:2:0:0:
246,52,83013,2,0,P|221:57|176:70,1,50,2|6,1:2|2:3,2:0:0:0:
164,100,83337,1,6,2:3:0:0:
164,100,83499,6,0,P|124:54|61:60,1,100,14|0,2:0|1:2,2:0:0:0:
51,84,83986,1,4,2:3:0:0:
87,176,84310,2,0,P|94:212|108:248,1,50,10|10,2:0|2:0,2:0:0:0:
69,265,84634,1,10,2:0:0:0:
31,298,84797,1,10,2:0:0:0:
27,347,84959,1,10,2:0:0:0:
126,381,85283,1,10,2:0:0:0:
126,381,85445,1,6,1:2:0:0:
201,314,85770,1,2,2:0:0:0:
294,348,86094,5,6,1:2:0:0:
256,192,86256,12,0,88202,2:0:0:0:
