osu file format v14

[General]
AudioFilename: audio.mp3
AudioLeadIn: 0
PreviewTime: 54391
Countdown: 0
SampleSet: Soft
StackLeniency: 0.3
Mode: 0
LetterboxInBreaks: 0
WidescreenStoryboard: 1

[Editor]
DistanceSpacing: 1.2
BeatDivisor: 4
GridSize: 32
TimelineZoom: 1

[Metadata]
Title:Colorful Dreams! Colorful Smiles! (TV Size)
TitleUnicode:Colorful Dreams! Colorful Smiles! (TV Size)
Artist:Nijigasaki High School Idol Club
ArtistUnicode:虹ヶ咲学園スクールアイドル同好会
Creator:Sarawatlism
Version:Dream!
Source:ラブライブ!虹ヶ咲学園スクールアイドル同好会
Tags:Love Live Anime Japanese Opening Season 2 Two 2期 OP Short Pop JPop J-Pop 上原歩夢 Uehara Ayumu 大西亜玖璃 Onishi Aguri 中須かすみ Nakasu Kasumi 相良茉優 Sagara Mayu 桜坂しずく Osaka Shizuku 前田佳織里 Maeda Kaori 朝香果林 Asaka Karin 久保田未夢 Kubota Miyu 宮下愛 Miyashita Ai 村上奈津実 Murakami Natsumi 近江彼方 Konoe Kanata 鬼頭明里 Kito Akari 優木せつ菜 Yuki Setsuna 楠木ともり Kusunoki Tomori エマ・ヴェルデ Emma Verde 指出毬亜 Sashide Maria 天王寺璃奈 Tennoji Rina 田中ちえ美 Tanaka Chiemi 三船栞子 Mifune Shioriko 小泉萌香 Koizumi Moeka 鐘嵐珠 ショウ・ランジュ Lanzhu Zhong 法元明菜 Houmoto Akina ミア・テイラー Mia Taylor 内田秀 Uchida Shu Female Vocals wanpachi Cycopton [_lost_] conner c_o_n_n_e_r alevi hakashii asukow grazuko Sekai Sekaii Sekai-nyan
BeatmapID:3563247
BeatmapSetID:1742983

[Difficulty]
HPDrainRate:6
CircleSize:4
OverallDifficulty:9
ApproachRate:9.2
SliderMultiplier:1.99
SliderTickRate:1

[Events]
//Background and Video events
0,0,"BG.jpg",0,0
Video,0,"VD.mp4"
//Break Periods
//Storyboard Layer 0 (Background)
//Storyboard Layer 1 (Fail)
//Storyboard Layer 2 (Pass)
//Storyboard Layer 3 (Foreground)
//Storyboard Layer 4 (Overlay)
//Storyboard Sound Samples

[TimingPoints]
635,324.324324324324,4,2,10,60,1,0
635,-83.3333333333333,4,2,10,60,0,0
878,-83.3333333333333,4,2,10,5,0,0
959,-83.3333333333333,4,2,1,60,0,0
1121,-90.9090909090909,4,2,11,60,0,0
1364,-90.9090909090909,4,2,1,5,0,0
1445,-90.9090909090909,4,2,1,60,0,0
1607,-166.666666666667,4,2,12,60,0,0
2255,-166.666666666667,4,2,12,5,0,0
2418,-166.666666666667,4,2,12,60,0,0
2742,-166.666666666667,4,2,10,60,0,0
2905,-166.666666666667,4,2,14,60,0,0
3229,-83.3333333333333,4,2,10,60,0,0
3472,-83.3333333333333,4,2,10,5,0,0
3553,-83.3333333333333,4,2,1,60,0,0
3716,-90.9090909090909,4,2,11,60,0,0
3959,-90.9090909090909,4,2,11,5,0,0
4040,-90.9090909090909,4,2,1,60,0,0
4202,-142.857142857143,4,2,13,60,0,0
5093,-142.857142857143,4,2,13,5,0,0
5175,-142.857142857143,4,2,1,40,0,0
5499,-142.857142857143,4,2,1,50,0,0
5824,-83.3333333333333,4,2,1,70,0,0
6067,-83.3333333333333,4,2,1,5,0,0
6148,-83.3333333333333,4,2,11,70,0,0
6472,-83.3333333333333,4,2,16,70,0,0
6634,-83.3333333333333,4,2,11,70,0,0
6797,-83.3333333333333,4,2,1,70,0,0
6959,-83.3333333333333,4,2,11,70,0,0
7202,-83.3333333333333,4,2,11,5,0,0
7283,-83.3333333333333,4,2,1,70,0,0
7445,-83.3333333333333,4,2,11,70,0,0
7770,-83.3333333333333,4,2,16,70,0,0
7932,-83.3333333333333,4,2,11,70,0,0
8256,-83.3333333333333,4,2,1,70,0,0
8661,-83.3333333333333,4,2,1,5,0,0
8742,-83.3333333333333,4,2,11,70,0,0
9067,-83.3333333333333,4,2,16,70,0,0
9229,-83.3333333333333,4,2,11,70,0,0
9391,-83.3333333333333,4,2,1,70,0,0
9553,-83.3333333333333,4,2,11,70,0,0
9796,-83.3333333333333,4,2,11,5,0,0
9878,-83.3333333333333,4,2,1,70,0,0
10040,-83.3333333333333,4,2,11,70,0,0
10364,-83.3333333333333,4,2,16,70,0,0
10526,-83.3333333333333,4,2,11,70,0,0
10689,-83.3333333333333,4,2,1,70,0,0
10851,-83.3333333333333,4,2,14,70,0,0
11013,-83.3333333333333,4,2,10,70,0,0
11175,-83.3333333333333,4,2,1,70,0,0
12391,-83.3333333333333,4,2,1,5,0,0
12472,-83.3333333333333,4,2,1,70,0,0
15716,-83.3333333333333,4,2,12,60,0,0
15878,-200,4,2,12,60,0,0
16202,-125,4,2,15,60,0,0
16445,-125,4,2,1,5,0,0
16526,-125,4,2,1,60,0,0
16689,-125,4,2,17,60,0,0
17013,-125,4,2,1,60,0,0
17337,-125,4,2,18,60,0,0
17418,-125,4,2,1,60,0,0
17499,-125,4,2,12,60,0,0
17661,-125,4,2,1,60,0,0
17986,-125,4,2,19,60,0,0
18148,-125,4,2,17,60,0,0
18472,-125,4,2,1,60,0,0
18634,-125,4,2,17,60,0,0
18797,-125,4,2,15,60,0,0
19040,-125,4,2,1,5,0,0
19121,-125,4,2,17,60,0,0
19283,-125,4,2,19,60,0,0
19607,-125,4,2,17,60,0,0
20013,-125,4,2,1,60,0,0
20094,-125,4,2,15,60,0,0
20256,-125,4,2,1,60,0,0
20418,-125,4,2,17,60,0,0
20580,-125,4,2,19,60,0,0
20743,-125,4,2,1,60,0,0
20823,-125,4,2,1,5,0,0
20905,-125,4,2,12,60,0,0
21634,-125,4,2,1,5,0,0
21715,-125,4,2,15,60,0,0
21878,-125,4,2,17,60,0,0
22040,-125,4,2,1,60,0,0
22202,-125,4,2,15,60,0,0
22364,-125,4,2,1,60,0,0
22526,-125,4,2,17,60,0,0
22607,-125,4,2,1,60,0,0
22851,-125,4,2,19,60,0,0
23337,-125,4,2,1,60,0,0
23499,-125,4,2,12,60,0,0
23986,-125,4,2,12,70,0,0
24148,-125,4,2,1,70,0,0
24310,-125,4,2,15,70,0,0
24472,-125,4,2,17,70,0,0
24797,-125,4,2,19,70,0,0
24959,-125,4,2,1,70,0,0
25121,-125,4,2,11,70,0,0
26094,-125,4,2,12,70,0,0
26580,-83.3333333333333,4,2,12,70,0,0
26823,-83.3333333333333,4,2,1,5,0,0
26904,-83.3333333333333,4,2,1,70,0,0
27067,-83.3333333333333,4,2,11,70,0,0
27553,-83.3333333333333,4,2,1,70,0,0
27715,-83.3333333333333,4,2,12,70,0,0
28121,-83.3333333333333,4,2,1,5,0,0
28202,-83.3333333333333,4,2,1,70,0,0
28364,-83.3333333333333,4,2,10,70,0,0
28769,-83.3333333333333,4,2,10,5,0,0
28851,-83.3333333333333,4,2,11,70,0,0
29013,-83.3333333333333,4,2,10,70,0,0
29175,-83.3333333333333,4,2,14,70,0,0
29499,-83.3333333333333,4,2,13,70,0,0
29662,-83.3333333333333,4,2,14,70,0,0
29824,-83.3333333333333,4,2,1,70,0,0
29986,-83.3333333333333,4,2,10,70,0,0
30310,-83.3333333333333,4,2,11,70,0,0
30472,-83.3333333333333,4,2,1,70,0,0
30715,-83.3333333333333,4,2,1,5,0,0
30796,-83.3333333333333,4,2,1,70,0,0
31283,-83.3333333333333,4,2,18,70,0,0
31445,-200,4,2,18,70,0,0
31688,-200,4,2,18,5,0,0
31770,-83.3333333333333,4,2,11,70,0,0
32013,-83.3333333333333,4,2,11,5,0,0
32094,-83.3333333333333,4,2,16,70,0,0
32256,-90.9090909090909,4,2,18,70,0,0
32499,-90.9090909090909,4,2,18,5,0,0
32580,-90.9090909090909,4,2,16,70,0,0
32743,-90.9090909090909,4,2,18,70,0,0
32905,-83.3333333333333,4,2,12,70,0,0
33148,-83.3333333333333,4,2,12,5,0,0
33229,-83.3333333333333,4,2,11,70,0,0
33391,-83.3333333333333,4,2,16,70,0,0
33553,-76.9230769230769,4,2,11,70,0,0
33796,-76.9230769230769,4,2,11,5,0,0
33878,-76.9230769230769,4,2,11,70,0,0
34040,-71.4285714285714,4,2,10,70,0,0
34202,-71.4285714285714,4,2,14,70,0,0
34364,-71.4285714285714,4,2,13,70,0,0
34607,-71.4285714285714,4,2,13,5,0,0
34689,-71.4285714285714,4,2,14,70,0,0
34851,-71.4285714285714,4,2,10,70,0,0
35175,-71.4285714285714,4,2,11,70,0,0
35662,-71.4285714285714,4,2,1,70,0,0
35986,-71.4285714285714,4,2,12,70,0,0
36310,-83.3333333333333,4,2,18,70,0,0
36634,-71.4285714285714,4,2,16,70,0,0
36877,-71.4285714285714,4,2,16,5,0,0
36959,-142.857142857143,4,2,11,50,0,0
37445,-142.857142857143,4,2,16,50,0,0
37607,-142.857142857143,4,2,11,50,0,0
38094,-142.857142857143,4,2,16,50,0,0
38256,-142.857142857143,4,2,11,50,0,0
38418,-142.857142857143,4,2,16,50,0,0
38580,-142.857142857143,4,2,18,50,0,0
38742,-142.857142857143,4,2,12,50,0,0
39229,-142.857142857143,4,2,1,50,0,0
39553,-142.857142857143,4,2,18,50,0,0
39877,-142.857142857143,4,2,1,50,0,0
40040,-142.857142857143,4,2,12,50,0,0
40202,-142.857142857143,4,2,18,50,0,0
40689,-142.857142857143,4,2,12,50,0,0
40851,-142.857142857143,4,2,18,50,0,0
41013,-142.857142857143,4,2,12,50,0,0
41175,-142.857142857143,4,2,15,50,0,0
41337,-142.857142857143,4,2,17,50,0,0
41499,-142.857142857143,4,2,1,60,0,0
41824,-200,4,2,1,60,0,0
42067,-200,4,2,1,5,0,0
42148,-200,4,2,11,60,0,0
42310,-200,4,2,16,60,0,0
42472,-125,4,2,11,60,0,0
42634,-125,4,2,10,60,0,0
42959,-125,4,2,11,60,0,0
43121,-125,4,2,10,60,0,0
43283,-125,4,2,14,60,0,0
43526,-125,4,2,14,5,0,0
43607,-125,4,2,12,60,0,0
43932,-125,4,2,14,60,0,0
44094,-125,4,2,1,60,0,0
44256,-125,4,2,13,60,0,0
44337,-125,4,2,1,60,0,0
44418,-125,4,2,14,60,0,0
44580,-90.9090909090909,4,2,10,70,0,0
44823,-90.9090909090909,4,2,10,5,0,0
44905,-90.9090909090909,4,2,15,70,0,0
45067,-90.9090909090909,4,2,20,70,0,0
45229,-83.3333333333333,4,2,12,70,0,0
45472,-83.3333333333333,4,2,12,5,0,0
45553,-83.3333333333333,4,2,11,70,0,0
45716,-83.3333333333333,4,2,16,70,0,0
45878,-76.9230769230769,4,2,11,70,0,0
46121,-76.9230769230769,4,2,11,5,0,0
46202,-76.9230769230769,4,2,11,70,0,0
46364,-76.9230769230769,4,2,16,70,0,0
46526,-71.4285714285714,4,2,12,70,0,0
46769,-71.4285714285714,4,2,12,5,0,0
46851,-71.4285714285714,4,2,1,70,0,0
47337,-71.4285714285714,4,2,22,70,0,0
47662,-71.4285714285714,4,2,21,70,0,0
47987,-71.4285714285714,4,2,1,70,0,0
48148,-71.4285714285714,4,2,22,70,0,0
48311,-71.4285714285714,4,2,1,70,0,0
48472,-71.4285714285714,4,2,18,70,0,0
48634,-83.3333333333333,4,2,1,70,0,0
48796,-83.3333333333333,4,2,18,70,0,0
48959,-83.3333333333333,4,2,23,70,0,0
49121,-83.3333333333333,4,2,11,70,0,0
49607,-83.3333333333333,4,2,10,70,0,0
49932,-83.3333333333333,4,2,11,70,0,0
50094,-76.9230769230769,4,2,23,70,0,0
50418,-76.9230769230769,4,2,11,70,0,0
50580,-76.9230769230769,4,2,23,70,0,0
50905,-76.9230769230769,4,2,11,70,0,0
51067,-76.9230769230769,4,2,23,70,0,0
51229,-76.9230769230769,4,2,23,5,0,0
51391,-76.9230769230769,4,2,13,70,0,0
51553,-83.3333333333333,4,2,14,70,0,0
51715,-83.3333333333333,4,2,10,70,0,0
52202,-71.4285714285714,4,2,23,70,0,0
52445,-71.4285714285714,4,2,23,5,0,0
52526,-71.4285714285714,4,2,10,70,0,0
52689,-76.9230769230769,4,2,11,70,0,0
52851,-76.9230769230769,4,2,11,5,0,0
53013,-76.9230769230769,4,2,23,70,0,0
53176,-76.9230769230769,4,2,11,70,0,0
53337,-76.9230769230769,4,2,11,5,0,0
53499,-76.9230769230769,4,2,10,70,0,0
53662,-76.9230769230769,4,2,11,70,0,0
53824,-76.9230769230769,4,2,11,5,0,0
53986,-76.9230769230769,4,2,22,70,0,0
54310,-76.9230769230769,4,2,22,5,0,0
54472,-125,4,2,13,50,0,0
54715,-125,4,2,13,5,0,0
54797,-142.857142857143,4,2,14,60,0,0
55040,-142.857142857143,4,2,14,5,0,0
55121,-83.3333333333333,4,2,10,80,0,1
55607,-83.3333333333333,4,2,11,80,0,1
55770,-83.3333333333333,4,2,10,80,0,1
56094,-83.3333333333333,4,2,12,80,0,1
56256,-83.3333333333333,4,2,10,80,0,1
56499,-83.3333333333333,4,2,10,5,0,1
56580,-83.3333333333333,4,2,11,80,0,1
56743,-83.3333333333333,4,2,10,80,0,1
56905,-83.3333333333333,4,2,14,80,0,1
57067,-83.3333333333333,4,2,10,80,0,1
57391,-83.3333333333333,4,2,12,80,0,1
57553,-83.3333333333333,4,2,10,80,0,1
57796,-83.3333333333333,4,2,10,5,0,1
57878,-83.3333333333333,4,2,10,80,0,1
58202,-83.3333333333333,4,2,11,80,0,1
58364,-83.3333333333333,4,2,10,80,0,1
58526,-83.3333333333333,4,2,1,80,0,1
58689,-83.3333333333333,4,2,14,80,0,1
58851,-83.3333333333333,4,2,13,80,0,1
59094,-83.3333333333333,4,2,13,5,0,1
59175,-83.3333333333333,4,2,13,80,0,1
59337,-83.3333333333333,4,2,14,80,0,1
59662,-83.3333333333333,4,2,10,80,0,1
59986,-83.3333333333333,4,2,11,80,0,1
60310,-125,4,2,14,80,0,1
60553,-125,4,2,14,5,0,1
60634,-76.9230769230769,4,2,14,80,0,1
60797,-76.9230769230769,4,2,14,5,0,1
60959,-111.111111111111,4,2,14,80,0,1
61202,-111.111111111111,4,2,14,5,0,1
61283,-66.6666666666667,4,2,14,80,0,1
61445,-66.6666666666667,4,2,14,5,0,1
61607,-71.4285714285714,4,2,13,80,0,1
61850,-71.4285714285714,4,2,13,5,0,1
61932,-71.4285714285714,4,2,14,80,0,1
62094,-76.9230769230769,4,2,10,80,0,1
62337,-76.9230769230769,4,2,10,5,0,1
62418,-76.9230769230769,4,2,14,80,0,1
62580,-76.9230769230769,4,2,10,80,0,1
62743,-76.9230769230769,4,2,11,80,0,1
62905,-76.9230769230769,4,2,12,80,0,1
63391,-76.9230769230769,4,2,11,80,0,1
63716,-76.9230769230769,4,2,14,80,0,1
64040,-66.6666666666667,4,2,10,80,0,1
64283,-66.6666666666667,4,2,10,5,0,1
64364,-66.6666666666667,4,2,1,80,0,1
64851,-66.6666666666667,4,2,13,80,0,1
64932,-66.6666666666667,4,2,1,80,0,1
65175,-66.6666666666667,4,2,14,80,0,1
65256,-66.6666666666667,4,2,1,80,0,1
65499,-66.6666666666667,4,2,10,80,0,1
65986,-66.6666666666667,4,2,11,80,0,1
66148,-83.3333333333333,4,2,10,80,0,1
66310,-83.3333333333333,4,2,1,80,0,1
66472,-83.3333333333333,4,2,12,80,0,1
66634,-83.3333333333333,4,2,10,80,0,1
66877,-83.3333333333333,4,2,10,5,0,1
66959,-83.3333333333333,4,2,11,80,0,1
67121,-83.3333333333333,4,2,10,80,0,1
67283,-83.3333333333333,4,2,14,80,0,1
67445,-83.3333333333333,4,2,10,80,0,1
67607,-83.3333333333333,4,2,1,80,0,1
67770,-83.3333333333333,4,2,12,80,0,1
67932,-83.3333333333333,4,2,10,80,0,1
68175,-83.3333333333333,4,2,10,5,0,1
68256,-83.3333333333333,4,2,10,80,0,1
68580,-83.3333333333333,4,2,11,80,0,1
68743,-83.3333333333333,4,2,10,80,0,1
68905,-83.3333333333333,4,2,1,80,0,1
69067,-83.3333333333333,4,2,14,80,0,1
69229,-83.3333333333333,4,2,13,80,0,1
69472,-83.3333333333333,4,2,13,5,0,1
69553,-83.3333333333333,4,2,13,80,0,1
69716,-83.3333333333333,4,2,14,80,0,1
70040,-83.3333333333333,4,2,10,80,0,1
70202,-83.3333333333333,4,2,1,80,0,1
70364,-83.3333333333333,4,2,11,80,0,1
70689,-125,4,2,14,80,0,1
70932,-125,4,2,14,5,0,1
71013,-76.9230769230769,4,2,14,80,0,1
71175,-76.9230769230769,4,2,14,5,0,1
71337,-111.111111111111,4,2,14,80,0,1
71499,-111.111111111111,4,2,1,80,0,1
71580,-111.111111111111,4,2,1,5,0,1
71662,-66.6666666666667,4,2,14,80,0,1
71824,-66.6666666666667,4,2,14,5,0,1
71986,-71.4285714285714,4,2,13,80,0,1
72229,-71.4285714285714,4,2,13,5,0,1
72310,-71.4285714285714,4,2,14,80,0,1
72472,-76.9230769230769,4,2,10,80,0,1
72715,-76.9230769230769,4,2,10,5,0,1
72797,-76.9230769230769,4,2,14,80,0,1
72959,-76.9230769230769,4,2,10,80,0,1
73121,-76.9230769230769,4,2,11,80,0,1
73283,-76.9230769230769,4,2,12,80,0,1
73770,-76.9230769230769,4,2,11,80,0,1
74094,-76.9230769230769,4,2,14,80,0,1
74256,-76.9230769230769,4,2,1,80,0,1
74418,-76.9230769230769,4,2,10,80,0,1
74661,-76.9230769230769,4,2,10,5,0,1
74743,-76.9230769230769,4,2,10,80,0,1
74905,-76.9230769230769,4,2,13,80,0,1
75229,-76.9230769230769,4,2,14,80,0,1
75553,-90.9090909090909,4,2,10,80,0,1
75715,-90.9090909090909,4,2,11,80,0,1
75878,-111.111111111111,4,2,12,70,0,0
76364,-111.111111111111,4,2,16,70,0,0
76688,-111.111111111111,4,2,1,70,0,0
76851,-111.111111111111,4,2,11,70,0,0
77013,-111.111111111111,4,2,1,70,0,0
77337,-111.111111111111,4,2,22,70,0,0
77499,-111.111111111111,4,2,1,70,0,0
77824,-111.111111111111,4,2,12,70,0,0
77986,-111.111111111111,4,2,12,5,0,0
78148,-111.111111111111,4,2,15,70,0,0
78472,-111.111111111111,4,2,1,70,0,0
78796,-111.111111111111,4,2,12,70,0,0
78959,-111.111111111111,4,2,1,70,0,0
79121,-111.111111111111,4,2,16,70,0,0
79283,-111.111111111111,4,2,1,70,0,0
79445,-111.111111111111,4,2,11,70,0,0
79607,-111.111111111111,4,2,10,70,0,0
79770,-111.111111111111,4,2,1,70,0,0
79932,-111.111111111111,4,2,11,70,0,0
80094,-111.111111111111,4,2,16,70,0,0
80256,-111.111111111111,4,2,11,70,0,0
80418,-111.111111111111,4,2,1,70,0,0
81067,-100,4,2,1,70,0,0
81310,-100,4,2,1,5,0,0
81391,-100,4,2,12,70,0,0
81716,-100,4,2,10,70,0,0
82040,-100,4,2,14,70,0,0
82202,-90.9090909090909,4,2,13,70,0,0
82445,-90.9090909090909,4,2,13,5,0,0
82526,-90.9090909090909,4,2,13,70,0,0
82689,-90.9090909090909,4,2,14,70,0,0
83013,-90.9090909090909,4,2,10,70,0,0
83175,-90.9090909090909,4,2,1,70,0,0
83337,-90.9090909090909,4,2,14,70,0,0
83499,-76.9230769230769,4,2,13,70,0,0
83742,-76.9230769230769,4,2,13,5,0,0
83824,-76.9230769230769,4,2,13,70,0,0
84310,-76.9230769230769,4,2,1,70,0,0
84472,-76.9230769230769,4,2,12,70,0,0
84797,-76.9230769230769,4,2,1,70,0,0
84959,-71.4285714285714,4,2,10,70,0,0
85202,-71.4285714285714,4,2,10,5,0,0
85283,-71.4285714285714,4,2,24,70,0,0
85445,-142.857142857143,4,2,10,70,0,0
85688,-142.857142857143,4,2,1,5,0,0
85769,-142.857142857143,4,2,11,50,0,0
86094,-142.857142857143,4,2,14,70,0,0
88202,-142.857142857143,4,2,14,5,0,0

[Colours]
Combo1 : 202,140,208
Combo2 : 243,156,181
Combo3 : 255,240,155
Combo4 : 196,138,81

[HitObjects]
345,194,635,6,0,P|439:195|481:99,1,179.099994534302,6|0,1:2|2:0,0:0:0:0:
478,99,959,1,10,2:0:0:0:
244,10,1121,6,0,B|252:112|252:112|245:137|245:137|252:228,1,218.900006680298,2|10,1:2|2:0,0:0:0:0:
267,248,1526,1,8,2:0:0:0:
267,248,1607,6,0,B|226:197|154:242|154:242|142:314|75:315,1,238.799992712403,6|0,1:2|2:0,0:0:0:0:
9,288,2418,1,2,2:0:0:0:
20,213,2580,2,0,P|69:226|99:226,1,59.6999981781006,2|2,2:0|2:0,0:0:0:0:
128,134,2905,2,0,P|99:143|70:147,1,59.6999981781006,2|0,2:0|2:0,0:0:0:0:
4,60,3229,6,0,B|94:42|94:42|153:72|127:130,1,179.099994534302,6|0,1:2|2:0,0:0:0:0:
128,134,3553,1,10,2:0:0:0:
228,292,3716,6,0,B|204:237|243:198|243:198|225:159|234:128,1,164.175005010224,2|0,1:2|2:0,0:0:0:0:
233,113,4040,1,10,2:0:0:0:
322,266,4202,6,0,P|405:291|369:104,1,383.074988309479,6|0,1:2|2:0,0:0:0:0:
310,56,5175,6,0,P|283:67|275:70,3,34.8249989372254,2|2|2|2,2:0|2:0|2:0|2:0,0:0:0:0:
250,62,5499,2,0,P|223:51|215:48,3,34.8249989372254,2|2|2|2,2:0|2:0|2:0|2:0,0:0:0:0:
143,15,5824,6,0,L|143:217,1,179.099994534302,6|0,1:2|0:0,0:0:0:0:
149,231,6148,2,0,P|101:198|29:217,1,119.399996356201,10|0,2:0|2:0,0:0:0:0:
229,137,6472,1,2,1:2:0:0:
292,300,6634,2,0,P|350:301|396:264,1,119.399996356201,2|10,1:2|2:0,0:0:0:0:
458,150,6959,6,0,B|376:170|376:170|367:186|367:186|264:210,1,179.099994534302,2|0,1:2|2:0,0:0:0:0:
266,215,7283,1,2,1:2:0:0:
117,107,7445,2,0,P|192:117|234:140,1,119.399996356201,10|0,2:0|2:0,0:0:0:0:
129,294,7770,1,2,1:2:0:0:
10,193,7932,1,2,1:2:0:0:
129,294,8094,2,0,P|182:249|181:194,1,119.399996356201,8|2,2:0|2:0,0:0:0:0:
10,13,8418,6,0,L|10:200,1,179.099994534302,2|0,1:2|0:0,0:0:0:0:
2,226,8743,2,0,P|48:186|130:205,1,119.399996356201,10|0,2:0|2:0,0:0:0:0:
246,290,9067,1,2,1:2:0:0:
120,378,9229,2,0,B|90:324|90:324|126:266,1,119.399996356201,2|10,1:2|2:0,0:0:0:0:
238,155,9553,6,0,B|290:131|330:169|319:174|357:209|411:187,1,179.099994534302,2|0,1:2|2:0,0:0:0:0:
431,158,9878,1,2,1:2:0:0:
488,307,10040,2,0,B|493:256|493:256|505:242|505:242|513:193,1,119.399996356201,10|0,2:0|2:0,0:0:0:0:
292,256,10364,1,2,1:2:0:0:
387,362,10526,1,2,1:2:0:0:
292,256,10689,2,0,P|226:267|183:313,1,119.399996356201,10|2,2:0|2:0,0:0:0:0:
119,134,11013,6,0,P|150:214|311:212,1,238.799992712403,6|10,1:2|2:0,0:0:0:0:
392,124,11499,1,2,2:0:0:0:
258,43,11662,2,0,P|217:107|227:170,1,119.399996356201,2|2,2:0|1:2,0:0:0:0:
344,57,11986,1,2,1:2:0:0:
125,0,12148,6,0,L|125:189,1,179.099994534302,14|0,2:0|2:0,0:0:0:0:
125,209,12472,1,0,1:2:0:0:
200,330,12634,2,0,B|140:319|140:319|125:325|125:325|74:315,1,119.399996356201,6|2,2:3|2:0,0:0:0:0:
261,201,12959,2,0,B|321:212|321:212|336:206|336:206|387:216,1,119.399996356201,2|2,1:2|1:2,0:0:0:0:
446,373,13283,1,10,2:0:0:0:
457,332,13364,1,2,2:0:0:0:
469,292,13445,1,2,2:0:0:0:
480,251,13526,1,2,2:0:0:0:
499,194,13607,5,10,2:0:0:0:
277,324,13770,1,10,2:0:0:0:
159,39,14094,5,10,2:0:0:0:
378,215,14418,5,10,2:0:0:0:
52,215,14743,5,14,2:0:0:0:
52,215,15716,5,2,2:0:0:0:
110,161,15878,2,0,P|153:171|170:188,1,49.75,2|0,2:0|2:0,0:0:0:0:
203,264,16202,6,0,P|214:172|224:99,1,159.2,6|0,1:2|1:2,0:0:0:0:
376,92,16689,1,2,1:2:0:0:
290,28,16851,2,0,P|293:60|305:111,1,79.6,2|4,1:2|2:3,0:0:0:0:
404,201,17175,2,0,P|365:192|326:188,1,79.6,2|10,1:2|2:3,0:0:0:0:
314,176,17418,1,8,2:3:0:0:
314,176,17499,6,0,P|354:180|392:189,1,79.6,2|2,1:2|1:2,0:0:0:0:
442,286,17824,2,0,P|402:282|364:273,1,79.6,2|2,1:2|2:0,0:0:0:0:
288,343,18148,2,0,P|337:285|291:210,1,159.2,2|2,1:2|1:2,0:0:0:0:
214,167,18634,1,10,2:0:0:0:
214,167,18716,1,8,2:0:0:0:
214,167,18797,6,0,B|165:154|137:196|144:194|126:232|61:220,1,159.2,2|2,1:2|1:2,0:0:0:0:
98,121,19283,1,6,2:3:0:0:
2,80,19445,2,0,P|14:148|15:177,1,79.6,0|6,1:2|2:3,0:0:0:0:
116,27,19770,2,0,P|107:66|103:105,1,79.6,2|6,1:2|2:3,0:0:0:0:
98,121,20013,1,8,2:3:0:0:
98,121,20094,6,0,P|144:106|181:102,1,79.6,2|2,1:2|1:2,0:0:0:0:
281,8,20418,2,0,P|235:23|198:27,1,79.6,2|2,1:2|2:0,0:0:0:0:
273,103,20743,2,0,B|336:86|365:77|365:77|398:98|382:146,1,159.2,2|6,1:2|2:3,0:0:0:0:
324,216,21229,1,10,2:0:0:0:
406,278,21391,6,0,P|426:247|335:242,1,159.2,2|2,1:2|1:2,0:0:0:0:
279,293,21878,1,6,2:3:0:0:
346,371,22040,2,0,P|396:358|430:355,1,79.6,2|6,1:2|2:3,0:0:0:0:
279,293,22364,1,2,1:2:0:0:
188,342,22526,1,10,2:3:0:0:
188,342,22607,1,8,2:3:0:0:
188,342,22689,6,0,P|138:329|104:326,1,79.6,2|2,1:2|1:2,0:0:0:0:
83,226,23013,2,0,P|133:239|167:242,1,79.6,2|0,1:2|2:0,0:0:0:0:
248,202,23337,2,0,P|297:175|243:94,1,159.2,2|2,1:2|1:2,0:0:0:0:
166,28,23824,1,2,2:0:0:0:
83,226,23986,5,6,2:3:0:0:
45,153,24148,1,10,2:0:0:0:
160,241,24310,5,10,2:0:0:0:
2,224,24472,1,10,2:0:0:0:
181,152,24634,5,10,2:0:0:0:
2,224,24797,1,10,2:0:0:0:
248,202,24959,5,2,1:2:0:0:
49,65,25121,1,14,2:0:0:0:
49,65,26094,5,6,2:3:0:0:
248,202,26256,1,6,2:3:0:0:
1,223,26418,1,6,2:3:0:0:
178,66,26580,6,0,P|241:30|335:149,1,238.799992712403,6|8,1:2|2:0,0:0:0:0:
172,214,27067,1,2,2:0:0:0:
381,240,27229,2,0,P|320:221|236:208,1,119.399996356201,2|0,1:2|2:0,0:0:0:0:
122,331,27553,2,0,P|181:320|238:302,1,119.399996356201,10|2,2:0|2:0,0:0:0:0:
213,147,27878,6,0,B|134:135|102:200|117:198|99:254|5:240,1,238.799992712403,2|8,1:2|2:0,0:0:0:0:
49,90,28364,1,2,2:0:0:0:
192,229,28526,2,0,B|269:213|269:213|285:222|285:222|387:198,1,179.099994534302,2|0,1:2|2:0,0:0:0:0:
388,215,28851,2,0,B|418:155|418:155|384:91,1,119.399996356201,10|2,2:0|2:0,0:0:0:0:
267,18,29175,6,0,L|267:260,1,238.799992712403,2|10,1:2|2:0,0:0:0:0:
154,364,29662,1,2,2:0:0:0:
32,268,29824,2,0,P|106:258|150:230,1,119.399996356201,2|2,1:2|2:0,0:0:0:0:
314,331,30148,2,0,P|261:303|202:298,1,119.399996356201,8|2,2:0|2:0,0:0:0:0:
178,145,30472,6,0,B|252:111|292:166|280:169|330:220|398:196,1,238.799992712403,2|10,1:2|2:0,0:0:0:0:
502,82,30959,1,2,2:0:0:0:
472,292,31121,2,0,P|482:216|497:158,1,119.399996356201,2|2,1:2|1:2,0:0:0:0:
303,22,31445,6,0,P|313:71|318:113,1,74.625,10|0,2:0|2:0,0:0:0:0:
322,16,31770,6,0,L|322:222,1,179.099994534302,6|0,1:2|2:0,0:0:0:0:
322,225,32094,1,10,2:0:0:0:
477,342,32256,6,0,B|519:322|519:322|381:299,1,164.175005010224,6|0,1:2|2:0,0:0:0:0:
371,299,32580,1,2,1:2:0:0:
479,205,32743,1,10,2:0:0:0:
148,248,32905,6,0,B|221:230|221:230|259:241|259:241|341:219,1,179.099994534302,6|0,1:2|2:0,0:0:0:0:
351,218,33229,1,2,1:2:0:0:
213,146,33391,1,10,2:0:0:0:
490,86,33553,6,0,B|413:67|413:67|375:78|375:78|294:56,1,194.024991118241,6|0,1:2|2:0,0:0:0:0:
267,46,33878,1,2,1:2:0:0:
79,175,34040,6,0,P|26:122|51:47,1,139.299995748901,10|2,2:0|2:0,0:0:0:0:
15,292,34364,6,0,P|62:212|173:226,1,208.949993623352,6|0,1:2|2:0,0:0:0:0:
190,246,34689,1,10,2:0:0:0:
348,158,34851,2,0,P|274:142|212:110,1,139.299995748901,2|0,1:2|2:0,0:0:0:0:
335,309,35175,2,0,P|397:278|465:264,1,139.299995748901,2|8,1:2|2:0,0:0:0:0:
361,66,35499,1,6,1:2:0:0:
190,246,35662,5,2,2:0:0:0:
160,250,35743,1,2,2:0:0:0:
130,244,35824,1,2,1:2:0:0:
108,223,35905,1,2,2:0:0:0:
84,181,35986,5,10,2:0:0:0:
85,133,36067,1,0,2:0:0:0:
112,94,36148,1,0,2:0:0:0:
155,75,36229,1,0,2:0:0:0:
202,79,36310,6,0,P|245:98|275:102,1,59.6999981781006,2|0,2:0|2:0,0:0:0:0:
324,206,36472,2,0,P|281:187|251:183,1,59.6999981781006,0|0,2:0|2:0,0:0:0:0:
447,45,36634,6,0,B|376:8|376:8|401:141,1,208.949993623352,10|0,2:0|2:0,0:0:0:0:
394,245,36959,6,0,P|337:213|249:195,1,139.299995748901,2|0,2:0|2:0,0:0:0:0:
203,240,37445,1,2,2:0:0:0:
222,313,37607,2,0,P|279:345|367:363,1,139.299995748901,2|0,2:0|2:0,0:0:0:0:
415,320,38094,1,2,2:0:0:0:
410,243,38256,6,0,P|421:190|430:158,1,69.6499978744507,2|2,2:0|2:0,0:0:0:0:
324,118,38580,2,0,P|332:151|338:185,1,69.6499978744507,2|2,1:2|2:0,0:0:0:0:
421,256,38905,2,0,P|437:191|461:100,1,139.299995748901,2|2,2:0|2:0,0:0:0:0:
187,11,39553,6,0,P|204:78|221:146,1,139.299995748901,2|2,1:2|2:0,0:0:0:0:
262,211,40040,1,2,2:0:0:0:
262,211,40202,2,0,P|218:164|142:182,1,139.299995748901,2|0,2:0|2:0,0:0:0:0:
85,218,40689,1,2,2:0:0:0:
137,273,40851,2,0,P|181:262|214:257,1,69.6499978744507,2|2,2:0|2:0,0:0:0:0:
83,337,41175,2,0,P|24:322|-5:318,1,69.6499978744507,2|2,1:2|2:0,0:0:0:0:
192,347,41499,5,10,2:0:0:0:
85,218,41662,1,2,1:2:0:0:
192,347,41824,6,0,P|197:310|207:274,1,74.625,2|0,1:2|2:0,0:0:0:0:
214,253,42148,5,6,1:2:0:0:
116,132,42310,1,2,1:2:0:0:
296,221,42472,2,0,P|339:208|377:201,1,79.6,2|2,1:2|2:0,0:0:0:0:
265,143,42797,2,0,P|222:156|184:163,1,79.6,8|2,2:0|1:2,0:0:0:0:
356,104,43121,1,2,2:0:0:0:
265,3,43283,6,0,L|265:140,1,119.4,2|0,1:2|2:0,0:0:0:0:
265,143,43607,1,2,1:2:0:0:
373,201,43770,2,0,B|379:155|379:155|381:155|381:155|385:123,1,79.6,2|2,2:0|1:2,0:0:0:0:
177,49,44094,5,10,2:0:0:0:
146,40,44175,1,0,1:2:0:0:
114,41,44256,1,10,2:3:0:0:
88,60,44337,1,8,2:3:0:0:
72,87,44418,1,10,2:0:0:0:
56,311,44580,6,0,P|100:241|185:270,1,164.175005010224,6|0,1:2|2:0,0:0:0:0:
188,270,44905,1,2,1:2:0:0:
64,169,45067,1,10,2:0:0:0:
130,363,45229,6,0,B|205:351|205:351|235:359|235:359|323:344,1,179.099994534302,6|0,1:2|2:0,0:0:0:0:
337,338,45553,1,2,1:2:0:0:
188,270,45716,1,10,2:0:0:0:
410,146,45878,6,0,P|382:220|265:216,1,194.024991118241,6|0,1:2|2:0,0:0:0:0:
250,208,46202,1,2,1:2:0:0:
356,78,46364,1,10,2:0:0:0:
132,8,46526,6,0,L|132:223,1,208.949993623352,6|0,1:2|2:0,0:0:0:0:
132,245,46851,1,2,1:2:0:0:
337,338,47013,2,0,B|265:326|265:326|260:328|260:328|191:317,1,139.299995748901,10|6,2:0|2:3,0:0:0:0:
285,129,47337,5,6,1:2:0:0:
462,246,47499,5,8,2:0:0:0:
458,261,47580,1,8,2:0:0:0:
454,280,47662,1,2,1:2:0:0:
387,139,47824,5,10,2:0:0:0:
391,124,47905,1,8,2:0:0:0:
395,105,47987,1,2,1:2:0:0:
264,256,48148,5,10,2:0:0:0:
258,282,48229,1,8,2:0:0:0:
252,312,48311,1,2,1:2:0:0:
161,91,48472,5,10,2:0:0:0:
167,65,48553,1,8,2:0:0:0:
173,35,48634,2,0,P|141:46|103:55,3,59.6999981781006,2|0|10|8,1:2|1:0|2:0|2:0,0:0:0:0:
242,125,48959,2,0,P|270:132|298:142,3,59.6999981781006,2|0|10|8,1:2|1:0|2:0|2:0,0:0:0:0:
95,283,49283,5,10,2:0:0:0:
56,266,49364,1,8,2:0:0:0:
35,229,49445,1,8,2:0:0:0:
38,187,49526,1,8,2:0:0:0:
62,153,49607,1,10,2:0:0:0:
102,142,49689,1,8,2:0:0:0:
143,148,49770,1,8,2:0:0:0:
174,175,49851,1,8,2:0:0:0:
188,214,49932,5,6,1:2:0:0:
297,324,50094,2,0,B|348:313|348:313|356:315|356:315|435:297,1,129.349994078827,2|8,1:2|2:0,0:0:0:0:
143,148,50418,5,2,1:2:0:0:
319,236,50580,2,0,B|370:225|370:225|378:227|378:227|457:208,1,129.349994078827,2|0,1:2|2:0,0:0:0:0:
98,72,50905,5,10,2:0:0:0:
346,147,51067,2,0,B|397:136|397:136|405:138|405:138|480:121,1,129.349994078827,2|0,1:2|2:0,0:0:0:0:
215,24,51391,5,2,1:2:0:0:
62,231,51553,2,0,P|14:178|36:125,1,119.399996356201,10|2,2:0|2:0,0:0:0:0:
216,361,51878,2,0,B|165:350|165:350|157:352|157:352|79:332,1,119.399996356201,2|0,1:2|2:0,0:0:0:0:
119,126,52202,6,0,B|214:144|214:144|229:141|229:141|344:172,1,208.949993623352,10|0,2:0|2:0,0:0:0:0:
346,173,52526,5,10,2:0:0:0:
470,256,52689,2,0,P|505:191|499:112,1,129.349994078827,10|0,2:0|2:0,0:0:0:0:
265,125,53013,5,10,2:0:0:0:
389,42,53176,2,0,P|424:107|418:186,1,129.349994078827,10|0,2:0|2:0,0:0:0:0:
186,209,53499,5,10,2:0:0:0:
310,292,53662,2,0,P|345:227|339:148,1,129.349994078827,10|0,2:0|2:0,0:0:0:0:
190,56,53986,5,10,2:0:0:0:
31,167,54148,2,0,L|31:300,1,129.349994078827,10|0,2:0|2:0,0:0:0:0:
258,159,54472,6,0,P|206:130|147:124,1,119.4,2|0,2:0|2:0,0:0:0:0:
140,109,54797,6,0,P|199:115|245:140,1,104.474996811676,2|0,2:0|2:0,0:0:0:0:
337,171,55121,5,6,1:2:0:0:
426,30,55283,1,2,2:0:0:0:
238,135,55445,1,10,2:0:0:0:
452,218,55607,1,2,2:0:0:0:
345,71,55770,2,0,P|271:80|240:132,1,119.399996356201,2|0,1:2|1:2,0:0:0:0:
415,129,56094,1,10,2:0:0:0:
160,9,56256,6,0,L|160:197,1,179.099994534302,2|0,1:2|2:0,0:0:0:0:
161,212,56580,1,2,1:2:0:0:
271,69,56743,1,10,2:0:0:0:
69,196,56905,1,2,2:0:0:0:
303,259,57067,2,0,P|345:192|326:145,1,119.399996356201,2|0,1:2|2:0,0:0:0:0:
168,304,57391,1,10,2:0:0:0:
337,341,57553,6,0,P|295:276|187:294,1,179.099994534302,2|0,1:2|2:0,0:0:0:0:
168,304,57878,1,2,1:2:0:0:
256,148,58040,2,0,P|334:163|360:201,1,119.399996356201,10|2,2:0|2:0,0:0:0:0:
112,228,58364,2,0,P|74:165|94:111,1,119.399996356201,2|2,1:2|1:2,0:0:0:0:
225,13,58689,1,10,2:0:0:0:
371,165,58851,6,0,L|185:165,1,179.099994534302,2|0,1:2|2:0,0:0:0:0:
164,165,59175,1,0,1:2:0:0:
326,66,59337,2,0,P|410:44|441:8,1,119.399996356201,10|0,2:0|2:0,0:0:0:0:
501,198,59662,2,0,P|454:162|396:155,1,119.399996356201,2|0,1:2|2:0,0:0:0:0:
263,299,59986,2,0,P|310:263|368:256,1,119.399996356201,10|0,2:0|2:0,0:0:0:0:
502,371,60310,6,0,P|507:304|516:237,1,119.4,6|0,1:2|2:0,0:0:0:0:
501,198,60634,6,0,P|490:296|486:356,1,129.349994078827,10|0,2:0|2:0,0:0:0:0:
220,221,60959,6,0,B|273:211|273:211|293:192|293:192|358:179,1,134.324995900726,2|0,1:2|2:0,0:0:0:0:
376,165,61283,6,0,B|302:178|302:178|282:197|282:197|229:207,1,149.250005693436,10|0,2:0|2:0,0:0:0:0:
40,312,61607,6,0,B|105:252|164:315|149:326|173:362|232:358,1,208.949993623352,6|0,1:2|2:0,0:0:0:0:
248,347,61932,1,10,2:0:0:0:
376,165,62094,6,0,P|298:130|238:229,1,194.024991118241,2|0,1:2|2:0,0:0:0:0:
232,228,62418,1,2,1:2:0:0:
152,51,62580,1,10,2:0:0:0:
337,230,62743,1,2,2:0:0:0:
117,279,62905,6,0,P|144:198|151:143,1,129.349994078827,6|0,1:2|2:0,0:0:0:0:
352,337,63229,1,10,2:0:0:0:
494,260,63391,6,0,P|415:247|355:225,1,129.349994078827,2|0,1:2|2:0,0:0:0:0:
308,72,63716,1,2,1:2:0:0:
449,171,63878,1,8,2:0:0:0:
232,4,64040,6,0,L|232:232,1,223.875008540154,6|0,1:2|2:0,0:0:0:0:
187,294,64364,1,2,1:2:0:0:
181,307,64445,1,0,1:2:0:0:
177,318,64526,2,0,P|137:301|99:292,1,74.6250028467179,10|8,2:0|2:0,0:0:0:0:
349,195,64689,2,0,P|385:185|419:170,1,74.6250028467179,4|4,2:3|2:3,0:0:0:0:
206,11,64851,5,14,2:3:0:0:
154,0,64932,1,8,2:3:0:0:
105,19,65013,2,0,L|108:108,1,74.6250028467179,8|4,2:0|2:3,0:0:0:0:
248,203,65175,5,14,2:3:0:0:
300,214,65256,1,8,2:3:0:0:
349,195,65337,2,0,L|346:106,1,74.6250028467179,4|4,2:3|2:3,0:0:0:0:
110,220,65499,5,6,1:2:0:0:
302,300,65662,1,2,2:0:0:0:
110,220,65824,1,10,2:0:0:0:
264,105,65986,1,2,2:0:0:0:
191,333,66148,2,0,P|114:315|57:310,1,119.399996356201,2|2,1:2|2:0,0:0:0:0:
300,214,66472,1,10,2:0:0:0:
110,40,66634,6,0,L|110:223,1,179.099994534302,2|0,1:2|2:0,0:0:0:0:
112,237,66959,1,2,1:2:0:0:
225,114,67121,1,10,2:0:0:0:
28,228,67283,1,2,2:0:0:0:
211,330,67445,2,0,B|244:272|244:272|213:208,1,119.399996356201,2|2,1:2|1:2,0:0:0:0:
83,151,67770,1,10,2:0:0:0:
37,339,67932,6,0,B|110:329|110:329|138:344|138:344|224:327,1,179.099994534302,2|0,1:2|2:0,0:0:0:0:
242,324,68256,1,2,1:2:0:0:
343,191,68418,2,0,P|285:222|221:230,1,119.399996356201,10|2,2:0|2:0,0:0:0:0:
393,371,68743,2,0,P|403:312|432:260,1,119.399996356201,2|2,1:2|1:2,0:0:0:0:
451,240,68986,1,0,1:2:0:0:
451,240,69067,1,10,2:0:0:0:
240,57,69229,6,0,P|185:124|233:216,1,179.099994534302,6|0,1:2|2:0,0:0:0:0:
232,230,69553,1,0,1:2:0:0:
407,145,69716,2,0,P|344:102|296:113,1,119.399996356201,10|0,2:0|2:0,0:0:0:0:
333,259,70040,1,2,1:2:0:0:
492,157,70202,1,2,1:2:0:0:
333,259,70364,2,0,P|411:243|462:239,1,119.399996356201,10|0,2:0|2:0,0:0:0:0:
240,57,70689,6,0,B|181:68|181:68|169:77|169:77|98:89,1,119.4,6|0,1:2|2:0,0:0:0:0:
94,106,71013,6,0,B|159:94|159:94|171:85|171:85|230:74,1,129.349994078827,10|0,2:0|2:0,0:0:0:0:
168,321,71337,6,0,B|101:308|101:308|89:299|89:299|18:287,1,134.324995900726,2|0,1:2|2:0,0:0:0:0:
11,265,71662,6,0,B|85:280|85:280|97:289|97:289|156:300,1,149.250005693436,10|0,2:0|2:0,0:0:0:0:
450,239,71986,6,0,P|401:163|288:198,1,208.949993623352,2|0,1:2|2:0,0:0:0:0:
278,209,72310,1,10,2:0:0:0:
95,92,72472,6,0,B|26:69|29:210|161:151,1,194.024991118241,2|0,1:2|2:0,0:0:0:0:
180,134,72797,1,2,1:2:0:0:
386,14,72959,2,0,P|350:78|344:144,1,129.349994078827,10|2,2:0|2:0,0:0:0:0:
381,288,73283,5,6,1:2:0:0:
463,100,73445,1,0,2:0:0:0:
278,209,73607,1,10,2:0:0:0:
489,335,73770,2,0,P|499:254|515:190,1,129.349994078827,2|0,1:2|2:0,0:0:0:0:
257,81,74094,2,0,P|270:144|277:208,1,129.349994078827,2|10,1:2|2:0,0:0:0:0:
22,314,74418,6,0,B|99:296|99:296|130:320|130:320|232:300,1,194.024991118241,6|0,1:2|2:0,0:0:0:0:
278,227,74743,1,0,1:2:0:0:
281,216,74824,1,0,1:2:0:0:
285,203,74905,2,0,L|148:228,1,129.349994078827,10|0,2:0|2:0,0:0:0:0:
361,358,75229,2,0,L|498:333,1,129.349994078827,10|0,2:0|2:0,0:0:0:0:
412,117,75553,6,0,P|388:189|382:240,1,109.450003340149,6|2,2:3|1:2,0:0:0:0:
208,15,75878,6,0,P|214:124|213:198,1,179.099994534302,6|0,1:2|1:2,0:0:0:0:
104,129,76364,1,6,2:3:0:0:
48,233,76526,2,0,P|109:214|139:212,1,89.549997267151,0|4,1:2|2:3,0:0:0:0:
217,323,76851,2,0,P|175:308|131:302,1,89.549997267151,2|8,1:2|2:3,0:0:0:0:
114,309,77094,1,8,2:3:0:0:
114,309,77175,5,2,1:2:0:0:
215,229,77337,1,6,2:3:0:0:
299,351,77499,2,0,P|351:337|402:329,1,89.549997267151,2|0,1:2|1:2,0:0:0:0:
401,312,77743,1,8,2:3:0:0:
401,312,77824,2,0,P|453:326|504:334,1,89.549997267151,2|0,1:2|2:0,0:0:0:0:
502,234,78148,2,0,P|450:220|399:212,1,89.549997267151,2|8,1:2|2:0,0:0:0:0:
334,156,78472,6,0,B|285:139|251:183|264:190|224:224|173:203,1,179.099994534302,2|2,1:2|1:2,0:0:0:0:
92,146,78959,1,4,2:3:0:0:
141,61,79121,2,0,P|206:82|217:110,1,89.549997267151,2|4,1:2|2:3,0:0:0:0:
92,146,79445,1,2,1:2:0:0:
14,85,79607,1,10,2:3:0:0:
92,146,79770,6,0,P|87:217|80:254,1,89.549997267151,2|6,1:2|2:3,0:0:0:0:
63,17,80094,1,2,1:2:0:0:
213,96,80256,1,2,2:0:0:0:
83,235,80418,5,12,2:3:0:0:
117,206,80499,1,8,2:3:0:0:
160,195,80580,1,4,2:3:0:0:
204,205,80662,1,8,2:3:0:0:
227,225,80743,5,12,2:3:0:0:
240,253,80824,1,8,2:3:0:0:
243,284,80905,1,8,2:3:0:0:
237,314,80986,1,4,2:3:0:0:
221,341,81067,6,0,P|163:332|14:325,1,199,14|2,2:0|2:0,0:0:0:0:
227,225,81553,1,0,2:0:0:0:
291,288,81716,2,0,P|349:273|400:256,1,99.5,2|4,2:0|2:3,0:0:0:0:
155,158,82040,1,10,2:0:0:0:
246,35,82202,6,0,P|336:15|389:84,1,164.175005010224,14|0,2:0|2:0,0:0:0:0:
390,89,82526,1,4,2:3:0:0:
464,207,82689,2,0,P|470:138|483:88,1,109.450003340149,2|0,1:2|1:2,0:0:0:0:
333,185,83013,2,0,P|345:238|348:293,1,109.450003340149,2|6,1:2|2:3,0:0:0:0:
464,207,83337,1,6,2:3:0:0:
265,115,83499,6,0,B|192:138|192:138|177:165|177:165|76:193,1,194.024991118241,14|0,2:0|2:0,0:0:0:0:
65,193,83824,1,0,1:2:0:0:
168,252,83986,1,4,2:3:0:0:
3,246,84148,1,4,2:3:0:0:
133,97,84310,1,10,2:0:0:0:
3,246,84472,1,10,2:0:0:0:
277,227,84634,1,10,2:0:0:0:
4,78,84797,1,10,2:0:0:0:
32,360,84959,6,0,B|109:336|109:336|124:309|124:309|225:281,1,208.949993623352,10|0,2:0|2:0,0:0:0:0:
217,282,85283,1,10,2:0:0:0:
360,84,85445,6,0,B|291:106|291:106|281:121|281:121|217:141,1,139.299995748901,6|2,1:2|2:0,0:0:0:0:
490,340,86094,5,6,1:2:0:0:
256,192,86175,12,0,88202,2:0:0:0:
