osu file format v14

[General]
AudioFilename: audio.mp3
AudioLeadIn: 0
PreviewTime: 54391
Countdown: 0
SampleSet: Soft
StackLeniency: 0.4
Mode: 0
LetterboxInBreaks: 0
WidescreenStoryboard: 1

[Editor]
DistanceSpacing: 1.4
BeatDivisor: 4
GridSize: 32
TimelineZoom: 2.3

[Metadata]
Title:Colorful Dreams! Colorful Smiles! (TV Size)
TitleUnicode:Colorful Dreams! Colorful Smiles! (TV Size)
Artist:Nijigasaki High School Idol Club
ArtistUnicode:虹ヶ咲学園スクールアイドル同好会
Creator:Sarawatlism
Version:AsuKo's Insane!
Source:ラブライブ!虹ヶ咲学園スクールアイドル同好会
Tags:Love Live Anime Japanese Opening Season 2 Two 2期 OP Short Pop JPop J-Pop 上原歩夢 Uehara Ayumu 大西亜玖璃 Onishi Aguri 中須かすみ Nakasu Kasumi 相良茉優 Sagara Mayu 桜坂しずく Osaka Shizuku 前田佳織里 Maeda Kaori 朝香果林 Asaka Karin 久保田未夢 Kubota Miyu 宮下愛 Miyashita Ai 村上奈津実 Murakami Natsumi 近江彼方 Konoe Kanata 鬼頭明里 Kito Akari 優木せつ菜 Yuki Setsuna 楠木ともり Kusunoki Tomori エマ・ヴェルデ Emma Verde 指出毬亜 Sashide Maria 天王寺璃奈 Tennoji Rina 田中ちえ美 Tanaka Chiemi 三船栞子 Mifune Shioriko 小泉萌香 Koizumi Moeka 鐘嵐珠 ショウ・ランジュ Lanzhu Zhong 法元明菜 Houmoto Akina ミア・テイラー Mia Taylor 内田秀 Uchida Shu Female Vocals wanpachi Cycopton [_lost_] conner c_o_n_n_e_r alevi hakashii asukow grazuko Sekai Sekaii Sekai-nyan
BeatmapID:3596175
BeatmapSetID:1742983

[Difficulty]
HPDrainRate:5.8
CircleSize:4
OverallDifficulty:8.8
ApproachRate:9
SliderMultiplier:1.6
SliderTickRate:1

[Events]
//Background and Video events
0,0,"BG.jpg",0,0
Video,0,"VD.mp4"
//Break Periods
//Storyboard Layer 0 (Background)
//Storyboard Layer 1 (Fail)
//Storyboard Layer 2 (Pass)
//Storyboard Layer 3 (Foreground)
//Storyboard Layer 4 (Overlay)
//Storyboard Sound Samples

[TimingPoints]
635,324.324324324324,4,2,10,60,1,0
878,-100,4,2,1,5,0,0
959,-100,4,2,1,60,0,0
1121,-100,4,2,11,60,0,0
1364,-100,4,2,1,5,0,0
1445,-100,4,2,1,60,0,0
1607,-100,4,2,12,60,0,0
2743,-100,4,2,10,60,0,0
2905,-125,4,2,14,60,0,0
3229,-100,4,2,10,60,0,0
3553,-100,4,2,1,60,0,0
3716,-100,4,2,11,60,0,0
4040,-100,4,2,1,60,0,0
4202,-142.857142857143,4,2,13,60,0,0
5012,-142.857142857143,4,2,13,5,0,0
5175,-142.857142857143,4,2,1,40,0,0
5499,-111.111111111111,4,2,1,50,0,0
5824,-100,4,2,1,70,0,0
6148,-100,4,2,11,70,0,0
6472,-100,4,2,16,70,0,0
6634,-100,4,2,11,70,0,0
6797,-100,4,2,1,70,0,0
6959,-100,4,2,11,70,0,0
7283,-100,4,2,1,70,0,0
7445,-100,4,2,11,70,0,0
7770,-100,4,2,16,70,0,0
7932,-100,4,2,11,70,0,0
8256,-100,4,2,1,70,0,0
8661,-100,4,2,1,5,0,0
8743,-100,4,2,11,70,0,0
9067,-100,4,2,16,70,0,0
9229,-100,4,2,11,70,0,0
9391,-100,4,2,1,70,0,0
9553,-100,4,2,11,70,0,0
9877,-100,4,2,1,70,0,0
10040,-100,4,2,11,70,0,0
10364,-100,4,2,16,70,0,0
10526,-100,4,2,11,70,0,0
10688,-100,4,2,1,70,0,0
10851,-100,4,2,14,70,0,0
11013,-100,4,2,10,70,0,0
11175,-100,4,2,1,70,0,0
12391,-100,4,2,1,5,0,0
12472,-100,4,2,1,70,0,0
12877,-100,4,2,1,5,0,0
12959,-100,4,2,1,70,0,0
15716,-100,4,2,12,60,0,0
15878,-142.857142857143,4,2,12,60,0,0
16202,-125,4,2,15,60,0,0
16445,-125,4,2,1,5,0,0
16526,-125,4,2,1,60,0,0
16689,-125,4,2,17,60,0,0
17013,-125,4,2,1,60,0,0
17337,-125,4,2,18,60,0,0
17418,-125,4,2,1,60,0,0
17499,-125,4,2,12,60,0,0
17662,-125,4,2,1,60,0,0
17986,-125,4,2,19,60,0,0
18148,-125,4,2,17,60,0,0
18472,-125,4,2,1,60,0,0
18634,-125,4,2,17,60,0,0
18797,-125,4,2,15,60,0,0
19040,-125,4,2,1,5,0,0
19121,-125,4,2,17,60,0,0
19283,-125,4,2,19,60,0,0
19607,-125,4,2,17,60,0,0
20013,-125,4,2,1,60,0,0
20094,-125,4,2,15,60,0,0
20256,-125,4,2,1,60,0,0
20418,-125,4,2,17,60,0,0
20580,-125,4,2,19,60,0,0
20742,-125,4,2,1,60,0,0
20905,-125,4,2,12,60,0,0
21634,-125,4,2,1,5,0,0
21715,-125,4,2,15,60,0,0
21878,-125,4,2,17,60,0,0
22040,-125,4,2,1,60,0,0
22202,-125,4,2,15,60,0,0
22364,-125,4,2,1,60,0,0
22526,-125,4,2,17,60,0,0
22607,-125,4,2,1,60,0,0
22851,-125,4,2,19,60,0,0
23337,-125,4,2,1,60,0,0
23499,-125,4,2,12,60,0,0
23986,-125,4,2,12,70,0,0
24148,-125,4,2,1,70,0,0
24310,-125,4,2,15,70,0,0
24472,-125,4,2,17,70,0,0
24797,-100,4,2,19,70,0,0
24959,-100,4,2,1,70,0,0
25121,-100,4,2,11,70,0,0
25445,-100,4,2,16,70,0,0
25607,-100,4,2,18,70,0,0
25770,-100,4,2,12,70,0,0
26580,-111.111111111111,4,2,12,70,0,0
26823,-111.111111111111,4,2,1,5,0,0
26904,-111.111111111111,4,2,1,70,0,0
27067,-111.111111111111,4,2,11,70,0,0
27472,-111.111111111111,4,2,1,5,0,0
27553,-111.111111111111,4,2,1,70,0,0
27716,-111.111111111111,4,2,12,70,0,0
28121,-111.111111111111,4,2,1,5,0,0
28202,-111.111111111111,4,2,1,70,0,0
28364,-111.111111111111,4,2,10,70,0,0
28851,-111.111111111111,4,2,11,70,0,0
29013,-111.111111111111,4,2,10,70,0,0
29175,-111.111111111111,4,2,14,70,0,0
29499,-111.111111111111,4,2,13,70,0,0
29662,-111.111111111111,4,2,14,70,0,0
29824,-111.111111111111,4,2,1,70,0,0
29986,-111.111111111111,4,2,10,70,0,0
30310,-111.111111111111,4,2,11,70,0,0
30472,-111.111111111111,4,2,1,70,0,0
30715,-111.111111111111,4,2,1,5,0,0
30796,-111.111111111111,4,2,1,70,0,0
31283,-111.111111111111,4,2,18,70,0,0
31607,-111.111111111111,4,2,16,70,0,0
31770,-100,4,2,11,70,0,0
32013,-100,4,2,1,5,0,0
32094,-100,4,2,16,70,0,0
32256,-100,4,2,18,70,0,0
32499,-100,4,2,1,5,0,0
32580,-100,4,2,16,70,0,0
32743,-100,4,2,18,70,0,0
32905,-100,4,2,12,70,0,0
33148,-100,4,2,1,5,0,0
33229,-100,4,2,11,70,0,0
33391,-100,4,2,16,70,0,0
33553,-100,4,2,11,70,0,0
33796,-100,4,2,1,5,0,0
33877,-100,4,2,11,70,0,0
34040,-100,4,2,10,70,0,0
34202,-100,4,2,14,70,0,0
34364,-100,4,2,13,70,0,0
34607,-100,4,2,1,5,0,0
34688,-100,4,2,14,70,0,0
34851,-100,4,2,10,70,0,0
35175,-100,4,2,11,70,0,0
35580,-100,4,2,1,70,0,0
35986,-125,4,2,12,70,0,0
36310,-125,4,2,18,70,0,0
36634,-125,4,2,16,70,0,0
36959,-142.857142857143,4,2,11,50,0,0
37445,-142.857142857143,4,2,16,50,0,0
37607,-142.857142857143,4,2,11,50,0,0
38094,-142.857142857143,4,2,16,50,0,0
38256,-142.857142857143,4,2,11,50,0,0
38418,-142.857142857143,4,2,16,50,0,0
38580,-142.857142857143,4,2,18,50,0,0
38743,-142.857142857143,4,2,12,50,0,0
39229,-142.857142857143,4,2,1,50,0,0
39553,-142.857142857143,4,2,18,50,0,0
39877,-142.857142857143,4,2,1,50,0,0
40040,-142.857142857143,4,2,12,50,0,0
40202,-142.857142857143,4,2,18,50,0,0
40689,-142.857142857143,4,2,12,50,0,0
40851,-142.857142857143,4,2,18,50,0,0
41013,-142.857142857143,4,2,12,50,0,0
41175,-142.857142857143,4,2,15,50,0,0
41337,-142.857142857143,4,2,17,50,0,0
41499,-142.857142857143,4,2,1,60,0,0
42067,-142.857142857143,4,2,1,5,0,0
42148,-111.111111111111,4,2,11,60,0,0
42310,-111.111111111111,4,2,16,60,0,0
42472,-111.111111111111,4,2,11,60,0,0
42634,-111.111111111111,4,2,10,60,0,0
42959,-111.111111111111,4,2,11,60,0,0
43121,-111.111111111111,4,2,10,60,0,0
43283,-111.111111111111,4,2,14,60,0,0
43445,-111.111111111111,4,2,1,60,0,0
43607,-111.111111111111,4,2,12,60,0,0
43932,-111.111111111111,4,2,14,60,0,0
44094,-111.111111111111,4,2,1,60,0,0
44256,-111.111111111111,4,2,13,60,0,0
44337,-111.111111111111,4,2,1,60,0,0
44418,-111.111111111111,4,2,14,60,0,0
44580,-100,4,2,10,70,0,0
44904,-100,4,2,15,70,0,0
45067,-100,4,2,20,70,0,0
45229,-100,4,2,12,70,0,0
45553,-100,4,2,11,70,0,0
45716,-100,4,2,16,70,0,0
45878,-100,4,2,11,70,0,0
46364,-100,4,2,16,70,0,0
46526,-100,4,2,12,70,0,0
46850,-100,4,2,1,70,0,0
47337,-100,4,2,22,70,0,0
47662,-100,4,2,21,70,0,0
47986,-100,4,2,1,70,0,0
48148,-100,4,2,22,70,0,0
48310,-100,4,2,1,70,0,0
48472,-100,4,2,18,70,0,0
48634,-100,4,2,1,70,0,0
48797,-100,4,2,18,70,0,0
48959,-100,4,2,23,70,0,0
49121,-100,4,2,11,70,0,0
49364,-100,4,2,1,70,0,0
49607,-100,4,2,10,70,0,0
49932,-100,4,2,11,70,0,0
50094,-100,4,2,23,70,0,0
50418,-100,4,2,11,70,0,0
50580,-100,4,2,23,70,0,0
50905,-100,4,2,11,70,0,0
51067,-100,4,2,23,70,0,0
51229,-100,4,2,23,5,0,0
51391,-100,4,2,13,70,0,0
51553,-100,4,2,14,70,0,0
51716,-100,4,2,10,70,0,0
52202,-100,4,2,23,70,0,0
52526,-100,4,2,10,70,0,0
52689,-100,4,2,11,70,0,0
53013,-100,4,2,23,70,0,0
53176,-100,4,2,11,70,0,0
53499,-100,4,2,10,70,0,0
53662,-100,4,2,11,70,0,0
53986,-100,4,2,22,70,0,0
54472,-166.666666666667,4,2,13,50,0,0
54715,-166.666666666667,4,2,13,5,0,0
54797,-166.666666666667,4,2,14,60,0,0
54958,-166.666666666667,4,2,1,5,0,0
55121,-166.666666666667,4,2,10,80,0,0
55607,-166.666666666667,4,2,11,80,0,0
55770,-83.3333333333333,4,2,10,80,0,0
56094,-83.3333333333333,4,2,12,80,0,0
56256,-83.3333333333333,4,2,10,80,0,0
56580,-83.3333333333333,4,2,11,80,0,0
56743,-83.3333333333333,4,2,10,80,0,0
56905,-83.3333333333333,4,2,14,80,0,0
57067,-83.3333333333333,4,2,10,80,0,0
57310,-83.3333333333333,4,2,10,5,0,0
57391,-83.3333333333333,4,2,12,80,0,0
57553,-83.3333333333333,4,2,10,80,0,0
58202,-83.3333333333333,4,2,11,80,0,0
58364,-83.3333333333333,4,2,10,80,0,0
58526,-83.3333333333333,4,2,1,80,0,0
58689,-83.3333333333333,4,2,14,80,0,0
58851,-83.3333333333333,4,2,13,80,0,0
59337,-83.3333333333333,4,2,14,80,0,0
59662,-83.3333333333333,4,2,10,80,0,0
59986,-83.3333333333333,4,2,11,80,0,0
60310,-83.3333333333333,4,2,14,80,0,0
60553,-83.3333333333333,4,2,14,5,0,0
60634,-125,4,2,14,80,0,0
60877,-125,4,2,14,5,0,0
60959,-83.3333333333333,4,2,14,80,0,0
61202,-83.3333333333333,4,2,14,5,0,0
61283,-142.857142857143,4,2,14,80,0,0
61526,-142.857142857143,4,2,14,5,0,0
61607,-83.3333333333333,4,2,13,80,0,0
61931,-83.3333333333333,4,2,14,80,0,0
62094,-83.3333333333333,4,2,10,80,0,0
62337,-83.3333333333333,4,2,1,5,0,0
62418,-83.3333333333333,4,2,14,80,0,0
62580,-83.3333333333333,4,2,10,80,0,0
62743,-83.3333333333333,4,2,11,80,0,0
62905,-83.3333333333333,4,2,12,80,0,0
63391,-83.3333333333333,4,2,11,80,0,0
63716,-83.3333333333333,4,2,14,80,0,0
64040,-83.3333333333333,4,2,10,80,0,0
64364,-83.3333333333333,4,2,1,80,0,0
64851,-83.3333333333333,4,2,13,80,0,0
64932,-83.3333333333333,4,2,1,80,0,0
65175,-83.3333333333333,4,2,14,80,0,0
65256,-83.3333333333333,4,2,1,80,0,0
65499,-83.3333333333333,4,2,10,80,0,0
65985,-83.3333333333333,4,2,11,80,0,0
66148,-83.3333333333333,4,2,10,80,0,0
66310,-83.3333333333333,4,2,1,80,0,0
66472,-83.3333333333333,4,2,12,80,0,0
66634,-83.3333333333333,4,2,10,80,0,0
66958,-83.3333333333333,4,2,11,80,0,0
67121,-83.3333333333333,4,2,10,80,0,0
67283,-83.3333333333333,4,2,14,80,0,0
67445,-83.3333333333333,4,2,10,80,0,0
67607,-83.3333333333333,4,2,1,80,0,0
67688,-83.3333333333333,4,2,1,5,0,0
67769,-83.3333333333333,4,2,12,80,0,0
67932,-83.3333333333333,4,2,10,80,0,0
68175,-83.3333333333333,4,2,1,5,0,0
68256,-83.3333333333333,4,2,10,80,0,0
68580,-83.3333333333333,4,2,11,80,0,0
68743,-83.3333333333333,4,2,10,80,0,0
68905,-83.3333333333333,4,2,1,80,0,0
69067,-83.3333333333333,4,2,14,80,0,0
69229,-83.3333333333333,4,2,13,80,0,0
69716,-83.3333333333333,4,2,14,80,0,0
70040,-83.3333333333333,4,2,10,80,0,0
70202,-83.3333333333333,4,2,1,80,0,0
70364,-83.3333333333333,4,2,11,80,0,0
70689,-83.3333333333333,4,2,14,80,0,0
70932,-83.3333333333333,4,2,14,5,0,0
71013,-125,4,2,14,80,0,0
71256,-125,4,2,14,5,0,0
71337,-83.3333333333333,4,2,14,80,0,0
71499,-83.3333333333333,4,2,1,80,0,0
71580,-83.3333333333333,4,2,1,5,0,0
71662,-125,4,2,14,80,0,0
71905,-125,4,2,14,5,0,0
71986,-83.3333333333333,4,2,13,80,0,0
72310,-83.3333333333333,4,2,14,80,0,0
72472,-83.3333333333333,4,2,10,80,0,0
72715,-83.3333333333333,4,2,10,5,0,0
72796,-83.3333333333333,4,2,14,80,0,0
72958,-83.3333333333333,4,2,10,80,0,0
73121,-83.3333333333333,4,2,11,80,0,0
73283,-83.3333333333333,4,2,12,80,0,0
73770,-83.3333333333333,4,2,11,80,0,0
74094,-83.3333333333333,4,2,14,80,0,0
74256,-83.3333333333333,4,2,1,80,0,0
74418,-83.3333333333333,4,2,10,80,0,0
74661,-83.3333333333333,4,2,1,5,0,0
74742,-83.3333333333333,4,2,1,80,0,0
74905,-90.9090909090909,4,2,13,80,0,0
75229,-90.9090909090909,4,2,14,80,0,0
75553,-90.9090909090909,4,2,10,80,0,0
75716,-90.9090909090909,4,2,11,80,0,0
75878,-100,4,2,12,70,0,0
76364,-100,4,2,16,70,0,0
76689,-100,4,2,1,70,0,0
76851,-100,4,2,11,70,0,0
77013,-100,4,2,1,70,0,0
77337,-100,4,2,22,70,0,0
77499,-100,4,2,1,70,0,0
77824,-100,4,2,12,70,0,0
77986,-100,4,2,12,5,0,0
78148,-100,4,2,15,70,0,0
78472,-100,4,2,1,70,0,0
78796,-100,4,2,12,70,0,0
78959,-100,4,2,1,70,0,0
79121,-100,4,2,16,70,0,0
79283,-100,4,2,1,70,0,0
79445,-100,4,2,11,70,0,0
79607,-100,4,2,10,70,0,0
79689,-100,4,2,1,70,0,0
79932,-100,4,2,11,70,0,0
80094,-100,4,2,16,70,0,0
80256,-100,4,2,11,70,0,0
80418,-100,4,2,1,70,0,0
81391,-100,4,2,12,70,0,0
81715,-100,4,2,10,70,0,0
82040,-100,4,2,14,70,0,0
82202,-100,4,2,13,70,0,0
82445,-100,4,2,1,5,0,0
82526,-100,4,2,1,70,0,0
82689,-100,4,2,14,70,0,0
83013,-100,4,2,10,70,0,0
83175,-100,4,2,1,70,0,0
83337,-100,4,2,14,70,0,0
83499,-100,4,2,13,70,0,0
83661,-100,4,2,1,5,0,0
83823,-100,4,2,1,70,0,0
84472,-100,4,2,12,70,0,0
84797,-100,4,2,1,70,0,0
84959,-100,4,2,10,70,0,0
85202,-100,4,2,10,5,0,0
85283,-100,4,2,24,70,0,0
85445,-100,4,2,10,70,0,0
85688,-100,4,2,1,5,0,0
85769,-100,4,2,11,50,0,0
86094,-100,4,2,14,70,0,0
88202,-100,4,2,14,5,0,0

[Colours]
Combo1 : 180,247,254
Combo2 : 254,173,146
Combo3 : 254,251,188

[HitObjects]
473,356,635,6,0,B|439:355|414:315|414:315|378:307|339:347,1,160,6|10,1:2|2:0,2:0:0:0:
262,256,1121,2,0,B|238:242|206:249|206:249|254:207|300:238,1,160,2|10,1:2|2:0,2:0:0:0:
306,242,1526,1,8,2:0:0:0:
312,248,1607,1,6,1:2:0:0:
5,357,2418,6,0,P|51:366|87:341,1,80,2|2,2:0|2:0,2:0:0:0:
143,280,2743,1,2,2:0:0:0:
76,193,2905,2,0,P|42:225|36:272,1,96,2|0,2:0|2:0,2:0:0:0:
35,287,3229,6,0,P|94:270|209:237,1,160,6|10,1:2|2:0,2:0:0:0:
347,324,3716,2,0,B|319:297|312:265|312:265|305:317|258:349,1,160,2|10,1:2|2:0,2:0:0:0:
254,164,4202,6,0,B|330:113|390:180|382:178|434:241|510:211,1,279.999991455078,6|0,1:2|2:0,2:0:0:0:
478,114,5175,5,2,2:0:0:0:
478,114,5256,1,2,2:0:0:0:
478,114,5337,1,2,2:0:0:0:
478,114,5418,1,2,2:0:0:0:
478,114,5499,2,0,P|487:86|491:70,3,35.9999989013672,2|2|2|2,2:0|2:0|2:0|2:0,2:0:0:0:
431,14,5824,6,0,P|389:24|340:34,1,80,6|0,1:2|2:0,2:0:0:0:
185,114,6148,2,0,P|236:86|293:101,1,120,10|0,2:0|2:0,2:0:0:0:
305,113,6472,2,0,P|292:149|273:210,1,80,2|2,1:2|1:2,2:0:0:0:
240,305,6797,1,10,2:0:0:0:
54,232,6959,6,0,B|147:193|147:193|199:221,1,160,2|2,1:2|1:2,2:0:0:0:
308,357,7445,2,0,P|322:319|319:280,1,80,10|0,2:0|2:0,2:0:0:0:
378,158,7770,1,2,1:2:0:0:
432,285,7932,1,2,1:2:0:0:
292,181,8094,2,0,P|284:142|303:107,1,80,8|2,2:0|2:0,2:0:0:0:
479,0,8418,6,0,P|468:56|452:139,1,120,2|0,1:2|2:0,2:0:0:0:
447,128,8743,2,0,P|406:157|373:156,1,80,10|0,2:0|2:0,2:0:0:0:
282,78,9067,1,2,1:2:0:0:
182,180,9229,2,0,P|190:217|200:263,1,80,2|10,1:2|2:0,2:0:0:0:
52,377,9553,6,0,P|5:316|34:239,1,160,2|2,1:2|1:2,2:0:0:0:
110,108,10040,2,0,P|72:99|26:90,1,80,10|0,2:0|2:0,2:0:0:0:
110,221,10364,1,2,1:2:0:0:
211,143,10526,2,0,P|223:103|210:64,1,80,2|10,1:2|2:0,2:0:0:0:
103,11,10851,1,2,2:0:0:0:
0,157,11013,5,6,1:2:0:0:
120,323,11175,1,2,2:0:0:0:
184,223,11337,1,10,2:0:0:0:
20,330,11499,1,2,2:0:0:0:
98,175,11662,1,2,2:0:0:0:
214,330,11824,1,2,1:2:0:0:
296,209,11986,1,2,1:2:0:0:
436,369,12148,6,0,B|481:326|481:326|446:234,1,160,14|0,2:0|1:2,2:0:0:0:
328,91,12634,2,0,P|289:134|291:193,1,120,6|0,2:3|2:0,2:0:0:0:
296,209,12959,2,0,P|334:199|390:188,1,80,2|2,1:2|1:2,2:0:0:0:
512,131,13283,1,10,2:0:0:0:
310,365,13607,5,10,2:0:0:0:
174,128,13770,1,10,2:0:0:0:
424,298,14094,5,10,2:0:0:0:
304,16,14418,5,10,2:0:0:0:
195,319,14743,5,14,2:0:0:0:
175,12,15716,5,2,2:0:0:0:
175,12,15878,2,0,P|125:18|99:21,1,55.9999982910157,2|0,2:0|2:0,2:0:0:0:
0,39,16202,6,0,P|56:39|92:113,1,128,6|0,1:2|1:2,2:0:0:0:
27,176,16689,1,2,1:2:0:0:
117,248,16851,2,0,P|152:252|190:237,1,64,2|4,1:2|2:3,2:0:0:0:
284,144,17175,2,0,P|274:105|267:82,1,64,2|10,1:2|2:3,2:0:0:0:
265,72,17418,1,8,2:3:0:0:
261,65,17499,6,0,P|196:86|180:144,1,128,2|2,1:2|1:2,2:0:0:0:
255,225,17986,1,2,2:0:0:0:
376,159,18148,2,0,B|408:203|408:203|360:282,1,128,2|2,1:2|1:2,2:0:0:0:
287,359,18634,1,10,2:0:0:0:
287,359,18716,1,8,2:0:0:0:
287,358,18797,6,0,P|350:335|405:369,1,128,2|2,1:2|1:2,2:0:0:0:
512,381,19283,2,0,P|508:345|491:312,1,64,6|0,2:3|1:2,2:0:0:0:
512,200,19607,1,6,2:3:0:0:
373,130,19770,2,0,P|379:154|394:209,1,64,2|6,1:2|2:3,2:0:0:0:
392,202,20013,1,8,2:3:0:0:
395,211,20094,6,0,P|445:195|448:112,1,128,2|2,1:2|1:2,2:0:0:0:
371,24,20580,2,0,P|340:33|309:39,1,64,2|2,2:0|1:2,2:0:0:0:
223,118,20905,1,2,2:0:0:0:
150,20,21067,1,6,2:3:0:0:
235,128,21229,1,10,2:0:0:0:
97,234,21391,6,0,B|54:185|54:185|85:129,1,128,2|2,1:2|1:2,2:0:0:0:
210,222,21878,2,0,P|208:257|187:287,1,64,6|2,2:3|1:2,2:0:0:0:
98,336,22202,2,0,P|58:328|26:320,1,64,6|2,2:3|1:2,2:0:0:0:
185,378,22526,1,10,2:3:0:0:
185,378,22607,1,8,2:3:0:0:
185,378,22689,6,0,P|225:370|257:362,1,64,2|2,1:2|1:2,2:0:0:0:
389,311,23013,2,0,P|353:261|291:251,1,128,2|2,1:2|1:2,2:0:0:0:
218,168,23499,1,2,2:0:0:0:
276,58,23662,2,0,P|320:40|363:49,1,64,2|2,1:2|2:0,2:0:0:0:
441,155,23986,5,6,2:3:0:0:
330,118,24148,1,10,2:0:0:0:
449,62,24310,1,10,2:0:0:0:
368,199,24472,1,10,2:0:0:0:
459,46,24634,1,10,2:0:0:0:
512,250,24797,2,0,P|477:241|431:232,1,80,10|2,2:0|1:2,2:0:0:0:
227,175,25121,1,14,2:0:0:0:
227,175,25445,5,2,2:0:0:0:
307,128,25607,5,2,2:0:0:0:
306,33,25770,5,2,2:0:0:0:
60,122,26094,5,6,2:3:0:0:
132,5,26256,1,6,2:3:0:0:
0,13,26418,1,6,2:3:0:0:
111,180,26580,6,0,B|186:190|170:137|249:157,1,143.999995605469,6|8,1:2|2:0,2:0:0:0:
352,213,27067,1,2,2:0:0:0:
250,371,27229,2,0,P|231:279|220:227,1,143.999995605469,2|10,1:2|2:0,2:0:0:0:
343,131,27716,1,2,2:0:0:0:
235,12,27878,6,0,P|165:13|121:68,1,143.999995605469,2|8,1:2|2:0,2:0:0:0:
59,161,28364,1,2,2:0:0:0:
140,216,28526,2,0,P|156:179|153:141,1,71.9999978027344,2|0,1:2|2:0,2:0:0:0:
37,84,28851,1,10,2:0:0:0:
37,84,29013,1,2,2:0:0:0:
0,249,29175,6,0,P|69:231|140:216,1,143.999995605469,2|10,1:2|2:0,2:0:0:0:
254,279,29662,2,0,P|235:309|204:326,1,71.9999978027344,2|2,2:0|1:2,2:0:0:0:
257,165,29986,2,0,P|310:171|328:187,1,71.9999978027344,2|8,2:0|2:0,2:0:0:0:
388,278,30310,1,2,2:0:0:0:
512,147,30472,6,0,P|496:217|480:287,1,143.999995605469,2|10,1:2|2:0,2:0:0:0:
355,364,30959,2,0,P|304:315|306:245,1,143.999995605469,2|2,2:0|1:2,2:0:0:0:
415,168,31445,1,10,2:0:0:0:
388,278,31607,1,2,2:0:0:0:
315,103,31770,6,0,B|272:71|241:85|241:85|220:123|171:129,1,160,6|10,1:2|2:0,2:0:0:0:
81,245,32256,2,0,B|134:227|177:209|177:209|145:212|110:181,1,160,6|2,1:2|1:2,2:0:0:0:
77,106,32743,1,10,2:0:0:0:
217,37,32905,6,0,B|294:51|279:-10|371:13,1,160,6|2,1:2|1:2,2:0:0:0:
448,71,33391,1,10,2:0:0:0:
281,151,33553,2,0,P|350:149|401:229,1,160,6|2,1:2|1:2,2:0:0:0:
367,308,34040,1,10,2:0:0:0:
482,212,34202,1,2,2:0:0:0:
508,369,34364,6,0,P|493:276|480:205,1,160,6|10,1:2|2:0,2:0:0:0:
409,93,34851,2,0,P|368:109|342:149,1,80,2|0,1:2|2:0,2:0:0:0:
206,197,35175,2,0,P|247:213|273:253,1,80,2|8,1:2|2:0,2:0:0:0:
356,363,35499,1,6,1:2:0:0:
356,363,35580,1,2,2:0:0:0:
356,363,35662,2,2,P|381:353|402:347,3,40,2|2|2|2,2:0|2:0|1:2|2:0,2:0:0:0:
271,333,35986,6,0,P|235:326|202:317,1,64,10|0,2:0|2:0,2:0:0:0:
130,193,36310,2,0,P|141:227|150:260,1,64,2|0,2:0|2:0,2:0:0:0:
90,379,36634,2,0,P|114:351|138:327,1,64,10|0,2:0|2:0,2:0:0:0:
229,241,36959,6,0,P|287:210|343:225,1,111.999996582031,2|0,2:0|2:0,2:0:0:0:
398,264,37445,1,2,2:0:0:0:
460,190,37607,2,0,P|445:127|434:81,1,111.999996582031,2|0,2:0|2:0,2:0:0:0:
368,20,38094,1,2,2:0:0:0:
299,84,38256,6,0,P|270:61|240:56,2,55.9999982910157,2|2|2,2:0|2:0|1:2,2:0:0:0:
365,146,38743,1,2,2:0:0:0:
284,204,38905,2,0,P|226:191|169:181,1,111.999996582031,2|2,2:0|2:0,2:0:0:0:
22,18,39553,6,0,P|0:74|23:125,1,111.999996582031,2|2,1:2|2:0,2:0:0:0:
85,180,40040,1,2,2:0:0:0:
148,103,40202,2,0,P|192:93|264:78,1,111.999996582031,2|0,2:0|2:0,2:0:0:0:
343,124,40689,1,2,2:0:0:0:
410,65,40851,6,0,P|400:32|394:6,1,55.9999982910157,2|2,2:0|2:0,2:0:0:0:
500,56,41175,2,0,P|494:83|485:110,1,55.9999982910157,2|2,1:2|2:0,2:0:0:0:
502,257,41499,1,10,2:0:0:0:
414,147,41662,1,2,1:2:0:0:
326,262,41824,2,0,P|365:250|411:237,1,83.9999974365235,2|0,1:2|2:0,2:0:0:0:
418,238,42148,6,0,P|427:272|418:306,1,71.9999978027344,6|2,1:2|1:2,2:0:0:0:
314,372,42472,1,2,1:2:0:0:
227,273,42634,2,0,P|233:239|240:201,1,71.9999978027344,2|8,2:0|2:0,2:0:0:0:
329,100,42959,1,2,1:2:0:0:
216,43,43121,1,2,2:0:0:0:
338,112,43283,6,0,P|259:126|177:143,1,143.999995605469,2|2,1:2|1:2,2:0:0:0:
81,189,43770,1,2,2:0:0:0:
4,104,43932,1,2,1:2:0:0:
86,17,44094,5,10,2:0:0:0:
95,25,44175,1,0,1:2:0:0:
101,36,44256,1,10,2:3:0:0:
105,47,44337,1,8,2:3:0:0:
106,57,44418,2,0,P|103:75|98:102,1,35.9999989013672,10|0,2:0|2:0,2:0:0:0:
0,238,44580,6,0,B|53:255|82:221|76:222|104:192|149:209,1,160,6|2,1:2|1:2,2:0:0:0:
249,265,45067,1,10,2:0:0:0:
371,161,45229,2,0,B|425:201|425:201|380:282,1,160,6|2,1:2|1:2,2:0:0:0:
278,166,45716,1,10,2:0:0:0:
174,332,45878,6,0,P|247:307|313:347,1,160,6|2,1:2|1:2,2:0:0:0:
417,373,46364,1,10,2:0:0:0:
512,271,46526,2,0,P|496:180|483:100,1,160,6|2,1:2|1:2,2:0:0:0:
413,35,47013,1,10,2:0:0:0:
505,0,47175,1,6,2:3:0:0:
397,131,47337,6,0,P|351:122|311:114,1,80,6|8,1:2|2:0,2:0:0:0:
310,117,47580,1,8,2:0:0:0:
303,121,47662,1,2,1:2:0:0:
195,174,47824,2,0,P|165:166|145:160,2,40,10|8|2,2:0|2:0|1:2,2:0:0:0:
297,262,48148,1,10,2:0:0:0:
297,262,48229,1,8,2:0:0:0:
297,262,48310,1,2,1:2:0:0:
198,329,48472,6,0,L|205:368,2,40,10|8|2,2:0|2:0|1:2,2:0:0:0:
113,267,48797,1,10,2:0:0:0:
113,267,48878,1,8,2:0:0:0:
113,267,48959,1,2,1:2:0:0:
156,163,49121,1,10,2:0:0:0:
77,26,49283,6,0,P|71:62|61:117,1,80,10|8,2:0|2:0,2:0:0:0:
61,117,49526,1,8,2:0:0:0:
59,128,49607,1,10,2:0:0:0:
57,142,49689,1,8,2:0:0:0:
54,153,49770,2,0,L|69:214,1,40,8|8,2:0|2:0,2:0:0:0:
190,252,49932,5,6,1:2:0:0:
285,347,50094,2,0,P|243:336|201:358,1,80,2|8,1:2|2:0,2:0:0:0:
110,372,50418,1,2,1:2:0:0:
190,252,50580,2,0,P|182:202|175:159,1,80,2|0,1:2|2:0,2:0:0:0:
77,88,50905,1,10,2:0:0:0:
253,17,51067,2,0,P|246:56|240:95,1,80,2|0,1:2|2:0,2:0:0:0:
274,201,51391,5,2,1:2:0:0:
374,251,51553,1,10,2:0:0:0:
464,183,51716,1,2,2:0:0:0:
359,89,51878,2,0,P|367:127|356:166,1,80,2|0,1:2|2:0,2:0:0:0:
191,244,52202,2,0,P|182:205|193:166,1,80,10|0,2:0|2:0,2:0:0:0:
292,302,52526,5,10,2:0:0:0:
51,370,52689,1,10,2:0:0:0:
264,173,53013,5,10,2:0:0:0:
74,248,53176,1,10,2:0:0:0:
221,54,53499,5,10,2:0:0:0:
147,197,53662,1,10,2:0:0:0:
104,4,53986,5,10,2:0:0:0:
138,98,54149,1,10,2:0:0:0:
138,98,54472,6,0,P|106:84|70:88,1,71.9999978027344,2|0,2:0|2:0,2:0:0:0:
58,165,54797,6,0,P|90:179|126:175,1,71.9999978027344,2|0,2:0|2:0,2:0:0:0:
204,151,55121,5,6,1:2:0:0:
350,208,55283,1,2,2:0:0:0:
276,67,55445,1,10,2:0:0:0:
172,244,55607,1,2,2:0:0:0:
302,344,55770,2,0,P|347:358|392:344,1,95.9999970703126,2|0,1:2|1:2,2:0:0:0:
485,238,56094,1,10,2:0:0:0:
305,59,56256,6,0,P|315:123|336:259,1,191.999994140625,2|2,1:2|1:2,2:0:0:0:
465,358,56743,1,10,2:0:0:0:
512,168,56905,1,2,2:0:0:0:
450,371,57067,2,0,P|379:361|308:352,1,143.999995605469,2|0,1:2|2:0,2:0:0:0:
230,374,57391,1,10,2:0:0:0:
76,269,57553,6,0,P|123:213|246:236,1,191.999994140625,2|2,1:2|1:2,2:0:0:0:
364,167,58040,1,10,2:0:0:0:
251,294,58202,1,2,2:0:0:0:
130,135,58364,2,0,P|111:91|123:46,1,95.9999970703126,2|2,1:2|1:2,2:0:0:0:
264,1,58689,1,10,2:0:0:0:
389,249,58851,6,0,B|336:268|302:223|309:226|267:186|210:216,1,191.999994140625,2|0,1:2|1:2,2:0:0:0:
61,338,59337,2,0,P|27:297|36:245,1,95.9999970703126,10|0,2:0|2:0,2:0:0:0:
113,171,59662,1,2,1:2:0:0:
251,294,59824,1,0,2:0:0:0:
312,99,59986,2,0,P|255:118|213:131,1,95.9999970703126,10|0,2:0|2:0,2:0:0:0:
14,88,60310,6,0,P|68:30|138:29,1,143.999995605469,6|0,1:2|2:0,2:0:0:0:
191,66,60634,2,0,P|179:112|167:159,1,96,10|0,2:0|2:0,2:0:0:0:
132,257,60959,6,0,P|177:203|247:195,1,143.999995605469,2|0,1:2|2:0,2:0:0:0:
298,251,61283,2,0,P|338:240|379:232,1,83.9999974365235,10|0,2:0|2:0,2:0:0:0:
441,373,61607,6,0,P|454:247|462:173,1,191.999994140625,6|10,1:2|2:0,2:0:0:0:
512,46,62094,2,0,B|455:57|433:7|433:7|376:-13|344:25,1,191.999994140625,2|2,1:2|1:2,2:0:0:0:
216,161,62580,1,10,2:0:0:0:
384,91,62743,1,2,2:0:0:0:
155,41,62905,6,0,P|165:102|186:237,1,191.999994140625,6|10,1:2|2:0,2:0:0:0:
269,349,63391,2,0,P|230:375|183:373,1,95.9999970703126,2|0,1:2|2:0,2:0:0:0:
0,280,63716,2,0,P|39:253|86:256,1,95.9999970703126,2|8,1:2|2:0,2:0:0:0:
303,176,64040,6,0,B|247:191|214:149|220:150|179:114|124:141,1,191.999994140625,6|2,1:2|1:2,2:0:0:0:
115,151,64445,1,0,1:2:0:0:
107,162,64526,1,10,2:0:0:0:
0,62,64689,1,0,2:0:0:0:
168,12,64851,5,14,2:3:0:0:
168,12,64932,1,8,2:3:0:0:
168,12,65013,2,0,L|224:-3,1,47.9999985351563,8|4,2:0|2:3,2:0:0:0:
323,85,65175,1,14,2:3:0:0:
323,85,65256,1,8,2:3:0:0:
323,85,65337,2,0,L|267:100,1,47.9999985351563,4|4,2:3|2:3,2:0:0:0:
192,162,65499,5,6,1:2:0:0:
307,345,65661,1,2,2:0:0:0:
147,274,65823,1,10,2:0:0:0:
336,159,65985,1,2,2:0:0:0:
197,379,66148,2,0,P|145:373|95:366,1,95.9999970703126,2|2,1:2|2:0,2:0:0:0:
0,262,66472,1,10,2:0:0:0:
96,129,66634,6,0,B|127:91|182:89|182:89|202:140|251:146,1,191.999994140625,2|2,1:2|1:2,2:0:0:0:
398,47,67121,1,10,2:0:0:0:
335,225,67283,1,2,2:0:0:0:
408,37,67445,2,0,P|476:47|507:109,1,143.999995605469,2|0,1:2|2:0,2:0:0:0:
512,194,67769,1,10,2:0:0:0:
329,135,67932,6,0,P|256:151|132:179,1,191.999994140625,2|2,1:2|1:2,2:0:0:0:
0,109,68418,1,10,2:0:0:0:
61,245,68580,1,2,2:0:0:0:
123,54,68743,2,0,P|152:21|221:26,1,95.9999970703126,2|2,1:2|1:2,2:0:0:0:
308,63,69067,1,10,2:0:0:0:
229,242,69229,6,0,B|282:261|316:216|309:219|351:179|408:209,1,191.999994140625,6|0,1:2|1:2,2:0:0:0:
493,361,69716,2,0,P|502:314|513:265,1,95.9999970703126,10|0,2:0|2:0,2:0:0:0:
460,121,70040,1,2,1:2:0:0:
368,276,70202,1,2,1:2:0:0:
319,72,70364,2,0,P|286:106|239:111,1,95.9999970703126,10|0,2:0|2:0,2:0:0:0:
35,14,70689,6,0,P|42:69|56:168,1,143.999995605469,6|0,1:2|2:0,2:0:0:0:
134,176,71013,2,0,P|108:224|58:240,1,96,10|0,2:0|2:0,2:0:0:0:
22,329,71337,6,0,P|67:275|137:267,1,143.999995605469,2|0,1:2|2:0,2:0:0:0:
193,328,71662,2,0,P|219:286|211:233,1,96,10|0,2:0|2:0,2:0:0:0:
254,161,71986,6,0,B|302:142|364:114|364:114|328:136|319:170,1,191.999994140625,2|10,1:2|2:0,2:0:0:0:
482,234,72472,2,0,P|425:275|356:264,1,143.999995605469,2|0,1:2|2:0,2:0:0:0:
401,184,72796,1,2,1:2:0:0:
294,77,72958,1,10,2:0:0:0:
442,4,73121,1,2,2:0:0:0:
512,132,73283,6,0,P|431:86|349:129,1,191.999994140625,6|10,1:2|2:0,2:0:0:0:
264,225,73770,2,0,P|303:238|359:256,1,95.9999970703126,2|0,1:2|2:0,2:0:0:0:
196,132,74094,2,0,P|156:145|101:163,1,95.9999970703126,2|10,1:2|2:0,2:0:0:0:
28,293,74418,6,0,P|10:178|-2:89,1,191.999994140625,6|0,1:2|1:2,2:0:0:0:
0,90,74823,1,0,1:2:0:0:
0,79,74905,2,0,P|39:97|88:85,1,88.000002685547,10|0,2:0|2:0,2:0:0:0:
252,37,75229,2,0,P|213:19|164:31,1,88.000002685547,10|0,2:0|2:0,2:0:0:0:
81,88,75553,1,6,2:3:0:0:
153,163,75716,1,2,1:2:0:0:
271,142,75878,6,0,B|309:210|309:210|253:270,1,160,6|0,1:2|1:2,2:0:0:0:
156,322,76364,2,0,P|110:308|64:296,1,80,6|0,2:3|1:2,2:0:0:0:
231,380,76689,1,4,2:3:0:0:
339,308,76851,1,2,1:2:0:0:
451,367,77013,1,8,2:3:0:0:
451,367,77094,1,8,2:3:0:0:
451,367,77175,5,2,1:2:0:0:
504,241,77337,1,6,2:3:0:0:
414,171,77499,2,0,P|423:132|431:92,1,80,2|0,1:2|1:2,2:0:0:0:
437,83,77743,1,8,2:3:0:0:
442,73,77824,2,0,P|469:95|532:95,1,80,2|0,1:2|2:0,2:0:0:0:
372,14,78148,2,0,P|329:24|276:37,1,80,2|8,1:2|2:0,2:0:0:0:
157,69,78472,6,0,P|94:21|8:43,1,160,2|2,1:2|1:2,2:0:0:0:
0,154,78959,1,4,2:3:0:0:
135,249,79121,1,2,1:2:0:0:
78,108,79283,1,4,2:3:0:0:
0,263,79445,1,2,1:2:0:0:
155,165,79607,1,10,2:3:0:0:
155,165,79689,1,8,2:3:0:0:
155,165,79770,6,0,P|189:144|235:145,1,80,2|6,1:2|2:3,2:0:0:0:
337,227,80094,2,0,P|347:185|359:145,1,80,2|2,1:2|2:0,2:0:0:0:
231,246,80418,1,12,2:3:0:0:
231,246,80499,1,8,2:3:0:0:
231,246,80580,1,4,2:3:0:0:
231,246,80662,1,8,2:3:0:0:
231,246,80743,2,0,P|188:229|172:222,3,40,12|8|8|4,2:3|2:3|2:3|2:3,2:0:0:0:
132,298,81067,5,14,2:0:0:0:
132,298,81391,2,0,P|66:280|-7:341,1,160,2|2,2:0|2:0,2:0:0:0:
80,375,81878,1,4,2:3:0:0:
224,300,82040,1,10,2:0:0:0:
109,139,82202,6,0,P|115:186|133:308,1,160,14|4,2:0|2:3,2:0:0:0:
263,376,82689,2,0,P|300:363|350:344,1,80,2|0,1:2|1:2,2:0:0:0:
512,320,83013,2,0,P|475:307|425:288,1,80,2|6,1:2|2:3,2:0:0:0:
296,229,83337,1,6,2:3:0:0:
400,65,83499,6,0,B|448:114|448:114|402:193,1,160,14|0,2:0|1:2,2:0:0:0:
329,311,83986,1,4,2:3:0:0:
225,195,84148,1,4,2:3:0:0:
318,137,84310,1,10,2:0:0:0:
221,297,84472,1,10,2:0:0:0:
132,96,84634,1,10,2:0:0:0:
59,247,84797,1,10,2:0:0:0:
231,77,84959,6,0,P|204:24|148:6,1,120,10|0,2:0|2:0,2:0:0:0:
76,39,85283,1,10,2:0:0:0:
0,203,85445,2,0,P|77:186|157:171,1,160,6|2,1:2|2:0,2:0:0:0:
391,322,86094,5,6,1:2:0:0:
256,192,86175,12,0,88202,2:0:0:0:
