osu file format v14

[General]
AudioFilename: audio.mp3
AudioLeadIn: 0
PreviewTime: 55121
Countdown: 0
SampleSet: Soft
StackLeniency: 0.7
Mode: 3
LetterboxInBreaks: 0
SpecialStyle: 0
WidescreenStoryboard: 1

[Editor]
DistanceSpacing: 1
BeatDivisor: 4
GridSize: 4
TimelineZoom: 1.7

[Metadata]
Title:Colorful Dreams! Colorful Smiles! (TV Size)
TitleUnicode:Colorful Dreams! Colorful Smiles! (TV Size)
Artist:Nijigasaki High School Idol Club
ArtistUnicode:虹ヶ咲学園スクールアイドル同好会
Creator:Mirsaaa
Version:Easy
Source:ラブライブ!虹ヶ咲学園スクールアイドル同好会
Tags:Love Live Anime Japanese Opening Season 2 Two 2期 OP Short Pop JPop J-Pop 上原歩夢 Uehara Ayumu 大西亜玖璃 Onishi Aguri 中須かすみ Nakasu Kasumi 相良茉優 Sagara Mayu 桜坂しずく Osaka Shizuku 前田佳織里 Maeda Kaori 朝香果林 Asaka Karin 久保田未夢 Kubota Miyu 宮下愛 Miyashita Ai 村上奈津実 Murakami Natsumi 近江彼方 Konoe Kanata 鬼頭明里 Kito Akari 優木せつ菜 Yuki Setsuna 楠木ともり Kusunoki Tomori エマ・ヴェルデ Emma Verde 指出毬亜 Sashide Maria 天王寺璃奈 Tennoji Rina 田中ちえ美 Tanaka Chiemi 三船栞子 Mifune Shioriko 小泉萌香 Koizumi Moeka 鐘嵐珠 ショウ・ランジュ Zhong Lanzhu 法元明菜 Homoto Akina ミア・テイラー Mia Taylor 内田秀 Uchida Shu Female Vocals ML-ysg Crisper
BeatmapID:3564214
BeatmapSetID:1743478

[Difficulty]
HPDrainRate:6.5
CircleSize:4
OverallDifficulty:6.5
ApproachRate:5
SliderMultiplier:1.4
SliderTickRate:1

[Events]
//Background and Video events
Video,100,"Video.mp4"
0,0,"Background 1.jpg",0,0
//Break Periods
//Storyboard Layer 0 (Background)
//Storyboard Layer 1 (Fail)
//Storyboard Layer 2 (Pass)
//Storyboard Layer 3 (Foreground)
//Storyboard Layer 4 (Overlay)
//Storyboard Sound Samples
Sample,6148,0,"Hat Open.wav",40
Sample,6472,0,"Hat Open.wav",40
Sample,6797,0,"Hat Open.wav",40
Sample,7445,0,"Hat Open.wav",40
Sample,7770,0,"Hat Open.wav",40
Sample,8094,0,"Hat Open.wav",40
Sample,8418,0,"Hat Open.wav",40
Sample,8743,0,"Hat Open.wav",40
Sample,9067,0,"Hat Open.wav",40
Sample,9391,0,"Hat Open.wav",40
Sample,10040,0,"Hat Open.wav",40
Sample,10364,0,"Hat Open.wav",40
Sample,10689,0,"Hat Open.wav",40
Sample,11337,0,"Hat Open.wav",40
Sample,11662,0,"Hat Open.wav",40
Sample,12634,0,"Hat Open.wav",40
Sample,12959,0,"Hat Open.wav",40
Sample,13283,0,"Hat Open.wav",40
Sample,13607,0,"Tom3.wav",60
Sample,14743,0,"Tom3.wav",60
Sample,24310,0,"Tom3.wav",60
Sample,24472,0,"Tom3.wav",60
Sample,24634,0,"Tom3.wav",60
Sample,24797,0,"Tom3.wav",60
Sample,27229,0,"Hat Close.wav",40
Sample,27878,0,"Hat Close.wav",40
Sample,28526,0,"Hat Close.wav",40
Sample,29175,0,"Hat Close.wav",40
Sample,29824,0,"Hat Close.wav",40
Sample,30472,0,"Hat Close.wav",40
Sample,31121,0,"Hat Close.wav",40
Sample,31445,0,"Hat Close.wav",40
Sample,34851,0,"Hat Close.wav",70
Sample,35175,0,"Hat Close.wav",70
Sample,36959,0,"soft-hitwhistle.wav",30
Sample,41499,0,"Tom3.wav",60
Sample,41824,0,"Hat Close.wav",50
Sample,42472,0,"Hat Close.wav",50
Sample,47013,0,"Hat Open.wav",40
Sample,50580,0,"Hat Close.wav",50
Sample,50905,0,"Hat Close.wav",50
Sample,51553,0,"Hat Close.wav",50
Sample,52526,0,"Tom3.wav",60
Sample,52689,0,"Tom3.wav",60
Sample,53013,0,"Tom3.wav",60
Sample,53175,0,"Tom3.wav",60
Sample,53499,0,"Tom3.wav",60
Sample,53662,0,"Tom3.wav",60
Sample,53986,0,"Tom3.wav",60
Sample,54148,0,"Tom3.wav",60
Sample,55445,0,"Hat Open.wav",40
Sample,55770,0,"Hat Open.wav",40
Sample,56094,0,"Hat Open.wav",40
Sample,56743,0,"Hat Open.wav",40
Sample,57067,0,"Hat Open.wav",40
Sample,57391,0,"Hat Open.wav",40
Sample,58040,0,"Hat Open.wav",40
Sample,58364,0,"Hat Open.wav",40
Sample,58689,0,"Hat Open.wav",40
Sample,59337,0,"Hat Open.wav",40
Sample,59662,0,"Hat Open.wav",40
Sample,59986,0,"Hat Open.wav",40
Sample,60634,0,"Hat Open.wav",40
Sample,61283,0,"Hat Open.wav",40
Sample,63391,0,"Hat Close.wav",50
Sample,63716,0,"Hat Close.wav",50
Sample,63878,0,"Tom1.wav",60
Sample,65824,0,"Hat Open.wav",40
Sample,66148,0,"Hat Open.wav",40
Sample,66472,0,"Hat Open.wav",40
Sample,67121,0,"Hat Open.wav",40
Sample,67445,0,"Hat Open.wav",40
Sample,67770,0,"Hat Open.wav",40
Sample,68418,0,"Hat Open.wav",40
Sample,68743,0,"Hat Open.wav",40
Sample,69067,0,"Hat Open.wav",40
Sample,69716,0,"Hat Open.wav",40
Sample,70040,0,"Hat Open.wav",40
Sample,70364,0,"Hat Open.wav",40
Sample,71013,0,"Hat Open.wav",40
Sample,71662,0,"Hat Open.wav",40
Sample,73770,0,"Hat Close.wav",50
Sample,74094,0,"Hat Close.wav",50
Sample,77499,0,"Tom3.wav",60
Sample,80094,0,"Tom3.wav",60
Sample,80418,0,"Tom1.wav",60
Sample,80743,0,"Tom3.wav",60
Sample,82040,0,"Tom2.wav",60
Sample,84472,0,"Tom2.wav",60
Sample,84634,0,"Tom2.wav",60
Sample,84797,0,"Tom2.wav",60
Sample,84959,0,"Tom3.wav",60
Sample,85283,0,"Tom3.wav",60
Sample,85445,0,"Tom3.wav",60

[TimingPoints]
635,324.324324324324,4,2,1,40,1,0
55202,-100.0,4,2,1,40,0,1
75878,-100.0,4,2,1,40,0,0

[HitObjects]
320,192,635,1,2,0:0:0:0:
448,192,635,1,4,0:0:0:0:
64,192,1121,1,2,0:0:0:0:
192,192,1121,1,4,0:0:0:0:
192,192,1607,1,2,0:0:0:0:
448,192,1607,128,4,2256:0:0:0:0:
64,192,2256,128,0,3229:0:0:0:0:
320,192,3229,1,2,0:0:0:0:
448,192,3229,1,4,0:0:0:0:
64,192,3716,1,4,0:0:0:0:
192,192,3716,1,2,0:0:0:0:
192,192,4202,128,2,5175:0:0:0:0:
320,192,4202,1,4,0:0:0:0:
448,192,5175,128,0,5824:0:0:0:0:
64,192,5824,1,4,0:0:0:0:
192,192,5824,1,2,0:0:0:0:
448,192,6148,1,8,0:0:0:0:
192,192,6472,1,2,0:0:0:0:
320,192,6634,1,2,0:0:0:0:
448,192,6797,1,8,0:0:0:0:
64,192,6959,128,2,7283:0:0:0:0:
448,192,7283,1,2,0:0:0:0:
320,192,7445,1,8,0:0:0:0:
192,192,7770,1,2,0:0:0:0:
448,192,7932,1,2,0:0:0:0:
64,192,8094,1,8,0:0:0:0:
192,192,8418,1,2,0:0:0:0:
448,192,8743,1,8,0:0:0:0:
320,192,9067,1,2,0:0:0:0:
64,192,9229,1,2,0:0:0:0:
192,192,9391,1,8,0:0:0:0:
448,192,9553,128,2,9878:0:0:0:0:
64,192,9878,1,2,0:0:0:0:
320,192,10040,1,8,0:0:0:0:
192,192,10364,1,2,0:0:0:0:
448,192,10526,1,2,0:0:0:0:
64,192,10689,1,8,0:0:0:0:
320,192,11013,1,4,0:0:0:0:
448,192,11013,1,2,0:0:0:0:
192,192,11337,1,8,0:0:0:0:
448,192,11662,1,2,0:0:0:0:
320,192,11824,1,2,0:0:0:0:
64,192,11986,1,2,0:0:0:0:
448,192,12148,1,12,0:0:0:0:
320,192,12472,1,2,0:0:0:0:
192,192,12634,1,8,0:0:0:0:
320,192,12959,1,2,0:0:0:0:
64,192,13121,1,2,0:0:0:0:
448,192,13283,1,8,0:0:0:0:
192,192,13607,128,8,14580:0:0:0:0:
320,192,14743,1,8,0:0:0:0:
448,192,14743,1,0,0:0:0:70:Hat Close.wav
64,192,15229,128,0,15553:0:0:0:0:
320,192,15553,128,0,16202:0:0:0:0:
64,192,16202,1,4,0:0:0:0:
192,192,16202,1,2,0:0:0:0:
448,192,16689,1,0,0:0:0:60:Tom1.wav
192,192,17175,1,2,0:0:0:0:
320,192,17662,1,0,0:0:0:60:Tom3.wav
64,192,18148,1,2,0:0:0:0:
192,192,18472,1,2,0:0:0:0:
320,192,18797,1,2,0:0:0:0:
64,192,19283,1,0,0:0:0:60:Tom1.wav
448,192,19770,1,2,0:0:0:0:
192,192,20256,1,0,0:0:0:60:Tom3.wav
320,192,20743,1,2,0:0:0:0:
64,192,21067,1,2,0:0:0:0:
448,192,21391,1,2,0:0:0:0:
192,192,21878,1,0,0:0:0:60:Tom1.wav
320,192,22364,1,2,0:0:0:0:
64,192,22851,1,0,0:0:0:60:Tom3.wav
448,192,23337,1,2,0:0:0:0:
192,192,23662,1,2,0:0:0:0:
320,192,23986,1,2,0:0:0:0:
448,192,24310,1,10,0:0:0:0:
64,192,24472,1,8,0:0:0:0:
192,192,24634,1,10,0:0:0:0:
320,192,24797,1,8,0:0:0:0:
64,192,25121,1,8,0:0:0:0:
192,192,25121,1,0,0:0:0:70:Hat Close.wav
64,192,26094,1,8,0:0:0:0:
448,192,26256,1,8,0:0:0:0:
192,192,26418,1,8,0:0:0:0:
320,192,26580,1,6,0:0:0:0:
64,192,26905,1,8,0:0:0:0:
192,192,26905,1,0,0:0:0:40:Hat Close.wav
320,192,27229,1,2,0:0:0:0:
192,192,27553,1,8,0:0:0:0:
448,192,27553,1,0,0:0:0:40:Hat Close.wav
64,192,27878,1,2,0:0:0:0:
320,192,28202,1,8,0:0:0:0:
448,192,28202,1,0,0:0:0:40:Hat Close.wav
192,192,28526,1,2,0:0:0:0:
64,192,28851,1,8,0:0:0:0:
320,192,28851,1,0,0:0:0:40:Hat Close.wav
448,192,29175,1,2,0:0:0:0:
64,192,29499,1,8,0:0:0:0:
192,192,29499,1,0,0:0:0:40:Hat Close.wav
320,192,29824,1,2,0:0:0:0:
64,192,30148,1,8,0:0:0:0:
448,192,30148,1,0,0:0:0:40:Hat Close.wav
192,192,30472,1,2,0:0:0:0:
320,192,30797,1,8,0:0:0:0:
448,192,30797,1,0,0:0:0:40:Hat Close.wav
64,192,31121,1,2,0:0:0:0:
320,192,31283,1,2,0:0:0:0:
192,192,31445,1,8,0:0:0:0:
448,192,31607,1,0,0:0:0:40:Hat Close.wav
64,192,31770,1,6,0:0:0:0:
192,192,32094,1,8,0:0:0:0:
320,192,32256,1,6,0:0:0:0:
448,192,32580,1,2,0:0:0:0:
64,192,32743,1,8,0:0:0:0:
192,192,32905,1,6,0:0:0:0:
320,192,33229,1,2,0:0:0:0:
64,192,33391,1,8,0:0:0:0:
320,192,33553,1,6,0:0:0:0:
448,192,33878,1,2,0:0:0:0:
64,192,34040,1,8,0:0:0:0:
320,192,34202,1,0,0:0:0:0:
192,192,34364,1,6,0:0:0:0:
64,192,34689,1,8,0:0:0:0:
448,192,34851,1,2,0:0:0:0:
448,192,35175,1,2,0:0:0:0:
64,192,35499,1,2,0:0:0:0:
192,192,35499,1,4,0:0:0:0:
320,192,35824,1,2,0:0:0:0:
192,192,35986,128,8,36310:0:0:0:0:
448,192,36310,128,0,36634:0:0:0:0:
320,192,36634,128,8,36959:0:0:0:0:
64,192,36959,128,4,37607:0:0:0:0:
448,192,37607,128,0,38256:0:0:0:100:Clap.wav
192,192,38256,128,0,38905:0:0:0:100:Clap.wav
320,192,38905,128,0,39553:0:0:0:100:Clap.wav
64,192,39553,128,2,40202:0:0:0:30:soft-hitwhistle.wav
448,192,40202,128,0,40851:0:0:0:100:Clap.wav
192,192,40851,128,0,41499:0:0:0:0:
448,192,41499,1,8,0:0:0:0:
64,192,41824,1,8,0:0:0:0:
320,192,42148,1,6,0:0:0:0:
192,192,42310,1,2,0:0:0:0:
64,192,42472,1,2,0:0:0:0:
320,192,42634,1,0,0:0:0:0:
448,192,42959,1,2,0:0:0:0:
192,192,43121,1,0,0:0:0:50:Hat Close.wav
320,192,43283,1,2,0:0:0:0:
64,192,43607,1,2,0:0:0:0:
448,192,43770,1,0,0:0:0:50:Hat Close.wav
192,192,43932,128,2,44256:0:0:0:0:
320,192,44256,1,0,0:0:0:60:Tom2.wav
64,192,44418,1,8,0:0:0:0:
448,192,44580,1,6,0:0:0:0:
192,192,44905,1,2,0:0:0:0:
320,192,45067,1,8,0:0:0:0:
448,192,45229,128,6,45553:0:0:0:0:
320,192,45553,1,2,0:0:0:0:
192,192,45716,1,8,0:0:0:0:
64,192,45878,128,6,46202:0:0:0:0:
192,192,46202,1,2,0:0:0:0:
320,192,46364,1,8,0:0:0:0:
448,192,46526,128,6,46851:0:0:0:0:
64,192,46851,1,2,0:0:0:0:
320,192,47013,1,8,0:0:0:0:
192,192,47175,1,0,0:0:0:60:Tom2.wav
64,192,47337,1,6,0:0:0:0:
448,192,47662,1,2,0:0:0:0:
320,192,47986,1,2,0:0:0:0:
192,192,48310,1,2,0:0:0:0:
448,192,48634,1,2,0:0:0:0:
64,192,48959,1,2,0:0:0:0:
192,192,49283,1,2,0:0:0:0:
320,192,49607,1,10,0:0:0:0:
448,192,49932,1,6,0:0:0:0:
192,192,50094,1,2,0:0:0:0:
320,192,50418,1,2,0:0:0:0:
64,192,50580,1,2,0:0:0:0:
192,192,50905,1,8,0:0:0:0:
448,192,51067,1,2,0:0:0:0:
320,192,51391,1,2,0:0:0:0:
64,192,51553,1,8,0:0:0:0:
448,192,51716,1,0,0:0:0:0:
192,192,51878,128,2,52202:0:0:0:0:
320,192,52202,1,8,0:0:0:0:
448,192,52526,1,10,0:0:0:0:
192,192,52689,1,10,0:0:0:0:
320,192,53013,1,10,0:0:0:0:
64,192,53175,1,10,0:0:0:0:
192,192,53499,1,10,0:0:0:0:
448,192,53662,1,10,0:0:0:0:
64,192,53986,1,10,0:0:0:0:
320,192,54148,1,10,0:0:0:0:
192,192,54472,128,0,54797:0:0:0:0:
448,192,54797,128,0,55121:0:0:0:0:
64,192,55121,1,2,0:0:0:0:
192,192,55121,1,4,0:0:0:0:
320,192,55445,1,8,0:0:0:0:
192,192,55770,1,2,0:0:0:0:
448,192,55932,1,2,0:0:0:0:
64,192,56094,1,8,0:0:0:0:
320,192,56256,1,2,0:0:0:0:
192,192,56580,1,2,0:0:0:0:
448,192,56743,1,8,0:0:0:0:
320,192,57067,1,2,0:0:0:0:
192,192,57229,1,2,0:0:0:0:
64,192,57391,1,8,0:0:0:0:
448,192,57553,1,2,0:0:0:0:
320,192,57878,1,2,0:0:0:0:
192,192,58040,1,8,0:0:0:0:
64,192,58364,1,2,0:0:0:0:
192,192,58526,1,2,0:0:0:0:
448,192,58689,1,8,0:0:0:0:
320,192,58851,1,2,0:0:0:0:
192,192,59175,1,2,0:0:0:0:
448,192,59337,1,8,0:0:0:0:
64,192,59662,1,2,0:0:0:0:
320,192,59824,1,2,0:0:0:0:
192,192,59986,1,8,0:0:0:0:
320,192,60310,1,2,0:0:0:0:
448,192,60310,1,4,0:0:0:0:
192,192,60634,128,8,60959:0:0:0:0:
64,192,60959,1,2,0:0:0:0:
448,192,60959,1,0,0:0:0:40:Hat Open.wav
320,192,61283,128,8,61607:0:0:0:0:
64,192,61607,1,4,0:0:0:0:
192,192,61607,1,2,0:0:0:0:
448,192,61932,1,8,0:0:0:0:
192,192,62094,1,6,0:0:0:0:
64,192,62418,1,2,0:0:0:0:
320,192,62580,1,8,0:0:0:0:
192,192,62743,1,0,0:0:0:50:Tom2.wav
448,192,62905,1,6,0:0:0:0:
320,192,63229,1,8,0:0:0:0:
64,192,63391,1,2,0:0:0:0:
192,192,63716,1,2,0:0:0:0:
448,192,63878,1,8,0:0:0:0:
64,192,64040,1,6,0:0:0:0:
320,192,64364,1,2,0:0:0:0:
192,192,64526,1,8,0:0:0:0:
448,192,64851,128,8,65175:0:0:0:0:
192,192,65175,128,8,65499:0:0:0:0:
320,192,65499,1,2,0:0:0:0:
448,192,65499,1,4,0:0:0:0:
64,192,65824,1,8,0:0:0:0:
448,192,66148,1,2,0:0:0:0:
192,192,66310,1,2,0:0:0:0:
320,192,66472,1,8,0:0:0:0:
64,192,66634,1,2,0:0:0:0:
192,192,66959,1,2,0:0:0:0:
448,192,67121,1,8,0:0:0:0:
320,192,67445,1,2,0:0:0:0:
192,192,67607,1,2,0:0:0:0:
64,192,67770,1,8,0:0:0:0:
448,192,67932,1,2,0:0:0:0:
192,192,68256,1,2,0:0:0:0:
320,192,68418,1,8,0:0:0:0:
64,192,68743,1,2,0:0:0:0:
192,192,68905,1,2,0:0:0:0:
448,192,69067,1,8,0:0:0:0:
64,192,69229,1,2,0:0:0:0:
192,192,69553,1,2,0:0:0:0:
448,192,69716,1,8,0:0:0:0:
320,192,70040,1,2,0:0:0:0:
192,192,70202,1,2,0:0:0:0:
448,192,70364,1,8,0:0:0:0:
64,192,70689,1,2,0:0:0:0:
192,192,70689,1,4,0:0:0:0:
320,192,71013,128,8,71337:0:0:0:0:
64,192,71337,1,2,0:0:0:0:
448,192,71337,1,0,0:0:0:40:Hat Open.wav
192,192,71662,128,8,71986:0:0:0:0:
320,192,71986,1,2,0:0:0:0:
448,192,71986,1,4,0:0:0:0:
64,192,72310,1,8,0:0:0:0:
320,192,72472,1,6,0:0:0:0:
448,192,72797,1,2,0:0:0:0:
192,192,72959,1,8,0:0:0:0:
64,192,73283,1,2,0:0:0:0:
448,192,73283,1,4,0:0:0:0:
320,192,73607,1,8,0:0:0:0:
192,192,73770,1,2,0:0:0:0:
448,192,74094,1,2,0:0:0:0:
64,192,74256,1,8,0:0:0:0:
320,192,74418,1,6,0:0:0:0:
448,192,74743,1,2,0:0:0:0:
64,192,74905,128,8,75229:0:0:0:0:
320,192,75229,128,8,75553:0:0:0:0:
192,192,75553,128,0,75878:0:0:0:60:Tom2.wav
64,192,75878,1,4,0:0:0:0:
448,192,75878,1,2,0:0:0:0:
320,192,76202,1,2,0:0:0:0:
192,192,76364,1,0,0:0:0:60:Tom1.wav
448,192,76526,1,2,0:0:0:0:
64,192,76851,1,2,0:0:0:0:
192,192,77175,1,2,0:0:0:0:
448,192,77337,1,0,0:0:0:60:Tom3.wav
320,192,77499,1,2,0:0:0:0:
192,192,77824,1,2,0:0:0:0:
64,192,78148,1,2,0:0:0:0:
448,192,78310,1,8,0:0:0:0:
320,192,78472,1,2,0:0:0:0:
192,192,78797,1,2,0:0:0:0:
64,192,79121,1,2,0:0:0:0:
448,192,79445,1,2,0:0:0:0:
192,192,79607,1,8,0:0:0:0:
64,192,79932,1,0,0:0:0:60:Tom3.wav
320,192,80094,1,2,0:0:0:0:
192,192,80256,1,0,0:0:0:0:
448,192,80418,128,2,80743:0:0:0:0:
64,192,80743,128,2,81067:0:0:0:0:
192,192,81067,1,4,0:0:0:0:
320,192,81067,1,8,0:0:0:0:
448,192,81391,1,0,0:0:0:0:
320,192,81716,1,0,0:0:0:0:
64,192,82040,1,8,0:0:0:0:
320,192,82202,1,12,0:0:0:0:
448,192,82202,1,2,0:0:0:0:
192,192,82526,1,0,0:0:0:60:Tom1.wav
320,192,82689,1,0,0:0:0:60:Tom3.wav
64,192,83013,1,0,0:0:0:0:
448,192,83337,1,8,0:0:0:0:
64,192,83499,1,6,0:0:0:0:
192,192,83499,1,8,0:0:0:0:
320,192,83824,128,8,84472:0:0:0:0:
192,192,84472,1,8,0:0:0:0:
448,192,84634,1,8,0:0:0:0:
64,192,84797,1,8,0:0:0:0:
192,192,84959,1,8,0:0:0:0:
448,192,85283,1,10,0:0:0:0:
192,192,85445,1,10,0:0:0:0:
320,192,85770,1,0,0:0:0:0:
64,192,86094,128,2,88202:0:0:0:0:
192,192,86094,1,4,0:0:0:0:
