osu file format v14

[General]
AudioFilename: audio.mp3
AudioLeadIn: 0
PreviewTime: 189030
Countdown: 0
SampleSet: Soft
StackLeniency: 0.7
Mode: 0
LetterboxInBreaks: 0
EpilepsyWarning: 1
WidescreenStoryboard: 1

[Editor]
Bookmarks: 1652,6841,17219,27597,37976,43165,48354,56138,76895,82084,87111,97651,108030,113219,118408,126192,146949,152138,157165,167706,178084,189760,202733,205165,223489,226084,228679,233868,238895,249273,253165,258516
DistanceSpacing: 0.6
BeatDivisor: 4
GridSize: 32
TimelineZoom: 2.499999

[Metadata]
Title:Colorful Dreams! Colorful Smiles!
TitleUnicode:Colorful Dreams! Colorful Smiles!
Artist:Nijigasaki High School Idol Club
ArtistUnicode:虹ヶ咲学園スクールアイドル同好会
Creator:Ninjaking311
Version:Kixo's Expert
Source:ラブライブ!虹ヶ咲学園スクールアイドル同好会
Tags:school idols idol anime japanese love live opening season 2 two op pop jpop j-pop colourful -karupa- KixoKixo IAmWayneKing 上原歩夢 Uehara Ayumu 大西亜玖璃 Onishi Aguri 中須かすみ Nakasu Kasumi 相良茉優 Sagara Mayu 桜坂しずく Osaka Shizuku 前田佳織里 Maeda Kaori 朝香果林 Asaka Karin 久保田未夢 Kubota Miyu 宮下愛 Miyashita Ai 村上奈津実 Murakami Natsumi 近江彼方 Konoe Kanata 鬼頭明里 Kito Akari 優木せつ菜 Yuki Setsuna 楠木ともり Kusunoki Tomori エマ・ヴェルデ Emma Verde 指出毬亜 Sashide Maria 天王寺璃奈 Tennoji Rina 田中ちえ美 Tanaka Chiemi 三船栞子 Mifune Shioriko 小泉萌香 Koizumi Moeka 鐘嵐珠 ショウ・ランジュ Lanzhu Zhong 法元明菜 Houmoto Akina ミア・テイラー Mia Taylor 内田秀 Uchida Shu shuu oonishi ousaka kitou yuuki tennouji homoto ayaka miyake 要田健 ken youda carlos k. tasuku 2期
BeatmapID:4026240
BeatmapSetID:1843515

[Difficulty]
HPDrainRate:6
CircleSize:4
OverallDifficulty:8.2
ApproachRate:9.2
SliderMultiplier:1.84
SliderTickRate:1

[Events]
//Background and Video events
0,0,"bgnew.jpg",0,0
//Break Periods
2,38300,41868
2,108354,111922
2,190084,196895
//Storyboard Layer 0 (Background)
//Storyboard Layer 1 (Fail)
//Storyboard Layer 2 (Pass)
//Storyboard Layer 3 (Foreground)
Sprite,Foreground,Centre,"sb\glow.png",0,0 C,0,205165,,164,100,240 M,0,205165,205205,405,312,427.2937,303.3713 F,2,205165,205889,1,0 S,2,205165,205889,1,0.2 P,0,205165,205889,A M,0,205205,205246,427.2937,303.3713,447.918,291.3375 M,0,205246,205286,447.918,291.3375,464.8705,274.5847 M,0,205286,205327,464.8705,274.5847,477.0515,254.0368 M,0,205327,205367,477.0515,254.0368,488.9619,233.3231 M,0,205367,205408,488.9619,233.3231,505.6927,216.3648 M,0,205408,205448,505.6927,216.3648,526.403,204.4929 M,0,205448,205489,526.403,204.4929,548.8481,196.272
Sprite,Foreground,Centre,"sb\glow.png",319,56 C,0,205651,,164,100,240 F,2,205651,206051,1,0 S,2,205651,206051,1,0.2 P,0,205651,206051,A
Sprite,Foreground,Centre,"sb\glow.png",399,219 C,0,205814,,164,100,240 F,2,205814,206214,1,0 S,2,205814,206214,1,0.2 P,0,205814,206214,A
Sprite,Foreground,Centre,"sb\glow.png",0,0 C,0,205976,,164,100,240 M,0,205976,206016,502,66,483.8663,81.52042 F,2,205976,206538,1,0 S,2,205976,206538,1,0.2 P,0,205976,206538,A M,0,206016,206057,483.8663,81.52042,463.5432,94.00513 M,0,206057,206097,463.5432,94.00513,441.4036,102.9153 M,0,206097,206138,441.4036,102.9153,418.0637,107.9901
Sprite,Foreground,Centre,"sb\glow.png",281,277 C,0,206300,,164,100,240 F,2,206300,206700,1,0 S,2,206300,206700,1,0.2 P,0,206300,206700,A
Sprite,Foreground,Centre,"sb\glow.png",0,0 C,0,206462,,230,110,150 M,0,206462,206502,313,142,329.8027,159.0047 F,2,206462,207186,1,0 S,2,206462,207186,1,0.2 P,0,206462,207186,A M,0,206502,206543,329.8027,159.0047,345.0872,177.3781 M,0,206543,206583,345.0872,177.3781,358.6385,197.0658 M,0,206583,206624,358.6385,197.0658,370.3442,217.9049 M,0,206624,206664,370.3442,217.9049,380.1074,239.7235 M,0,206664,206705,380.1074,239.7235,387.8471,262.3411 M,0,206705,206745,387.8471,262.3411,393.4988,285.5711 M,0,206745,206786,393.4988,285.5711,397,309
Sprite,Foreground,Centre,"sb\glow.png",0,0 C,0,206949,,230,110,150 M,0,206949,206989,542,146,523.8663,161.5204 F,2,206949,207511,1,0 S,2,206949,207511,1,0.2 P,0,206949,207511,A M,0,206989,207030,523.8663,161.5204,503.5432,174.0051 M,0,207030,207070,503.5432,174.0051,481.4036,182.9153 M,0,207070,207111,481.4036,182.9153,458.0637,187.9901
Sprite,Foreground,Centre,"sb\glow.png",543,315 C,0,207273,,230,110,150 F,2,207273,207673,1,0 S,2,207273,207673,1,0.2 P,0,207273,207673,A
Sprite,Foreground,Centre,"sb\glow.png",543,315 C,0,207435,,230,110,150 F,2,207435,207835,1,0 S,2,207435,207835,1,0.2 P,0,207435,207835,A
Sprite,Foreground,Centre,"sb\glow.png",0,0 C,0,207597,,230,110,150 M,0,207597,207637,421,430,400.0386,418.8535 F,2,207597,208240,1,0 S,2,207597,208240,1,0.2 P,0,207597,208240,A M,0,207637,207678,400.0386,418.8535,383.5865,401.8451 M,0,207678,207718,383.5865,401.8451,373.5709,380.4056 M,0,207718,207759,373.5709,380.4056,371.084,356.8729 M,0,207759,207799,371.084,356.8729,376.397,333.8132 M,0,207799,207840,376.397,333.8132,388.6253,313.4663
Sprite,Foreground,Centre,"sb\glow.png",0,0 C,0,207922,,100,200,200 M,0,207922,207962,390,314,407.9231,329.7565 F,2,207922,208484,1,0 S,2,207922,208484,1,0.2 P,0,207922,208484,A M,0,207962,208003,407.9231,329.7565,428.1703,342.3503 M,0,208003,208043,428.1703,342.3503,450.3236,351.2029 M,0,208043,208084,450.3236,351.2029,473,356
Sprite,Foreground,Centre,"sb\glow.png",0,0 C,0,208246,,100,200,200 M,0,208246,208286,239,219,221.0119,203.3032 F,2,208246,208808,1,0 S,2,208246,208808,1,0.2 P,0,208246,208808,A M,0,208286,208327,221.0119,203.3032,200.7877,190.6544 M,0,208327,208367,200.7877,190.6544,178.7332,181.5652 M,0,208367,208408,178.7332,181.5652,155.498,176.0822
Sprite,Foreground,Centre,"sb\glow.png",270,378 C,0,208570,,100,200,200 F,2,208570,208970,1,0 S,2,208570,208970,1,0.2 P,0,208570,208970,A
Sprite,Foreground,Centre,"sb\glow.png",364,164 C,0,208733,,100,200,200 F,2,208733,209133,1,0 S,2,208733,209133,1,0.2 P,0,208733,209133,A
Sprite,Foreground,Centre,"sb\glow.png",0,0 C,0,208895,,100,200,200 M,0,208895,208935,270,378,248.1589,369.1547 F,2,208895,209457,1,0 S,2,208895,209457,1,0.2 P,0,208895,209457,A M,0,208935,208976,248.1589,369.1547,232.2521,351.9779 M,0,208976,209016,232.2521,351.9779,225.7398,329.4889 M,0,209016,209057,225.7398,329.4889,229.5288,306.2382
Sprite,Foreground,Centre,"sb\glow.png",0,0 C,0,209219,,130,120,255 M,0,209219,209259,150,56,167.7312,72.02537 F,2,209219,209862,1,0 S,2,209219,209862,1,0.2 P,0,209219,209862,A M,0,209259,209300,167.7312,72.02537,186.9794,86.1788 M,0,209300,209340,186.9794,86.1788,207.6371,98.18561 M,0,209340,209381,207.6371,98.18561,229.4666,107.9071 M,0,209381,209421,229.4666,107.9071,252.2167,115.2307 M,0,209421,209462,252.2167,115.2307,275,120
Sprite,Foreground,Centre,"sb\glow.png",275,120 C,0,209543,,130,120,255 F,2,209543,209943,1,0 S,2,209543,209943,1,0.2 P,0,209543,209943,A
Sprite,Foreground,Centre,"sb\glow.png",0,0 C,0,209706,,130,120,255 M,0,209706,209746,145,295,122.0974,288.8406 F,2,209706,210349,1,0 S,2,209706,210349,1,0.2 P,0,209706,210349,A M,0,209746,209787,122.0974,288.8406,102.5441,275.5751 M,0,209787,209827,102.5441,275.5751,88.78435,256.3661 M,0,209827,209868,88.78435,256.3661,82.516,233.5836 M,0,209868,209908,82.516,233.5836,84.51281,210.0384 M,0,209908,209949,84.51281,210.0384,94.52882,188.6358
Sprite,Foreground,Centre,"sb\glow.png",94,188 C,0,210030,,130,120,255 F,2,210030,210430,1,0 S,2,210030,210430,1,0.2 P,0,210030,210430,A
Sprite,Foreground,Centre,"sb\glow.png",237,300 C,0,210192,,130,120,255 F,2,210192,210592,1,0 S,2,210192,210592,1,0.2 P,0,210192,210592,A
Sprite,Foreground,Centre,"sb\glow.png",98,434 C,0,210354,,130,120,255 F,2,210354,210754,1,0 S,2,210354,210754,1,0.2 P,0,210354,210754,A
Sprite,Foreground,Centre,"sb\glow.png",0,0 C,0,210516,,164,100,240 M,0,210516,210556,237,300,259.2937,308.6287 F,2,210516,211240,1,0 S,2,210516,211240,1,0.2 P,0,210516,211240,A M,0,210556,210597,259.2937,308.6287,279.918,320.6625 M,0,210597,210637,279.918,320.6625,296.8705,337.4153 M,0,210637,210678,296.8705,337.4153,309.0515,357.9632 M,0,210678,210718,309.0515,357.9632,320.9619,378.6769 M,0,210718,210759,320.9619,378.6769,337.6927,395.6352 M,0,210759,210799,337.6927,395.6352,358.403,407.5071 M,0,210799,210840,358.403,407.5071,380.8482,415.7281
Sprite,Foreground,Centre,"sb\glow.png",0,0 C,0,211003,,164,100,240 M,0,211003,211043,468,275,449.8663,290.5204 F,2,211003,211565,1,0 S,2,211003,211565,1,0.2 P,0,211003,211565,A M,0,211043,211084,449.8663,290.5204,429.5432,303.0051 M,0,211084,211124,429.5432,303.0051,407.4036,311.9153 M,0,211124,211165,407.4036,311.9153,384.0637,316.9901
Sprite,Foreground,Centre,"sb\glow.png",0,0 C,0,211327,,164,100,240 M,0,211327,211367,140,429,158.1337,413.4796 F,2,211327,211889,1,0 S,2,211327,211889,1,0.2 P,0,211327,211889,A M,0,211367,211408,158.1337,413.4796,178.4568,400.9949 M,0,211408,211448,178.4568,400.9949,200.5964,392.0847 M,0,211448,211489,200.5964,392.0847,223.9363,387.0099
Sprite,Foreground,Centre,"sb\glow.png",0,0 C,0,211651,,230,110,150 M,0,211651,211691,246,209,242.9574,185.4226 F,2,211651,212375,1,0 S,2,211651,212375,1,0.2 P,0,211651,212375,A M,0,211691,211732,242.9574,185.4226,233.6292,163.6235 M,0,211732,211772,233.6292,163.6235,218.386,145.4515 M,0,211772,211813,218.386,145.4515,198.5261,132.463 M,0,211813,211853,198.5261,132.463,175.7422,125.7747 M,0,211853,211894,175.7422,125.7747,151.9787,125.9682 M,0,211894,211934,151.9787,125.9682,129.267,133.0396 M,0,211934,211975,129.267,133.0396,109.5376,146.3843
Sprite,Foreground,Centre,"sb\glow.png",109,146 C,0,212057,,230,110,150 F,2,212057,212457,1,0 S,2,212057,212457,1,0.2 P,0,212057,212457,A
Sprite,Foreground,Centre,"sb\glow.png",109,146 C,0,212138,,230,110,150 F,2,212138,212538,1,0 S,2,212138,212538,1,0.2 P,0,212138,212538,A
Sprite,Foreground,Centre,"sb\glow.png",228,288 C,0,212300,,230,110,150 F,2,212300,212700,1,0 S,2,212300,212700,1,0.2 P,0,212300,212700,A
Sprite,Foreground,Centre,"sb\glow.png",64,364 C,0,212462,,230,110,150 F,2,212462,212862,1,0 S,2,212462,212862,1,0.2 P,0,212462,212862,A
Sprite,Foreground,Centre,"sb\glow.png",72,345 C,0,212543,,230,110,150 F,2,212543,212943,1,0 S,2,212543,212943,1,0.2 P,0,212543,212943,A
Sprite,Foreground,Centre,"sb\glow.png",85,330 C,0,212624,,230,110,150 F,2,212624,213024,1,0 S,2,212624,213024,1,0.2 P,0,212624,213024,A
Sprite,Foreground,Centre,"sb\glow.png",210,396 C,0,212787,,100,200,200 F,2,212787,213187,1,0 S,2,212787,213187,1,0.2 P,0,212787,213187,A
Sprite,Foreground,Centre,"sb\glow.png",254,411 C,0,212868,,100,200,200 F,2,212868,213268,1,0 S,2,212868,213268,1,0.2 P,0,212868,213268,A
Sprite,Foreground,Centre,"sb\glow.png",301,405 C,0,212949,,100,200,200 F,2,212949,213349,1,0 S,2,212949,213349,1,0.2 P,0,212949,213349,A
Sprite,Foreground,Centre,"sb\glow.png",341,378 C,0,213030,,100,200,200 F,2,213030,213430,1,0 S,2,213030,213430,1,0.2 P,0,213030,213430,A
Sprite,Foreground,Centre,"sb\glow.png",0,0 C,0,213111,,100,200,200 M,0,213111,213151,365,337,349.2387,319.0827 F,2,213111,213673,1,0 S,2,213111,213673,1,0.2 P,0,213111,213673,A M,0,213151,213192,349.2387,319.0827,336.6468,298.8343 M,0,213192,213232,336.6468,298.8343,327.8108,276.6701 M,0,213232,213273,327.8108,276.6701,323.0376,253.2705
Sprite,Foreground,Centre,"sb\glow.png",574,130 C,0,213435,,100,200,200 F,2,213435,213835,1,0 S,2,213435,213835,1,0.2 P,0,213435,213835,A
Sprite,Foreground,Centre,"sb\glow.png",504,304 C,0,213597,,100,200,200 F,2,213597,213997,1,0 S,2,213597,213997,1,0.2 P,0,213597,213997,A
Sprite,Foreground,Centre,"sb\glow.png",0,0 C,0,213760,,100,200,200 M,0,213760,213800,379,145,396.9173,160.7613 F,2,213760,214322,1,0 S,2,213760,214322,1,0.2 P,0,213760,214322,A M,0,213800,213841,396.9173,160.7613,417.1657,173.3532 M,0,213841,213881,417.1657,173.3532,439.3299,182.1892 M,0,213881,213922,439.3299,182.1892,462.7295,186.9624
Sprite,Foreground,Centre,"sb\glow.png",362,291 C,0,214084,,100,200,200 F,2,214084,214484,1,0 S,2,214084,214484,1,0.2 P,0,214084,214484,A
Sprite,Foreground,Centre,"sb\glow.png",0,0 C,0,214246,,130,120,255 M,0,214246,214286,500,416,477.7063,407.3713 F,2,214246,214970,1,0 S,2,214246,214970,1,0.2 P,0,214246,214970,A M,0,214286,214327,477.7063,407.3713,457.0821,395.3374 M,0,214327,214367,457.0821,395.3374,440.1295,378.5848 M,0,214367,214408,440.1295,378.5848,427.9485,358.0368 M,0,214408,214448,427.9485,358.0368,416.0381,337.3231 M,0,214448,214489,416.0381,337.3231,399.3073,320.3648 M,0,214489,214529,399.3073,320.3648,378.597,308.4929 M,0,214529,214570,378.597,308.4929,356.1518,300.272
Sprite,Foreground,Centre,"sb\glow.png",187,440 C,0,214733,,130,120,255 F,2,214733,215133,1,0 S,2,214733,215133,1,0.2 P,0,214733,215133,A
Sprite,Foreground,Centre,"sb\glow.png",343,379 C,0,214895,,130,120,255 F,2,214895,215295,1,0 S,2,214895,215295,1,0.2 P,0,214895,215295,A
Sprite,Foreground,Centre,"sb\glow.png",0,0 C,0,215057,,130,120,255 M,0,215057,215097,209,286,224.7612,303.9173 F,2,215057,215619,1,0 S,2,215057,215619,1,0.2 P,0,215057,215619,A M,0,215097,215138,224.7612,303.9173,237.3532,324.1657 M,0,215138,215178,237.3532,324.1657,246.1892,346.3299 M,0,215178,215219,246.1892,346.3299,250.9624,369.7295
Sprite,Foreground,Centre,"sb\glow.png",308,212 C,0,215381,,130,120,255 F,2,215381,215781,1,0 S,2,215381,215781,1,0.2 P,0,215381,215781,A
Sprite,Foreground,Centre,"sb\glow.png",0,0 C,0,215543,,164,100,240 M,0,215543,215583,125,382,102.5143,374.135 F,2,215543,216267,1,0 S,2,215543,216267,1,0.2 P,0,215543,216267,A M,0,215583,215624,102.5143,374.135,82.47626,361.3321 M,0,215624,215664,82.47626,361.3321,66.15566,344.0382 M,0,215664,215705,66.15566,344.0382,54.53355,323.2928 M,0,215705,215745,54.53355,323.2928,48.30853,300.3429 M,0,215745,215786,48.30853,300.3429,47.85484,276.5679 M,0,215786,215826,47.85484,276.5679,53.19981,253.397 M,0,215826,215867,53.19981,253.397,64.02223,232.2228
Sprite,Foreground,Centre,"sb\glow.png",216,56 C,0,216030,,164,100,240 F,2,216030,216430,1,0 S,2,216030,216430,1,0.2 P,0,216030,216430,A
Sprite,Foreground,Centre,"sb\glow.png",64,108 C,0,216192,,164,100,240 F,2,216192,216592,1,0 S,2,216192,216592,1,0.2 P,0,216192,216592,A
Sprite,Foreground,Centre,"sb\glow.png",0,0 C,0,216354,,164,100,240 M,0,216354,216394,165,263,169.6389,239.5929 F,2,216354,216916,1,0 S,2,216354,216916,1,0.2 P,0,216354,216916,A M,0,216394,216435,169.6389,239.5929,178.0932,217.2995 M,0,216435,216475,178.0932,217.2995,190.3824,196.851 M,0,216475,216516,190.3824,196.851,206,179
Sprite,Foreground,Centre,"sb\glow.png",64,231 C,0,216679,,164,100,240 F,2,216679,217079,1,0 S,2,216679,217079,1,0.2 P,0,216679,217079,A
Sprite,Foreground,Centre,"sb\glow.png",0,0 C,0,216841,,230,110,150 M,0,216841,216881,260,325,282.2937,333.6287 F,2,216841,217565,1,0 S,2,216841,217565,1,0.2 P,0,216841,217565,A M,0,216881,216922,282.2937,333.6287,302.918,345.6626 M,0,216922,216962,302.918,345.6626,319.8705,362.4153 M,0,216962,217003,319.8705,362.4153,332.0515,382.9632 M,0,217003,217043,332.0515,382.9632,343.9619,403.6769 M,0,217043,217084,343.9619,403.6769,360.6927,420.6352 M,0,217084,217124,360.6927,420.6352,381.403,432.5071 M,0,217124,217165,381.403,432.5071,403.8482,440.728
Sprite,Foreground,Centre,"sb\glow.png",0,0 C,0,217327,,230,110,150 M,0,217327,217367,467,205,448.7334,220.3626 F,2,217327,217889,1,0 S,2,217327,217889,1,0.2 P,0,217327,217889,A M,0,217367,217408,448.7334,220.3626,428.2823,232.6329 M,0,217408,217448,428.2823,232.6329,406.0377,241.2691 M,0,217448,217489,406.0377,241.2691,383,246
Sprite,Foreground,Centre,"sb\glow.png",570,436 C,0,217651,,230,110,150 F,2,217651,218051,1,0 S,2,217651,218051,1,0.2 P,0,217651,218051,A
Sprite,Foreground,Centre,"sb\glow.png",418,340 C,0,217814,,230,110,150 F,2,217814,218214,1,0 S,2,217814,218214,1,0.2 P,0,217814,218214,A
Sprite,Foreground,Centre,"sb\glow.png",0,0 C,0,217976,,100,200,200 M,0,217976,218016,565,250,548.989,267.741 F,2,217976,218619,1,0 S,2,217976,218619,1,0.2 P,0,217976,218619,A M,0,218016,218057,548.989,267.741,534.9584,287.075 M,0,218057,218097,534.9584,287.075,523.2059,307.8751 M,0,218097,218138,523.2059,307.8751,513.8829,329.8752 M,0,218138,218178,513.8829,329.8752,507.1097,352.7937 M,0,218178,218219,507.1097,352.7937,503,376
Sprite,Foreground,Centre,"sb\glow.png",0,0 C,0,218300,,100,200,200 M,0,218300,218340,503,376,480.8839,384.1009 F,2,218300,218862,1,0 S,2,218300,218862,1,0.2 P,0,218300,218862,A M,0,218340,218381,480.8839,384.1009,457.5932,381.8932 M,0,218381,218421,457.5932,381.8932,437.854,369.3315 M,0,218421,218462,437.854,369.3315,425.4723,349.3039
Sprite,Foreground,Centre,"sb\glow.png",0,0 C,0,218624,,100,200,200 M,0,218624,218664,274,143,289.1104,161.4829 F,2,218624,219186,1,0 S,2,218624,219186,1,0.2 P,0,218624,219186,A M,0,218664,218705,289.1104,161.4829,301.2729,182.0068 M,0,218705,218745,301.2729,182.0068,309.9926,204.2245 M,0,218745,218786,309.9926,204.2245,315,227
Sprite,Foreground,Centre,"sb\glow.png",298,361 C,0,218949,,100,200,200 F,2,218949,219349,1,0 S,2,218949,219349,1,0.2 P,0,218949,219349,A
Sprite,Foreground,Centre,"sb\glow.png",416,184 C,0,219111,,100,200,200 F,2,219111,219511,1,0 S,2,219111,219511,1,0.2 P,0,219111,219511,A
Sprite,Foreground,Centre,"sb\glow.png",0,0 C,0,219273,,100,200,200 M,0,219273,219313,298,361,279.7335,345.6374 F,2,219273,219835,1,0 S,2,219273,219835,1,0.2 P,0,219273,219835,A M,0,219313,219354,279.7335,345.6374,259.2823,333.367 M,0,219354,219394,259.2823,333.367,237.0377,324.7309 M,0,219394,219435,237.0377,324.7309,214,320
Sprite,Foreground,Centre,"sb\glow.png",0,0 C,0,219597,,130,120,255 M,0,219597,219637,64,126,86.79935,132.6415 F,2,219597,220240,1,0 S,2,219597,220240,1,0.2 P,0,219597,220240,A M,0,219637,219678,86.79935,132.6415,106.5321,145.7193 M,0,219678,219718,106.5321,145.7193,121.1406,164.3534 M,0,219718,219759,121.1406,164.3534,129.134,186.6488 M,0,219759,219799,129.134,186.6488,129.6933,210.3367 M,0,219799,219840,129.6933,210.3367,122.9394,233.1104
Sprite,Foreground,Centre,"sb\glow.png",123,233 C,0,219922,,130,120,255 F,2,219922,220322,1,0 S,2,219922,220322,1,0.2 P,0,219922,220322,A
Sprite,Foreground,Centre,"sb\glow.png",0,0 C,0,220084,,130,120,255 M,0,220084,220124,300,68,281.3232,82.87626 F,2,220084,220646,1,0 S,2,220084,220646,1,0.2 P,0,220084,220646,A M,0,220124,220165,281.3232,82.87626,260.7283,94.93036 M,0,220165,220205,260.7283,94.93036,238.5227,103.7016 M,0,220205,220246,238.5227,103.7016,215.2182,108.9631
Sprite,Foreground,Centre,"sb\glow.png",152,69 C,0,220408,,130,120,255 F,2,220408,220808,1,0 S,2,220408,220808,1,0.2 P,0,220408,220808,A
Sprite,Foreground,Centre,"sb\glow.png",315,168 C,0,220570,,130,120,255 F,2,220570,220970,1,0 S,2,220570,220970,1,0.2 P,0,220570,220970,A
Sprite,Foreground,Centre,"sb\glow.png",196,325 C,0,220733,,130,120,255 F,2,220733,221133,1,0 S,2,220733,221133,1,0.2 P,0,220733,221133,A
Sprite,Foreground,Centre,"sb\glow.png",0,0 C,0,220895,,164,100,240 M,0,220895,220935,315,168,337.2937,176.6287 F,2,220895,221619,1,0 S,2,220895,221619,1,0.2 P,0,220895,221619,A M,0,220935,220976,337.2937,176.6287,357.918,188.6626 M,0,220976,221016,357.918,188.6626,374.8705,205.4152 M,0,221016,221057,374.8705,205.4152,387.0515,225.9632 M,0,221057,221097,387.0515,225.9632,398.9619,246.677 M,0,221097,221138,398.9619,246.677,415.6928,263.6352 M,0,221138,221178,415.6928,263.6352,436.4031,275.5071 M,0,221178,221219,436.4031,275.5071,458.8483,283.728
Sprite,Foreground,Centre,"sb\glow.png",0,0 C,0,221381,,164,100,240 M,0,221381,221421,510,110,494.8896,128.4829 F,2,221381,221943,1,0 S,2,221381,221943,1,0.2 P,0,221381,221943,A M,0,221421,221462,494.8896,128.4829,482.7271,149.0068 M,0,221462,221502,482.7271,149.0068,474.0074,171.2245 M,0,221502,221543,474.0074,171.2245,469,194
Sprite,Foreground,Centre,"sb\glow.png",0,0 C,0,221706,,164,100,240 M,0,221706,221746,524,377,528.6987,353.5957 F,2,221706,222268,1,0 S,2,221706,222268,1,0.2 P,0,221706,222268,A M,0,221746,221787,528.6987,353.5957,537.1215,331.2823 M,0,221787,221827,537.1215,331.2823,549.2495,310.7458 M,0,221827,221868,549.2495,310.7458,564.5728,292.4426
Sprite,Foreground,Centre,"sb\glow.png",0,0 C,0,222030,,230,110,150 M,0,222030,222070,346,348,322.4205,351.9561 F,2,222030,222754,1,0 S,2,222030,222754,1,0.2 P,0,222030,222754,A M,0,222070,222111,322.4205,351.9561,299.2211,357.7186 M,0,222111,222151,299.2211,357.7186,276.5703,365.3578 M,0,222151,222192,276.5703,365.3578,254.6196,374.8228 M,0,222192,222232,254.6196,374.8228,233.5159,386.0501 M,0,222232,222273,233.5159,386.0501,213.4004,398.9646 M,0,222273,222313,213.4004,398.9646,194.4076,413.4799 M,0,222313,222354,194.4076,413.4799,176.5956,429.4289
Sprite,Foreground,Centre,"sb\glow.png",184,437 C,0,222435,,230,110,150 F,2,222435,222835,1,0 S,2,222435,222835,1,0.2 P,0,222435,222835,A
Sprite,Foreground,Centre,"sb\glow.png",0,0 C,0,222516,,230,110,150 M,0,222516,222556,184,437,160.5561,436.9189 F,2,222516,223078,1,0 S,2,222516,223078,1,0.2 P,0,222516,223078,A M,0,222556,222597,160.5561,436.9189,140.1571,425.7699 M,0,222597,222637,140.1571,425.7699,128.1444,405.8333 M,0,222637,222678,128.1444,405.8333,127.8204,382.5161
Sprite,Foreground,Centre,"sb\glow.png",0,0 C,0,222841,,230,110,150 M,0,222841,222881,188,214,203.1893,232.4102 F,2,222841,223403,1,0 S,2,222841,223403,1,0.2 P,0,222841,223403,A M,0,222881,222922,203.1893,232.4102,215.2371,252.9917 M,0,222922,222962,215.2371,252.9917,223.6006,275.3374 M,0,222962,223003,223.6006,275.3374,228,298
Sprite,Foreground,Centre,"sb\glow.png",127,282 C,0,223165,,230,110,150 F,2,223165,223565,1,0 S,2,223165,223565,1,0.2 P,0,223165,223565,A
Sprite,Foreground,Centre,"sb\glow.png",127,282 C,0,223327,,230,110,150 F,2,223327,223727,1,0 S,2,223327,223727,1,0.2 P,0,223327,223727,A
Sprite,Foreground,Centre,"sb\glow.png",0,0 C,0,223489,,100,200,200 M,0,223489,223529,292,183,312.0411,191.0743 F,2,223489,224213,1,0 S,2,223489,224213,1,0.2 P,0,223489,224213,A M,0,223529,223570,312.0411,191.0743,330.5163,202.2251 M,0,223570,223610,330.5163,202.2251,345.3852,217.7946 M,0,223610,223651,345.3852,217.7946,355.4646,236.883 M,0,223651,223691,355.4646,236.883,365.2831,256.1165 M,0,223691,223732,365.2831,256.1165,379.623,272.1826 M,0,223732,223772,379.623,272.1826,397.6902,283.9805 M,0,223772,223813,397.6902,283.9805,417.4769,292.6566
Sprite,Foreground,Centre,"sb\glow.png",0,0 C,0,223976,,100,200,200 M,0,223976,224016,576,208,560.053,222.5762 F,2,223976,224700,1,0 S,2,223976,224700,1,0.2 P,0,223976,224700,A M,0,224016,224057,560.053,222.5762,545.4319,238.4784 M,0,224057,224097,545.4319,238.4784,532.4978,255.7808 M,0,224097,224138,532.4978,255.7808,521.1863,274.18 M,0,224138,224178,521.1863,274.18,511.6428,293.5614 M,0,224178,224219,511.6428,293.5614,504.1338,313.8174 M,0,224219,224259,504.1338,313.8174,498.4701,334.6605 M,0,224259,224300,498.4701,334.6605,494.7599,355.9467
Sprite,Foreground,Centre,"sb\glow.png",430,211 C,0,224462,,100,200,200 F,2,224462,224862,1,0 S,2,224462,224862,1,0.2 P,0,224462,224862,A
Sprite,Foreground,Centre,"sb\glow.png",316,319 C,0,224624,,100,200,200 F,2,224624,225024,1,0 S,2,224624,225024,1,0.2 P,0,224624,225024,A
Sprite,Foreground,Centre,"sb\glow.png",316,319 C,0,224706,,100,200,200 F,2,224706,225106,1,0 S,2,224706,225106,1,0.2 P,0,224706,225106,A
Sprite,Foreground,Centre,"sb\glow.png",316,319 C,0,224787,,100,200,200 F,2,224787,225187,1,0 S,2,224787,225187,1,0.2 P,0,224787,225187,A
Sprite,Foreground,Centre,"sb\glow.png",0,0 C,0,224949,,130,120,255 M,0,224949,224989,379,417,371.4672,396.8472 F,2,224949,225673,1,0 S,2,224949,225673,1,0.2 P,0,224949,225673,A M,0,224989,225030,371.4672,396.8472,359.5803,378.9308 M,0,225030,225070,359.5803,378.9308,343.3389,364.8444 M,0,225070,225111,343.3389,364.8444,324.2719,354.968 M,0,225111,225151,324.2719,354.968,303.3181,350.0303 M,0,225151,225192,303.3181,350.0303,281.8308,350.993 M,0,225192,225232,281.8308,350.993,261.1515,356.8413 M,0,225232,225273,261.1515,356.8413,242.7526,367.9556
Sprite,Foreground,Centre,"sb\glow.png",182,420 C,0,225354,,130,120,255 F,2,225354,225754,1,0 S,2,225354,225754,1,0.2 P,0,225354,225754,A
Sprite,Foreground,Centre,"sb\glow.png",0,0 C,0,225435,,130,120,255 M,0,225435,225475,182,420,176.1478,399.2359 F,2,225435,225997,1,0 S,2,225435,225997,1,0.2 P,0,225435,225997,A M,0,225475,225516,176.1478,399.2359,167.0581,379.6885 M,0,225516,225556,167.0581,379.6885,154.9751,361.8466 M,0,225556,225597,154.9751,361.8466,140.1611,346.151
Sprite,Foreground,Centre,"sb\glow.png",201,171 C,0,225760,,130,120,255 F,2,225760,226160,1,0 S,2,225760,226160,1,0.2 P,0,225760,226160,A
Sprite,Foreground,Centre,"sb\glow.png",69,224 C,0,225922,,130,120,255 F,2,225922,226322,1,0 S,2,225922,226322,1,0.2 P,0,225922,226322,A
Sprite,Foreground,Centre,"sb\glow.png",0,0 C,0,226084,,164,100,240 M,0,226084,226124,201,171,216.6066,185.8861 F,2,226084,226646,1,0 S,2,226084,226646,1,0.2 P,0,226084,226646,A M,0,226124,226165,216.6066,185.8861,234.3504,198.1557 M,0,226165,226205,234.3504,198.1557,254.1331,206.7396 M,0,226205,226246,254.1331,206.7396,274,212
Sprite,Foreground,Centre,"sb\glow.png",396,302 C,0,226408,,164,100,240 F,2,226408,226808,1,0 S,2,226408,226808,1,0.2 P,0,226408,226808,A
Sprite,Foreground,Centre,"sb\glow.png",484,171 C,0,226570,,164,100,240 F,2,226570,226970,1,0 S,2,226570,226970,1,0.2 P,0,226570,226970,A
Sprite,Foreground,Centre,"sb\glow.png",0,0 C,0,226733,,164,100,240 M,0,226733,226773,359,138,373.886,153.6066 F,2,226733,227295,1,0 S,2,226733,227295,1,0.2 P,0,226733,227295,A M,0,226773,226814,373.886,153.6066,386.1557,171.3504 M,0,226814,226854,386.1557,171.3504,394.7396,191.1331 M,0,226854,226895,394.7396,191.1331,400,211
Sprite,Foreground,Centre,"sb\glow.png",330,366 C,0,227057,,164,100,240 F,2,227057,227457,1,0 S,2,227057,227457,1,0.2 P,0,227057,227457,A
Sprite,Foreground,Centre,"sb\glow.png",470,343 C,0,227219,,230,110,150 F,2,227219,227619,1,0 S,2,227219,227619,1,0.2 P,0,227219,227619,A
Sprite,Foreground,Centre,"sb\glow.png",470,343 C,0,227300,,230,110,150 F,2,227300,227700,1,0 S,2,227300,227700,1,0.2 P,0,227300,227700,A
Sprite,Foreground,Centre,"sb\glow.png",0,0 C,0,227381,,230,110,150 M,0,227381,227421,470,343,449.2542,337.0657 F,2,227381,227943,1,0 S,2,227381,227943,1,0.2 P,0,227381,227943,A M,0,227421,227462,449.2542,337.0657,429.6654,328.0516 M,0,227462,227502,429.6654,328.0516,411.6548,316.206 M,0,227502,227543,411.6548,316.206,395.675,301.6935
Sprite,Foreground,Centre,"sb\glow.png",0,0 C,0,227706,,230,110,150 M,0,227706,227746,191,440,206.6704,425.1732 F,2,227706,228268,1,0 S,2,227706,228268,1,0.2 P,0,227706,228268,A M,0,227746,227787,206.6704,425.1732,224.4966,413.0508 M,0,227787,227827,224.4966,413.0508,244.0182,403.9274 M,0,227827,227868,244.0182,403.9274,264.7843,398.047
Sprite,Foreground,Centre,"sb\glow.png",326,354 C,0,227949,,230,110,150 F,2,227949,228349,1,0 S,2,227949,228349,1,0.2 P,0,227949,228349,A
Sprite,Foreground,Centre,"sb\glow.png",0,0 C,0,228030,,230,110,150 M,0,228030,228070,326,354,337.3651,372.2745 F,2,228030,228673,1,0 S,2,228030,228673,1,0.2 P,0,228030,228673,A M,0,228070,228111,337.3651,372.2745,344.287,392.6633 M,0,228111,228151,344.287,392.6633,337.3651,372.2745 M,0,228151,228192,337.3651,372.2745,326,354 M,0,228192,228232,326,354,337.3651,372.2745 M,0,228232,228273,337.3651,372.2745,344.287,392.6633
Sprite,Foreground,Centre,"sb\glow.png",192,285 C,0,228354,,100,200,200 F,2,228354,228754,1,0 S,2,228354,228754,1,0.2 P,0,228354,228754,A
Sprite,Foreground,Centre,"sb\glow.png",174,245 C,0,228435,,100,200,200 F,2,228435,228835,1,0 S,2,228435,228835,1,0.2 P,0,228435,228835,A
Sprite,Foreground,Centre,"sb\glow.png",176,203 C,0,228516,,100,200,200 F,2,228516,228916,1,0 S,2,228516,228916,1,0.2 P,0,228516,228916,A
Sprite,Foreground,Centre,"sb\glow.png",198,166 C,0,228597,,100,200,200 F,2,228597,228997,1,0 S,2,228597,228997,1,0.2 P,0,228597,228997,A
Sprite,Foreground,Centre,"sb\glow.png",0,0 C,0,228679,,100,200,200 M,0,228679,228719,234,143,251.9173,158.7613 F,2,228679,229241,1,0 S,2,228679,229241,1,0.2 P,0,228679,229241,A M,0,228719,228760,251.9173,158.7613,272.1658,171.3532 M,0,228760,228800,272.1658,171.3532,294.3299,180.1892 M,0,228800,228841,294.3299,180.1892,317.7295,184.9624
Sprite,Foreground,Centre,"sb\glow.png",0,0 C,0,229003,,100,200,200 M,0,229003,229043,506,56,487.7334,71.36256 F,2,229003,229565,1,0 S,2,229003,229565,1,0.2 P,0,229003,229565,A M,0,229043,229084,487.7334,71.36256,467.2823,83.63295 M,0,229084,229124,467.2823,83.63295,445.0377,92.26908 M,0,229124,229165,445.0377,92.26908,422,97
Sprite,Foreground,Centre,"sb\glow.png",354,67 C,0,229327,,100,200,200 F,2,229327,229727,1,0 S,2,229327,229727,1,0.2 P,0,229327,229727,A
Sprite,Foreground,Centre,"sb\glow.png",354,67 C,0,229489,,100,200,200 F,2,229489,229889,1,0 S,2,229489,229889,1,0.2 P,0,229489,229889,A
Sprite,Foreground,Centre,"sb\glow.png",524,219 C,0,229651,,100,200,200 F,2,229651,230051,1,0 S,2,229651,230051,1,0.2 P,0,229651,230051,A
Sprite,Foreground,Centre,"sb\glow.png",0,0 C,0,229814,,130,120,255 M,0,229814,229854,311,359,316.2167,335.7755 F,2,229814,230538,1,0 S,2,229814,230538,1,0.2 P,0,229814,230538,A M,0,229854,229895,316.2167,335.7755,326.9783,314.6006 M,0,229895,229935,326.9783,314.6006,342.9041,296.9753 M,0,229935,229976,342.9041,296.9753,362.8872,284.1265 M,0,229976,230016,362.8872,284.1265,385.5386,276.9495 M,0,230016,230057,385.5386,276.9495,409.2833,275.9456 M,0,230057,230097,409.2833,275.9456,432.4698,281.1875 M,0,230097,230138,432.4698,281.1875,453.4842,292.3137
Sprite,Foreground,Centre,"sb\glow.png",0,0 C,0,230300,,130,120,255 M,0,230300,230340,576,440,558.0827,424.2387 F,2,230300,230862,1,0 S,2,230300,230862,1,0.2 P,0,230300,230862,A M,0,230340,230381,558.0827,424.2387,537.8342,411.6468 M,0,230381,230421,537.8342,411.6468,515.6701,402.8108 M,0,230421,230462,515.6701,402.8108,492.2705,398.0376
Sprite,Foreground,Centre,"sb\glow.png",416,419 C,0,230624,,130,120,255 F,2,230624,231024,1,0 S,2,230624,231024,1,0.2 P,0,230624,231024,A
Sprite,Foreground,Centre,"sb\glow.png",416,419 C,0,230787,,130,120,255 F,2,230787,231187,1,0 S,2,230787,231187,1,0.2 P,0,230787,231187,A
Sprite,Foreground,Centre,"sb\glow.png",532,218 C,0,230949,,130,120,255 F,2,230949,231349,1,0 S,2,230949,231349,1,0.2 P,0,230949,231349,A
Sprite,Foreground,Centre,"sb\glow.png",0,0 C,0,231111,,164,100,240 M,0,231111,231151,338,121,354.7309,138.0752 F,2,231111,231835,1,0 S,2,231111,231835,1,0.2 P,0,231111,231835,A M,0,231151,231192,354.7309,138.0752,369.9301,156.5191 M,0,231192,231232,369.9301,156.5191,383.3813,176.2749 M,0,231232,231273,383.3813,176.2749,394.9723,197.1777 M,0,231273,231313,394.9723,197.1777,404.6061,219.0531 M,0,231313,231354,404.6061,219.0531,412.2019,241.7188 M,0,231354,231394,412.2019,241.7188,417.6961,264.9854 M,0,231394,231435,417.6961,264.9854,421,288
Sprite,Foreground,Centre,"sb\glow.png",0,0 C,0,231597,,164,100,240 M,0,231597,231637,576,64,557.7334,79.36256 F,2,231597,232159,1,0 S,2,231597,232159,1,0.2 P,0,231597,232159,A M,0,231637,231678,557.7334,79.36256,537.2823,91.63295 M,0,231678,231718,537.2823,91.63295,515.0377,100.2691 M,0,231718,231759,515.0377,100.2691,492,105
Sprite,Foreground,Centre,"sb\glow.png",422,85 C,0,231922,,164,100,240 F,2,231922,232322,1,0 S,2,231922,232322,1,0.2 P,0,231922,232322,A
Sprite,Foreground,Centre,"sb\glow.png",422,85 C,0,232084,,164,100,240 F,2,232084,232484,1,0 S,2,232084,232484,1,0.2 P,0,232084,232484,A
Sprite,Foreground,Centre,"sb\glow.png",541,196 C,0,232246,,164,100,240 F,2,232246,232646,1,0 S,2,232246,232646,1,0.2 P,0,232246,232646,A
Sprite,Foreground,Centre,"sb\glow.png",0,0 C,0,232408,,230,110,150 M,0,232408,232448,417,297,394.7063,305.6287 F,2,232408,233132,1,0 S,2,232408,233132,1,0.2 P,0,232408,233132,A M,0,232448,232489,394.7063,305.6287,374.082,317.6625 M,0,232489,232529,374.082,317.6625,357.1295,334.4153 M,0,232529,232570,357.1295,334.4153,344.9484,354.9632 M,0,232570,232610,344.9484,354.9632,333.0381,375.6769 M,0,232610,232651,333.0381,375.6769,316.3073,392.6352 M,0,232651,232691,316.3073,392.6352,295.597,404.5071 M,0,232691,232732,295.597,404.5071,273.1518,412.728
Sprite,Foreground,Centre,"sb\glow.png",273,412 C,0,232814,,230,110,150 F,2,232814,233214,1,0 S,2,232814,233214,1,0.2 P,0,232814,233214,A
Sprite,Foreground,Centre,"sb\glow.png",273,412 C,0,232895,,230,110,150 F,2,232895,233295,1,0 S,2,232895,233295,1,0.2 P,0,232895,233295,A
Sprite,Foreground,Centre,"sb\glow.png",0,0 C,0,233057,,230,110,150 M,0,233057,233097,149,258,167.0643,273.5932 F,2,233057,233619,1,0 S,2,233057,233619,1,0.2 P,0,233057,233619,A M,0,233097,233138,167.0643,273.5932,187.4443,285.968 M,0,233138,233178,187.4443,285.968,209.703,294.5437 M,0,233178,233219,209.703,294.5437,232,299
Sprite,Foreground,Centre,"sb\glow.png",116,436 C,0,233381,,230,110,150 F,2,233381,233781,1,0 S,2,233381,233781,1,0.2 P,0,233381,233781,A
Sprite,Foreground,Centre,"sb\glow.png",116,436 C,0,233462,,230,110,150 F,2,233462,233862,1,0 S,2,233462,233862,1,0.2 P,0,233462,233862,A
Sprite,Foreground,Centre,"sb\glow.png",0,0 C,0,233543,,230,110,150 M,0,233543,233583,116,436,94.41364,426.5944 F,2,233543,234105,1,0 S,2,233543,234105,1,0.2 P,0,233543,234105,A M,0,233583,233624,94.41364,426.5944,79.1535,408.8737 M,0,233624,233664,79.1535,408.8737,73.70621,386.1282 M,0,233664,233705,73.70621,386.1282,79.28537,363.4099
Sprite,Foreground,Centre,"sb\glow.png",228,192 C,0,233868,,100,200,200 F,2,233868,234268,1,0 S,2,233868,234268,1,0.2 P,0,233868,234268,A
Sprite,Foreground,Centre,"sb\glow.png",222,145 C,0,233949,,100,200,200 F,2,233949,234349,1,0 S,2,233949,234349,1,0.2 P,0,233949,234349,A
Sprite,Foreground,Centre,"sb\glow.png",191,109 C,0,234030,,100,200,200 F,2,234030,234430,1,0 S,2,234030,234430,1,0.2 P,0,234030,234430,A
Sprite,Foreground,Centre,"sb\glow.png",145,97 C,0,234111,,100,200,200 F,2,234111,234511,1,0 S,2,234111,234511,1,0.2 P,0,234111,234511,A
Sprite,Foreground,Centre,"sb\glow.png",0,0 C,0,234192,,100,200,200 M,0,234192,234232,101,112,113.4076,132.3821 F,2,234192,234835,1,0 S,2,234192,234835,1,0.2 P,0,234192,234835,A M,0,234232,234273,113.4076,132.3821,122.4152,154.4788 M,0,234273,234313,122.4152,154.4788,113.4076,132.3821 M,0,234313,234354,113.4076,132.3821,101,112 M,0,234354,234394,101,112,113.4076,132.3821 M,0,234394,234435,113.4076,132.3821,122.4152,154.4788
Sprite,Foreground,Centre,"sb\glow.png",193,334 C,0,234516,,100,200,200 F,2,234516,234916,1,0 S,2,234516,234916,1,0.2 P,0,234516,234916,A
Sprite,Foreground,Centre,"sb\glow.png",193,334 C,0,234597,,100,200,200 F,2,234597,234997,1,0 S,2,234597,234997,1,0.2 P,0,234597,234997,A
Sprite,Foreground,Centre,"sb\glow.png",0,0 C,0,234679,,100,200,200 M,0,234679,234719,193,334,180.5663,313.6173 F,2,234679,235160,1,0 S,2,234679,235160,1,0.2 P,0,234679,235160,A M,0,234719,234760,180.5663,313.6173,171.2245,291.6457
Sprite,Foreground,Centre,"sb\glow.png",0,0 C,0,234841,,100,200,200 M,0,234841,234881,347,191,334.5663,211.3827 F,2,234841,235322,1,0 S,2,234841,235322,1,0.2 P,0,234841,235322,A M,0,234881,234922,334.5663,211.3827,325.2245,233.3543
Sprite,Foreground,Centre,"sb\glow.png",404,412 C,0,235003,,130,120,255 F,2,235003,235403,1,0 S,2,235003,235403,1,0.2 P,0,235003,235403,A
Sprite,Foreground,Centre,"sb\glow.png",446,413 C,0,235084,,130,120,255 F,2,235084,235484,1,0 S,2,235084,235484,1,0.2 P,0,235084,235484,A
Sprite,Foreground,Centre,"sb\glow.png",485,395 C,0,235165,,130,120,255 F,2,235165,235565,1,0 S,2,235165,235565,1,0.2 P,0,235165,235565,A
Sprite,Foreground,Centre,"sb\glow.png",512,362 C,0,235246,,130,120,255 F,2,235246,235646,1,0 S,2,235246,235646,1,0.2 P,0,235246,235646,A
Sprite,Foreground,Centre,"sb\glow.png",522,320 C,0,235327,,130,120,255 F,2,235327,235727,1,0 S,2,235327,235727,1,0.2 P,0,235327,235727,A
Sprite,Foreground,Centre,"sb\glow.png",512,279 C,0,235408,,130,120,255 F,2,235408,235808,1,0 S,2,235408,235808,1,0.2 P,0,235408,235808,A
Sprite,Foreground,Centre,"sb\glow.png",0,0 C,0,235489,,130,120,255 M,0,235489,235529,484,246,463.6179,258.4076 F,2,235489,236132,1,0 S,2,235489,236132,1,0.2 P,0,235489,236132,A M,0,235529,235570,463.6179,258.4076,441.5212,267.4152 M,0,235570,235610,441.5212,267.4152,463.6179,258.4076 M,0,235610,235651,463.6179,258.4076,484,246 M,0,235651,235691,484,246,463.6179,258.4076 M,0,235691,235732,463.6179,258.4076,441.5212,267.4152
Sprite,Foreground,Centre,"sb\glow.png",0,0 C,0,235814,,130,120,255 M,0,235814,235854,531,120,552.9701,110.7091 F,2,235814,236457,1,0 S,2,235814,236457,1,0.2 P,0,235814,236457,A M,0,235854,235895,552.9701,110.7091,573,98 M,0,235895,235935,573,98,552.9701,110.7091 M,0,235935,235976,552.9701,110.7091,531,120 M,0,235976,236016,531,120,552.9701,110.7091 M,0,236016,236057,552.9701,110.7091,573,98
Sprite,Foreground,Centre,"sb\glow.png",0,0 C,0,236138,,130,120,255 M,0,236138,236178,378,56,387.2563,78.00844 F,2,236138,236619,1,0 S,2,236138,236619,1,0.2 P,0,236138,236619,A M,0,236178,236219,387.2563,78.00844,399,98
Sprite,Foreground,Centre,"sb\glow.png",0,0 C,0,236300,,164,100,240 M,0,236300,236340,283,306,265.5803,289.8209 F,2,236300,237024,1,0 S,2,236300,237024,1,0.2 P,0,236300,237024,A M,0,236340,236381,265.5803,289.8209,253.3752,269.4923 M,0,236381,236421,253.3752,269.4923,247.6848,246.4739 M,0,236421,236462,247.6848,246.4739,249.0123,222.7992 M,0,236462,236502,249.0123,222.7992,257.2405,200.5601 M,0,236502,236543,257.2405,200.5601,271.643,181.7216 M,0,236543,236583,271.643,181.7216,290.9476,167.9485 M,0,236583,236624,290.9476,167.9485,313.449,160.4582
Sprite,Foreground,Centre,"sb\glow.png",412,263 C,0,236787,,164,100,240 F,2,236787,237187,1,0 S,2,236787,237187,1,0.2 P,0,236787,237187,A
Sprite,Foreground,Centre,"sb\glow.png",543,138 C,0,236949,,164,100,240 F,2,236949,237349,1,0 S,2,236949,237349,1,0.2 P,0,236949,237349,A
Sprite,Foreground,Centre,"sb\glow.png",426,88 C,0,237111,,164,100,240 F,2,237111,237511,1,0 S,2,237111,237511,1,0.2 P,0,237111,237511,A
Sprite,Foreground,Centre,"sb\glow.png",552,305 C,0,237273,,164,100,240 F,2,237273,237673,1,0 S,2,237273,237673,1,0.2 P,0,237273,237673,A
Sprite,Foreground,Centre,"sb\glow.png",320,167 C,0,237435,,164,100,240 F,2,237435,237835,1,0 S,2,237435,237835,1,0.2 P,0,237435,237835,A
Sprite,Foreground,Centre,"sb\glow.png",223,420 C,0,237597,,164,100,240 F,2,237597,237997,1,0 S,2,237597,237997,1,0.2 P,0,237597,237997,A
Sprite,Foreground,Centre,"sb\glow.png",0,0 C,0,237760,,230,110,150 M,0,237760,237800,64,246,67.04199,222.5074 F,2,237760,238403,1,0 S,2,237760,238403,1,0.2 P,0,237760,238403,A M,0,237800,237841,67.04199,222.5074,77.86272,201.5448 M,0,237841,237881,77.86272,201.5448,95.5325,185.9011 M,0,237881,237922,95.5325,185.9011,117.6732,177.6931 M,0,237922,237962,117.6732,177.6931,141.3019,178.0391 M,0,237962,238003,141.3019,178.0391,163.23,186.9077
Sprite,Foreground,Centre,"sb\glow.png",164,187 C,0,238084,,230,110,150 F,2,238084,238484,1,0 S,2,238084,238484,1,0.2 P,0,238084,238484,A
Sprite,Foreground,Centre,"sb\glow.png",106,377 C,0,238246,,230,110,150 F,2,238246,238646,1,0 S,2,238246,238646,1,0.2 P,0,238246,238646,A
Sprite,Foreground,Centre,"sb\glow.png",361,188 C,0,238570,,230,110,150 F,2,238570,238970,1,0 S,2,238570,238970,1,0.2 P,0,238570,238970,A
Sprite,Foreground,Centre,"sb\glow.png",429,142 C,0,56138,,100,200,200 F,2,56138,56538,1,0 S,2,56138,56538,1,0.2 P,0,56138,56538,A
Sprite,Foreground,Centre,"sb\glow.png",515,311 C,0,56300,,100,200,200 F,2,56300,56700,1,0 S,2,56300,56700,1,0.2 P,0,56300,56700,A
Sprite,Foreground,Centre,"sb\glow.png",569,169 C,0,56462,,100,200,200 F,2,56462,56862,1,0 S,2,56462,56862,1,0.2 P,0,56462,56862,A
Sprite,Foreground,Centre,"sb\glow.png",401,290 C,0,56624,,100,200,200 F,2,56624,57024,1,0 S,2,56624,57024,1,0.2 P,0,56624,57024,A
Sprite,Foreground,Centre,"sb\glow.png",0,0 C,0,56787,,100,200,200 M,0,56787,56827,345,99,363.143,114.5115 F,2,56787,57349,1,0 S,2,56787,57349,1,0.2 P,0,56787,57349,A M,0,56827,56868,363.143,114.5115,383.4642,127 M,0,56868,56908,383.4642,127,405.5899,135.936 M,0,56908,56949,405.5899,135.936,428,141
Sprite,Foreground,Centre,"sb\glow.png",495,102 C,0,57111,,100,200,200 F,2,57111,57511,1,0 S,2,57111,57511,1,0.2 P,0,57111,57511,A
Sprite,Foreground,Centre,"sb\glow.png",0,0 C,0,57273,,130,120,255 M,0,57273,57313,406,302,385.8086,314.5643 F,2,57273,57997,1,0 S,2,57273,57997,1,0.2 P,0,57273,57997,A M,0,57313,57354,385.8086,314.5643,363.0716,321.3343 M,0,57354,57394,363.0716,321.3343,339.3398,321.4518 M,0,57394,57435,339.3398,321.4518,316.5165,314.9012 M,0,57435,57475,316.5165,314.9012,296.4346,302.1995 M,0,57475,57516,296.4346,302.1995,280.7108,284.3561 M,0,57516,57556,280.7108,284.3561,270.6169,262.7935 M,0,57556,57597,270.6169,262.7935,267.0126,239.2363
Sprite,Foreground,Centre,"sb\glow.png",312,123 C,0,57760,,130,120,255 F,2,57760,58160,1,0 S,2,57760,58160,1,0.2 P,0,57760,58160,A
Sprite,Foreground,Centre,"sb\glow.png",117,198 C,0,57922,,130,120,255 F,2,57922,58322,1,0 S,2,57922,58322,1,0.2 P,0,57922,58322,A
Sprite,Foreground,Centre,"sb\glow.png",0,0 C,0,58084,,130,120,255 M,0,58084,58124,162,69,177.5115,87.14304 F,2,58084,58646,1,0 S,2,58084,58646,1,0.2 P,0,58084,58646,A M,0,58124,58165,177.5115,87.14304,190,107.4642 M,0,58165,58205,190,107.4642,198.936,129.5899 M,0,58205,58246,198.936,129.5899,204,152
Sprite,Foreground,Centre,"sb\glow.png",293,280 C,0,58408,,130,120,255 F,2,58408,58808,1,0 S,2,58408,58808,1,0.2 P,0,58408,58808,A
Sprite,Foreground,Centre,"sb\glow.png",0,0 C,0,58570,,164,100,240 M,0,58570,58610,152,365,156.6763,341.6628 F,2,58570,59294,1,0 S,2,58570,59294,1,0.2 P,0,58570,59294,A M,0,58610,58651,156.6763,341.6628,166.9932,320.2708 M,0,58651,58691,166.9932,320.2708,182.5906,302.3583 M,0,58691,58732,182.5906,302.3583,202.364,289.1951 M,0,58732,58772,202.364,289.1951,224.9133,281.7154 M,0,58772,58813,224.9133,281.7154,248.6415,280.451 M,0,58813,58853,248.6415,280.451,271.8671,285.4941 M,0,58853,58894,271.8671,285.4941,292.944,296.4902
Sprite,Foreground,Centre,"sb\glow.png",0,0 C,0,59057,,164,100,240 M,0,59057,59097,460,152,441.6542,167.2775 F,2,59057,59619,1,0 S,2,59057,59619,1,0.2 P,0,59057,59619,A M,0,59097,59138,441.6542,167.2775,421.2587,179.6568 M,0,59138,59178,421.2587,179.6568,399.1455,188.6449 M,0,59178,59219,399.1455,188.6449,376,194
Sprite,Foreground,Centre,"sb\glow.png",320,147 C,0,59381,,164,100,240 F,2,59381,59781,1,0 S,2,59381,59781,1,0.2 P,0,59381,59781,A
Sprite,Foreground,Centre,"sb\glow.png",320,147 C,0,59543,,164,100,240 F,2,59543,59943,1,0 S,2,59543,59943,1,0.2 P,0,59543,59943,A
Sprite,Foreground,Centre,"sb\glow.png",432,292 C,0,59706,,164,100,240 F,2,59706,60106,1,0 S,2,59706,60106,1,0.2 P,0,59706,60106,A
Sprite,Foreground,Centre,"sb\glow.png",0,0 C,0,59868,,230,110,150 M,0,59868,59908,277,408,254.8272,399.0649 F,2,59868,60592,1,0 S,2,59868,60592,1,0.2 P,0,59868,60592,A M,0,59908,59949,254.8272,399.0649,234.313,386.8385 M,0,59949,59989,234.313,386.8385,217.2121,370.2143 M,0,59989,60030,217.2121,370.2143,204.1526,350.1995 M,0,60030,60070,204.1526,350.1995,191.0643,330.2043 M,0,60070,60111,191.0643,330.2043,173.9184,313.6256 M,0,60111,60151,173.9184,313.6256,153.3844,301.4316 M,0,60151,60192,153.3844,301.4316,131.2042,292.5153
Sprite,Foreground,Centre,"sb\glow.png",0,0 C,0,60354,,230,110,150 M,0,60354,60394,318,156,302.092,173.79 F,2,60354,60916,1,0 S,2,60354,60916,1,0.2 P,0,60354,60916,A M,0,60394,60435,302.092,173.79,289.2861,193.9061 M,0,60435,60475,289.2861,193.9061,280.1565,215.9502 M,0,60475,60516,280.1565,215.9502,275,239
Sprite,Foreground,Centre,"sb\glow.png",185,175 C,0,60679,,230,110,150 F,2,60679,61079,1,0 S,2,60679,61079,1,0.2 P,0,60679,61079,A
Sprite,Foreground,Centre,"sb\glow.png",185,175 C,0,60841,,230,110,150 F,2,60841,61241,1,0 S,2,60841,61241,1,0.2 P,0,60841,61241,A
Sprite,Foreground,Centre,"sb\glow.png",0,0 C,0,61003,,230,110,150 M,0,61003,61043,341,350,361.61,338.4559 F,2,61003,61565,1,0 S,2,61003,61565,1,0.2 P,0,61003,61565,A M,0,61043,61084,361.61,338.4559,375.9699,319.8601 M,0,61084,61124,375.9699,319.8601,381.3521,296.9895 M,0,61124,61165,381.3521,296.9895,377.2661,273.7269
Sprite,Foreground,Centre,"sb\glow.png",0,0 C,0,61327,,100,200,200 M,0,61327,61367,229,350,205.4352,353.9653 F,2,61327,61970,1,0 S,2,61327,61970,1,0.2 P,0,61327,61970,A M,0,61367,61408,205.4352,353.9653,182.4855,360.587 M,0,61408,61448,182.4855,360.587,160.5026,369.9295 M,0,61448,61489,160.5026,369.9295,139.8076,381.8563 M,0,61489,61529,139.8076,381.8563,120.7028,396.1931 M,0,61529,61570,120.7028,396.1931,103.356,412.6278
Sprite,Foreground,Centre,"sb\glow.png",0,0 C,0,61651,,100,200,200 M,0,61651,61691,104,414,82.15893,405.1547 F,2,61651,62213,1,0 S,2,61651,62213,1,0.2 P,0,61651,62213,A M,0,61691,61732,82.15893,405.1547,66.25205,387.9779 M,0,61732,61772,66.25205,387.9779,59.73979,365.4889 M,0,61772,61813,59.73979,365.4889,63.52879,342.2383
Sprite,Foreground,Centre,"sb\glow.png",189,214 C,0,61976,,100,200,200 F,2,61976,62376,1,0 S,2,61976,62376,1,0.2 P,0,61976,62376,A
Sprite,Foreground,Centre,"sb\glow.png",69,97 C,0,62138,,100,200,200 F,2,62138,62538,1,0 S,2,62138,62538,1,0.2 P,0,62138,62538,A
Sprite,Foreground,Centre,"sb\glow.png",0,0 C,0,62300,,100,200,200 M,0,62300,62340,189,214,206.79,198.092 F,2,62300,62862,1,0 S,2,62300,62862,1,0.2 P,0,62300,62862,A M,0,62340,62381,206.79,198.092,226.9061,185.286 M,0,62381,62421,226.9061,185.286,248.9502,176.1565 M,0,62421,62462,248.9502,176.1565,272,171
Sprite,Foreground,Centre,"sb\glow.png",0,0 C,0,62624,,130,120,255 M,0,62624,62664,447,77,423.7441,81.76144 F,2,62624,63267,1,0 S,2,62624,63267,1,0.2 P,0,62624,63267,A M,0,62664,62705,423.7441,81.76144,403.1124,93.3438 M,0,62705,62745,403.1124,93.3438,387.3235,110.9719 M,0,62745,62786,387.3235,110.9719,378.0707,132.7608 M,0,62786,62826,378.0707,132.7608,376.3498,156.3798 M,0,62826,62867,376.3498,156.3798,382.352,179.3003
Sprite,Foreground,Centre,"sb\glow.png",383,180 C,0,62949,,130,120,255 F,2,62949,63349,1,0 S,2,62949,63349,1,0.2 P,0,62949,63349,A
Sprite,Foreground,Centre,"sb\glow.png",0,0 C,0,63111,,130,120,255 M,0,63111,63151,468,331,473.0945,307.6813 F,2,63111,63673,1,0 S,2,63111,63673,1,0.2 P,0,63111,63673,A M,0,63151,63192,473.0945,307.6813,481.9844,285.5538 M,0,63192,63232,481.9844,285.5538,494.6292,265.3357 M,0,63232,63273,494.6292,265.3357,510.4877,247.4977
Sprite,Foreground,Centre,"sb\glow.png",570,202 C,0,63435,,130,120,255 F,2,63435,63835,1,0 S,2,63435,63835,1,0.2 P,0,63435,63835,A
Sprite,Foreground,Centre,"sb\glow.png",377,270 C,0,63597,,130,120,255 F,2,63597,63997,1,0 S,2,63597,63997,1,0.2 P,0,63597,63997,A
Sprite,Foreground,Centre,"sb\glow.png",522,440 C,0,63760,,130,120,255 F,2,63760,64160,1,0 S,2,63760,64160,1,0.2 P,0,63760,64160,A
Sprite,Foreground,Centre,"sb\glow.png",0,0 C,0,63922,,164,100,240 M,0,63922,63962,377,270,354.8272,278.9351 F,2,63922,64646,1,0 S,2,63922,64646,1,0.2 P,0,63922,64646,A M,0,63962,64003,354.8272,278.9351,334.313,291.1614 M,0,64003,64043,334.313,291.1614,317.212,307.7857 M,0,64043,64084,317.212,307.7857,304.1526,327.8005 M,0,64084,64124,304.1526,327.8005,291.0643,347.7957 M,0,64124,64165,291.0643,347.7957,273.9184,364.3745 M,0,64165,64205,273.9184,364.3745,253.3843,376.5684 M,0,64205,64246,253.3843,376.5684,231.2041,385.4847
Sprite,Foreground,Centre,"sb\glow.png",0,0 C,0,64408,,164,100,240 M,0,64408,64448,77,199,94.99709,214.6814 F,2,64408,64970,1,0 S,2,64408,64970,1,0.2 P,0,64408,64970,A M,0,64448,64489,94.99709,214.6814,115.1838,227.3885 M,0,64489,64529,115.1838,227.3885,137.2021,236.5927 M,0,64529,64570,137.2021,236.5927,160,242
Sprite,Foreground,Centre,"sb\glow.png",0,0 C,0,64733,,164,100,240 M,0,64733,64773,108,437,86.15893,428.1547 F,2,64733,65295,1,0 S,2,64733,65295,1,0.2 P,0,64733,65295,A M,0,64773,64814,86.15893,428.1547,70.25205,410.9779 M,0,64814,64854,70.25205,410.9779,63.73979,388.4889 M,0,64854,64895,63.73979,388.4889,67.52879,365.2383
Sprite,Foreground,Centre,"sb\glow.png",0,0 C,0,65057,,230,110,150 M,0,65057,65097,237,298,259.1728,306.9351 F,2,65057,65781,1,0 S,2,65057,65781,1,0.2 P,0,65057,65781,A M,0,65097,65138,259.1728,306.9351,279.687,319.1614 M,0,65138,65178,279.687,319.1614,296.788,335.7857 M,0,65178,65219,296.788,335.7857,309.8474,355.8005 M,0,65219,65259,309.8474,355.8005,322.9357,375.7957 M,0,65259,65300,322.9357,375.7957,340.0816,392.3744 M,0,65300,65340,340.0816,392.3744,360.6157,404.5684 M,0,65340,65381,360.6157,404.5684,382.7959,413.4847
Sprite,Foreground,Centre,"sb\glow.png",382,413 C,0,65462,,230,110,150 F,2,65462,65862,1,0 S,2,65462,65862,1,0.2 P,0,65462,65862,A
Sprite,Foreground,Centre,"sb\glow.png",382,413 C,0,65543,,230,110,150 F,2,65543,65943,1,0 S,2,65543,65943,1,0.2 P,0,65543,65943,A
Sprite,Foreground,Centre,"sb\glow.png",541,328 C,0,65706,,230,110,150 F,2,65706,66106,1,0 S,2,65706,66106,1,0.2 P,0,65706,66106,A
Sprite,Foreground,Centre,"sb\glow.png",411,263 C,0,65868,,230,110,150 F,2,65868,66268,1,0 S,2,65868,66268,1,0.2 P,0,65868,66268,A
Sprite,Foreground,Centre,"sb\glow.png",428,283 C,0,65949,,230,110,150 F,2,65949,66349,1,0 S,2,65949,66349,1,0.2 P,0,65949,66349,A
Sprite,Foreground,Centre,"sb\glow.png",439,307 C,0,66030,,230,110,150 F,2,66030,66430,1,0 S,2,66030,66430,1,0.2 P,0,66030,66430,A
Sprite,Foreground,Centre,"sb\glow.png",537,177 C,0,66192,,100,200,200 F,2,66192,66592,1,0 S,2,66192,66592,1,0.2 P,0,66192,66592,A
Sprite,Foreground,Centre,"sb\glow.png",528,136 C,0,66273,,100,200,200 F,2,66273,66673,1,0 S,2,66273,66673,1,0.2 P,0,66273,66673,A
Sprite,Foreground,Centre,"sb\glow.png",500,104 C,0,66354,,100,200,200 F,2,66354,66754,1,0 S,2,66354,66754,1,0.2 P,0,66354,66754,A
Sprite,Foreground,Centre,"sb\glow.png",459,92 C,0,66435,,100,200,200 F,2,66435,66835,1,0 S,2,66435,66835,1,0.2 P,0,66435,66835,A
Sprite,Foreground,Centre,"sb\glow.png",0,0 C,0,66516,,100,200,200 M,0,66516,66556,418,102,400.2321,117.9379 F,2,66516,67078,1,0 S,2,66516,67078,1,0.2 P,0,66516,67078,A M,0,66556,66597,400.2321,117.9379,380.0818,130.6903 M,0,66597,66637,380.0818,130.6903,358.0019,139.698 M,0,66637,66678,358.0019,139.698,334.7066,144.8958
Sprite,Foreground,Centre,"sb\glow.png",265,117 C,0,66841,,100,200,200 F,2,66841,67241,1,0 S,2,66841,67241,1,0.2 P,0,66841,67241,A
Sprite,Foreground,Centre,"sb\glow.png",363,252 C,0,67003,,100,200,200 F,2,67003,67403,1,0 S,2,67003,67403,1,0.2 P,0,67003,67403,A
Sprite,Foreground,Centre,"sb\glow.png",0,0 C,0,67165,,100,200,200 M,0,67165,67205,220,357,225.0945,333.6813 F,2,67165,67727,1,0 S,2,67165,67727,1,0.2 P,0,67165,67727,A M,0,67205,67246,225.0945,333.6813,233.9844,311.5538 M,0,67246,67286,233.9844,311.5538,246.6292,291.3357 M,0,67286,67327,246.6292,291.3357,262.4877,273.4977
Sprite,Foreground,Centre,"sb\glow.png",195,171 C,0,67489,,100,200,200 F,2,67489,67889,1,0 S,2,67489,67889,1,0.2 P,0,67489,67889,A
Sprite,Foreground,Centre,"sb\glow.png",0,0 C,0,67651,,130,120,255 M,0,67651,67691,379,348,401.1728,339.0649 F,2,67651,68375,1,0 S,2,67651,68375,1,0.2 P,0,67651,68375,A M,0,67691,67732,401.1728,339.0649,421.687,326.8385 M,0,67732,67772,421.687,326.8385,438.7879,310.2143 M,0,67772,67813,438.7879,310.2143,451.8474,290.1995 M,0,67813,67853,451.8474,290.1995,464.9357,270.2042 M,0,67853,67894,464.9357,270.2042,482.0817,253.6255 M,0,67894,67934,482.0817,253.6255,502.6157,241.4316 M,0,67934,67975,502.6157,241.4316,524.7959,232.5152
Sprite,Foreground,Centre,"sb\glow.png",398,140 C,0,68138,,130,120,255 F,2,68138,68538,1,0 S,2,68138,68538,1,0.2 P,0,68138,68538,A
Sprite,Foreground,Centre,"sb\glow.png",398,140 C,0,68300,,130,120,255 F,2,68300,68700,1,0 S,2,68300,68700,1,0.2 P,0,68300,68700,A
Sprite,Foreground,Centre,"sb\glow.png",0,0 C,0,68462,,130,120,255 M,0,68462,68502,531,60,514.8496,77.56214 F,2,68462,69024,1,0 S,2,68462,69024,1,0.2 P,0,68462,69024,A M,0,68502,68543,514.8496,77.56214,501.9352,97.59972 M,0,68543,68583,501.9352,97.59972,492.8823,119.6697 M,0,68583,68624,492.8823,119.6697,488,143
Sprite,Foreground,Centre,"sb\glow.png",417,56 C,0,68787,,130,120,255 F,2,68787,69187,1,0 S,2,68787,69187,1,0.2 P,0,68787,69187,A
Sprite,Foreground,Centre,"sb\glow.png",0,0 C,0,68949,,164,100,240 M,0,68949,68989,372,264,349.8272,272.9351 F,2,68949,69673,1,0 S,2,68949,69673,1,0.2 P,0,68949,69673,A M,0,68989,69030,349.8272,272.9351,329.313,285.1614 M,0,69030,69070,329.313,285.1614,312.212,301.7857 M,0,69070,69111,312.212,301.7857,299.1526,321.8005 M,0,69111,69151,299.1526,321.8005,286.0643,341.7957 M,0,69151,69192,286.0643,341.7957,268.9184,358.3744 M,0,69192,69232,268.9184,358.3744,248.3844,370.5684 M,0,69232,69273,248.3844,370.5684,226.2042,379.4847
Sprite,Foreground,Centre,"sb\glow.png",98,140 C,0,69435,,164,100,240 F,2,69435,69835,1,0 S,2,69435,69835,1,0.2 P,0,69435,69835,A
Sprite,Foreground,Centre,"sb\glow.png",217,259 C,0,69597,,164,100,240 F,2,69597,69997,1,0 S,2,69597,69997,1,0.2 P,0,69597,69997,A
Sprite,Foreground,Centre,"sb\glow.png",0,0 C,0,69760,,164,100,240 M,0,69760,69800,64,384,69.0945,360.6813 F,2,69760,70322,1,0 S,2,69760,70322,1,0.2 P,0,69760,70322,A M,0,69800,69841,69.0945,360.6813,77.9844,338.5538 M,0,69841,69881,77.9844,338.5538,90.62921,318.3357 M,0,69881,69922,90.62921,318.3357,106.4877,300.4977
Sprite,Foreground,Centre,"sb\glow.png",93,223 C,0,70084,,164,100,240 F,2,70084,70484,1,0 S,2,70084,70484,1,0.2 P,0,70084,70484,A
Sprite,Foreground,Centre,"sb\glow.png",0,0 C,0,70246,,230,110,150 M,0,70246,70286,223,419,244.4061,429.4678 F,2,70246,70970,1,0 S,2,70246,70970,1,0.2 P,0,70246,70970,A M,0,70286,70327,244.4061,429.4678,267.5385,435.0191 M,0,70327,70367,267.5385,435.0191,291.3304,435.0786 M,0,70367,70408,291.3304,435.0786,314.4968,429.6416 M,0,70408,70448,314.4968,429.6416,335.7863,418.9995 M,0,70448,70489,335.7863,418.9995,354.0479,403.7244 M,0,70489,70529,354.0479,403.7244,368.2932,384.6386 M,0,70529,70570,368.2932,384.6386,377.7495,362.7704
Sprite,Foreground,Centre,"sb\glow.png",0,0 C,0,70733,,230,110,150 M,0,70733,70773,463,178,478.7565,195.9231 F,2,70733,71295,1,0 S,2,70733,71295,1,0.2 P,0,70733,71295,A M,0,70773,70814,478.7565,195.9231,491.3503,216.1703 M,0,70814,70854,491.3503,216.1703,500.2029,238.3236 M,0,70854,70895,500.2029,238.3236,505,261
Sprite,Foreground,Centre,"sb\glow.png",439,440 C,0,71057,,230,110,150 F,2,71057,71457,1,0 S,2,71057,71457,1,0.2 P,0,71057,71457,A
Sprite,Foreground,Centre,"sb\glow.png",439,440 C,0,71219,,230,110,150 F,2,71219,71619,1,0 S,2,71219,71619,1,0.2 P,0,71219,71619,A
Sprite,Foreground,Centre,"sb\glow.png",0,0 C,0,71381,,230,110,150 M,0,71381,71421,567,398,543.6813,392.9055 F,2,71381,71943,1,0 S,2,71381,71943,1,0.2 P,0,71381,71943,A M,0,71421,71462,543.6813,392.9055,521.5538,384.0156 M,0,71462,71502,521.5538,384.0156,501.3357,371.3708 M,0,71502,71543,501.3357,371.3708,483.4977,355.5123
Sprite,Foreground,Centre,"sb\glow.png",0,0 C,0,71706,,100,200,200 M,0,71706,71746,332,149,353.3916,159.3343 F,2,71706,72349,1,0 S,2,71706,72349,1,0.2 P,0,71706,72349,A M,0,71746,71787,353.3916,159.3343,370.9494,175.2425 M,0,71787,71827,370.9494,175.2425,382.9248,195.7086 M,0,71827,71868,382.9248,195.7086,388.2017,218.8565 M,0,71868,71908,388.2017,218.8565,386.2728,242.559 M,0,71908,71949,386.2728,242.559,377.2244,264.5874
Sprite,Foreground,Centre,"sb\glow.png",0,0 C,0,72030,,100,200,200 M,0,72030,72070,377,265,353.5638,269.4661 F,2,72030,72592,1,0 S,2,72030,72592,1,0.2 P,0,72030,72592,A M,0,72070,72111,353.5638,269.4661,331.357,278.1135 M,0,72111,72151,331.357,278.1135,311.2343,290.881 M,0,72151,72192,311.2343,290.881,293.7787,307.1429
Sprite,Foreground,Centre,"sb\glow.png",198,439 C,0,72354,,100,200,200 F,2,72354,72754,1,0 S,2,72354,72754,1,0.2 P,0,72354,72754,A
Sprite,Foreground,Centre,"sb\glow.png",70,296 C,0,72516,,100,200,200 F,2,72516,72916,1,0 S,2,72516,72916,1,0.2 P,0,72516,72916,A
Sprite,Foreground,Centre,"sb\glow.png",0,0 C,0,72679,,100,200,200 M,0,72679,72719,216,227,199.8496,244.5621 F,2,72679,73241,1,0 S,2,72679,73241,1,0.2 P,0,72679,73241,A M,0,72719,72760,199.8496,244.5621,186.9352,264.5997 M,0,72760,72800,186.9352,264.5997,177.8823,286.6697 M,0,72800,72841,177.8823,286.6697,173,310
Sprite,Foreground,Centre,"sb\glow.png",0,0 C,0,73003,,130,120,255 M,0,73003,73043,64,86,71.56505,108.5214 F,2,73003,73646,1,0 S,2,73003,73646,1,0.2 P,0,73003,73646,A M,0,73043,73084,71.56505,108.5214,85.30505,127.8173 M,0,73084,73124,85.30505,127.8173,104.3147,141.9534 M,0,73124,73165,104.3147,141.9534,126.7528,149.5588 M,0,73165,73205,126.7528,149.5588,150.4455,149.8949 M,0,73205,73246,150.4455,149.8949,173.097,142.927
Sprite,Foreground,Centre,"sb\glow.png",173,143 C,0,73327,,130,120,255 F,2,73327,73727,1,0 S,2,73327,73727,1,0.2 P,0,73327,73727,A
Sprite,Foreground,Centre,"sb\glow.png",0,0 C,0,73489,,130,120,255 M,0,73489,73529,346,56,329.8496,73.56215 F,2,73489,74051,1,0 S,2,73489,74051,1,0.2 P,0,73489,74051,A M,0,73529,73570,329.8496,73.56215,316.9352,93.59972 M,0,73570,73610,316.9352,93.59972,307.8823,115.6697 M,0,73610,73651,307.8823,115.6697,303,139
Sprite,Foreground,Centre,"sb\glow.png",418,378 C,0,73814,,130,120,255 F,2,73814,74214,1,0 S,2,73814,74214,1,0.2 P,0,73814,74214,A
Sprite,Foreground,Centre,"sb\glow.png",300,275 C,0,73976,,130,120,255 F,2,73976,74376,1,0 S,2,73976,74376,1,0.2 P,0,73976,74376,A
Sprite,Foreground,Centre,"sb\glow.png",426,180 C,0,74138,,130,120,255 F,2,74138,74538,1,0 S,2,74138,74538,1,0.2 P,0,74138,74538,A
Sprite,Foreground,Centre,"sb\glow.png",0,0 C,0,74300,,164,100,240 M,0,74300,74340,300,275,277.8272,283.9351 F,2,74300,75024,1,0 S,2,74300,75024,1,0.2 P,0,74300,75024,A M,0,74340,74381,277.8272,283.9351,257.313,296.1614 M,0,74381,74421,257.313,296.1614,240.2121,312.7857 M,0,74421,74462,240.2121,312.7857,227.1526,332.8005 M,0,74462,74502,227.1526,332.8005,214.0643,352.7957 M,0,74502,74543,214.0643,352.7957,196.9184,369.3745 M,0,74543,74583,196.9184,369.3745,176.3843,381.5684 M,0,74583,74624,176.3843,381.5684,154.2041,390.4847
Sprite,Foreground,Centre,"sb\glow.png",0,0 C,0,74787,,164,100,240 M,0,74787,74827,64,252,81.56214,268.1504 F,2,74787,75349,1,0 S,2,74787,75349,1,0.2 P,0,74787,75349,A M,0,74827,74868,81.56214,268.1504,101.5997,281.0648 M,0,74868,74908,101.5997,281.0648,123.6697,290.1177 M,0,74908,74949,123.6697,290.1177,147,295
Sprite,Foreground,Centre,"sb\glow.png",0,0 C,0,75111,,164,100,240 M,0,75111,75151,389,403,371.4379,386.8496 F,2,75111,75673,1,0 S,2,75111,75673,1,0.2 P,0,75111,75673,A M,0,75151,75192,371.4379,386.8496,351.4003,373.9352 M,0,75192,75232,351.4003,373.9352,329.3303,364.8823 M,0,75232,75273,329.3303,364.8823,306,360
Sprite,Foreground,Centre,"sb\glow.png",0,0 C,0,75435,,230,110,150 M,0,75435,75475,172,119,194.1976,110.3066 F,2,75435,76159,1,0 S,2,75435,76159,1,0.2 P,0,75435,76159,A M,0,75475,75516,194.1976,110.3066,213.2676,95.97134 M,0,75516,75556,213.2676,95.97134,228.7544,77.78877 M,0,75556,75597,228.7544,77.78877,251.1574,80.90362 M,0,75597,75637,251.1574,80.90362,272.7724,90.97484 M,0,75637,75678,272.7724,90.97484,289.7759,107.5723 M,0,75678,75718,289.7759,107.5723,298.7417,129.5801 M,0,75718,75759,298.7417,129.5801,300.0379,153.3938
Sprite,Foreground,Centre,"sb\glow.png",263,270 C,0,75841,,230,110,150 F,2,75841,76241,1,0 S,2,75841,76241,1,0.2 P,0,75841,76241,A
Sprite,Foreground,Centre,"sb\glow.png",0,0 C,0,75922,,230,110,150 M,0,75922,75962,263,270,257.9691,246.6772 F,2,75922,76484,1,0 S,2,75922,76484,1,0.2 P,0,75922,76484,A M,0,75962,76003,257.9691,246.6772,249.0494,224.5701 M,0,76003,76043,249.0494,224.5701,236.2423,204.445 M,0,76043,76084,236.2423,204.445,220,187
Sprite,Foreground,Centre,"sb\glow.png",0,0 C,0,76246,,230,110,150 M,0,76246,76286,441,86,424.3978,103.1204 F,2,76246,76808,1,0 S,2,76246,76808,1,0.2 P,0,76246,76808,A M,0,76286,76327,424.3978,103.1204,411.2753,123.0034 M,0,76327,76367,411.2753,123.0034,402.354,145.1104 M,0,76367,76408,402.354,145.1104,398,168
Sprite,Foreground,Centre,"sb\glow.png",440,239 C,0,76570,,230,110,150 F,2,76570,76970,1,0 S,2,76570,76970,1,0.2 P,0,76570,76970,A
Sprite,Foreground,Centre,"sb\glow.png",440,239 C,0,76733,,230,110,150 F,2,76733,77133,1,0 S,2,76733,77133,1,0.2 P,0,76733,77133,A
Sprite,Foreground,Centre,"sb\glow.png",0,0 C,0,76895,,100,200,200 M,0,76895,76935,334,388,340.007,367.3517 F,2,76895,77619,1,0 S,2,76895,77619,1,0.2 P,0,76895,77619,A M,0,76935,76976,340.007,367.3517,350.8241,348.803 M,0,76976,77016,350.8241,348.803,366.127,333.6738 M,0,77016,77057,366.127,333.6738,385.085,323.5379 M,0,77057,77097,385.085,323.5379,405.919,318.3832 M,0,77097,77138,405.919,318.3832,427.4157,318.8254 M,0,77138,77178,427.4157,318.8254,447.9109,325.2942 M,0,77178,77219,447.9109,325.2942,466.1137,336.6498
Sprite,Foreground,Centre,"sb\glow.png",0,0 C,0,77381,,100,200,200 M,0,77381,77421,513,197,497.6882,212.1845 F,2,77381,77943,1,0 S,2,77381,77943,1,0.2 P,0,77381,77943,A M,0,77421,77462,497.6882,212.1845,480.1418,224.7397 M,0,77462,77502,480.1418,224.7397,460.4294,233.4829 M,0,77502,77543,460.4294,233.4829,439.5641,238.9737
Sprite,Foreground,Centre,"sb\glow.png",312,141 C,0,77706,,100,200,200 F,2,77706,78106,1,0 S,2,77706,78106,1,0.2 P,0,77706,78106,A
Sprite,Foreground,Centre,"sb\glow.png",0,0 C,0,77868,,100,200,200 M,0,77868,77908,356,236,361.3184,215.0996 F,2,77868,78430,1,0 S,2,77868,78430,1,0.2 P,0,77868,78430,A M,0,77908,77949,361.3184,215.0996,369.847,195.2796 M,0,77949,77989,369.847,195.2796,382.1317,177.5542 M,0,77989,78030,382.1317,177.5542,397,162
Sprite,Foreground,Centre,"sb\glow.png",397,162 C,0,78111,,100,200,200 F,2,78111,78511,1,0 S,2,78111,78511,1,0.2 P,0,78111,78511,A
Sprite,Foreground,Centre,"sb\glow.png",397,162 C,0,78192,,100,200,200 F,2,78192,78592,1,0 S,2,78192,78592,1,0.2 P,0,78192,78592,A
Sprite,Foreground,Centre,"sb\glow.png",0,0 C,0,78354,,130,120,255 M,0,78354,78394,255,308,233.9436,303.6848 F,2,78354,79078,1,0 S,2,78354,79078,1,0.2 P,0,78354,79078,A M,0,78394,78435,233.9436,303.6848,214.6318,294.2938 M,0,78435,78475,214.6318,294.2938,198.8819,279.6964 M,0,78475,78516,198.8819,279.6964,187.4461,261.5609 M,0,78516,78556,187.4461,261.5609,181.2544,240.9765 M,0,78556,78597,181.2544,240.9765,181.4065,219.4953 M,0,78597,78637,181.4065,219.4953,186.9909,198.7825 M,0,78637,78678,186.9909,198.7825,197.9414,180.2563
Sprite,Foreground,Centre,"sb\glow.png",206,188 C,0,78760,,130,120,255 F,2,78760,79160,1,0 S,2,78760,79160,1,0.2 P,0,78760,79160,A
Sprite,Foreground,Centre,"sb\glow.png",0,0 C,0,78841,,130,120,255 M,0,78841,78881,206,188,221.3118,203.1845 F,2,78841,79403,1,0 S,2,78841,79403,1,0.2 P,0,78841,79403,A M,0,78881,78922,221.3118,203.1845,238.8582,215.7397 M,0,78922,78962,238.8582,215.7397,258.5706,224.4828 M,0,78962,79003,258.5706,224.4828,279.4359,229.9737
Sprite,Foreground,Centre,"sb\glow.png",363,351 C,0,79165,,130,120,255 F,2,79165,79565,1,0 S,2,79165,79565,1,0.2 P,0,79165,79565,A
Sprite,Foreground,Centre,"sb\glow.png",465,217 C,0,79327,,130,120,255 F,2,79327,79727,1,0 S,2,79327,79727,1,0.2 P,0,79327,79727,A
Sprite,Foreground,Centre,"sb\glow.png",0,0 C,0,79489,,164,100,240 M,0,79489,79529,334,155,349.1845,170.3118 F,2,79489,80051,1,0 S,2,79489,80051,1,0.2 P,0,79489,80051,A M,0,79529,79570,349.1845,170.3118,361.7397,187.8582 M,0,79570,79610,361.7397,187.8582,370.4828,207.5706 M,0,79610,79651,370.4828,207.5706,375.9737,228.4359
Sprite,Foreground,Centre,"sb\glow.png",0,0 C,0,79814,,164,100,240 M,0,79814,79854,474,352,492.7791,342.0767 F,2,79814,80376,1,0 S,2,79814,80376,1,0.2 P,0,79814,80376,A M,0,79854,79895,492.7791,342.0767,505.6405,325.2193 M,0,79895,79935,505.6405,325.2193,508.4814,304.2231 M,0,79935,79976,508.4814,304.2231,501.9919,284.1386
Sprite,Foreground,Centre,"sb\glow.png",0,0 C,0,80138,,164,100,240 M,0,80138,80178,324,331,303.9589,339.0743 F,2,80138,80862,1,0 S,2,80138,80862,1,0.2 P,0,80138,80862,A M,0,80178,80219,303.9589,339.0743,285.4837,350.2251 M,0,80219,80259,285.4837,350.2251,270.6147,365.7946 M,0,80259,80300,270.6147,365.7946,260.5354,384.883 M,0,80300,80340,260.5354,384.883,250.7169,404.1165 M,0,80340,80381,250.7169,404.1165,236.377,420.1826 M,0,80381,80421,236.377,420.1826,218.3098,431.9805 M,0,80421,80462,218.3098,431.9805,198.5232,440.6566
Sprite,Foreground,Centre,"sb\glow.png",193,274 C,0,80624,,230,110,150 F,2,80624,81024,1,0 S,2,80624,81024,1,0.2 P,0,80624,81024,A
Sprite,Foreground,Centre,"sb\glow.png",193,274 C,0,80706,,230,110,150 F,2,80706,81106,1,0 S,2,80706,81106,1,0.2 P,0,80706,81106,A
Sprite,Foreground,Centre,"sb\glow.png",193,274 C,0,80787,,230,110,150 F,2,80787,81187,1,0 S,2,80787,81187,1,0.2 P,0,80787,81187,A
Sprite,Foreground,Centre,"sb\glow.png",70,163 C,0,80949,,230,110,150 F,2,80949,81349,1,0 S,2,80949,81349,1,0.2 P,0,80949,81349,A
Sprite,Foreground,Centre,"sb\glow.png",0,0 C,0,81111,,230,110,150 M,0,81111,81151,90,287,95.31836,266.0996 F,2,81111,81673,1,0 S,2,81111,81673,1,0.2 P,0,81111,81673,A M,0,81151,81192,95.31836,266.0996,103.847,246.2796 M,0,81192,81232,103.847,246.2796,116.1317,228.5542 M,0,81232,81273,116.1317,228.5542,131,213
Sprite,Foreground,Centre,"sb\glow.png",0,0 C,0,81435,,230,110,150 M,0,81435,81475,132,56,122.6937,75.45953 F,2,81435,82078,1,0 S,2,81435,82078,1,0.2 P,0,81435,82078,A M,0,81475,81516,122.6937,75.45953,110.3573,93.16064 M,0,81516,81556,110.3573,93.16064,122.6937,75.45953 M,0,81556,81597,122.6937,75.45953,132,56 M,0,81597,81637,132,56,122.6937,75.45953 M,0,81637,81678,122.6937,75.45953,110.3573,93.16064
Sprite,Foreground,Centre,"sb\glow.png",267,244 C,0,81760,,100,200,200 F,2,81760,82160,1,0 S,2,81760,82160,1,0.2 P,0,81760,82160,A
Sprite,Foreground,Centre,"sb\glow.png",305,227 C,0,81841,,100,200,200 F,2,81841,82241,1,0 S,2,81841,82241,1,0.2 P,0,81841,82241,A
Sprite,Foreground,Centre,"sb\glow.png",330,193 C,0,81922,,100,200,200 F,2,81922,82322,1,0 S,2,81922,82322,1,0.2 P,0,81922,82322,A
Sprite,Foreground,Centre,"sb\glow.png",331,151 C,0,82003,,100,200,200 F,2,82003,82403,1,0 S,2,82003,82403,1,0.2 P,0,82003,82403,A
Sprite,Foreground,Centre,"sb\glow.png",0,0 C,0,82084,,100,200,200 M,0,82084,82124,310,114,292.2927,129.9899 F,2,82084,82646,1,0 S,2,82084,82646,1,0.2 P,0,82084,82646,A M,0,82124,82165,292.2927,129.9899,272.1187,142.6868 M,0,82165,82205,272.1187,142.6868,249.9409,151.4629 M,0,82205,82246,249.9409,151.4629,227,156
Sprite,Foreground,Centre,"sb\glow.png",0,0 C,0,82408,,100,200,200 M,0,82408,82448,407,368,389.2927,352.0101 F,2,82408,82970,1,0 S,2,82408,82970,1,0.2 P,0,82408,82970,A M,0,82448,82489,389.2927,352.0101,369.1187,339.3132 M,0,82489,82529,369.1187,339.3132,346.9409,330.5371 M,0,82529,82570,346.9409,330.5371,324,326
Sprite,Foreground,Centre,"sb\glow.png",415,245 C,0,82733,,100,200,200 F,2,82733,83133,1,0 S,2,82733,83133,1,0.2 P,0,82733,83133,A
Sprite,Foreground,Centre,"sb\glow.png",323,440 C,0,82895,,100,200,200 F,2,82895,83295,1,0 S,2,82895,83295,1,0.2 P,0,82895,83295,A
Sprite,Foreground,Centre,"sb\glow.png",162,278 C,0,83057,,100,200,200 F,2,83057,83457,1,0 S,2,83057,83457,1,0.2 P,0,83057,83457,A
Sprite,Foreground,Centre,"sb\glow.png",0,0 C,0,83219,,130,120,255 M,0,83219,83259,310,205,293.3275,222.1371 F,2,83219,83943,1,0 S,2,83219,83943,1,0.2 P,0,83219,83943,A M,0,83259,83300,293.3275,222.1371,277.9766,240.4616 M,0,83300,83340,277.9766,240.4616,264.1216,259.9426 M,0,83340,83381,264.1216,259.9426,251.8493,280.4584 M,0,83381,83421,251.8493,280.4584,241.2363,301.881 M,0,83421,83462,241.2363,301.881,232.3491,324.0767 M,0,83462,83502,232.3491,324.0767,225.2435,346.9071 M,0,83502,83543,225.2435,346.9071,220,370
Sprite,Foreground,Centre,"sb\glow.png",0,0 C,0,83706,,130,120,255 M,0,83706,83746,130,133,147.7073,148.9899 F,2,83706,84268,1,0 S,2,83706,84268,1,0.2 P,0,83706,84268,A M,0,83746,83787,147.7073,148.9899,167.8813,161.6868 M,0,83787,83827,167.8813,161.6868,190.0591,170.4629 M,0,83827,83868,190.0591,170.4629,213,175
Sprite,Foreground,Centre,"sb\glow.png",334,389 C,0,84030,,130,120,255 F,2,84030,84430,1,0 S,2,84030,84430,1,0.2 P,0,84030,84430,A
Sprite,Foreground,Centre,"sb\glow.png",167,270 C,0,84192,,130,120,255 F,2,84192,84592,1,0 S,2,84192,84592,1,0.2 P,0,84192,84592,A
Sprite,Foreground,Centre,"sb\glow.png",291,123 C,0,84354,,130,120,255 F,2,84354,84754,1,0 S,2,84354,84754,1,0.2 P,0,84354,84754,A
Sprite,Foreground,Centre,"sb\glow.png",0,0 C,0,84516,,164,100,240 M,0,84516,84556,186,437,192.819,414.1953 F,2,84516,85240,1,0 S,2,84516,85240,1,0.2 P,0,84516,85240,A M,0,84556,84597,192.819,414.1953,205.0101,393.8104 M,0,84597,84637,205.0101,393.8104,222.1006,377.3104 M,0,84637,84678,222.1006,377.3104,242.9092,365.839 M,0,84678,84718,242.9092,365.839,265.9971,360.1932 M,0,84718,84759,265.9971,360.1932,289.7673,360.7681 M,0,84759,84799,289.7673,360.7681,312.5742,367.5289 M,0,84799,84840,312.5742,367.5289,332.8369,380.0138
Sprite,Foreground,Centre,"sb\glow.png",480,174 C,0,85003,,164,100,240 F,2,85003,85403,1,0 S,2,85003,85403,1,0.2 P,0,85003,85403,A
Sprite,Foreground,Centre,"sb\glow.png",335,247 C,0,85165,,164,100,240 F,2,85165,85565,1,0 S,2,85165,85565,1,0.2 P,0,85165,85565,A
Sprite,Foreground,Centre,"sb\glow.png",443,398 C,0,85327,,164,100,240 F,2,85327,85727,1,0 S,2,85327,85727,1,0.2 P,0,85327,85727,A
Sprite,Foreground,Centre,"sb\glow.png",384,152 C,0,85489,,164,100,240 F,2,85489,85889,1,0 S,2,85489,85889,1,0.2 P,0,85489,85889,A
Sprite,Foreground,Centre,"sb\glow.png",538,399 C,0,85651,,164,100,240 F,2,85651,86051,1,0 S,2,85651,86051,1,0.2 P,0,85651,86051,A
Sprite,Foreground,Centre,"sb\glow.png",384,152 C,0,85814,,164,100,240 F,2,85814,86214,1,0 S,2,85814,86214,1,0.2 P,0,85814,86214,A
Sprite,Foreground,Centre,"sb\glow.png",0,0 C,0,85976,,230,110,150 M,0,85976,86016,554,206,553.1454,229.6951 F,2,85976,86619,1,0 S,2,85976,86619,1,0.2 P,0,85976,86619,A M,0,86016,86057,553.1454,229.6951,544.6793,251.7477 M,0,86057,86097,544.6793,251.7477,529.1339,269.5455 M,0,86097,86138,529.1339,269.5455,508.4006,280.9111 M,0,86138,86178,508.4006,280.9111,485.0043,284.4477 M,0,86178,86219,485.0043,284.4477,461.7987,279.7093
Sprite,Foreground,Centre,"sb\glow.png",461,279 C,0,86300,,230,110,150 F,2,86300,86700,1,0 S,2,86300,86700,1,0.2 P,0,86300,86700,A
Sprite,Foreground,Centre,"sb\glow.png",576,56 C,0,86462,,230,110,150 F,2,86462,86862,1,0 S,2,86462,86862,1,0.2 P,0,86462,86862,A
Sprite,Foreground,Centre,"sb\glow.png",379,151 C,0,86787,,230,110,150 F,2,86787,87187,1,0 S,2,86787,87187,1,0.2 P,0,86787,87187,A
Sprite,Foreground,Centre,"sb\glow.png",170,85 C,0,126192,,100,200,200 F,2,126192,126592,1,0 S,2,126192,126592,1,0.2 P,0,126192,126592,A
Sprite,Foreground,Centre,"sb\glow.png",64,270 C,0,126354,,100,200,200 F,2,126354,126754,1,0 S,2,126354,126754,1,0.2 P,0,126354,126754,A
Sprite,Foreground,Centre,"sb\glow.png",234,200 C,0,126516,,100,200,200 F,2,126516,126916,1,0 S,2,126516,126916,1,0.2 P,0,126516,126916,A
Sprite,Foreground,Centre,"sb\glow.png",311,394 C,0,126679,,100,200,200 F,2,126679,127079,1,0 S,2,126679,127079,1,0.2 P,0,126679,127079,A
Sprite,Foreground,Centre,"sb\glow.png",0,0 C,0,126841,,100,200,200 M,0,126841,126881,391,241,372.857,256.5115 F,2,126841,127403,1,0 S,2,126841,127403,1,0.2 P,0,126841,127403,A M,0,126881,126922,372.857,256.5115,352.5358,269 M,0,126922,126962,352.5358,269,330.4101,277.936 M,0,126962,127003,330.4101,277.936,308,283
Sprite,Foreground,Centre,"sb\glow.png",401,340 C,0,127165,,100,200,200 F,2,127165,127565,1,0 S,2,127165,127565,1,0.2 P,0,127165,127565,A
Sprite,Foreground,Centre,"sb\glow.png",0,0 C,0,127327,,130,120,255 M,0,127327,127367,222,440,199.4621,432.0406 F,2,127327,128051,1,0 S,2,127327,128051,1,0.2 P,0,127327,128051,A M,0,127367,127408,199.4621,432.0406,178.6665,420.3217 M,0,127408,127448,178.6665,420.3217,161.7452,403.5426 M,0,127448,127489,161.7452,403.5426,149.4122,383.0764 M,0,127489,127529,149.4122,383.0764,137.1411,362.5703 M,0,127529,127570,137.1411,362.5703,120.5085,345.4918 M,0,127570,127610,120.5085,345.4918,100.066,333.161 M,0,127610,127651,100.066,333.161,77.79057,324.4944
Sprite,Foreground,Centre,"sb\glow.png",183,250 C,0,127814,,130,120,255 F,2,127814,128214,1,0 S,2,127814,128214,1,0.2 P,0,127814,128214,A
Sprite,Foreground,Centre,"sb\glow.png",64,424 C,0,127976,,130,120,255 F,2,127976,128376,1,0 S,2,127976,128376,1,0.2 P,0,127976,128376,A
Sprite,Foreground,Centre,"sb\glow.png",0,0 C,0,128138,,130,120,255 M,0,128138,128178,183,250,198.5115,268.143 F,2,128138,128700,1,0 S,2,128138,128700,1,0.2 P,0,128138,128700,A M,0,128178,128219,198.5115,268.143,211,288.4642 M,0,128219,128259,211,288.4642,219.936,310.5899 M,0,128259,128300,219.936,310.5899,225,333
Sprite,Foreground,Centre,"sb\glow.png",294,222 C,0,128462,,130,120,255 F,2,128462,128862,1,0 S,2,128462,128862,1,0.2 P,0,128462,128862,A
Sprite,Foreground,Centre,"sb\glow.png",0,0 C,0,128624,,164,100,240 M,0,128624,128664,64,161,85.25513,171.72 F,2,128624,129348,1,0 S,2,128624,129348,1,0.2 P,0,128624,129348,A M,0,128664,128705,85.25513,171.72,108.4196,176.9944 M,0,128705,128745,108.4196,176.9944,132.1689,176.1635 M,0,128745,128786,132.1689,176.1635,154.9234,169.2783 M,0,128786,128826,154.9234,169.2783,175.168,156.791 M,0,128826,128867,175.168,156.791,191.5523,139.5256 M,0,128867,128907,191.5523,139.5256,202.9795,118.6242 M,0,128907,128948,202.9795,118.6242,208.6797,95.47218
Sprite,Foreground,Centre,"sb\glow.png",114,57 C,0,129111,,164,100,240 F,2,129111,129511,1,0 S,2,129111,129511,1,0.2 P,0,129111,129511,A
Sprite,Foreground,Centre,"sb\glow.png",194,243 C,0,129273,,164,100,240 F,2,129273,129673,1,0 S,2,129273,129673,1,0.2 P,0,129273,129673,A
Sprite,Foreground,Centre,"sb\glow.png",0,0 C,0,129435,,164,100,240 M,0,129435,129475,373,153,349.6813,147.9055 F,2,129435,129997,1,0 S,2,129435,129997,1,0.2 P,0,129435,129997,A M,0,129475,129516,349.6813,147.9055,327.5538,139.0156 M,0,129516,129556,327.5538,139.0156,307.3357,126.3708 M,0,129556,129597,307.3357,126.3708,289.4977,110.5123
Sprite,Foreground,Centre,"sb\glow.png",394,276 C,0,129760,,164,100,240 F,2,129760,130160,1,0 S,2,129760,130160,1,0.2 P,0,129760,130160,A
Sprite,Foreground,Centre,"sb\glow.png",0,0 C,0,129922,,230,110,150 M,0,129922,129962,252,403,274.5379,395.0405 F,2,129922,130646,1,0 S,2,129922,130646,1,0.2 P,0,129922,130646,A M,0,129962,130003,274.5379,395.0405,295.3335,383.3217 M,0,130003,130043,295.3335,383.3217,312.2548,366.5426 M,0,130043,130084,312.2548,366.5426,324.5878,346.0764 M,0,130084,130124,324.5878,346.0764,336.8589,325.5703 M,0,130124,130165,336.8589,325.5703,353.4915,308.4918 M,0,130165,130205,353.4915,308.4918,373.9341,296.161 M,0,130205,130246,373.9341,296.161,396.2094,287.4944
Sprite,Foreground,Centre,"sb\glow.png",0,0 C,0,130408,,230,110,150 M,0,130408,130448,563,188,539.9315,193.876 F,2,130408,131132,1,0 S,2,130408,131132,1,0.2 P,0,130408,131132,A M,0,130448,130489,539.9315,193.876,519.0081,205.1274 M,0,130489,130529,519.0081,205.1274,501.6688,221.3755 M,0,130529,130570,501.6688,221.3755,489.0756,241.5368 M,0,130570,130610,489.0756,241.5368,482.0754,264.2657 M,0,130610,130651,482.0754,264.2657,481.1428,288.0442 M,0,130651,130691,481.1428,288.0442,486.3486,311.2821 M,0,130691,130732,486.3486,311.2821,497,332
Sprite,Foreground,Centre,"sb\glow.png",576,282 C,0,130895,,230,110,150 F,2,130895,131295,1,0 S,2,130895,131295,1,0.2 P,0,130895,131295,A
Sprite,Foreground,Centre,"sb\glow.png",0,0 C,0,131057,,230,110,150 M,0,131057,131097,411,130,434.2563,124.6431 F,2,131057,131619,1,0 S,2,131057,131619,1,0.2 P,0,131057,131619,A M,0,131097,131138,434.2563,124.6431,456.3201,115.5968 M,0,131138,131178,456.3201,115.5968,476.4928,102.855 M,0,131178,131219,476.4928,102.855,494,87
Sprite,Foreground,Centre,"sb\glow.png",0,0 C,0,131381,,100,200,200 M,0,131381,131421,306,326,288.8568,309.3537 F,2,131381,132024,1,0 S,2,131381,132024,1,0.2 P,0,131381,132024,A M,0,131421,131462,288.8568,309.3537,269.9824,294.7153 M,0,131462,131502,269.9824,294.7153,249.5075,282.409 M,0,131502,131543,249.5075,282.409,227.7175,272.6074 M,0,131543,131583,227.7175,272.6074,204.9162,265.4484 M,0,131583,131624,204.9162,265.4484,181.4183,261.0601
Sprite,Foreground,Centre,"sb\glow.png",0,0 C,0,131706,,100,200,200 M,0,131706,131746,181,261,172.8991,238.8839 F,2,131706,132268,1,0 S,2,131706,132268,1,0.2 P,0,131706,132268,A M,0,131746,131787,172.8991,238.8839,175.1068,215.5932 M,0,131787,131827,175.1068,215.5932,187.6685,195.854 M,0,131827,131868,187.6685,195.854,207.6961,183.4723
Sprite,Foreground,Centre,"sb\glow.png",428,56 C,0,132030,,100,200,200 F,2,132030,132430,1,0 S,2,132030,132430,1,0.2 P,0,132030,132430,A
Sprite,Foreground,Centre,"sb\glow.png",340,225 C,0,132192,,100,200,200 F,2,132192,132592,1,0 S,2,132192,132592,1,0.2 P,0,132192,132592,A
Sprite,Foreground,Centre,"sb\glow.png",0,0 C,0,132354,,100,200,200 M,0,132354,132394,233,65,251.3458,80.27747 F,2,132354,132916,1,0 S,2,132354,132916,1,0.2 P,0,132354,132916,A M,0,132394,132435,251.3458,80.27747,271.7413,92.65676 M,0,132435,132475,271.7413,92.65676,293.8545,101.6449 M,0,132475,132516,293.8545,101.6449,317,107
Sprite,Foreground,Centre,"sb\glow.png",0,0 C,0,132679,,130,120,255 M,0,132679,132719,576,56,553.0421,49.99783 F,2,132679,133322,1,0 S,2,132679,133322,1,0.2 P,0,132679,133322,A M,0,132719,132760,553.0421,49.99783,529.4218,51.2672 M,0,132760,132800,529.4218,51.2672,507.4667,60.13217 M,0,132800,132841,507.4667,60.13217,489.5451,75.65777 M,0,132841,132881,489.5451,75.65777,477.6025,96.1947 M,0,132881,132922,477.6025,96.1947,473.0344,119.5487
Sprite,Foreground,Centre,"sb\glow.png",473,120 C,0,133003,,130,120,255 F,2,133003,133403,1,0 S,2,133003,133403,1,0.2 P,0,133003,133403,A
Sprite,Foreground,Centre,"sb\glow.png",0,0 C,0,133165,,130,120,255 M,0,133165,133205,533,269,538.7418,245.8261 F,2,133165,133727,1,0 S,2,133165,133727,1,0.2 P,0,133165,133727,A M,0,133205,133246,538.7418,245.8261,547.8181,223.7601 M,0,133246,133286,547.8181,223.7601,560.2594,203.3854 M,0,133286,133327,560.2594,203.3854,575.7826,185.227
Sprite,Foreground,Centre,"sb\glow.png",413,261 C,0,133489,,130,120,255 F,2,133489,133889,1,0 S,2,133489,133889,1,0.2 P,0,133489,133889,A
Sprite,Foreground,Centre,"sb\glow.png",529,411 C,0,133651,,130,120,255 F,2,133651,134051,1,0 S,2,133651,134051,1,0.2 P,0,133651,134051,A
Sprite,Foreground,Centre,"sb\glow.png",413,261 C,0,133814,,130,120,255 F,2,133814,134214,1,0 S,2,133814,134214,1,0.2 P,0,133814,134214,A
Sprite,Foreground,Centre,"sb\glow.png",0,0 C,0,133976,,164,100,240 M,0,133976,134016,276,385,253.4621,377.0406 F,2,133976,134700,1,0 S,2,133976,134700,1,0.2 P,0,133976,134700,A M,0,134016,134057,253.4621,377.0406,232.6665,365.3217 M,0,134057,134097,232.6665,365.3217,215.7452,348.5426 M,0,134097,134138,215.7452,348.5426,203.4123,328.0764 M,0,134138,134178,203.4123,328.0764,191.1411,307.5704 M,0,134178,134219,191.1411,307.5704,174.5086,290.4918 M,0,134219,134259,174.5086,290.4918,154.066,278.1611 M,0,134259,134300,154.066,278.1611,131.7905,269.4944
Sprite,Foreground,Centre,"sb\glow.png",0,0 C,0,134462,,164,100,240 M,0,134462,134502,324,201,308.558,219.2083 F,2,134462,135024,1,0 S,2,134462,135024,1,0.2 P,0,134462,135024,A M,0,134502,134543,308.558,219.2083,295.9646,239.474 M,0,134543,134583,295.9646,239.474,286.7108,261.4803 M,0,134583,134624,286.7108,261.4803,281.057,284.6909
Sprite,Foreground,Centre,"sb\glow.png",0,0 C,0,134787,,164,100,240 M,0,134787,134827,153,440,132.2472,428.8089 F,2,134787,135349,1,0 S,2,134787,135349,1,0.2 P,0,134787,135349,A M,0,134827,134868,132.2472,428.8089,118.1417,410.0997 M,0,134868,134908,118.1417,410.0997,113.7141,387.0891 M,0,134908,134949,113.7141,387.0891,119.4215,364.2191
Sprite,Foreground,Centre,"sb\glow.png",0,0 C,0,135111,,230,110,150 M,0,135111,135151,378,290,401.5332,294.231 F,2,135111,135835,1,0 S,2,135111,135835,1,0.2 P,0,135111,135835,A M,0,135151,135192,401.5332,294.231,424.7074,300.1027 M,0,135192,135232,424.7074,300.1027,447.3788,307.6884 M,0,135232,135273,447.3788,307.6884,469.4212,316.9459 M,0,135273,135313,469.4212,316.9459,490.7115,327.8235 M,0,135313,135354,490.7115,327.8235,511.1311,340.2609 M,0,135354,135394,511.1311,340.2609,530.566,354.1888 M,0,135394,135435,530.566,354.1888,548.9079,369.5297
Sprite,Foreground,Centre,"sb\glow.png",548,370 C,0,135516,,230,110,150 F,2,135516,135916,1,0 S,2,135516,135916,1,0.2 P,0,135516,135916,A
Sprite,Foreground,Centre,"sb\glow.png",548,370 C,0,135597,,230,110,150 F,2,135597,135997,1,0 S,2,135597,135997,1,0.2 P,0,135597,135997,A
Sprite,Foreground,Centre,"sb\glow.png",435,206 C,0,135760,,230,110,150 F,2,135760,136160,1,0 S,2,135760,136160,1,0.2 P,0,135760,136160,A
Sprite,Foreground,Centre,"sb\glow.png",576,125 C,0,135922,,230,110,150 F,2,135922,136322,1,0 S,2,135922,136322,1,0.2 P,0,135922,136322,A
Sprite,Foreground,Centre,"sb\glow.png",559,145 C,0,136003,,230,110,150 F,2,136003,136403,1,0 S,2,136003,136403,1,0.2 P,0,136003,136403,A
Sprite,Foreground,Centre,"sb\glow.png",547,170 C,0,136084,,230,110,150 F,2,136084,136484,1,0 S,2,136084,136484,1,0.2 P,0,136084,136484,A
Sprite,Foreground,Centre,"sb\glow.png",417,439 C,0,136246,,100,200,200 F,2,136246,136646,1,0 S,2,136246,136646,1,0.2 P,0,136246,136646,A
Sprite,Foreground,Centre,"sb\glow.png",374,417 C,0,136327,,100,200,200 F,2,136327,136727,1,0 S,2,136327,136727,1,0.2 P,0,136327,136727,A
Sprite,Foreground,Centre,"sb\glow.png",349,377 C,0,136408,,100,200,200 F,2,136408,136808,1,0 S,2,136408,136808,1,0.2 P,0,136408,136808,A
Sprite,Foreground,Centre,"sb\glow.png",347,330 C,0,136489,,100,200,200 F,2,136489,136889,1,0 S,2,136489,136889,1,0.2 P,0,136489,136889,A
Sprite,Foreground,Centre,"sb\glow.png",0,0 C,0,136570,,100,200,200 M,0,136570,136610,371,289,389.2083,304.442 F,2,136570,137132,1,0 S,2,136570,137132,1,0.2 P,0,136570,137132,A M,0,136610,136651,389.2083,304.442,409.4739,317.0354 M,0,136651,136691,409.4739,317.0354,431.4803,326.2892 M,0,136691,136732,431.4803,326.2892,454.6909,331.943
Sprite,Foreground,Centre,"sb\glow.png",536,59 C,0,136895,,100,200,200 F,2,136895,137295,1,0 S,2,136895,137295,1,0.2 P,0,136895,137295,A
Sprite,Foreground,Centre,"sb\glow.png",418,164 C,0,137057,,100,200,200 F,2,137057,137457,1,0 S,2,137057,137457,1,0.2 P,0,137057,137457,A
Sprite,Foreground,Centre,"sb\glow.png",0,0 C,0,137219,,100,200,200 M,0,137219,137259,556,240,550.2582,216.8261 F,2,137219,137781,1,0 S,2,137219,137781,1,0.2 P,0,137219,137781,A M,0,137259,137300,550.2582,216.8261,541.1819,194.7601 M,0,137300,137340,541.1819,194.7601,528.7406,174.3854 M,0,137340,137381,528.7406,174.3854,513.2174,156.227
Sprite,Foreground,Centre,"sb\glow.png",460,326 C,0,137543,,100,200,200 F,2,137543,137943,1,0 S,2,137543,137943,1,0.2 P,0,137543,137943,A
Sprite,Foreground,Centre,"sb\glow.png",0,0 C,0,137706,,130,120,255 M,0,137706,137746,293,146,270.4621,153.9594 F,2,137706,138430,1,0 S,2,137706,138430,1,0.2 P,0,137706,138430,A M,0,137746,137787,270.4621,153.9594,249.6665,165.6783 M,0,137787,137827,249.6665,165.6783,232.7452,182.4573 M,0,137827,137868,232.7452,182.4573,220.4122,202.9236 M,0,137868,137908,220.4122,202.9236,208.1411,223.4297 M,0,137908,137949,208.1411,223.4297,191.5085,240.5082 M,0,137949,137989,191.5085,240.5082,171.0659,252.839 M,0,137989,138030,171.0659,252.839,148.7905,261.5056
Sprite,Foreground,Centre,"sb\glow.png",82,133 C,0,138192,,130,120,255 F,2,138192,138592,1,0 S,2,138192,138592,1,0.2 P,0,138192,138592,A
Sprite,Foreground,Centre,"sb\glow.png",246,231 C,0,138354,,130,120,255 F,2,138354,138754,1,0 S,2,138354,138754,1,0.2 P,0,138354,138754,A
Sprite,Foreground,Centre,"sb\glow.png",0,0 C,0,138516,,130,120,255 M,0,138516,138556,122,414,128.5684,391.1189 F,2,138516,139240,1,0 S,2,138516,139240,1,0.2 P,0,138516,139240,A M,0,138556,138597,128.5684,391.1189,140.5305,370.5949 M,0,138597,138637,140.5305,370.5949,157.4212,353.8893 M,0,138637,138678,157.4212,353.8893,178.0781,342.1531 M,0,138678,138718,178.0781,342.1531,201.079,336.1952 M,0,138718,138759,201.079,336.1952,224.8404,336.427 M,0,138759,138799,224.8404,336.427,247.7261,342.834 M,0,138799,138840,247.7261,342.834,268.1595,354.9768
Sprite,Foreground,Centre,"sb\glow.png",0,0 C,0,139003,,164,100,240 M,0,139003,139043,485,241,469.5983,259.2889 F,2,139003,139727,1,0 S,2,139003,139727,1,0.2 P,0,139003,139727,A M,0,139043,139084,469.5983,259.2889,455.5385,278.6235 M,0,139084,139124,455.5385,278.6235,442.9816,298.9667 M,0,139124,139165,442.9816,298.9667,431.9995,320.2023 M,0,139165,139205,431.9995,320.2023,422.655,342.2088 M,0,139205,139246,422.655,342.2088,415.0018,364.8603 M,0,139246,139286,415.0018,364.8603,409.084,388.0273 M,0,139286,139327,409.084,388.0273,405,411
Sprite,Foreground,Centre,"sb\glow.png",349,271 C,0,139489,,164,100,240 F,2,139489,139889,1,0 S,2,139489,139889,1,0.2 P,0,139489,139889,A
Sprite,Foreground,Centre,"sb\glow.png",538,369 C,0,139651,,164,100,240 F,2,139651,140051,1,0 S,2,139651,140051,1,0.2 P,0,139651,140051,A
Sprite,Foreground,Centre,"sb\glow.png",0,0 C,0,139814,,164,100,240 M,0,139814,139854,349,271,330.6542,286.2775 F,2,139814,140376,1,0 S,2,139814,140376,1,0.2 P,0,139814,140376,A M,0,139854,139895,330.6542,286.2775,310.2587,298.6568 M,0,139895,139935,310.2587,298.6568,288.1455,307.6449 M,0,139935,139976,288.1455,307.6449,265,313
Sprite,Foreground,Centre,"sb\glow.png",401,166 C,0,140138,,164,100,240 F,2,140138,140538,1,0 S,2,140138,140538,1,0.2 P,0,140138,140538,A
Sprite,Foreground,Centre,"sb\glow.png",0,0 C,0,140300,,230,110,150 M,0,140300,140340,250,61,272.5379,68.95946 F,2,140300,141024,1,0 S,2,140300,141024,1,0.2 P,0,140300,141024,A M,0,140340,140381,272.5379,68.95946,293.3335,80.67833 M,0,140381,140421,293.3335,80.67833,310.2548,97.45734 M,0,140421,140462,310.2548,97.45734,322.5877,117.9236 M,0,140462,140502,322.5877,117.9236,334.8589,138.4296 M,0,140502,140543,334.8589,138.4296,351.4914,155.5082 M,0,140543,140583,351.4914,155.5082,371.934,167.8389 M,0,140583,140624,371.934,167.8389,394.2094,176.5056
Sprite,Foreground,Centre,"sb\glow.png",0,0 C,0,140787,,230,110,150 M,0,140787,140827,557,73,541.7225,91.34583 F,2,140787,141349,1,0 S,2,140787,141349,1,0.2 P,0,140787,141349,A M,0,140827,140868,541.7225,91.34583,529.3433,111.7413 M,0,140868,140908,529.3433,111.7413,520.3551,133.8545 M,0,140908,140949,520.3551,133.8545,515,157
Sprite,Foreground,Centre,"sb\glow.png",429,76 C,0,141111,,230,110,150 F,2,141111,141511,1,0 S,2,141111,141511,1,0.2 P,0,141111,141511,A
Sprite,Foreground,Centre,"sb\glow.png",429,76 C,0,141273,,230,110,150 F,2,141273,141673,1,0 S,2,141273,141673,1,0.2 P,0,141273,141673,A
Sprite,Foreground,Centre,"sb\glow.png",0,0 C,0,141435,,230,110,150 M,0,141435,141475,500,271,522.4063,278.2136 F,2,141435,141997,1,0 S,2,141435,141997,1,0.2 P,0,141435,141997,A M,0,141475,141516,522.4063,278.2136,545.5453,274.9011 M,0,141516,141556,545.5453,274.9011,564.5308,261.2603 M,0,141556,141597,564.5308,261.2603,575.5793,240.4842
Sprite,Foreground,Centre,"sb\glow.png",0,0 C,0,141760,,100,200,200 M,0,141760,141800,327,214,303.4951,218.3006 F,2,141760,142403,1,0 S,2,141760,142403,1,0.2 P,0,141760,142403,A M,0,141800,141841,303.4951,218.3006,280.6272,225.197 M,0,141841,141881,280.6272,225.197,258.7412,234.7694 M,0,141881,141922,258.7412,234.7694,238.1478,246.8825 M,0,141922,141962,238.1478,246.8825,219.1398,261.3658 M,0,141962,142003,219.1398,261.3658,202,278
Sprite,Foreground,Centre,"sb\glow.png",0,0 C,0,142085,,100,200,200 M,0,142085,142125,202,278,181.4584,266.441 F,2,142085,142647,1,0 S,2,142085,142647,1,0.2 P,0,142085,142647,A M,0,142125,142166,181.4584,266.441,167.8295,247.3948 M,0,142166,142206,167.8295,247.3948,164.1391,224.2667 M,0,142206,142247,164.1391,224.2667,170.6799,201.6266
Sprite,Foreground,Centre,"sb\glow.png",348,313 C,0,142408,,100,200,200 F,2,142408,142808,1,0 S,2,142408,142808,1,0.2 P,0,142408,142808,A
Sprite,Foreground,Centre,"sb\glow.png",217,439 C,0,142570,,100,200,200 F,2,142570,142970,1,0 S,2,142570,142970,1,0.2 P,0,142570,142970,A
Sprite,Foreground,Centre,"sb\glow.png",0,0 C,0,142733,,100,200,200 M,0,142733,142773,348,313,366.5537,328.0323 F,2,142733,143295,1,0 S,2,142733,143295,1,0.2 P,0,142733,143295,A M,0,142773,142814,366.5537,328.0323,387.0194,340.3079 M,0,142814,142854,387.0194,340.3079,409.1046,349.3774 M,0,142854,142895,409.1046,349.3774,432,355
Sprite,Foreground,Centre,"sb\glow.png",0,0 C,0,143057,,130,120,255 M,0,143057,143097,576,171,567.9851,193.3544 F,2,143057,143700,1,0 S,2,143057,143700,1,0.2 P,0,143057,143700,A M,0,143097,143138,567.9851,193.3544,553.7308,212.2558 M,0,143138,143178,553.7308,212.2558,534.2435,225.7048 M,0,143178,143219,534.2435,225.7048,511.5057,232.3296 M,0,143219,143259,511.5057,232.3296,487.831,231.4515 M,0,143259,143300,487.831,231.4515,465.6303,223.1545
Sprite,Foreground,Centre,"sb\glow.png",465,223 C,0,143381,,130,120,255 F,2,143381,143781,1,0 S,2,143381,143781,1,0.2 P,0,143381,143781,A
Sprite,Foreground,Centre,"sb\glow.png",0,0 C,0,143543,,130,120,255 M,0,143543,143583,366,63,384.5537,78.03231 F,2,143543,144105,1,0 S,2,143543,144105,1,0.2 P,0,143543,144105,A M,0,143583,143624,384.5537,78.03231,405.0194,90.30785 M,0,143624,143664,405.0194,90.30785,427.1046,99.37737 M,0,143664,143705,427.1046,99.37737,450,105
Sprite,Foreground,Centre,"sb\glow.png",516,62 C,0,143868,,130,120,255 F,2,143868,144268,1,0 S,2,143868,144268,1,0.2 P,0,143868,144268,A
Sprite,Foreground,Centre,"sb\glow.png",379,182 C,0,144030,,130,120,255 F,2,144030,144430,1,0 S,2,144030,144430,1,0.2 P,0,144030,144430,A
Sprite,Foreground,Centre,"sb\glow.png",506,331 C,0,144192,,130,120,255 F,2,144192,144592,1,0 S,2,144192,144592,1,0.2 P,0,144192,144592,A
Sprite,Foreground,Centre,"sb\glow.png",0,0 C,0,144354,,164,100,240 M,0,144354,144394,379,182,356.4621,189.9594 F,2,144354,145078,1,0 S,2,144354,145078,1,0.2 P,0,144354,145078,A M,0,144394,144435,356.4621,189.9594,335.6665,201.6784 M,0,144435,144475,335.6665,201.6784,318.7452,218.4574 M,0,144475,144516,318.7452,218.4574,306.4122,238.9236 M,0,144516,144556,306.4122,238.9236,294.1411,259.4297 M,0,144556,144597,294.1411,259.4297,277.5085,276.5082 M,0,144597,144637,277.5085,276.5082,257.0659,288.8389 M,0,144637,144678,257.0659,288.8389,234.7905,297.5057
Sprite,Foreground,Centre,"sb\glow.png",0,0 C,0,144841,,164,100,240 M,0,144841,144881,138,166,156.5537,181.0323 F,2,144841,145403,1,0 S,2,144841,145403,1,0.2 P,0,144841,145403,A M,0,144881,144922,156.5537,181.0323,177.0195,193.3078 M,0,144922,144962,177.0195,193.3078,199.1046,202.3774 M,0,144962,145003,199.1046,202.3774,222,208
Sprite,Foreground,Centre,"sb\glow.png",0,0 C,0,145165,,164,100,240 M,0,145165,145205,126,424,144.2083,408.558 F,2,145165,145727,1,0 S,2,145165,145727,1,0.2 P,0,145165,145727,A M,0,145205,145246,144.2083,408.558,164.474,395.9646 M,0,145246,145286,164.474,395.9646,186.4803,386.7108 M,0,145286,145327,186.4803,386.7108,209.6909,381.057
Sprite,Foreground,Centre,"sb\glow.png",0,0 C,0,145489,,230,110,150 M,0,145489,145529,442,433,418.5791,428.8484 F,2,145489,146213,1,0 S,2,145489,146213,1,0.2 P,0,145489,146213,A M,0,145529,145570,418.5791,428.8484,397.1426,418.6747 M,0,145570,145610,397.1426,418.6747,379.4144,402.9012 M,0,145610,145651,379.4144,402.9012,366.8148,382.7902 M,0,145651,145691,366.8148,382.7902,360.3541,359.9516 M,0,145691,145732,360.3541,359.9516,360.5516,336.2138 M,0,145732,145772,360.5516,336.2138,367.3938,313.478 M,0,145772,145813,367.3938,313.478,380.3354,293.5658
Sprite,Foreground,Centre,"sb\glow.png",420,220 C,0,145895,,230,110,150 F,2,145895,146295,1,0 S,2,145895,146295,1,0.2 P,0,145895,146295,A
Sprite,Foreground,Centre,"sb\glow.png",0,0 C,0,145976,,230,110,150 M,0,145976,146016,420,220,435.0323,238.5537 F,2,145976,146538,1,0 S,2,145976,146538,1,0.2 P,0,145976,146538,A M,0,146016,146057,435.0323,238.5537,447.3079,259.0195 M,0,146057,146097,447.3079,259.0195,456.3774,281.1046 M,0,146097,146138,456.3774,281.1046,462,304
Sprite,Foreground,Centre,"sb\glow.png",0,0 C,0,146300,,230,110,150 M,0,146300,146340,534,123,549.0323,141.5537 F,2,146300,146862,1,0 S,2,146300,146862,1,0.2 P,0,146300,146862,A M,0,146340,146381,549.0323,141.5537,561.3079,162.0195 M,0,146381,146421,561.3079,162.0195,570.3774,184.1046 M,0,146421,146462,570.3774,184.1046,576,207
Sprite,Foreground,Centre,"sb\glow.png",446,128 C,0,146624,,230,110,150 F,2,146624,147024,1,0 S,2,146624,147024,1,0.2 P,0,146624,147024,A
Sprite,Foreground,Centre,"sb\glow.png",446,128 C,0,146787,,230,110,150 F,2,146787,147187,1,0 S,2,146787,147187,1,0.2 P,0,146787,147187,A
Sprite,Foreground,Centre,"sb\glow.png",0,0 C,0,146949,,100,200,200 M,0,146949,146989,357,296,336.9588,287.9257 F,2,146949,147673,1,0 S,2,146949,147673,1,0.2 P,0,146949,147673,A M,0,146989,147030,336.9588,287.9257,318.4837,276.7749 M,0,147030,147070,318.4837,276.7749,303.6147,261.2054 M,0,147070,147111,303.6147,261.2054,293.5354,242.117 M,0,147111,147151,293.5354,242.117,283.7169,222.8835 M,0,147151,147192,283.7169,222.8835,269.377,206.8174 M,0,147192,147232,269.377,206.8174,251.3097,195.0195 M,0,147232,147273,251.3097,195.0195,231.5231,186.3434
Sprite,Foreground,Centre,"sb\glow.png",0,0 C,0,147435,,100,200,200 M,0,147435,147475,127,327,142.3118,311.8155 F,2,147435,147997,1,0 S,2,147435,147997,1,0.2 P,0,147435,147997,A M,0,147475,147516,142.3118,311.8155,159.8582,299.2603 M,0,147516,147556,159.8582,299.2603,179.5706,290.5172 M,0,147556,147597,179.5706,290.5172,200.4359,285.0263
Sprite,Foreground,Centre,"sb\glow.png",120,212 C,0,147760,,100,200,200 F,2,147760,148160,1,0 S,2,147760,148160,1,0.2 P,0,147760,148160,A
Sprite,Foreground,Centre,"sb\glow.png",0,0 C,0,147922,,100,200,200 M,0,147922,147962,227,419,245.4629,408.4578 F,2,147922,148484,1,0 S,2,147922,148484,1,0.2 P,0,147922,148484,A M,0,147962,148003,245.4629,408.4578,258.234,391.3798 M,0,148003,148043,258.234,391.3798,260.8751,370.2882 M,0,148043,148084,260.8751,370.2882,255,350
Sprite,Foreground,Centre,"sb\glow.png",255,350 C,0,148165,,100,200,200 F,2,148165,148565,1,0 S,2,148165,148565,1,0.2 P,0,148165,148565,A
Sprite,Foreground,Centre,"sb\glow.png",255,350 C,0,148246,,100,200,200 F,2,148246,148646,1,0 S,2,148246,148646,1,0.2 P,0,148246,148646,A
Sprite,Foreground,Centre,"sb\glow.png",0,0 C,0,148408,,130,120,255 M,0,148408,148448,392,440,406.5211,424.0052 F,2,148408,149132,1,0 S,2,148408,149132,1,0.2 P,0,148408,149132,A M,0,148448,148489,406.5211,424.0052,422.4345,409.3982 M,0,148489,148529,422.4345,409.3982,439.8259,396.5869 M,0,148529,148570,439.8259,396.5869,458.3453,385.4767 M,0,148570,148610,458.3453,385.4767,477.8736,376.2353 M,0,148610,148651,477.8736,376.2353,498.2943,369.1894 M,0,148651,148691,498.2943,369.1894,519.2753,364.0606 M,0,148691,148732,519.2753,364.0606,540.6702,361.0345
Sprite,Foreground,Centre,"sb\glow.png",549,368 C,0,148814,,130,120,255 F,2,148814,149214,1,0 S,2,148814,149214,1,0.2 P,0,148814,149214,A
Sprite,Foreground,Centre,"sb\glow.png",0,0 C,0,148895,,130,120,255 M,0,148895,148935,549,368,554.775,347.5198 F,2,148895,149457,1,0 S,2,148895,149457,1,0.2 P,0,148895,149457,A M,0,148935,148976,554.775,347.5198,551.4042,326.6255 M,0,148976,149016,551.4042,326.6255,539.6259,309.1164 M,0,149016,149057,539.6259,309.1164,521.3249,298.1273
Sprite,Foreground,Centre,"sb\glow.png",399,224 C,0,149219,,130,120,255 F,2,149219,149619,1,0 S,2,149219,149619,1,0.2 P,0,149219,149619,A
Sprite,Foreground,Centre,"sb\glow.png",492,108 C,0,149381,,130,120,255 F,2,149381,149781,1,0 S,2,149381,149781,1,0.2 P,0,149381,149781,A
Sprite,Foreground,Centre,"sb\glow.png",0,0 C,0,149543,,164,100,240 M,0,149543,149583,399,224,378.9557,232.0667 F,2,149543,150267,1,0 S,2,149543,150267,1,0.2 P,0,149543,150267,A M,0,149583,149624,378.9557,232.0667,360.5103,243.2618 M,0,149624,149664,360.5103,243.2618,345.9695,259.119 M,0,149664,149705,345.9695,259.119,336.503,278.5222 M,0,149705,149745,336.503,278.5222,326.6232,297.7064 M,0,149745,149786,326.6232,297.7064,311.779,313.3069 M,0,149786,149826,311.779,313.3069,293.4722,324.7421 M,0,149826,149867,293.4722,324.7421,273.6442,333.33
Sprite,Foreground,Centre,"sb\glow.png",229,396 C,0,150030,,164,100,240 F,2,150030,150430,1,0 S,2,150030,150430,1,0.2 P,0,150030,150430,A
Sprite,Foreground,Centre,"sb\glow.png",0,0 C,0,150192,,164,100,240 M,0,150192,150232,75,278,90.13875,293.3522 F,2,150192,150754,1,0 S,2,150192,150754,1,0.2 P,0,150192,150754,A M,0,150232,150273,90.13875,293.3522,102.5326,311.0036 M,0,150273,150313,102.5326,311.0036,111.0045,330.8276 M,0,150313,150354,111.0045,330.8276,116,351
Sprite,Foreground,Centre,"sb\glow.png",182,257 C,0,150516,,164,100,240 F,2,150516,150916,1,0 S,2,150516,150916,1,0.2 P,0,150516,150916,A
Sprite,Foreground,Centre,"sb\glow.png",64,140 C,0,150679,,230,110,150 F,2,150679,151079,1,0 S,2,150679,151079,1,0.2 P,0,150679,151079,A
Sprite,Foreground,Centre,"sb\glow.png",64,140 C,0,150760,,230,110,150 F,2,150760,151160,1,0 S,2,150760,151160,1,0.2 P,0,150760,151160,A
Sprite,Foreground,Centre,"sb\glow.png",0,0 C,0,150841,,230,110,150 M,0,150841,150881,64,140,75.2881,158.0341 F,2,150841,151403,1,0 S,2,150841,151403,1,0.2 P,0,150841,151403,A M,0,150881,150922,75.2881,158.0341,92.78923,170.1628 M,0,150922,150962,92.78923,170.1628,113.9196,172.4084 M,0,150962,151003,113.9196,172.4084,133,167
Sprite,Foreground,Centre,"sb\glow.png",0,0 C,0,151165,,230,110,150 M,0,151165,151205,284,56,268.8613,71.35216 F,2,151165,151727,1,0 S,2,151165,151727,1,0.2 P,0,151165,151727,A M,0,151205,151246,268.8613,71.35216,256.4674,89.00362 M,0,151246,151286,256.4674,89.00362,247.9955,108.8276 M,0,151286,151327,247.9955,108.8276,243,129
Sprite,Foreground,Centre,"sb\glow.png",0,0 C,0,151489,,230,110,150 M,0,151489,151529,351,268,344.4216,247.4949 F,2,151489,152132,1,0 S,2,151489,152132,1,0.2 P,0,151489,152132,A M,0,151529,151570,344.4216,247.4949,333.868,228.7207 M,0,151570,151610,333.868,228.7207,344.4216,247.4949 M,0,151610,151651,344.4216,247.4949,351,268 M,0,151651,151691,351,268,344.4216,247.4949 M,0,151691,151732,344.4216,247.4949,333.868,228.7207
Sprite,Foreground,Centre,"sb\glow.png",219,386 C,0,151814,,100,200,200 F,2,151814,152214,1,0 S,2,151814,152214,1,0.2 P,0,151814,152214,A
Sprite,Foreground,Centre,"sb\glow.png",179,372 C,0,151895,,100,200,200 F,2,151895,152295,1,0 S,2,151895,152295,1,0.2 P,0,151895,152295,A
Sprite,Foreground,Centre,"sb\glow.png",151,339 C,0,151976,,100,200,200 F,2,151976,152376,1,0 S,2,151976,152376,1,0.2 P,0,151976,152376,A
Sprite,Foreground,Centre,"sb\glow.png",146,296 C,0,152057,,100,200,200 F,2,152057,152457,1,0 S,2,152057,152457,1,0.2 P,0,152057,152457,A
Sprite,Foreground,Centre,"sb\glow.png",0,0 C,0,152138,,100,200,200 M,0,152138,152178,161,257,178.7073,272.9899 F,2,152138,152700,1,0 S,2,152138,152700,1,0.2 P,0,152138,152700,A M,0,152178,152219,178.7073,272.9899,198.8813,285.6868 M,0,152219,152259,198.8813,285.6868,221.0591,294.4629 M,0,152259,152300,221.0591,294.4629,244,299
Sprite,Foreground,Centre,"sb\glow.png",0,0 C,0,152462,,100,200,200 M,0,152462,152502,401,106,383.2927,121.9899 F,2,152462,153024,1,0 S,2,152462,153024,1,0.2 P,0,152462,153024,A M,0,152502,152543,383.2927,121.9899,363.1187,134.6868 M,0,152543,152583,363.1187,134.6868,340.9409,143.4629 M,0,152583,152624,340.9409,143.4629,318,148
Sprite,Foreground,Centre,"sb\glow.png",255,105 C,0,152787,,100,200,200 F,2,152787,153187,1,0 S,2,152787,153187,1,0.2 P,0,152787,153187,A
Sprite,Foreground,Centre,"sb\glow.png",366,245 C,0,152949,,100,200,200 F,2,152949,153349,1,0 S,2,152949,153349,1,0.2 P,0,152949,153349,A
Sprite,Foreground,Centre,"sb\glow.png",231,381 C,0,153111,,100,200,200 F,2,153111,153511,1,0 S,2,153111,153511,1,0.2 P,0,153111,153511,A
Sprite,Foreground,Centre,"sb\glow.png",0,0 C,0,153273,,130,120,255 M,0,153273,153313,366,245,388.5379,252.9594 F,2,153273,153997,1,0 S,2,153273,153997,1,0.2 P,0,153273,153997,A M,0,153313,153354,388.5379,252.9594,409.3335,264.6783 M,0,153354,153394,409.3335,264.6783,426.2548,281.4573 M,0,153394,153435,426.2548,281.4573,438.5878,301.9236 M,0,153435,153475,438.5878,301.9236,450.8589,322.4297 M,0,153475,153516,450.8589,322.4297,467.4915,339.5082 M,0,153516,153556,467.4915,339.5082,487.9341,351.839 M,0,153556,153597,487.9341,351.839,510.2094,360.5056
Sprite,Foreground,Centre,"sb\glow.png",0,0 C,0,153760,,130,120,255 M,0,153760,153800,389,424,368.2993,412.6103 F,2,153760,154322,1,0 S,2,153760,154322,1,0.2 P,0,153760,154322,A M,0,153800,153841,368.2993,412.6103,353.7215,394.1772 M,0,153841,153881,353.7215,394.1772,347.981,371.387 M,0,153881,153922,347.981,371.387,351.634,348.0492
Sprite,Foreground,Centre,"sb\glow.png",0,0 C,0,154084,,130,120,255 M,0,154084,154124,564,177,548.0101,194.7073 F,2,154084,154646,1,0 S,2,154084,154646,1,0.2 P,0,154084,154646,A M,0,154124,154165,548.0101,194.7073,535.3132,214.8813 M,0,154165,154205,535.3132,214.8813,526.5371,237.0591 M,0,154205,154246,526.5371,237.0591,522,260
Sprite,Foreground,Centre,"sb\glow.png",377,119 C,0,154408,,130,120,255 F,2,154408,154808,1,0 S,2,154408,154808,1,0.2 P,0,154408,154808,A
Sprite,Foreground,Centre,"sb\glow.png",0,0 C,0,154570,,164,100,240 M,0,154570,154610,300,285,277.4621,292.9594 F,2,154570,155294,1,0 S,2,154570,155294,1,0.2 P,0,154570,155294,A M,0,154610,154651,277.4621,292.9594,256.6665,304.6783 M,0,154651,154691,256.6665,304.6783,239.7452,321.4574 M,0,154691,154732,239.7452,321.4574,227.4122,341.9236 M,0,154732,154772,227.4122,341.9236,215.1411,362.4297 M,0,154772,154813,215.1411,362.4297,198.5086,379.5082 M,0,154813,154853,198.5086,379.5082,178.0659,391.839 M,0,154853,154894,178.0659,391.839,155.7905,400.5056
Sprite,Foreground,Centre,"sb\glow.png",206,169 C,0,155057,,164,100,240 F,2,155057,155457,1,0 S,2,155057,155457,1,0.2 P,0,155057,155457,A
Sprite,Foreground,Centre,"sb\glow.png",64,115 C,0,155219,,164,100,240 F,2,155219,155619,1,0 S,2,155219,155619,1,0.2 P,0,155219,155619,A
Sprite,Foreground,Centre,"sb\glow.png",144,311 C,0,155381,,164,100,240 F,2,155381,155781,1,0 S,2,155381,155781,1,0.2 P,0,155381,155781,A
Sprite,Foreground,Centre,"sb\glow.png",331,164 C,0,155543,,164,100,240 F,2,155543,155943,1,0 S,2,155543,155943,1,0.2 P,0,155543,155943,A
Sprite,Foreground,Centre,"sb\glow.png",200,65 C,0,155706,,164,100,240 F,2,155706,156106,1,0 S,2,155706,156106,1,0.2 P,0,155706,156106,A
Sprite,Foreground,Centre,"sb\glow.png",331,164 C,0,155868,,164,100,240 F,2,155868,156268,1,0 S,2,155868,156268,1,0.2 P,0,155868,156268,A
Sprite,Foreground,Centre,"sb\glow.png",0,0 C,0,156030,,230,110,150 M,0,156030,156070,502,56,485.2058,72.99338 F,2,156030,156673,1,0 S,2,156030,156673,1,0.2 P,0,156030,156673,A M,0,156070,156111,485.2058,72.99338,470.5687,91.86195 M,0,156111,156151,470.5687,91.86195,458.4501,112.4415 M,0,156151,156192,458.4501,112.4415,449.0472,134.3988 M,0,156192,156232,449.0472,134.3988,442.5132,157.3785 M,0,156232,156273,442.5132,157.3785,439,180
Sprite,Foreground,Centre,"sb\glow.png",438,181 C,0,156354,,230,110,150 F,2,156354,156754,1,0 S,2,156354,156754,1,0.2 P,0,156354,156754,A
Sprite,Foreground,Centre,"sb\glow.png",298,56 C,0,156516,,230,110,150 F,2,156516,156916,1,0 S,2,156516,156916,1,0.2 P,0,156516,156916,A
Sprite,Foreground,Centre,"sb\glow.png",427,405 C,0,156841,,230,110,150 F,2,156841,157241,1,0 S,2,156841,157241,1,0.2 P,0,156841,157241,A
//Storyboard Layer 4 (Overlay)
//Storyboard Sound Samples

[TimingPoints]
1652,324.324324324324,4,2,1,70,1,0
1652,-96.1538461538461,4,2,1,70,0,0
2624,-135.135135135135,4,2,1,70,0,0
4246,-96.1538461538461,4,2,1,70,0,0
5219,-135.135135135135,4,2,1,70,0,0
6841,-96.1538461538461,4,2,1,80,0,0
14624,-96.1538461538461,4,2,1,90,0,0
16733,-96.1538461538461,4,2,1,60,0,0
17219,-119.047619047619,4,2,1,60,0,0
27597,-106.382978723404,4,2,1,70,0,0
37976,-106.382978723404,4,2,1,60,0,0
45597,-106.382978723404,4,2,1,70,0,0
50949,-106.382978723404,4,2,1,75,0,0
53543,-106.382978723404,4,2,1,85,0,0
56138,-96.153846153846,4,2,1,85,0,0
76895,-106.382978723404,4,2,1,75,0,0
82084,-96.153846153846,4,2,1,85,0,0
87111,-96.153846153846,4,2,1,80,0,0
97651,-119.047619047619,4,2,1,70,0,0
102841,-106.382978723404,4,2,1,70,0,0
108030,-106.382978723404,4,2,1,60,0,0
115651,-106.382978723404,4,2,1,70,0,0
121003,-106.382978723404,4,2,1,75,0,0
123597,-106.382978723404,4,2,1,85,0,0
126192,-96.153846153846,4,2,1,85,0,0
146949,-106.382978723404,4,2,1,75,0,0
152138,-96.153846153846,4,2,1,85,0,0
157165,-106.382978723404,4,2,1,70,0,0
166570,-106.382978723404,4,2,1,85,0,0
167706,-96.153846153846,4,2,1,85,0,0
178084,-106.382978723404,4,2,1,80,0,0
188462,-106.382978723404,4,2,1,90,0,0
189760,-106.382978723404,4,2,1,50,0,0
197543,-106.382978723404,4,2,1,70,0,0
200300,-106.382978723404,4,2,1,85,0,0
203057,-156.25,4,2,1,85,0,0
204516,-96.1538461538461,4,2,1,85,0,0
223489,-106.382978723404,4,2,1,75,0,0
228679,-96.153846153846,4,2,1,85,0,0
236624,-96.153846153846,4,2,1,90,0,0
238895,-96.153846153846,4,2,1,85,0,0
248300,-96.153846153846,4,2,1,90,0,0
249273,-96.153846153846,4,2,1,85,0,0
251868,-135.135135135135,4,2,1,70,0,0
253165,-714.285714285714,4,2,1,70,0,0
258516,-714.285714285714,4,2,1,5,0,0

[Colours]
Combo1 : 164,100,240
Combo2 : 230,110,150
Combo3 : 100,200,200
Combo4 : 130,120,255

[HitObjects]
491,206,1652,6,0,P|422:207|382:150,1,143.519999124023,6|0,1:2|0:0,0:0:0:0:
383,151,1976,1,8,0:0:0:0:
512,19,2138,2,0,P|483:59|468:142,1,95.6799994160156,6|0,1:2|0:0,0:0:0:0:
325,242,2462,5,8,0:0:0:0:
325,242,2543,1,8,0:0:0:0:
325,242,2624,2,0,B|248:210|221:292|231:300|240:308|207:416|121:359,1,272.320006648438,6|0,1:2|0:0,0:0:0:0:
8,264,3435,1,2,0:0:0:0:
8,264,3597,2,0,P|28:292|38:350,1,68.0800016621094,2|2,0:0|0:0,0:0:0:0:
100,195,3922,2,0,P|119:222|129:254,1,68.0800016621094,2|0,0:0|0:0,0:0:0:0:
0,39,4246,6,0,P|40:95|109:94,1,143.519999124023,6|0,1:2|0:0,0:0:0:0:
109,93,4570,1,8,0:0:0:0:
282,0,4733,2,0,P|253:38|239:83,1,95.6799994160156,6|0,1:2|0:0,0:0:0:0:
309,233,5057,1,8,0:0:0:0:
157,296,5219,6,0,B|261:352|297:230|282:221|265:211|312:91|409:157,1,340.400008310547,6|0,1:2|0:0,0:0:0:0:
450,209,6192,6,0,P|440:222|432:238,3,34.0400008310547,2|2|2|2,0:0|0:0|0:0|0:0,0:0:0:0:
495,284,6516,2,0,P|502:268|512:254,3,34.0400008310547,2|2|2|2,0:0|0:0|0:0|0:0,0:0:0:0:
358,320,6841,6,0,P|290:342|232:384,1,143.519999124023,4|0,1:2|0:0,0:0:0:0:
232,383,7165,2,0,P|193:355|192:309,1,95.6799994160156,10|0,0:0|0:0,0:0:0:0:
269,101,7489,1,2,1:2:0:0:
269,101,7651,1,2,1:2:0:0:
137,213,7814,1,8,0:0:0:0:
276,309,7976,6,0,P|244:219|186:143,1,191.359998832031,2|0,1:2|1:2,0:0:0:0:
61,18,8462,2,0,P|88:56|134:57,1,95.6799994160156,10|0,0:0|0:0,0:0:0:0:
199,13,8787,1,2,1:2:0:0:
199,13,8949,1,2,1:2:0:0:
90,209,9111,2,0,P|75:163|47:125,1,95.6799994160156,8|0,0:0|0:0,0:0:0:0:
323,226,9435,6,0,B|408:252|347:289|458:327,1,143.519999124023,0|0,1:2|0:0,0:0:0:0:
429,315,9760,2,0,P|467:287|468:241,1,95.6799994160156,10|0,0:0|0:0,0:0:0:0:
375,107,10084,1,2,1:2:0:0:
375,107,10246,1,2,1:2:0:0:
495,42,10408,1,8,0:0:0:0:
316,217,10570,6,0,B|213:252|274:305|152:338,1,191.359998832031,2|0,1:2|1:2,0:0:0:0:
27,148,11057,2,0,P|65:176|110:190,1,95.6799994160156,10|0,0:0|0:0,0:0:0:0:
181,157,11381,1,2,1:2:0:0:
181,157,11543,1,2,1:2:0:0:
53,380,11706,5,10,0:0:0:0:
25,359,11787,1,2,0:0:0:0:
12,330,11868,1,2,0:0:0:0:
12,296,11949,1,2,0:0:0:0:
29,268,12030,2,0,P|67:296|112:310,1,95.6799994160156,6|2,1:2|0:0,0:0:0:0:
268,107,12354,2,0,P|230:135|185:149,1,95.6799994160156,10|2,0:0|0:0,0:0:0:0:
119,108,12679,1,2,1:2:0:0:
246,236,12841,1,2,1:2:0:0:
129,384,13003,1,2,1:2:0:0:
246,236,13165,6,0,B|349:271|288:324|410:357,1,191.359998832031,10|0,0:0|1:2,0:0:0:0:
464,384,13570,1,2,0:0:0:0:
464,384,13651,2,0,P|473:350|489:319,3,47.8399997080078,10|2|2|2,0:0|0:0|0:0|0:0,0:0:0:0:
404,125,13976,1,2,1:2:0:0:
374,134,14057,1,2,0:0:0:0:
353,159,14138,1,2,1:2:0:0:
351,192,14219,1,2,0:0:0:0:
367,220,14300,2,0,P|389:211|412:206,1,47.8399997080078,10|2,0:0|0:0,0:0:0:0:
512,55,14462,2,0,P|489:64|466:69,1,47.8399997080078,2|2,0:0|0:0,0:0:0:0:
353,14,14624,5,10,0:0:0:0:
509,259,14787,1,10,0:0:0:0:
216,46,15111,1,10,0:0:0:0:
390,358,15435,1,10,0:0:0:0:
82,270,15760,5,10,0:0:0:0:
436,362,17219,6,0,P|387:336|387:241,1,154.559995283203,6|0,1:2|1:2,0:0:0:0:
445,157,17706,1,6,0:3:0:0:
445,157,17868,2,0,P|475:180|512:190,1,77.2799976416016,2|8,1:2|0:3,0:0:0:0:
394,55,18192,2,0,P|363:78|326:88,1,77.2799976416016,0|10,1:2|0:3,0:0:0:0:
283,153,18435,5,8,0:3:0:0:
283,153,18516,2,0,P|221:106|146:85,1,154.559995283203,2|0,1:2|1:2,0:0:0:0:
82,45,19003,1,2,0:0:0:0:
34,144,19165,2,0,P|0:117|8:72,1,77.2799976416016,2|0,1:2|0:0,0:0:0:0:
141,188,19489,2,0,P|118:219|108:256,1,77.2799976416016,0|10,1:2|0:0,0:0:0:0:
26,286,19733,5,8,0:0:0:0:
26,286,19814,2,0,P|52:335|147:335,1,154.559995283203,2|2,1:2|1:2,0:0:0:0:
223,242,20300,2,0,P|232:279|255:310,1,77.2799976416016,6|0,0:3|1:2,0:0:0:0:
237,384,20624,1,10,0:3:0:0:
307,208,20787,2,0,P|316:245|339:276,1,77.2799976416016,2|4,1:2|0:3,0:0:0:0:
411,323,21030,5,8,0:3:0:0:
411,323,21111,2,0,P|432:249|478:188,1,154.559995283203,0|0,1:2|1:2,0:0:0:0:
377,51,21597,2,0,P|404:85|449:77,1,77.2799976416016,0|0,0:0|1:2,0:0:0:0:
491,29,21922,1,2,0:0:0:0:
387,165,22084,2,0,P|350:174|319:197,1,77.2799976416016,2|10,1:2|0:0,0:0:0:0:
206,300,22408,6,0,P|157:274|157:179,1,154.559995283203,2|2,1:2|1:2,0:0:0:0:
264,133,22895,2,0,P|241:163|231:201,1,77.2799976416016,6|0,0:3|1:2,0:0:0:0:
183,31,23219,2,0,P|160:61|150:99,1,77.2799976416016,10|0,0:3|1:2,0:0:0:0:
61,195,23543,5,6,0:3:0:0:
61,195,23624,1,4,0:3:0:0:
61,195,23706,2,0,P|52:158|29:127,1,77.2799976416016,0|6,1:2|0:3,0:0:0:0:
148,236,24030,2,0,B|234:267|177:301|273:341,1,154.559995283203,2|0,1:2|1:2,0:0:0:0:
326,305,24516,1,2,0:0:0:0:
408,384,24679,2,0,P|442:357|434:312,1,77.2799976416016,2|2,1:2|0:0,0:0:0:0:
357,152,25003,6,0,P|335:182|325:220,1,77.2799976416016,2|8,1:2|0:0,0:0:0:0:
446,319,25327,1,10,1:2:0:0:
412,228,25489,1,10,0:0:0:0:
345,347,25651,1,10,1:2:0:0:
183,157,25814,1,10,0:0:0:0:
312,89,25976,1,8,1:2:0:0:
201,322,26138,5,14,0:0:0:0:
67,222,27111,5,10,0:0:0:0:
149,31,27273,1,10,0:0:0:0:
30,93,27435,1,10,0:0:0:0:
169,157,27597,6,0,B|270:189|199:237|319:283,1,172.95999736084,6|8,1:2|0:0,0:0:0:0:
335,333,28084,1,2,0:0:0:0:
485,230,28246,2,0,P|420:282|430:366,1,172.95999736084,2|8,1:2|0:0,0:0:0:0:
512,322,28733,1,2,0:0:0:0:
362,211,28895,6,0,P|339:127|289:58,1,172.95999736084,2|8,1:2|0:0,0:0:0:0:
422,96,29381,1,2,0:0:0:0:
269,189,29543,2,0,P|224:185|199:147,1,86.47999868042,2|0,1:2|0:0,0:0:0:0:
99,0,29868,1,10,0:0:0:0:
221,59,30030,1,2,3:2:0:0:
122,203,30192,6,0,B|29:237|103:291|-28:329,1,172.95999736084,2|10,1:2|0:0,0:0:0:0:
130,118,30679,2,0,P|88:106|54:80,1,86.47999868042,2|0,0:0|1:2,0:0:0:0:
216,255,31003,2,0,P|174:266|140:292,1,86.47999868042,2|8,0:0|0:0,0:0:0:0:
313,151,31327,5,2,0:0:0:0:
313,151,31408,1,2,0:0:0:0:
313,151,31489,2,0,P|366:179|350:307,1,172.95999736084,2|10,1:2|0:0,0:0:0:0:
300,378,31976,2,0,P|288:336|262:302,1,86.47999868042,2|0,0:0|1:2,0:0:0:0:
202,258,32300,1,2,1:2:0:0:
313,151,32462,1,10,0:0:0:0:
244,110,32624,1,2,0:0:0:0:
304,234,32787,6,0,P|376:226|408:158,1,129.71999802063,6|0,1:2|0:0,0:0:0:0:
406,183,33111,1,10,0:0:0:0:
512,317,33273,2,0,P|477:291|436:279,1,86.47999868042,6|0,1:2|0:0,0:0:0:0:
397,384,33597,1,2,1:2:0:0:
512,198,33760,1,10,0:0:0:0:
397,384,33922,6,0,P|364:357|362:315,1,86.47999868042,6|0,1:2|0:0,0:0:0:0:
435,199,34246,1,2,1:2:0:0:
350,102,34408,1,10,0:0:0:0:
435,199,34570,2,0,P|457:115|507:47,1,172.95999736084,6|2,1:2|1:2,0:0:0:0:
349,106,35057,1,10,0:0:0:0:
450,284,35219,1,2,0:0:0:0:
303,239,35381,6,0,B|210:273|284:327|153:365,1,172.95999736084,4|10,1:2|0:0,0:0:0:0:
24,247,35868,2,0,P|49:281|61:322,1,86.47999868042,2|0,1:2|0:0,0:0:0:0:
196,185,36192,2,0,P|170:219|158:260,1,86.47999868042,2|8,1:2|0:0,0:0:0:0:
79,119,36516,5,2,1:2:0:0:
79,119,36597,1,0,3:0:0:0:
79,119,36679,2,0,P|70:95|60:75,3,43.23999934021,0|0|0|0,3:0|3:0|1:2|3:0,0:0:0:0:
192,1,37003,2,0,P|182:20|175:40,3,43.23999934021,10|0|0|0,0:0|3:0|3:0|3:0,0:0:0:0:
227,152,37327,1,2,3:2:0:0:
244,179,37408,1,0,3:0:0:0:
272,195,37489,1,0,3:0:0:0:
305,196,37570,1,0,3:0:0:0:
334,182,37651,2,0,P|352:115|394:58,1,129.71999802063,10|0,0:0|3:0,0:0:0:0:
386,65,37976,5,6,1:2:0:0:
0,70,42516,5,10,0:0:0:0:
80,202,42679,1,0,1:2:0:0:
0,70,42841,1,8,0:0:0:0:
161,1,43165,6,0,P|136:35|124:76,1,86.47999868042,6|2,1:2|1:2,0:0:0:0:
64,125,43489,1,2,1:2:0:0:
157,243,43651,1,2,1:2:0:0:
157,243,43733,1,0,1:2:0:0:
157,243,43814,2,0,P|130:210|88:208,1,86.47999868042,8|2,0:0|1:2,0:0:0:0:
34,263,44138,1,2,0:0:0:0:
161,361,44300,6,0,P|195:335|237:323,1,86.47999868042,2|0,1:2|1:2,0:0:0:0:
346,384,44624,1,2,1:2:0:0:
346,384,44787,1,2,0:0:0:0:
434,252,44949,1,2,1:2:0:0:
315,185,45111,1,4,0:3:0:0:
315,185,45192,1,4,0:3:0:0:
315,185,45273,2,0,P|327:210|335:246,1,43.23999934021,10|8,0:3|0:3,0:0:0:0:
397,107,45435,1,10,0:0:0:0:
221,255,45597,6,0,P|169:240|175:117,1,172.95999736084,6|2,1:2|1:2,0:0:0:0:
316,62,46084,1,10,0:0:0:0:
177,1,46246,2,0,P|226:71|249:154,1,172.95999736084,6|2,1:2|1:2,0:0:0:0:
342,313,46733,1,10,0:0:0:0:
387,135,46895,6,0,B|294:169|368:223|237:261,1,172.95999736084,6|2,1:2|1:2,0:0:0:0:
109,168,47381,1,10,0:0:0:0:
145,295,47543,2,0,P|156:253|182:218,1,86.47999868042,6|0,1:2|0:0,0:0:0:0:
247,172,47868,1,0,1:2:0:0:
83,28,48030,5,10,0:0:0:0:
93,61,48111,1,2,0:0:0:0:
118,85,48192,1,10,0:3:0:0:
151,94,48273,1,2,0:0:0:0:
185,86,48354,2,0,P|219:61|261:49,1,86.47999868042,6|8,1:2|0:0,0:0:0:0:
320,0,48597,1,8,0:0:0:0:
320,0,48679,1,2,1:2:0:0:
417,125,48841,1,10,0:0:0:0:
421,104,48922,1,8,0:0:0:0:
431,85,49003,1,0,1:2:0:0:
302,180,49165,2,0,P|313:202|321:230,2,43.23999934021,10|8|0,0:0|0:0|1:2,0:0:0:0:
431,363,49489,5,10,0:0:0:0:
431,363,49570,1,8,0:0:0:0:
431,363,49651,2,0,P|396:337|354:325,1,86.47999868042,0|10,1:2|0:0,0:0:0:0:
291,368,49895,1,8,0:0:0:0:
291,368,49976,2,0,P|284:347|274:328,1,43.23999934021,2|0,1:2|0:0,0:0:0:0:
405,215,50138,2,0,P|395:234|388:254,1,43.23999934021,10|8,0:0|0:0,0:0:0:0:
262,130,50300,1,2,1:2:0:0:
278,95,50381,1,8,0:0:0:0:
310,73,50462,1,8,0:0:0:0:
348,71,50543,1,8,0:0:0:0:
383,88,50624,2,0,P|373:107|366:127,3,43.23999934021,2|8|8|8,1:2|0:0|0:0|0:0,0:0:0:0:
210,216,50949,5,6,1:2:0:0:
110,16,51111,2,0,P|144:41|185:53,1,86.47999868042,0|8,1:2|0:0,0:0:0:0:
162,299,51435,5,2,1:2:0:0:
262,99,51597,2,0,P|227:124|186:136,1,86.47999868042,2|0,1:2|0:0,0:0:0:0:
211,382,51922,5,10,0:0:0:0:
111,182,52084,2,0,P|145:207|186:219,1,86.47999868042,2|0,1:2|0:0,0:0:0:0:
259,193,52408,1,2,1:2:0:0:
371,384,52570,1,10,0:0:0:0:
226,302,52733,1,2,0:0:0:0:
362,221,52895,2,0,P|336:255|324:296,1,86.47999868042,2|0,1:2|1:2,0:0:0:0:
251,104,53219,2,0,P|276:69|288:28,1,86.47999868042,14|0,0:0|0:0,0:0:0:0:
378,102,53543,5,10,0:0:0:0:
161,204,53706,1,10,0:0:0:0:
154,191,54030,5,10,0:0:0:0:
371,293,54193,1,10,0:0:0:0:
375,282,54516,5,10,0:0:0:0:
158,384,54679,1,10,0:0:0:0:
242,256,55003,5,10,0:0:0:0:
294,384,55165,1,10,0:0:0:0:
365,86,56138,5,4,1:2:0:0:
451,255,56300,1,2,0:0:0:0:
505,113,56462,1,10,0:0:0:0:
337,234,56624,1,2,0:0:0:0:
281,43,56787,2,0,P|319:71|364:85,1,95.6799994160156,2|0,1:2|1:2,0:0:0:0:
431,46,57111,1,10,0:0:0:0:
342,246,57273,6,0,P|252:259|203:183,1,191.359998832031,2|2,1:2|1:2,0:0:0:0:
248,67,57760,1,10,0:0:0:0:
53,142,57922,1,2,0:0:0:0:
98,13,58084,2,0,P|126:51|140:96,1,95.6799994160156,2|0,1:2|1:2,0:0:0:0:
229,224,58408,1,8,0:0:0:0:
88,309,58570,6,0,P|136:234|254:267,1,191.359998832031,2|2,1:2|1:2,0:0:0:0:
396,96,59057,2,0,P|357:124|312:138,1,95.6799994160156,10|2,0:0|0:0,0:0:0:0:
256,91,59381,1,2,1:2:0:0:
256,91,59543,1,0,1:2:0:0:
368,236,59706,1,10,0:0:0:0:
213,352,59868,6,0,B|110:317|171:264|49:231,1,191.359998832031,2|0,1:2|1:2,0:0:0:0:
254,100,60354,2,0,P|225:138|211:183,1,95.6799994160156,10|0,0:0|0:0,0:0:0:0:
121,119,60679,1,2,1:2:0:0:
121,119,60841,1,0,1:2:0:0:
277,294,61003,2,0,P|313:263|313:217,1,95.6799994160156,10|0,0:0|0:0,0:0:0:0:
165,294,61327,6,0,P|96:314|39:357,1,143.519999124023,2|0,1:2|0:0,0:0:0:0:
40,358,61651,2,0,P|1:331|0:285,1,95.6799994160156,14|0,0:0|0:0,0:0:0:0:
125,158,61976,1,2,1:2:0:0:
5,41,62138,1,0,1:2:0:0:
125,158,62300,2,0,P|163:129|208:115,1,95.6799994160156,14|0,0:0|0:0,0:0:0:0:
383,21,62624,6,0,P|327:49|341:152,1,143.519999124023,6|0,1:2|0:0,0:0:0:0:
319,124,62949,1,10,0:0:0:0:
404,275,63111,2,0,P|418:229|447:191,1,95.6799994160156,6|0,1:2|0:0,0:0:0:0:
506,146,63435,1,2,1:2:0:0:
313,214,63597,1,10,0:0:0:0:
458,384,63760,1,2,0:0:0:0:
313,214,63922,6,0,B|210:249|271:302|149:335,1,191.359998832031,6|10,1:2|0:0,0:0:0:0:
13,143,64408,2,0,P|50:171|96:186,1,95.6799994160156,2|0,1:2|0:0,0:0:0:0:
44,381,64733,2,0,P|5:354|4:308,1,95.6799994160156,2|8,1:2|0:0,0:0:0:0:
173,242,65057,6,0,B|276:277|215:330|337:363,1,191.359998832031,6|0,1:2|1:2,0:0:0:0:
318,357,65462,1,0,1:2:0:0:
318,357,65543,1,8,0:0:0:0:
477,272,65706,1,4,0:3:0:0:
347,207,65868,1,10,0:0:0:0:
364,227,65949,1,8,0:0:0:0:
375,251,66030,1,0,1:2:0:0:
473,121,66192,5,10,0:0:0:0:
464,80,66273,1,8,0:0:0:0:
436,48,66354,1,0,1:2:0:0:
395,36,66435,1,0,1:2:0:0:
354,46,66516,2,0,P|316:75|270:89,1,95.6799994160156,6|2,1:2|0:0,0:0:0:0:
201,61,66841,1,10,0:0:0:0:
299,196,67003,1,2,0:0:0:0:
156,301,67165,2,0,P|170:255|199:217,1,95.6799994160156,2|0,1:2|1:2,0:0:0:0:
131,115,67489,1,10,0:0:0:0:
315,292,67651,6,0,B|418:257|357:204|479:171,1,191.359998832031,2|2,1:2|1:2,0:0:0:0:
334,84,68138,1,10,0:0:0:0:
334,84,68300,1,2,0:0:0:0:
467,4,68462,2,0,P|438:41|424:87,1,95.6799994160156,2|0,1:2|1:2,0:0:0:0:
353,0,68787,1,10,0:0:0:0:
308,208,68949,6,0,B|205:243|266:296|144:329,1,191.359998832031,2|2,1:2|1:2,0:0:0:0:
34,84,69435,1,10,0:0:0:0:
153,203,69597,1,2,0:0:0:0:
0,328,69760,2,0,P|14:282|43:244,1,95.6799994160156,2|0,1:2|1:2,0:0:0:0:
29,167,70084,1,10,0:0:0:0:
159,363,70246,6,0,P|219:380|317:293,1,191.359998832031,2|0,1:2|1:2,0:0:0:0:
399,122,70733,2,0,P|427:159|441:205,1,95.6799994160156,10|0,0:0|0:0,0:0:0:0:
375,384,71057,1,2,1:2:0:0:
375,384,71219,1,2,1:2:0:0:
503,342,71381,2,0,P|457:328|419:299,1,95.6799994160156,10|0,0:0|0:0,0:0:0:0:
268,93,71706,6,0,P|319:139|313:209,1,143.519999124023,2|0,1:2|0:0,0:0:0:0:
313,209,72030,2,0,P|267:222|229:252,1,95.6799994160156,14|0,0:0|0:0,0:0:0:0:
134,383,72354,1,2,1:2:0:0:
6,240,72516,1,0,1:2:0:0:
152,171,72679,2,0,P|123:208|109:254,1,95.6799994160156,14|0,0:0|0:0,0:0:0:0:
0,30,73003,6,0,P|36:84|125:77,1,143.519999124023,6|0,1:2|0:0,0:0:0:0:
109,87,73327,1,10,0:0:0:0:
282,0,73489,2,0,P|253:37|239:83,1,95.6799994160156,6|0,1:2|0:0,0:0:0:0:
354,322,73814,1,0,1:2:0:0:
236,219,73976,1,10,0:0:0:0:
362,124,74138,1,2,0:0:0:0:
236,219,74300,6,0,B|133:254|194:307|72:340,1,191.359998832031,6|10,1:2|0:0,0:0:0:0:
0,196,74787,2,0,P|37:225|83:239,1,95.6799994160156,2|0,1:2|0:0,0:0:0:0:
325,347,75111,2,0,P|288:318|242:304,1,95.6799994160156,2|8,1:2|0:0,0:0:0:0:
108,63,75435,6,0,B|142:55|166:20|166:20|249:33|234:113,1,191.359998832031,6|0,1:2|1:2,0:0:0:0:
199,214,75841,1,0,1:2:0:0:
199,214,75922,2,0,P|185:168|156:131,1,95.6799994160156,10|8,0:0|0:3,0:0:0:0:
377,30,76246,2,0,P|347:67|334:112,1,95.6799994160156,10|4,0:0|0:3,0:0:0:0:
376,183,76570,1,10,0:3:0:0:
376,183,76733,1,10,0:3:0:0:
270,332,76895,6,0,P|331:264|420:301,1,172.95999736084,6|0,1:2|1:2,0:0:0:0:
449,141,77381,2,0,P|412:171|367:184,1,86.47999868042,6|0,0:3|1:2,0:0:0:0:
248,85,77706,1,4,0:3:0:0:
292,180,77868,2,0,P|306:139|333:106,1,86.47999868042,2|8,1:2|0:0,0:0:0:0:
333,106,78111,1,8,0:0:0:0:
333,106,78192,1,0,1:2:0:0:
191,252,78354,6,0,P|122:203|152:108,1,172.95999736084,10|8,0:3|0:3,0:0:0:0:
142,132,78760,1,8,0:3:0:0:
142,132,78841,2,0,P|179:162|224:175,1,86.47999868042,2|0,1:2|0:0,0:0:0:0:
299,295,79165,1,2,1:2:0:0:
401,161,79327,1,8,0:0:0:0:
270,99,79489,6,0,P|300:136|313:181,1,86.47999868042,0|0,1:2|0:0,0:0:0:0:
410,296,79814,2,0,P|444:263|423:213,1,86.47999868042,2|4,1:2|0:3,0:0:0:0:
260,275,80138,2,0,B|157:310|240:362|96:396,1,172.95999736084,2|2,1:2|1:2,0:0:0:0:
129,218,80624,5,10,0:0:0:0:
129,218,80706,1,8,0:0:0:0:
129,218,80787,1,0,1:2:0:0:
6,107,80949,1,10,0:3:0:0:
26,231,81111,2,0,P|40:190|67:157,1,86.47999868042,2|6,1:2|0:3,0:0:0:0:
68,0,81435,2,0,P|58:21|44:40,3,43.23999934021,4|4|4|4,1:3|0:3|0:3|0:3,0:0:0:0:
203,188,81760,5,8,1:3:0:0:
241,171,81841,1,8,0:3:0:0:
266,137,81922,1,8,0:3:0:0:
267,95,82003,1,8,0:3:0:0:
246,58,82084,2,0,P|208:87|163:100,1,95.6799994160156,4|0,1:2|0:0,0:0:0:0:
343,312,82408,2,0,P|305:283|260:270,1,95.6799994160156,2|0,0:0|0:0,0:0:0:0:
351,189,82733,1,2,0:0:0:0:
259,384,82895,1,4,0:3:0:0:
98,222,83057,1,10,0:0:0:0:
246,149,83219,6,0,P|188:224|156:314,1,191.359998832031,6|4,1:2|0:3,0:0:0:0:
66,77,83706,2,0,P|104:106|149:119,1,95.6799994160156,6|8,0:3|0:3,0:0:0:0:
270,333,84030,1,2,0:0:0:0:
103,214,84192,1,4,0:3:0:0:
227,67,84354,1,10,0:0:0:0:
122,381,84516,6,0,P|190:306|289:347,1,191.359998832031,6|8,1:2|0:0,0:0:0:0:
416,118,85003,1,8,0:0:0:0:
271,191,85165,1,8,0:0:0:0:
379,342,85327,1,8,0:0:0:0:
320,96,85489,1,10,0:0:0:0:
474,343,85651,1,10,0:0:0:0:
320,96,85814,1,10,0:0:0:0:
490,150,85976,6,0,P|464:215|373:207,1,143.519999124023,14|0,0:2|0:0,0:0:0:0:
397,223,86300,1,10,0:0:0:0:
512,0,86462,1,10,0:0:0:0:
315,95,86787,1,2,0:0:0:0:
512,384,87111,6,0,P|453:314|337:357,1,191.359998832031,6|0,1:2|1:2,0:0:0:0:
235,151,87597,2,0,P|273:180|318:193,1,95.6799994160156,10|0,0:0|0:0,0:0:0:0:
233,269,87922,1,2,1:2:0:0:
233,269,88084,1,2,1:2:0:0:
324,88,88246,1,10,0:0:0:0:
171,0,88408,6,0,B|68:35|129:88|7:121,1,191.359998832031,2|0,1:2|1:2,0:0:0:0:
0,22,88895,1,10,0:0:0:0:
171,142,89057,1,0,0:0:0:0:
171,142,89138,1,0,0:0:0:0:
171,142,89219,1,2,1:2:0:0:
14,304,89381,1,2,1:2:0:0:
63,184,89543,1,8,0:0:0:0:
178,326,89706,6,0,B|283:297|220:238|342:205,1,191.359998832031,2|0,1:2|1:2,0:0:0:0:
427,342,90192,2,0,P|381:348|354:311,1,95.6799994160156,10|0,0:0|0:0,0:0:0:0:
467,127,90516,1,2,1:2:0:0:
349,80,90679,1,2,1:2:0:0:
429,247,90841,1,10,0:0:0:0:
248,223,91003,6,0,P|293:209|331:180,1,95.6799994160156,6|0,1:2|0:0,0:0:0:0:
405,176,91327,1,2,1:2:0:0:
218,52,91489,2,0,P|247:90|260:135,1,95.6799994160156,10|2,0:0|0:0,0:0:0:0:
216,337,91814,1,10,0:0:0:0:
353,197,91976,1,2,1:2:0:0:
161,114,92138,1,10,0:0:0:0:
161,114,92219,1,8,0:0:0:0:
161,114,92300,2,0,P|176:134|184:187,1,47.8399997080078,0|0,1:2|1:2,0:0:0:0:
109,380,92462,6,0,P|71:351|25:337,1,95.6799994160156,4|0,1:2|1:2,0:0:0:0:
62,269,92706,1,0,1:2:0:0:
62,269,92787,2,0,P|107:282|145:311,1,95.6799994160156,14|0,0:0|0:0,0:0:0:0:
333,235,93111,1,2,1:2:0:0:
269,384,93273,1,2,1:2:0:0:
195,166,93435,1,10,0:0:0:0:
358,351,93597,6,0,P|448:364|507:294,1,191.359998832031,2|0,1:2|1:2,0:0:0:0:
362,155,94084,2,0,P|391:192|404:238,1,95.6799994160156,10|0,0:0|0:0,0:0:0:0:
512,9,94408,2,0,P|474:38|428:51,1,95.6799994160156,2|2,1:2|1:2,0:0:0:0:
362,15,94733,1,10,0:0:0:0:
510,177,94895,5,6,1:2:0:0:
358,351,95057,1,2,0:0:0:0:
236,171,95219,1,2,1:2:0:0:
354,131,95381,1,10,0:0:0:0:
231,300,95543,1,2,1:2:0:0:
456,384,95706,1,2,0:0:0:0:
349,238,95868,1,2,1:2:0:0:
208,384,96030,1,10,0:0:0:0:
83,194,96192,6,0,P|120:223|166:236,1,95.6799994160156,6|0,1:2|0:0,0:0:0:0:
253,134,96516,1,8,0:0:0:0:
0,279,96679,1,8,0:0:0:0:
256,136,96841,1,8,0:0:0:0:
512,384,97651,6,0,P|468:324|395:331,1,154.559995283203,6|8,1:2|0:0,0:0:0:0:
303,383,98138,1,2,1:2:0:0:
303,383,98219,1,0,1:2:0:0:
303,383,98300,2,0,B|219:349|277:308|178:281,1,154.559995283203,2|8,1:2|0:0,0:0:0:0:
46,214,98787,1,2,0:0:0:0:
95,328,98949,6,0,P|116:254|162:193,1,154.559995283203,2|8,1:2|0:0,0:0:0:0:
242,34,99435,1,2,0:0:0:0:
162,56,99597,2,0,P|178:110|285:119,1,154.559995283203,2|10,1:2|0:0,0:0:0:0:
318,71,100084,1,2,3:2:0:0:
440,201,100246,6,0,P|461:127|507:66,1,154.559995283203,2|10,1:2|0:0,0:0:0:0:
369,0,100733,2,0,P|392:31|402:68,1,77.2799976416016,2|0,0:0|1:2,0:0:0:0:
371,139,101057,1,2,0:0:0:0:
497,243,101219,2,0,P|470:209|425:217,1,77.2799976416016,8|2,0:0|0:0,0:0:0:0:
318,300,101543,6,0,B|234:266|292:225|193:198,1,154.559995283203,2|10,1:2|0:0,0:0:0:0:
87,107,102030,2,0,P|110:138|120:175,1,77.2799976416016,2|0,0:0|1:2,0:0:0:0:
76,236,102354,1,2,1:2:0:0:
193,102,102516,1,10,0:0:0:0:
58,10,102679,1,2,0:0:0:0:
193,102,102841,6,0,P|234:90|268:63,1,86.47999868042,6|0,1:2|0:0,0:0:0:0:
202,191,103165,1,10,0:0:0:0:
314,311,103327,2,0,B|216:276|296:221|164:185,1,172.95999736084,6|2,1:2|1:2,0:0:0:0:
162,283,103814,1,10,0:0:0:0:
372,146,103976,6,0,P|345:180|333:221,1,86.47999868042,6|0,1:2|0:0,0:0:0:0:
390,272,104300,1,2,1:2:0:0:
261,384,104462,1,10,0:0:0:0:
310,308,104624,2,0,P|336:342|348:383,1,86.47999868042,6|0,1:2|0:0,0:0:0:0:
447,219,104949,1,2,1:2:0:0:
512,384,105111,2,0,P|477:357|436:345,1,86.47999868042,10|2,0:0|0:0,0:0:0:0:
275,231,105435,6,0,B|184:271|257:321|125:357,1,172.95999736084,4|10,1:2|0:0,0:0:0:0:
35,206,105922,2,0,P|69:232|110:244,1,86.47999868042,2|0,1:2|0:0,0:0:0:0:
37,374,106246,2,0,P|4:347|2:305,1,86.47999868042,2|8,1:2|0:0,0:0:0:0:
115,155,106570,5,2,1:2:0:0:
115,155,106651,1,0,3:0:0:0:
115,155,106733,2,0,P|130:130|137:103,3,43.23999934021,0|0|0|0,3:0|3:0|1:2|3:0,0:0:0:0:
34,199,107057,2,0,P|49:224|56:251,3,43.23999934021,10|0|0|0,0:0|3:0|3:0|3:0,0:0:0:0:
40,371,107381,1,2,3:2:0:0:
51,343,107462,1,0,3:0:0:0:
74,324,107543,1,0,3:0:0:0:
104,318,107624,1,0,3:0:0:0:
132,327,107706,2,0,P|189:367|275:387,1,129.71999802063,10|0,0:0|3:0,0:0:0:0:
245,384,108030,5,6,1:2:0:0:
435,290,112570,5,10,0:0:0:0:
512,174,112733,1,0,1:2:0:0:
435,290,112895,1,8,0:0:0:0:
179,10,113219,6,0,P|213:36|254:48,1,86.47999868042,6|2,1:2|1:2,0:0:0:0:
324,10,113543,1,2,1:2:0:0:
395,177,113706,1,2,1:2:0:0:
395,177,113787,1,0,1:2:0:0:
395,177,113868,2,0,P|353:180|326:148,1,86.47999868042,8|2,0:0|1:2,0:0:0:0:
376,88,114192,1,2,0:0:0:0:
246,227,114354,6,0,P|234:185|207:151,1,86.47999868042,2|0,1:2|1:2,0:0:0:0:
217,76,114679,1,2,1:2:0:0:
217,76,114841,1,2,0:0:0:0:
149,264,115003,2,0,P|137:222|110:188,1,86.47999868042,2|4,1:2|0:3,0:0:0:0:
58,135,115246,1,4,0:3:0:0:
58,135,115327,2,0,P|42:158|31:187,1,43.23999934021,10|8,0:3|0:3,0:0:0:0:
116,54,115489,1,10,0:0:0:0:
16,332,115651,6,0,P|86:258|170:299,1,172.95999736084,6|2,1:2|1:2,0:0:0:0:
105,351,116138,1,10,0:0:0:0:
287,232,116300,2,0,P|236:301|214:384,1,172.95999736084,6|2,1:2|1:2,0:0:0:0:
152,262,116787,1,10,0:0:0:0:
320,370,116949,6,0,P|402:378|454:313,1,172.95999736084,6|2,1:2|1:2,0:0:0:0:
359,178,117435,1,10,0:0:0:0:
491,142,117597,2,0,B|398:176|472:230|341:268,1,172.95999736084,6|0,1:2|1:2,0:0:0:0:
233,363,118084,5,10,0:0:0:0:
206,343,118165,1,2,0:0:0:0:
192,314,118246,1,10,0:3:0:0:
194,281,118327,1,2,0:0:0:0:
210,254,118408,2,0,P|244:280|285:292,1,86.47999868042,6|8,1:2|0:0,0:0:0:0:
340,349,118651,1,8,0:0:0:0:
340,349,118733,1,2,1:2:0:0:
512,226,118895,1,10,0:0:0:0:
498,253,118976,1,8,0:0:0:0:
491,282,119057,1,0,1:2:0:0:
368,169,119219,2,0,P|378:188|385:208,2,43.23999934021,10|8|0,0:0|0:0|1:2,0:0:0:0:
511,48,119543,5,10,0:0:0:0:
511,48,119624,1,8,0:0:0:0:
511,48,119706,2,0,P|477:74|435:86,1,86.47999868042,0|10,1:2|0:0,0:0:0:0:
376,39,119949,1,8,0:0:0:0:
376,39,120030,2,0,P|366:58|359:78,1,43.23999934021,2|0,1:2|0:0,0:0:0:0:
464,217,120192,2,0,P|471:196|481:177,1,43.23999934021,10|8,0:0|0:0,0:0:0:0:
320,244,120354,5,2,1:2:0:0:
284,220,120435,1,8,0:0:0:0:
242,223,120516,1,8,0:0:0:0:
212,253,120597,1,8,0:0:0:0:
206,295,120679,1,2,1:2:0:0:
201,337,120760,1,8,0:0:0:0:
171,367,120841,1,8,0:0:0:0:
128,371,120922,1,8,0:0:0:0:
92,347,121003,5,6,1:2:0:0:
16,172,121165,2,0,P|50:198|91:210,1,86.47999868042,0|8,1:2|0:0,0:0:0:0:
291,61,121489,5,2,1:2:0:0:
219,205,121651,2,0,P|207:163|180:129,1,86.47999868042,2|0,1:2|0:0,0:0:0:0:
358,320,121976,5,10,0:0:0:0:
445,148,122138,2,0,P|410:174|369:186,1,86.47999868042,2|0,1:2|0:0,0:0:0:0:
468,255,122462,1,2,1:2:0:0:
369,88,122624,1,10,0:0:0:0:
512,0,122787,1,2,0:0:0:0:
369,88,122949,2,0,P|334:62|293:50,1,86.47999868042,2|0,1:2|1:2,0:0:0:0:
151,228,123273,2,0,P|185:202|226:190,1,86.47999868042,14|0,0:0|0:0,0:0:0:0:
208,27,123597,5,10,0:0:0:0:
284,263,123760,1,10,0:0:0:0:
273,270,124084,5,10,0:0:0:0:
349,34,124247,1,10,0:0:0:0:
337,28,124570,5,10,0:0:0:0:
413,264,124733,1,10,0:0:0:0:
492,106,125057,5,10,0:0:0:0:
353,150,125220,1,10,0:0:0:0:
106,29,126192,5,4,1:2:0:0:
0,214,126354,1,2,0:0:0:0:
170,144,126516,1,10,0:0:0:0:
247,338,126679,1,2,0:0:0:0:
327,185,126841,2,0,P|289:213|244:227,1,95.6799994160156,2|0,1:2|1:2,0:0:0:0:
337,284,127165,1,10,0:0:0:0:
158,384,127327,6,0,B|53:354|119:293|-6:263,1,191.359998832031,2|2,1:2|1:2,0:0:0:0:
119,194,127814,1,10,0:0:0:0:
0,368,127976,1,2,0:0:0:0:
119,194,128138,2,0,P|147:232|161:277,1,95.6799994160156,2|0,1:2|1:2,0:0:0:0:
230,166,128462,1,8,0:0:0:0:
0,105,128624,6,0,P|90:114|145:23,1,191.359998832031,2|2,1:2|1:2,0:0:0:0:
50,1,129111,1,10,0:0:0:0:
130,187,129273,1,2,0:0:0:0:
309,97,129435,2,0,P|263:83|225:54,1,95.6799994160156,2|0,1:2|1:2,0:0:0:0:
330,220,129760,1,10,0:0:0:0:
188,347,129922,6,0,B|293:317|227:256|352:226,1,191.359998832031,2|0,1:2|1:2,0:0:0:0:
499,132,130408,2,0,P|425:185|433:276,1,191.359998832031,10|2,0:0|1:2,0:0:0:0:
512,226,130895,1,0,1:2:0:0:
347,74,131057,2,0,P|392:60|430:31,1,95.6799994160156,10|0,0:0|0:0,0:0:0:0:
242,270,131381,6,0,P|185:226|117:205,1,143.519999124023,2|0,1:2|0:0,0:0:0:0:
117,205,131706,2,0,P|111:158|145:127,1,95.6799994160156,14|0,0:0|0:0,0:0:0:0:
364,0,132030,1,2,1:2:0:0:
276,169,132192,1,0,1:2:0:0:
169,9,132354,2,0,P|208:37|253:51,1,95.6799994160156,14|0,0:0|0:0,0:0:0:0:
512,0,132679,6,0,P|443:4|409:64,1,143.519999124023,6|0,1:2|0:0,0:0:0:0:
409,64,133003,1,10,0:0:0:0:
469,213,133165,2,0,P|484:167|512:129,1,95.6799994160156,6|0,1:2|0:0,0:0:0:0:
349,205,133489,1,2,1:2:0:0:
465,355,133651,1,10,0:0:0:0:
349,205,133814,1,2,0:0:0:0:
212,329,133976,6,0,B|107:299|173:238|48:208,1,191.359998832031,6|10,1:2|0:0,0:0:0:0:
260,145,134462,2,0,P|232:183|217:229,1,95.6799994160156,2|0,1:2|0:0,0:0:0:0:
89,384,134787,2,0,P|53:353|56:307,1,95.6799994160156,2|8,1:2|0:0,0:0:0:0:
314,234,135111,6,0,P|412:264|496:324,1,191.359998832031,6|0,1:2|1:2,0:0:0:0:
484,314,135516,1,0,1:2:0:0:
484,314,135597,1,8,0:0:0:0:
371,150,135760,1,4,0:3:0:0:
512,69,135922,1,10,0:0:0:0:
495,89,136003,1,8,0:0:0:0:
483,114,136084,1,0,1:2:0:0:
353,383,136246,5,10,0:0:0:0:
310,361,136327,1,8,0:0:0:0:
285,321,136408,1,0,1:2:0:0:
283,274,136489,1,0,1:2:0:0:
307,233,136570,2,0,P|345:261|391:276,1,95.6799994160156,6|2,1:2|0:0,0:0:0:0:
472,3,136895,1,10,0:0:0:0:
354,108,137057,1,2,0:0:0:0:
492,184,137219,2,0,P|477:138|449:100,1,95.6799994160156,2|0,1:2|1:2,0:0:0:0:
396,270,137543,1,10,0:0:0:0:
229,90,137706,6,0,B|124:120|190:181|65:211,1,191.359998832031,2|2,1:2|1:2,0:0:0:0:
18,77,138192,1,10,0:0:0:0:
182,175,138354,1,2,0:0:0:0:
58,358,138516,2,0,P|130:281|231:333,1,191.359998832031,2|10,1:2|0:0,0:0:0:0:
421,185,139003,6,0,P|368:264|341:355,1,191.359998832031,2|2,1:2|1:2,0:0:0:0:
285,215,139489,1,10,0:0:0:0:
474,313,139651,1,2,0:0:0:0:
285,215,139814,2,0,P|246:243|201:257,1,95.6799994160156,2|0,1:2|1:2,0:0:0:0:
337,110,140138,1,10,0:0:0:0:
186,5,140300,6,0,B|291:35|225:96|350:126,1,191.359998832031,2|0,1:2|1:2,0:0:0:0:
493,17,140787,2,0,P|465:56|451:101,1,95.6799994160156,10|0,0:0|0:0,0:0:0:0:
365,20,141111,1,2,1:2:0:0:
365,20,141273,1,2,1:2:0:0:
436,215,141435,2,0,P|483:219|512:183,1,95.6799994160156,10|0,0:0|0:0,0:0:0:0:
263,158,141760,6,0,P|194:179|138:222,1,143.519999124023,2|0,1:2|0:0,0:0:0:0:
138,222,142085,2,0,P|103:191|107:145,1,95.6799994160156,14|0,0:0|0:0,0:0:0:0:
284,257,142408,1,2,1:2:0:0:
153,383,142570,1,0,1:2:0:0:
284,257,142733,2,0,P|322:284|368:299,1,95.6799994160156,14|0,0:0|0:0,0:0:0:0:
512,115,143057,6,0,P|445:177|380:149,1,143.519999124023,6|0,1:2|0:0,0:0:0:0:
401,167,143381,1,10,0:0:0:0:
302,7,143543,2,0,P|340:34|386:49,1,95.6799994160156,6|0,1:2|0:0,0:0:0:0:
452,6,143868,1,0,1:2:0:0:
315,126,144030,1,10,0:0:0:0:
442,275,144192,1,2,0:0:0:0:
315,126,144354,6,0,B|210:156|276:217|151:247,1,191.359998832031,6|10,1:2|0:0,0:0:0:0:
74,110,144841,2,0,P|112:137|158:152,1,95.6799994160156,2|0,1:2|0:0,0:0:0:0:
62,368,145165,2,0,P|100:340|146:325,1,95.6799994160156,2|8,1:2|0:0,0:0:0:0:
378,377,145489,6,0,P|315:347|345:216,1,191.359998832031,6|0,1:2|1:2,0:0:0:0:
356,164,145895,1,0,1:2:0:0:
356,164,145976,2,0,P|383:202|398:248,1,95.6799994160156,10|8,0:0|0:3,0:0:0:0:
470,67,146300,2,0,P|497:105|512:151,1,95.6799994160156,10|4,0:0|0:3,0:0:0:0:
382,72,146624,1,10,0:3:0:0:
382,72,146787,1,10,0:3:0:0:
293,240,146949,6,0,B|190:205|273:153|129:119,1,172.95999736084,6|0,1:2|1:2,0:0:0:0:
63,271,147435,2,0,P|100:241|145:228,1,86.47999868042,6|0,0:3|1:2,0:0:0:0:
56,156,147760,1,4,0:3:0:0:
163,363,147922,2,0,P|194:336|191:294,1,86.47999868042,2|8,1:2|0:0,0:0:0:0:
191,294,148165,1,8,0:0:0:0:
191,294,148246,1,0,1:2:0:0:
328,384,148408,6,0,P|395:329|477:305,1,172.95999736084,10|8,0:3|0:3,0:0:0:0:
485,312,148814,1,8,0:3:0:0:
485,312,148895,2,0,P|488:270|457:242,1,86.47999868042,2|0,1:2|0:0,0:0:0:0:
335,168,149219,1,2,1:2:0:0:
428,52,149381,1,8,0:0:0:0:
335,168,149543,6,0,B|232:203|320:252|171:289,1,172.95999736084,0|2,1:2|1:2,0:0:0:0:
165,340,150030,1,4,0:3:0:0:
11,222,150192,2,0,P|38:254|52:295,1,86.47999868042,2|8,1:2|0:3,0:0:0:0:
118,201,150516,1,2,1:2:0:0:
0,84,150679,5,10,0:0:0:0:
0,84,150760,1,8,0:0:0:0:
0,84,150841,2,0,P|28:114|69:111,1,86.47999868042,0|10,1:2|0:3,0:0:0:0:
220,0,151165,2,0,P|193:32|179:73,1,86.47999868042,2|6,1:2|0:3,0:0:0:0:
287,212,151489,2,0,P|276:182|253:155,3,43.23999934021,4|4|4|4,1:3|0:3|0:3|0:3,0:0:0:0:
155,330,151814,5,8,1:3:0:0:
115,316,151895,1,8,0:3:0:0:
87,283,151976,1,8,0:3:0:0:
82,240,152057,1,8,0:3:0:0:
97,201,152138,2,0,P|135:230|180:243,1,95.6799994160156,4|0,1:2|0:0,0:0:0:0:
337,50,152462,2,0,P|299:79|254:92,1,95.6799994160156,2|0,0:0|0:0,0:0:0:0:
191,49,152787,1,2,0:0:0:0:
302,189,152949,1,4,0:3:0:0:
167,325,153111,1,10,0:0:0:0:
302,189,153273,6,0,B|407:219|341:280|466:310,1,191.359998832031,6|4,1:2|0:3,0:0:0:0:
325,368,153760,2,0,P|289:338|288:291,1,95.6799994160156,6|8,0:3|0:3,0:0:0:0:
500,121,154084,2,0,P|471:159|458:204,1,95.6799994160156,2|4,0:0|0:3,0:0:0:0:
313,63,154408,1,10,0:0:0:0:
236,229,154570,6,0,B|131:259|197:320|72:350,1,191.359998832031,6|8,1:2|0:0,0:0:0:0:
142,113,155057,1,8,0:0:0:0:
0,59,155219,1,8,0:0:0:0:
80,255,155381,1,8,0:0:0:0:
267,108,155543,1,10,0:0:0:0:
136,9,155706,1,10,0:0:0:0:
267,108,155868,1,10,0:0:0:0:
438,0,156030,6,0,P|394:57|375:124,1,143.519999124023,14|0,0:2|0:0,0:0:0:0:
374,125,156354,1,10,0:0:0:0:
234,0,156516,1,10,0:0:0:0:
363,349,156841,1,2,0:0:0:0:
512,133,157165,6,0,B|414:168|494:223|362:259,1,172.95999736084,6|0,1:2|0:0,0:0:0:0:
293,131,157651,2,0,P|327:157|368:169,1,86.47999868042,2|0,1:2|0:0,0:0:0:0:
243,312,157976,1,10,0:0:0:0:
344,342,158138,2,0,P|332:300|305:266,1,86.47999868042,2|0,0:0|1:2,0:0:0:0:
195,384,158462,6,0,B|97:349|177:294|45:258,1,172.95999736084,4|8,1:2|0:0,0:0:0:0:
13,310,158949,1,2,1:2:0:0:
13,310,159111,1,2,0:0:0:0:
106,136,159273,1,10,0:0:0:0:
0,110,159435,2,0,P|26:144|38:185,1,86.47999868042,2|0,0:0|1:2,0:0:0:0:
218,297,159760,6,0,P|268:265|250:151,1,172.95999736084,4|8,1:2|0:0,0:0:0:0:
154,23,160246,2,0,P|188:49|229:61,1,86.47999868042,2|0,1:2|0:0,0:0:0:0:
391,0,160570,1,10,0:2:0:0:
345,100,160733,2,0,P|333:58|306:24,1,86.47999868042,2|0,0:0|0:0,0:0:0:0:
512,108,161057,6,0,B|414:143|494:198|362:234,1,172.95999736084,2|2,1:2|1:2,0:0:0:0:
325,191,161543,1,10,0:0:0:0:
325,191,161706,1,2,1:2:0:0:
441,380,161868,1,10,0:0:0:0:
259,345,162030,2,0,P|300:333|334:306,1,86.47999868042,10|0,0:0|0:0,0:0:0:0:
118,384,162354,6,0,B|20:349|100:294|-32:258,1,172.95999736084,4|0,1:2|0:0,0:0:0:0:
189,159,162841,2,0,P|162:193|150:234,1,86.47999868042,2|0,1:2|0:0,0:0:0:0:
149,12,163165,1,10,0:0:0:0:
21,57,163327,2,0,P|62:68|96:95,1,86.47999868042,2|0,0:0|1:2,0:0:0:0:
243,226,163651,6,0,B|341:191|261:136|393:100,1,172.95999736084,4|8,1:2|0:0,0:0:0:0:
403,46,164138,1,2,1:2:0:0:
403,46,164300,1,2,0:0:0:0:
512,209,164462,1,10,0:0:0:0:
360,277,164624,2,0,P|371:235|398:201,1,86.47999868042,2|0,0:0|1:2,0:0:0:0:
292,384,164949,6,0,P|267:343|162:360,1,129.71999802063,6|2,1:2|0:0,0:0:0:0:
191,334,165273,1,8,0:2:0:0:
255,149,165435,1,2,1:2:0:0:
92,184,165597,2,0,P|126:210|167:222,1,86.47999868042,2|10,0:0|0:2,0:0:0:0:
283,15,165922,2,0,P|248:41|207:53,1,86.47999868042,2|2,0:0|0:0,0:0:0:0:
49,0,166246,6,0,P|105:35|109:97,1,129.71999802063,6|0,1:2|0:0,0:0:0:0:
111,93,166570,1,10,0:0:0:0:
2,270,166733,1,10,0:0:0:0:
194,384,166895,1,10,0:0:0:0:
486,40,167706,6,0,B|381:70|447:131|322:161,1,191.359998832031,6|10,1:2|0:0,0:0:0:0:
220,0,168192,2,0,P|258:28|303:43,1,95.6799994160156,2|0,0:0|1:2,0:0:0:0:
185,247,168516,1,2,1:2:0:0:
335,153,168679,1,10,0:0:0:0:
201,113,168841,6,0,P|262:192|292:288,1,191.359998832031,2|2,1:2|1:2,0:0:0:0:
256,348,169327,1,10,0:0:0:0:
424,200,169489,2,0,P|378:185|340:156,1,95.6799994160156,2|0,0:0|1:2,0:0:0:0:
392,330,169814,1,2,1:2:0:0:
186,384,169976,6,0,B|81:354|147:293|22:263,1,191.359998832031,8|6,0:0|1:2,0:0:0:0:
230,220,170462,1,2,0:0:0:0:
230,220,170543,1,2,0:0:0:0:
230,220,170624,1,10,0:0:0:0:
161,83,170787,2,0,P|132:121|117:166,1,95.6799994160156,2|0,0:0|1:2,0:0:0:0:
43,0,171111,2,0,P|14:38|0:83,1,95.6799994160156,2|8,1:2|0:0,0:0:0:0:
279,145,171435,6,0,B|384:115|318:54|443:24,1,191.359998832031,2|2,1:2|1:2,0:0:0:0:
423,29,171841,1,2,0:0:0:0:
423,29,171922,1,10,0:0:0:0:
512,186,172084,2,0,P|465:183|440:145,1,95.6799994160156,2|0,0:0|1:2,0:0:0:0:
489,88,172408,1,2,1:2:0:0:
333,307,172570,2,0,P|371:278|416:263,1,95.6799994160156,8|0,0:0|0:0,0:0:0:0:
176,384,172895,6,0,B|71:354|137:293|12:263,1,191.359998832031,6|8,1:2|0:0,0:0:0:0:
185,81,173381,1,2,0:0:0:0:
185,81,173462,1,2,0:0:0:0:
185,81,173543,1,2,1:2:0:0:
144,230,173706,1,2,1:2:0:0:
36,45,173868,1,10,0:0:0:0:
144,230,174030,6,0,P|182:201|227:186,1,95.6799994160156,6|0,1:2|0:0,0:0:0:0:
352,0,174354,1,2,1:2:0:0:
188,85,174516,1,10,0:0:0:0:
318,249,174679,2,0,P|333:203|362:165,1,95.6799994160156,2|0,0:0|1:2,0:0:0:0:
352,92,175003,1,0,1:2:0:0:
468,263,175165,1,10,0:0:0:0:
497,245,175246,1,2,0:0:0:0:
512,215,175327,1,2,0:0:0:0:
509,181,175408,1,2,0:0:0:0:
489,154,175489,2,0,P|468:169|438:178,3,47.8399997080078,6|2|2|6,1:2|0:0|0:0|2:3,0:0:0:0:
366,347,175814,5,10,0:3:0:0:
325,370,175895,1,10,0:3:0:0:
278,366,175976,1,6,2:3:0:0:
244,335,176057,1,6,2:3:0:0:
235,288,176138,1,10,0:3:0:0:
226,241,176219,1,10,0:3:0:0:
191,210,176300,1,10,0:3:0:0:
144,206,176381,1,10,0:3:0:0:
104,230,176462,2,0,P|119:251|128:281,1,47.8399997080078,10|10,0:3|0:3,0:0:0:0:
225,62,176624,6,0,P|253:99|267:145,1,95.6799994160156,14|0,0:0|0:0,0:0:0:0:
384,80,176949,1,10,0:0:0:0:
295,311,177111,1,10,0:0:0:0:
506,226,177273,2,0,P|452:246|354:167,1,191.359998832031,6|0,1:2|1:2,0:0:0:0:
492,61,177760,2,0,P|463:98|449:144,1,95.6799994160156,14|0,0:0|0:0,0:0:0:0:
293,274,178084,6,0,B|190:309|271:357|129:395,1,172.95999736084,6|10,1:2|0:0,0:0:0:0:
28,289,178570,1,2,0:0:0:0:
77,384,178733,2,0,P|90:343|118:309,1,86.47999868042,2|2,0:0|1:2,0:0:0:0:
172,256,179057,1,8,0:0:0:0:
37,107,179219,6,0,P|71:175|170:164,1,172.95999736084,2|0,1:2|1:2,0:0:0:0:
235,17,179706,2,0,P|201:44|160:58,1,86.47999868042,10|0,0:0|0:0,0:0:0:0:
95,22,180030,1,2,0:0:0:0:
95,22,180192,1,0,1:2:0:0:
231,165,180354,2,0,P|265:132|244:82,1,86.47999868042,10|0,0:0|0:0,0:0:0:0:
75,248,180679,6,0,P|34:263|0:289,1,86.47999868042,0|2,1:2|0:0,0:0:0:0:
34,153,181003,1,10,0:0:0:0:
168,271,181165,2,0,B|271:306|190:354|332:392,1,172.95999736084,2|2,0:0|1:2,0:0:0:0:
447,271,181651,1,10,0:0:0:0:
397,384,181814,6,0,P|366:303|315:233,1,172.95999736084,2|2,1:2|1:2,0:0:0:0:
207,119,182300,2,0,P|238:156|289:144,1,86.47999868042,10|0,0:0|0:0,0:0:0:0:
323,99,182624,1,2,0:0:0:0:
323,99,182787,1,0,1:2:0:0:
418,201,182949,2,0,P|432:160|458:126,1,86.47999868042,10|0,0:0|0:0,0:0:0:0:
267,276,183273,6,0,B|164:311|245:359|103:397,1,172.95999736084,6|10,1:2|0:0,0:0:0:0:
0,275,183760,1,0,1:2:0:0:
0,275,183841,1,0,1:2:0:0:
0,275,183922,1,2,1:2:0:0:
47,378,184084,2,0,P|61:337|87:303,1,86.47999868042,2|8,1:2|0:0,0:0:0:0:
234,122,184408,6,0,P|212:180|94:172,1,172.95999736084,6|0,1:2|1:2,0:0:0:0:
6,45,184895,2,0,P|40:71|80:85,1,86.47999868042,10|0,0:0|0:0,0:0:0:0:
151,54,185219,1,2,1:2:0:0:
151,54,185381,1,0,1:2:0:0:
40,239,185543,2,0,P|25:198|0:164,1,86.47999868042,10|8,0:0|0:0,0:0:0:0:
0,164,185787,5,8,0:0:0:0:
0,164,185868,1,6,1:2:0:0:
148,239,186030,1,0,1:2:0:0:
47,384,186192,1,8,0:0:0:0:
148,239,186354,2,0,P|164:253|183:263,1,43.23999934021,6|4,0:3|0:3,0:0:0:0:
300,384,186516,2,0,P|334:357|374:343,1,86.47999868042,0|0,1:2|1:2,0:0:0:0:
257,144,186841,2,0,P|291:170|331:184,1,86.47999868042,10|0,0:0|0:0,0:0:0:0:
512,79,187165,5,2,1:2:0:0:
512,79,187327,1,0,1:2:0:0:
451,195,187489,2,0,P|436:154|410:120,1,86.47999868042,8|6,0:0|0:3,0:0:0:0:
410,120,187733,1,4,0:3:0:0:
410,120,187814,1,2,1:2:0:0:
477,8,187976,1,0,1:2:0:0:
279,93,188138,5,10,0:0:0:0:
273,63,188219,1,2,0:0:0:0:
279,34,188300,1,2,0:0:0:0:
299,12,188381,1,2,0:0:0:0:
327,0,188462,2,0,P|361:26|401:40,1,86.47999868042,12|0,0:0|1:2,0:0:0:0:
330,271,188787,1,8,0:0:0:0:
477,170,188949,1,8,0:0:0:0:
352,110,189111,1,10,0:0:0:0:
464,332,189273,1,8,0:0:0:0:
261,183,189435,1,10,0:0:0:0:
455,20,189597,1,8,0:0:0:0:
261,183,189760,5,2,0:0:0:0:
35,117,197543,5,6,1:2:0:0:
230,349,198030,1,6,1:2:0:0:
359,10,198354,1,6,1:2:0:0:
72,259,198679,6,0,P|114:187|219:208,1,172.95999736084,6|2,1:2|0:0,0:0:0:0:
276,203,199084,1,2,0:0:0:0:
276,203,199165,2,0,P|266:222|260:243,1,43.23999934021,2|2,1:2|0:0,0:0:0:0:
309,384,199327,2,0,P|314:363|324:343,1,43.23999934021,2|2,0:0|0:0,0:0:0:0:
391,272,199489,2,0,P|370:266|350:256,1,43.23999934021,2|2,1:2|0:0,0:0:0:0:
198,312,199651,2,0,P|218:317|238:327,1,43.23999934021,2|2,0:0|0:0,0:0:0:0:
450,381,199814,5,2,1:2:0:0:
479,363,199895,1,2,0:0:0:0:
501,336,199976,1,2,1:2:0:0:
512,303,200057,1,2,0:0:0:0:
511,269,200138,1,0,3:0:0:0:
499,237,200219,1,0,3:0:0:0:
476,211,200300,5,10,0:0:0:0:
196,329,200462,1,10,0:0:0:0:
500,353,200787,5,10,0:0:0:0:
135,199,200949,1,10,0:0:0:0:
299,384,201273,5,10,0:0:0:0:
401,72,201597,1,10,0:0:0:0:
236,174,201922,5,10,0:0:0:0:
407,287,202084,2,0,P|380:253|366:212,1,86.47999868042,14|0,0:0|0:0,0:0:0:0:
512,94,202408,2,0,P|485:128|471:169,1,86.47999868042,14|0,0:0|0:0,0:0:0:0:
471,168,202651,1,0,1:2:0:0:
471,168,202733,1,2,1:2:0:0:
346,41,203057,6,0,B|279:9|246:80|257:89|268:97|228:191|146:123,1,235.52,6|2,1:2|0:0,0:0:0:0:
8,59,203868,2,0,P|53:126|86:217,1,176.64,6|2,1:2|0:0,0:0:0:0:
51,282,204516,1,2,1:2:0:0:
212,180,204679,1,10,0:0:0:0:
212,180,204760,1,8,0:0:0:0:
212,180,204841,2,0,P|197:200|190:230,1,47.8399997080078,0|0,1:2|1:2,0:0:0:0:
122,63,205003,1,10,0:0:0:0:
341,256,205165,6,0,B|449:221|377:164|505:135,1,191.359998832031,6|2,1:2|1:2,0:0:0:0:
255,0,205651,1,10,0:0:0:0:
335,163,205814,1,2,0:0:0:0:
438,10,205976,2,0,P|400:38|354:52,1,95.6799994160156,2|0,1:2|1:2,0:0:0:0:
217,221,206300,1,10,0:0:0:0:
249,86,206462,6,0,P|306:161|333:253,1,191.359998832031,2|0,1:2|1:2,0:0:0:0:
478,90,206949,2,0,P|440:118|394:132,1,95.6799994160156,10|0,0:0|0:0,0:0:0:0:
479,259,207273,1,2,1:2:0:0:
479,259,207435,1,0,1:2:0:0:
357,374,207597,2,0,P|309:324|325:257,1,143.519999124023,10|0,0:0|0:0,0:0:0:0:
326,258,207922,6,0,P|363:286|409:300,1,95.6799994160156,2|0,1:2|0:0,0:0:0:0:
175,163,208246,2,0,P|136:134|91:120,1,95.6799994160156,14|0,0:0|0:0,0:0:0:0:
206,322,208570,1,2,1:2:0:0:
300,108,208733,1,0,1:2:0:0:
206,322,208895,2,0,P|167:295|166:249,1,95.6799994160156,14|0,0:0|0:0,0:0:0:0:
86,0,209219,6,0,P|143:42|211:64,1,143.519999124023,6|0,1:2|0:0,0:0:0:0:
211,64,209543,1,10,0:0:0:0:
81,239,209706,2,0,P|22:195|48:115,1,143.519999124023,6|0,1:2|0:0,0:0:0:0:
30,132,210030,1,2,1:2:0:0:
173,244,210192,1,10,0:0:0:0:
34,378,210354,1,2,0:0:0:0:
173,244,210516,6,0,B|281:279|209:336|337:365,1,191.359998832031,6|10,1:2|0:0,0:0:0:0:
404,219,211003,2,0,P|366:247|320:261,1,95.6799994160156,2|0,1:2|0:0,0:0:0:0:
76,373,211327,2,0,P|114:345|160:331,1,95.6799994160156,2|8,1:2|0:0,0:0:0:0:
182,153,211651,6,0,P|132:75|40:96,1,191.359998832031,6|0,1:2|1:2,0:0:0:0:
45,90,212057,1,0,1:2:0:0:
45,90,212138,1,8,0:0:0:0:
164,232,212300,1,4,0:3:0:0:
0,308,212462,1,10,0:0:0:0:
8,289,212543,1,8,0:0:0:0:
21,274,212624,1,0,1:2:0:0:
146,340,212787,5,10,0:0:0:0:
190,355,212868,1,8,0:0:0:0:
237,349,212949,1,0,1:2:0:0:
277,322,213030,1,0,1:2:0:0:
301,281,213111,2,0,P|272:242|259:197,1,95.6799994160156,6|2,1:2|0:0,0:0:0:0:
510,74,213435,1,10,0:0:0:0:
440,248,213597,1,2,0:0:0:0:
315,89,213760,2,0,P|354:118|399:131,1,95.6799994160156,2|0,1:2|1:2,0:0:0:0:
298,235,214084,1,10,0:0:0:0:
436,360,214246,6,0,B|328:325|400:268|272:239,1,191.359998832031,2|2,1:2|1:2,0:0:0:0:
123,384,214733,1,10,0:0:0:0:
279,323,214895,1,2,0:0:0:0:
145,230,215057,2,0,P|174:269|187:314,1,95.6799994160156,2|0,1:2|1:2,0:0:0:0:
244,156,215381,1,10,0:0:0:0:
61,326,215543,6,0,P|1:287|5:169,1,191.359998832031,2|2,1:2|1:2,0:0:0:0:
152,0,216030,1,10,0:0:0:0:
0,52,216192,1,2,0:0:0:0:
101,207,216354,2,0,P|114:161|142:123,1,95.6799994160156,2|0,1:2|1:2,0:0:0:0:
0,175,216679,1,10,0:0:0:0:
196,269,216841,6,0,B|304:304|232:361|360:390,1,191.359998832031,2|0,1:2|1:2,0:0:0:0:
403,149,217327,2,0,P|364:177|319:190,1,95.6799994160156,10|0,0:0|0:0,0:0:0:0:
506,380,217651,1,2,1:2:0:0:
354,284,217814,1,0,1:2:0:0:
501,194,217976,6,0,P|459:252|439:320,1,143.519999124023,10|0,0:0|0:0,0:0:0:0:
439,320,218300,2,0,P|392:326|361:292,1,95.6799994160156,2|0,1:2|0:0,0:0:0:0:
210,87,218624,2,0,P|237:125|251:171,1,95.6799994160156,14|0,0:0|0:0,0:0:0:0:
234,305,218949,1,2,1:2:0:0:
352,128,219111,1,0,1:2:0:0:
234,305,219273,2,0,P|195:277|150:264,1,95.6799994160156,14|0,0:0|0:0,0:0:0:0:
0,70,219597,6,0,P|59:111|57:181,1,143.519999124023,6|0,1:2|0:0,0:0:0:0:
59,177,219922,1,10,0:0:0:0:
236,12,220084,2,0,P|197:39|151:53,1,95.6799994160156,6|0,1:2|0:0,0:0:0:0:
88,13,220408,1,0,1:2:0:0:
251,112,220570,1,10,0:0:0:0:
132,269,220733,1,2,0:0:0:0:
251,112,220895,6,0,B|359:147|287:204|415:233,1,191.359998832031,6|10,1:2|0:0,0:0:0:0:
446,54,221381,2,0,P|419:92|405:138,1,95.6799994160156,2|0,1:2|0:0,0:0:0:0:
460,321,221706,2,0,P|473:275|501:236,1,95.6799994160156,2|8,1:2|0:0,0:0:0:0:
282,292,222030,6,0,P|190:319|112:374,1,191.359998832031,6|0,1:2|1:2,0:0:0:0:
120,381,222435,1,0,1:2:0:0:
120,381,222516,2,0,P|63:348|73:308,1,95.6799994160156,10|8,0:0|0:3,0:0:0:0:
124,158,222841,2,0,P|151:196|164:242,1,95.6799994160156,10|4,0:0|0:3,0:0:0:0:
63,226,223165,1,10,0:3:0:0:
63,226,223327,1,10,0:3:0:0:
228,127,223489,6,0,B|331:162|248:214|392:248,1,172.95999736084,6|0,1:2|1:2,0:0:0:0:
512,152,223976,2,0,P|455:222|430:307,1,172.95999736084,6|4,0:3|0:3,0:0:0:0:
366,155,224462,1,2,1:2:0:0:
252,263,224624,1,8,0:0:0:0:
252,263,224706,1,8,0:0:0:0:
252,263,224787,1,0,1:2:0:0:
315,361,224949,6,0,P|283:311|161:330,1,172.95999736084,10|8,0:3|0:3,0:0:0:0:
118,364,225354,1,8,0:3:0:0:
118,364,225435,2,0,P|103:323|76:290,1,86.47999868042,2|0,1:2|0:0,0:0:0:0:
137,115,225760,1,2,1:2:0:0:
5,168,225922,1,8,0:0:0:0:
137,115,226084,6,0,P|170:142|210:156,1,86.47999868042,0|0,1:2|0:0,0:0:0:0:
332,246,226408,1,2,1:2:0:0:
420,115,226570,1,4,0:3:0:0:
295,82,226733,2,0,P|322:115|336:155,1,86.47999868042,2|8,1:2|0:3,0:0:0:0:
266,310,227057,1,2,1:2:0:0:
406,287,227219,5,10,0:0:0:0:
406,287,227300,1,8,0:0:0:0:
406,287,227381,2,0,P|365:272|331:245,1,86.47999868042,0|10,1:2|0:3,0:0:0:0:
127,384,227706,2,0,P|160:357|201:342,1,86.47999868042,2|6,1:2|0:3,0:0:0:0:
262,298,227949,1,4,0:3:0:0:
262,298,228030,2,0,P|274:317|281:340,3,43.23999934021,4|4|4|4,1:3|0:3|0:3|0:3,0:0:0:0:
128,229,228354,5,10,1:3:0:0:
110,189,228435,1,8,0:3:0:0:
112,147,228516,1,8,0:3:0:0:
134,110,228597,1,8,0:3:0:0:
170,87,228679,2,0,P|209:116|254:129,1,95.6799994160156,6|0,1:2|0:0,0:0:0:0:
442,0,229003,2,0,P|403:28|358:41,1,95.6799994160156,10|0,0:0|0:0,0:0:0:0:
290,11,229327,1,2,1:2:0:0:
290,11,229489,1,0,1:2:0:0:
460,163,229651,1,10,0:0:0:0:
247,303,229814,6,0,P|275:244|405:250,1,191.359998832031,6|0,1:2|1:2,0:0:0:0:
512,384,230300,2,0,P|473:355|428:342,1,95.6799994160156,10|0,0:0|0:0,0:0:0:0:
352,363,230624,1,2,1:2:0:0:
352,363,230787,1,0,1:2:0:0:
468,162,230949,1,10,0:0:0:0:
274,65,231111,6,0,P|331:141|357:232,1,191.359998832031,6|0,1:2|1:2,0:0:0:0:
512,8,231597,2,0,P|473:36|428:49,1,95.6799994160156,10|0,0:0|0:0,0:0:0:0:
358,29,231922,1,2,1:2:0:0:
358,29,232084,1,0,1:2:0:0:
477,140,232246,1,10,0:0:0:0:
353,241,232408,6,0,B|245:276|317:333|189:362,1,191.359998832031,6|2,1:2|1:2,0:0:0:0:
209,356,232814,1,0,1:2:0:0:
209,356,232895,1,8,0:0:0:0:
85,202,233057,2,0,P|123:230|168:243,1,95.6799994160156,2|0,1:2|0:0,0:0:0:0:
52,380,233381,1,2,1:2:0:0:
52,380,233462,1,0,1:2:0:0:
52,380,233543,2,0,P|14:352|20:299,1,95.6799994160156,12|0,0:0|0:0,0:0:0:0:
164,136,233868,5,6,1:2:0:0:
158,89,233949,1,0,1:2:0:0:
127,53,234030,1,0,1:2:0:0:
81,41,234111,1,0,1:2:0:0:
37,56,234192,2,0,P|49:75|60:104,3,47.8399997080078,2|0|0|0,1:2|1:2|1:2|1:2,0:0:0:0:
129,278,234516,1,2,1:2:0:0:
129,278,234597,1,0,0:0:0:0:
129,278,234679,2,0,P|116:257|107:235,1,47.8399997080078,8|8,0:2|0:2,0:0:0:0:
283,135,234841,2,0,P|270:156|261:178,1,47.8399997080078,2|0,1:2|0:0,0:0:0:0:
340,356,235003,5,10,0:0:0:0:
382,357,235084,1,8,0:0:0:0:
421,339,235165,1,8,1:2:0:0:
448,306,235246,1,8,0:0:0:0:
458,264,235327,1,8,0:0:0:0:
448,223,235408,1,8,0:0:0:0:
420,190,235489,2,0,P|401:202|372:213,3,47.8399997080078,10|0|8|8,1:2|0:0|0:0|0:0,0:0:0:0:
467,64,235814,2,0,P|489:55|509:42,3,47.8399997080078,10|8|8|8,1:2|0:0|0:0|0:0,0:0:0:0:
314,0,236138,2,0,P|323:22|335:42,1,47.8399997080078,10|8,1:2|0:0,0:0:0:0:
219,250,236300,6,0,P|186:205|259:103,1,191.359998832031,6|8,1:2|0:2,0:0:0:0:
348,207,236787,1,8,0:2:0:0:
479,82,236949,1,8,0:2:0:0:
362,32,237111,1,8,0:2:0:0:
488,249,237273,1,10,0:2:0:0:
256,111,237435,1,10,0:2:0:0:
159,364,237597,1,10,0:2:0:0:
0,190,237760,6,0,P|38:126|120:152,1,143.519999124023,6|0,1:2|0:0,0:0:0:0:
100,131,238084,1,2,1:2:0:0:
42,321,238246,1,6,1:2:0:0:
297,132,238570,1,2,0:0:0:0:
69,0,238895,6,0,P|126:76|152:167,1,191.359998832031,6|0,1:2|1:2,0:0:0:0:
250,310,239381,2,0,P|292:263|274:221,1,95.6799994160156,10|0,0:0|0:0,0:0:0:0:
237,182,239706,1,2,1:2:0:0:
237,182,239868,1,0,1:2:0:0:
327,384,240030,1,10,0:0:0:0:
89,330,240192,6,0,P|134:317|173:288,1,95.6799994160156,6|0,1:2|0:0,0:0:0:0:
21,121,240516,1,0,1:2:0:0:
72,231,240679,2,0,P|84:185|113:146,1,95.6799994160156,10|0,0:0|0:0,0:0:0:0:
187,123,241003,1,2,1:2:0:0:
187,123,241165,1,0,1:2:0:0:
77,8,241327,1,10,0:0:0:0:
197,268,241489,6,0,B|305:233|233:176|361:147,1,191.359998832031,2|0,1:2|1:2,0:0:0:0:
509,37,241976,2,0,P|480:75|467:121,1,95.6799994160156,10|0,0:0|0:0,0:0:0:0:
512,188,242300,1,2,1:2:0:0:
512,188,242462,1,0,1:2:0:0:
368,51,242624,1,10,0:0:0:0:
298,244,242787,6,0,P|207:252|157:176,1,191.359998832031,6|0,1:2|1:2,0:0:0:0:
297,64,243273,2,0,P|268:101|255:147,1,95.6799994160156,10|0,0:0|0:0,0:0:0:0:
169,0,243597,1,10,0:0:0:0:
169,0,243679,1,8,0:0:0:0:
169,0,243760,2,0,P|155:24|148:51,1,47.8399997080078,10|0,0:0|0:0,0:0:0:0:
80,220,243922,1,10,0:0:0:0:
34,207,244003,1,8,0:0:0:0:
4,171,244084,1,4,0:3:0:0:
0,124,244165,1,4,0:3:0:0:
23,84,244246,2,0,P|46:98|74:105,3,47.8399997080078,8|8|8|8,0:3|0:3|0:3|0:3,0:0:0:0:
234,235,244570,6,0,B|126:270|198:327|70:356,1,191.359998832031,14|2,1:2|1:2,0:0:0:0:
166,105,245057,1,0,1:2:0:0:
43,200,245219,1,10,0:0:0:0:
255,326,245381,6,0,P|320:282|293:170,1,191.359998832031,2|0,1:2|1:2,0:0:0:0:
167,3,245868,2,0,P|204:32|250:45,1,95.6799994160156,14|0,0:0|0:0,0:0:0:0:
316,7,246192,1,2,1:2:0:0:
316,7,246354,1,0,1:2:0:0:
224,218,246516,1,10,0:0:0:0:
404,154,246679,6,0,P|358:141|320:111,1,95.6799994160156,6|2,1:2|0:0,0:0:0:0:
385,248,247003,1,2,1:2:0:0:
175,368,247165,1,10,0:0:0:0:
231,204,247327,1,2,1:2:0:0:
322,381,247489,1,2,0:0:0:0:
322,381,247651,1,2,1:2:0:0:
409,148,247814,1,10,0:0:0:0:
512,304,247976,6,0,P|469:250|401:258,1,143.519999124023,6|0,1:2|0:0,0:0:0:0:
401,258,248300,1,10,0:0:0:0:
228,129,248462,1,10,0:0:0:0:
350,19,248624,1,10,0:0:0:0:
249,288,248787,1,8,0:0:0:0:
420,160,248949,1,10,0:0:0:0:
238,14,249111,1,8,0:0:0:0:
420,160,249273,6,0,P|491:110|447:-5,1,191.359998832031,6|2,1:2|1:2,0:0:0:0:
402,69,249760,1,10,0:0:0:0:
490,244,249922,2,0,B|378:275|466:331|326:365,1,191.359998832031,6|2,1:2|1:2,0:0:0:0:
488,384,250408,1,10,0:0:0:0:
316,218,250570,6,0,P|257:292|231:384,1,191.359998832031,6|2,1:2|1:2,0:0:0:0:
95,227,251057,1,10,0:0:0:0:
0,384,251219,2,0,P|62:309|178:349,1,191.359998832031,6|2,1:2|1:2,0:0:0:0:
147,318,251624,1,0,1:2:0:0:
147,318,251706,1,10,0:0:0:0:
279,133,251868,6,0,P|210:187|74:213,1,204.240004986328,4|0,1:2|0:0,0:0:0:0:
36,171,252516,1,8,0:0:0:0:
158,335,252679,1,10,0:0:0:0:
285,264,252841,1,4,0:3:0:0:
363,350,253003,1,8,0:3:0:0:
442,315,253165,6,0,B|342:390|260:262|294:237|330:210|251:69|139:165,1,425.040005188477,6|0,1:2|0:0,0:0:0:0:
