osu file format v14

[General]
AudioFilename: audio.mp3
AudioLeadIn: 0
PreviewTime:208591
Countdown: 0
SampleSet: Soft
StackLeniency: 0.4
Mode: 0
LetterboxInBreaks: 0
WidescreenStoryboard: 0

[Editor]
DistanceSpacing: 2.1
BeatDivisor: 4
GridSize: 32
TimelineZoom: 1.7

[Metadata]
Title:Zutto Summer de Koishiteru
TitleUnicode:ずっとサマーで恋してる
Artist:Niji no Conquistador
ArtistUnicode:虹のコンキスタドール
Creator:Sotarks
Version:SMOKELIND's Insane
Source:
Tags:smokelind akitoshi -laura- corinn jpop j-pop pop idols japanese female vocalists band 12th single Nemoto Nagi Nakamura Akari Matoba Karin Tsurumi Moe Yamato Ao Yamasaki Nana Okada Ayame Shimizu Riko Hiruta Airi Kataoka Miyu Kumamoto Marina Yamamoto Rio Murakawa Motonari King Records 岡田彩夢 片岡未優 隈本茉莉奈 清水理子 鶴見萌 中村朱里 根本凪 蛭田愛梨 的場華鈴 山崎夏菜 大和明桜 山本莉唯 2zicon 虹コン nijicon
BeatmapID:2625910
BeatmapSetID:1263383

[Difficulty]
HPDrainRate:4.7
CircleSize:3.7
OverallDifficulty:8.7
ApproachRate:9.2
SliderMultiplier:1.47
SliderTickRate:1

[Events]
//Background and Video events
0,0,"bg.jpg"
Video,-447,"video.mp4"
//Break Periods
2,104854,105584
2,250854,251584
//Storyboard Layer 0 (Background)
//Storyboard Layer 1 (Fail)
//Storyboard Layer 2 (Pass)
//Storyboard Layer 3 (Foreground)
//Storyboard Layer 4 (Overlay)
//Storyboard Sound Samples

[TimingPoints]
4654,250,4,2,22,52,1,0
11654,-114.942528735632,4,2,22,72,0,0
12654,-114.942528735632,4,2,22,82,0,0
24654,-114.942528735632,4,2,22,92,0,0
27654,-114.942528735632,4,2,22,52,0,0
28654,-149.253731343283,4,2,22,72,0,0
36654,-129.870129870129,4,2,22,72,0,0
44654,-149.253731343283,4,2,22,72,0,0
52654,-129.870129870129,4,2,22,72,0,0
60654,-149.253731343283,4,2,22,72,0,0
66654,-129.870129870129,4,2,22,72,0,0
74654,-114.942528735632,4,2,22,72,0,0
78654,-103.092783505155,4,2,22,82,0,0
102654,-103.092783505155,4,2,22,92,0,0
106154,-103.092783505155,4,2,22,62,0,0
106654,-103.092783505155,4,2,22,72,0,0
112654,-103.092783505155,4,2,22,52,0,0
112904,-114.942528735633,4,2,22,52,0,0
113904,-114.942528735633,4,2,22,62,0,0
114654,-114.942528735633,4,2,22,82,0,0
118654,-114.942528735633,4,2,22,92,0,0
121654,-114.942528735633,4,2,22,52,0,0
122404,-129.87012987013,4,2,22,52,0,0
122654,-149.253731343283,4,2,22,62,0,0
129529,-149.253731343283,4,2,22,72,0,0
129654,-129.87012987013,4,2,22,72,0,0
138654,-149.253731343284,4,2,22,72,0,0
144654,-129.87012987013,4,2,22,72,0,0
152654,-114.942528735632,4,2,22,72,0,0
156341,-114.942528735632,4,2,22,5,0,0
156404,-114.942528735632,4,2,22,72,0,0
156654,-103.092783505155,4,2,22,82,0,0
180654,-103.092783505155,4,2,22,92,0,0
182654,-103.092783505155,4,2,22,82,0,0
183654,-103.092783505155,4,2,22,52,0,0
184654,-103.092783505155,4,2,22,72,0,0
190654,-103.092783505155,4,2,22,52,0,0
190904,-114.942528735633,4,2,22,52,0,0
191654,-114.942528735633,4,2,22,62,0,0
192654,-149.253731343283,4,2,22,72,0,0
199154,-149.253731343283,4,2,22,62,0,0
200654,-129.870129870129,4,2,22,72,0,0
206654,-114.942528735632,4,2,22,72,0,0
208654,-103.092783505155,4,2,22,82,0,0
222654,-103.092783505155,4,2,22,62,0,0
224654,-175.438596491229,4,2,22,62,0,0
232654,-149.253731343284,4,2,22,62,0,0
236654,-129.87012987013,4,2,22,62,0,0
236904,-129.87012987013,4,2,22,72,0,0
237654,-114.942528735632,4,2,22,72,0,0
240654,-103.092783505155,4,2,22,82,0,0
248654,-103.092783505155,4,2,22,92,0,0
250654,-103.092783505155,4,2,22,82,0,0
252154,-103.092783505155,4,2,22,72,0,0
254654,-103.092783505155,4,2,22,82,0,0
270654,-103.092783505155,4,2,22,92,0,0
279654,-114.942528735633,4,2,22,72,0,0
280654,-114.942528735633,4,2,22,92,0,0
281404,-212.765957446811,4,2,22,92,0,0
282279,-212.765957446811,4,2,22,12,0,0

[Colours]
Combo1 : 202,250,255
Combo2 : 168,185,255
Combo3 : 91,176,164
Combo4 : 94,123,240

[HitObjects]
69,183,10654,5,10,0:2:0:0:
125,13,11654,6,0,L|204:26,1,63.9450005366478,10|8,0:2|0:2,0:0:0:0:
211,40,11841,1,8,0:2:0:0:
211,40,11904,2,0,P|215:84|221:118,1,63.9450005366478,8|8,0:2|0:2,0:0:0:0:
323,157,12154,2,0,P|327:112|333:79,1,63.9450005366478,8|8,0:2|0:2,0:0:0:0:
239,208,12404,2,0,P|203:211|162:187,1,63.9450005366478,8|8,0:2|0:2,0:0:0:0:
125,13,12654,6,0,P|62:8|25:82,2,127.890001073296,4|10|2,1:2|0:2|1:2,0:0:0:0:
208,127,13279,1,8,1:3:0:0:
208,127,13404,1,8,0:2:0:0:
103,228,13529,2,0,L|87:84,1,127.890001073296,4|4,1:2|1:3,0:0:0:0:
258,43,13904,2,0,L|342:55,1,63.9450005366478,8|2,0:2|0:2,0:0:0:0:
420,170,14154,2,0,L|337:182,1,63.9450005366478,0|8,1:2|1:3,0:0:0:0:
244,53,14404,2,0,L|327:65,1,63.9450005366478,8|0,0:2|0:2,0:0:0:0:
432,187,14654,6,0,P|443:117|463:35,2,127.890001073296,2|10|2,1:2|0:2|1:2,0:0:0:0:
326,311,15279,1,8,1:3:0:0:
326,311,15404,1,8,0:2:0:0:
250,188,15529,1,4,1:2:0:0:
250,188,15654,2,0,L|118:170,1,127.890001073296,2|8,0:2|0:2,0:0:0:0:
31,313,16029,2,0,L|96:304,1,63.9450005366478,2|0,0:2|1:2,0:0:0:0:
196,168,16279,1,8,1:3:0:0:
196,168,16404,2,0,L|130:159,1,63.9450005366478,10|0,0:2|0:2,0:0:0:0:
261,290,16654,6,0,B|289:257|289:257|273:167,2,127.890001073296,2|10|2,1:2|0:2|1:2,0:0:0:0:
196,168,17279,1,8,1:3:0:0:
196,168,17404,1,8,0:2:0:0:
308,58,17529,1,4,1:2:0:0:
308,58,17654,2,0,P|379:48|452:40,1,127.890001073296,2|8,0:2|0:2,0:0:0:0:
442,203,18029,2,0,P|409:197|375:194,1,63.9450005366478,2|0,0:2|1:2,0:0:0:0:
295,71,18279,2,0,P|327:65|363:62,2,63.9450005366478,10|10|0,1:3|0:2|0:2,0:0:0:0:
105,112,18654,6,0,P|134:169|146:241,1,127.890001073296,6|8,1:2|0:2,0:0:0:0:
209,95,19029,2,0,P|257:95|267:181,1,127.890001073296,6|8,1:2|1:3,0:0:0:0:
207,276,19404,1,8,0:2:0:0:
363,193,19529,2,0,P|314:193|304:280,1,127.890001073296,6|4,1:2|1:3,0:0:0:0:
447,333,19904,1,8,0:2:0:0:
445,194,20029,2,0,L|430:329,1,127.890001073296,6|0,1:2|1:2,0:0:0:0:
291,262,20404,2,0,L|299:334,1,63.9450005366478,8|0,0:2|0:0,0:0:0:0:
246,169,20654,6,0,P|286:158|350:219,2,127.890001073296,4|10|2,1:2|0:2|1:2,0:0:0:0:
172,311,21279,1,8,1:3:0:0:
172,311,21404,1,8,0:2:0:0:
70,197,21529,5,4,1:2:0:0:
70,197,21654,2,0,L|86:54,1,127.890001073296,2|10,0:2|0:2,0:0:0:0:
358,5,22154,1,2,1:2:0:0:
358,5,22279,2,0,L|368:97,1,63.9450005366478,10|8,1:3|0:2,0:0:0:0:
379,203,22529,6,0,P|423:203|456:178,1,63.9450005366478,2|0,0:2|1:2,0:0:0:0:
357,81,22779,2,0,P|312:81|279:106,1,63.9450005366478,2|8,0:2|0:2,0:0:0:0:
230,233,23029,2,0,P|165:222|154:156,1,127.890001073296,2|8,0:2|1:3,0:0:0:0:
220,29,23404,1,8,0:2:0:0:
69,69,23529,5,4,1:2:0:0:
69,69,23654,2,0,L|55:200,1,127.890001073296,2|8,0:2|0:2,0:0:0:0:
31,335,24029,2,0,P|60:312|109:307,1,63.9450005366478,2|0,0:2|0:0,0:0:0:0:
227,361,24279,1,4,1:3:0:0:
227,361,24404,2,0,P|195:351|170:330,1,63.9450005366478,10|0,0:2|0:2,0:0:0:0:
313,214,24654,5,14,0:2:0:0:
346,365,24779,1,0,1:2:0:0:
428,207,24904,2,0,L|505:197,1,63.9450005366478,8|0,0:2|1:2,0:0:0:0:
357,333,25154,2,0,L|292:324,1,63.9450005366478,8|0,0:2|1:2,0:0:0:0:
182,146,25404,1,8,0:2:0:0:
162,312,25529,1,0,1:2:0:0:
304,184,25654,2,0,L|313:252,1,63.9450005366478,10|0,0:2|1:2,0:0:0:0:
175,210,25904,2,0,L|183:145,1,63.9450005366478,8|0,0:2|1:2,0:0:0:0:
98,22,26154,2,0,P|126:2|166:2,1,63.9450005366478,8|0,0:2|1:2,0:0:0:0:
260,128,26404,1,8,0:2:0:0:
84,164,26529,1,0,1:2:0:0:
256,65,26654,6,0,L|261:132,1,63.9450005366478,10|8,0:2|0:2,0:0:0:0:
290,150,26841,1,8,0:2:0:0:
290,150,26904,2,0,L|285:84,1,63.9450005366478,8|8,0:2|0:2,0:0:0:0:
404,224,27154,2,0,L|408:160,1,63.9450005366478,8|8,0:2|0:2,0:0:0:0:
293,289,27404,1,8,0:2:0:0:
293,289,27529,1,0,1:2:0:0:
121,59,28404,5,8,0:2:0:0:
121,59,28654,6,0,L|61:51,2,49.244997670601,4|2|10,1:2|0:2|0:2,0:0:0:0:
180,131,29029,1,2,0:2:0:0:
180,131,29154,2,0,L|240:123,1,49.244997670601,2|8,1:2|1:3,0:0:0:0:
291,208,29404,2,0,L|231:200,1,49.244997670601,10|6,0:2|1:3,0:0:0:0:
338,125,29654,2,0,P|374:169|360:240,2,98.489995341202,2|10|2,0:2|0:2|1:2,0:0:0:0:
294,49,30279,1,8,1:3:0:0:
294,49,30404,2,0,L|372:43,1,49.244997670601,10|0,0:2|0:2,0:0:0:0:
469,38,30654,6,0,L|456:146,1,98.489995341202,2|8,1:2|0:2,0:0:0:0:
385,308,31154,2,0,L|374:210,1,98.489995341202,2|8,1:2|0:2,0:0:0:0:
303,148,31529,2,0,P|276:191|207:200,1,98.489995341202,6|2,1:3|1:2,0:0:0:0:
163,141,31904,2,0,L|155:74,2,49.244997670601,10|2|2,0:2|0:2|1:2,0:0:0:0:
103,214,32279,1,8,1:3:0:0:
103,214,32404,2,0,L|97:262,1,49.244997670601,10|2,0:2|0:2,0:0:0:0:
63,350,32654,6,0,P|35:351|6:336,2,49.244997670601,0|2|10,1:2|0:2|0:2,0:0:0:0:
155,327,33029,1,2,0:2:0:0:
155,327,33154,2,0,P|183:326|212:341,1,49.244997670601,2|10,1:2|1:3,0:0:0:0:
283,381,33404,2,0,P|303:360|311:329,1,49.244997670601,8|6,0:2|1:3,0:0:0:0:
277,253,33654,2,0,L|136:237,2,98.489995341202,2|10|2,0:2|0:2|1:2,0:0:0:0:
367,218,34279,1,8,1:3:0:0:
367,218,34404,2,0,L|377:301,1,49.244997670601,10|0,0:2|0:2,0:0:0:0:
454,327,34654,6,0,L|463:186,1,98.489995341202,2|8,1:2|0:2,0:0:0:0:
467,134,35029,1,2,0:2:0:0:
467,134,35154,2,0,P|441:187|389:181,1,98.489995341202,2|8,1:2|0:2,0:0:0:0:
305,85,35529,2,0,B|323:101|323:101|397:89,1,98.489995341202,4|0,1:2|1:2,0:0:0:0:
311,177,35904,2,0,L|248:171,1,49.244997670601,8|0,0:2|0:0,0:0:0:0:
194,86,36154,1,2,1:2:0:0:
194,86,36279,1,8,0:2:0:0:
133,204,36404,1,10,0:2:0:0:
133,204,36529,1,8,0:2:0:0:
96,31,36654,6,0,P|25:39|25:102,2,113.189997754715,6|8|2,1:2|0:2|1:2,0:0:0:0:
194,86,37279,2,0,P|230:86|262:53,1,56.5949988773575,0|8,0:0|0:2,0:0:0:0:
372,23,37529,1,6,1:2:0:0:
372,23,37654,2,0,P|360:83|349:160,1,113.189997754715,2|10,0:2|0:2,0:0:0:0:
413,221,38029,2,0,P|378:175|316:180,1,113.189997754715,2|8,0:2|1:3,0:0:0:0:
275,281,38404,2,0,P|252:303|198:305,1,56.5949988773575,8|2,0:2|1:2,0:0:0:0:
109,267,38654,6,0,L|118:338,1,56.5949988773575,2|2,1:2|0:2,0:0:0:0:
210,227,38904,1,10,0:2:0:0:
210,227,39029,1,2,0:2:0:0:
95,133,39154,2,0,L|86:204,1,56.5949988773575,2|8,1:2|1:3,0:0:0:0:
179,92,39404,1,10,0:2:0:0:
236,223,39529,2,0,L|364:205,1,113.189997754715,6|8,1:2|1:3,0:0:0:0:
434,88,39904,2,0,P|413:112|404:156,1,56.5949988773575,8|0,0:2|0:0,0:0:0:0:
508,232,40154,2,0,P|472:208|433:228,1,84.8924983160363,2|8,1:2|0:2,0:0:0:0:
429,235,40404,2,0,L|436:300,1,56.5949988773575,10|10,0:2|0:2,0:0:0:0:
330,346,40654,6,0,L|336:289,2,56.5949988773575,4|2|10,1:2|0:2|0:2,0:0:0:0:
228,269,41029,1,2,0:2:0:0:
228,269,41154,2,0,L|234:326,2,56.5949988773575,2|10|8,1:2|1:3|0:2,0:0:0:0:
168,165,41529,1,6,1:3:0:0:
168,165,41654,2,0,P|118:153|72:203,2,113.189997754715,2|10|2,0:2|0:2|1:2,0:0:0:0:
228,269,42279,1,8,1:3:0:0:
336,165,42404,2,0,L|342:108,1,56.5949988773575,10|0,0:2|0:2,0:0:0:0:
477,66,42654,6,0,P|457:86|414:92,2,56.5949988773575,6|8|8,1:2|0:2|0:2,0:0:0:0:
434,177,43029,2,0,P|405:177|370:151,1,56.5949988773575,8|4,1:3|1:3,0:0:0:0:
306,48,43279,1,10,1:3:0:0:
305,47,43404,2,0,P|276:46|252:59,1,56.5949988773575,10|0,1:3|1:2,0:0:0:0:
206,202,43654,5,10,0:2:0:0:
395,341,44404,5,8,0:2:0:0:
395,341,44654,6,0,L|403:281,2,49.244997670601,4|2|10,1:2|0:2|0:2,0:0:0:0:
309,373,45029,1,2,0:2:0:0:
309,373,45154,2,0,L|301:313,1,49.244997670601,2|10,1:2|1:3,0:0:0:0:
235,251,45404,2,0,L|241:202,1,49.244997670601,8|6,0:2|1:3,0:0:0:0:
181,117,45654,2,0,L|64:138,2,98.489995341202,2|10|2,0:2|0:2|1:2,0:0:0:0:
276,55,46279,1,8,1:3:0:0:
276,55,46404,2,0,L|354:61,1,49.244997670601,10|0,0:2|0:2,0:0:0:0:
462,72,46654,6,0,P|411:106|433:163,1,98.489995341202,6|8,1:2|0:2,0:0:0:0:
488,209,47029,1,2,0:2:0:0:
488,209,47154,2,0,P|454:158|397:180,1,98.489995341202,2|8,1:2|0:2,0:0:0:0:
353,259,47529,2,0,P|306:252|287:208,1,98.489995341202,6|10,1:3|1:3,0:0:0:0:
231,114,47904,2,0,L|242:62,2,49.244997670601,10|2|2,0:2|0:2|1:2,0:0:0:0:
146,183,48279,1,8,1:3:0:0:
146,183,48404,2,0,L|135:134,1,49.244997670601,10|2,0:2|0:2,0:0:0:0:
59,262,48654,6,0,L|10:251,2,49.244997670601,0|2|10,1:2|0:2|0:2,0:0:0:0:
125,335,49029,1,2,0:2:0:0:
125,335,49154,2,0,L|173:324,1,49.244997670601,2|0,1:2|0:0,0:0:0:0:
194,232,49404,2,0,L|145:242,1,49.244997670601,8|6,0:2|1:3,0:0:0:0:
264,291,49654,2,0,L|275:185,2,98.489995341202,2|10|2,0:2|0:2|1:2,0:0:0:0:
346,355,50279,1,8,1:3:0:0:
346,355,50404,2,0,L|405:342,1,49.244997670601,10|0,0:2|0:2,0:0:0:0:
412,227,50654,6,0,L|399:350,1,98.489995341202,2|8,1:2|0:2,0:0:0:0:
501,270,51029,1,2,0:2:0:0:
501,270,51154,2,0,P|481:222|421:213,1,98.489995341202,2|8,1:2|0:2,0:0:0:0:
337,268,51529,2,0,P|292:251|275:206,1,98.489995341202,4|0,1:3|1:2,0:0:0:0:
269,69,51904,1,8,0:2:0:0:
181,163,52029,1,8,0:2:0:0:
181,163,52091,1,8,0:2:0:0:
181,163,52154,2,0,L|116:154,1,49.244997670601,10|10,0:2|0:2,0:0:0:0:
257,86,52404,1,10,0:2:0:0:
257,86,52529,1,8,0:2:0:0:
107,17,52654,6,0,L|122:133,2,113.189997754715,6|8|2,1:2|0:2|1:2,0:0:0:0:
20,82,53279,2,0,L|13:141,1,56.5949988773575,0|8,0:0|0:2,0:0:0:0:
5,255,53529,1,4,1:3:0:0:
5,255,53654,2,0,P|57:227|114:222,1,113.189997754715,2|10,0:2|0:2,0:0:0:0:
180,317,54029,2,0,P|232:345|289:350,1,113.189997754715,2|8,0:2|1:3,0:0:0:0:
351,229,54404,2,0,P|330:248|320:274,1,56.5949988773575,8|2,0:2|0:2,0:0:0:0:
452,352,54654,6,0,L|443:281,1,56.5949988773575,0|2,1:2|0:2,0:0:0:0:
355,233,54904,1,10,0:2:0:0:
355,233,55029,1,2,0:2:0:0:
489,171,55154,2,0,L|481:227,1,56.5949988773575,2|8,1:2|1:3,0:0:0:0:
397,130,55404,1,10,0:2:0:0:
340,252,55529,2,0,L|227:236,1,113.189997754715,2|8,1:2|1:3,0:0:0:0:
110,169,55904,2,0,P|128:192|136:231,1,56.5949988773575,8|0,0:2|0:0,0:0:0:0:
104,86,56154,2,0,P|133:88|167:109,1,56.5949988773575,2|8,1:2|0:2,0:0:0:0:
232,210,56404,1,10,0:2:0:0:
232,210,56529,1,10,0:2:0:0:
320,80,56654,6,0,B|301:105|301:105|310:190,2,113.189997754715,4|10|2,1:2|0:2|1:2,0:0:0:0:
439,56,57279,1,8,1:3:0:0:
439,56,57404,2,0,L|436:123,1,56.5949988773575,10|6,0:2|1:3,0:0:0:0:
510,231,57654,2,0,B|485:212|485:212|400:221,2,113.189997754715,2|10|2,0:2|0:2|1:2,0:0:0:0:
453,326,58279,1,10,1:3:0:0:
322,250,58404,2,0,L|265:256,1,56.5949988773575,10|0,0:2|0:2,0:0:0:0:
161,350,58654,6,0,P|141:330|135:287,2,56.5949988773575,14|0|0,0:2|0:0|1:2,0:0:0:0:
45,306,59029,2,0,P|45:277|71:242,1,56.5949988773575,8|0,0:2|0:0,0:0:0:0:
174,185,59279,1,0,1:2:0:0:
174,185,59404,2,0,P|186:209|186:237,1,56.5949988773575,10|0,0:2|0:2,0:0:0:0:
84,127,59654,5,2,1:2:0:0:
167,63,59779,1,8,0:2:0:0:
167,63,59841,1,8,0:2:0:0:
167,63,59904,2,0,L|225:69,1,56.5949988773575,8|8,0:2|1:3,0:0:0:0:
310,144,60154,2,0,L|368:150,1,56.5949988773575,10|8,0:2|0:2,0:0:0:0:
430,61,60404,2,0,L|372:67,1,56.5949988773575,10|4,1:3|1:3,0:0:0:0:
489,185,60654,6,0,L|510:69,1,98.489995341202,6|2,1:2|1:2,0:0:0:0:
395,158,61029,1,8,1:3:0:0:
395,158,61154,2,0,L|412:254,1,98.489995341202,10|10,1:3|0:2,0:0:0:0:
229,352,61654,6,0,P|200:344|164:341,1,49.244997670601,2|0,1:2|0:0,0:0:0:0:
236,249,61904,1,6,1:3:0:0:
236,249,62029,2,0,P|187:261|133:270,1,98.489995341202,2|8,1:2|1:3,0:0:0:0:
84,174,62404,2,0,P|110:179|138:183,1,49.244997670601,12|2,0:2|0:2,0:0:0:0:
216,114,62654,2,0,P|159:127|157:173,1,98.489995341202,0|10,1:2|1:3,0:0:0:0:
287,156,63029,2,0,P|308:134|384:112,1,98.489995341202,4|0,1:3|1:2,0:0:0:0:
404,213,63404,2,0,P|366:192|345:196,1,49.244997670601,10|0,0:2|0:0,0:0:0:0:
474,162,63654,6,0,P|477:131|481:106,1,49.244997670601,2|8,1:2|1:3,0:0:0:0:
382,18,63904,1,10,1:3:0:0:
382,18,64029,2,0,P|385:42|387:66,1,49.244997670601,6|14,1:3|0:2,0:0:0:0:
287,156,64279,1,4,1:3:0:0:
217,35,64404,1,8,0:2:0:0:
217,35,64529,1,10,0:2:0:0:
112,169,64654,6,0,L|9:156,1,98.489995341202,0|2,1:2|1:2,0:0:0:0:
190,303,65154,2,0,L|244:294,1,49.244997670601,2|0,1:2|0:0,0:0:0:0:
182,195,65404,2,0,L|128:186,1,49.244997670601,10|2,1:3|0:2,0:0:0:0:
259,101,65654,2,0,L|210:109,1,49.244997670601,0|10,1:2|0:2,0:0:0:0:
190,95,65841,1,8,0:2:0:0:
190,95,65904,2,0,L|196:40,1,49.244997670601,10|8,0:2|0:2,0:0:0:0:
335,99,66154,2,0,L|329:44,1,49.244997670601,10|8,0:2|1:3,0:0:0:0:
448,109,66404,2,0,L|454:54,1,49.244997670601,6|4,1:3|1:3,0:0:0:0:
501,197,66654,6,0,P|445:188|376:183,1,113.189997754715,6|8,1:2|0:2,0:0:0:0:
282,253,67029,2,0,P|300:211|267:247,1,113.189997754715,6|0,1:2|0:0,0:0:0:0:
211,306,67404,1,8,0:2:0:0:
145,196,67529,2,0,P|102:182|121:222,1,113.189997754715,6|8,1:2|1:3,0:0:0:0:
201,326,67904,1,8,0:2:0:0:
263,208,68029,2,0,P|308:199|299:251,1,113.189997754715,6|4,1:2|1:3,0:0:0:0:
213,142,68404,2,0,P|219:110|223:79,1,56.5949988773575,8|0,0:2|0:0,0:0:0:0:
360,14,68654,2,0,P|307:-5|247:41,2,113.189997754715,6|10|2,1:2|0:2|1:2,0:0:0:0:
423,118,69279,1,8,1:3:0:0:
423,118,69404,1,10,0:2:0:0:
294,190,69529,6,0,L|307:69,1,113.189997754715,6|8,1:2|1:3,0:0:0:0:
210,187,69904,1,10,0:2:0:0:
210,187,70029,1,2,0:2:0:0:
193,56,70154,2,0,L|205:168,1,113.189997754715,2|10,1:2|0:2,0:0:0:0:
52,259,70654,6,0,P|102:228|142:255,2,113.189997754715,6|10|2,1:2|0:2|1:2,0:0:0:0:
157,335,71279,1,8,1:3:0:0:
157,335,71404,1,10,0:2:0:0:
226,202,71529,2,0,P|272:174|315:206,1,113.189997754715,6|0,1:2|1:3,0:0:0:0:
362,320,71904,2,0,P|393:335|425:331,1,56.5949988773575,8|0,0:2|0:2,0:0:0:0:
488,212,72154,2,0,L|481:270,1,56.5949988773575,2|8,1:2|0:2,0:0:0:0:
388,148,72404,2,0,L|395:206,1,56.5949988773575,10|8,0:2|0:2,0:0:0:0:
446,60,72654,5,2,1:2:0:0:
278,164,72904,1,14,0:2:0:0:
278,164,73154,5,2,1:2:0:0:
110,60,73404,1,12,0:2:0:0:
110,60,73654,5,2,1:2:0:0:
47,248,73904,1,14,0:2:0:0:
47,248,74154,5,2,1:2:0:0:
235,185,74404,1,14,0:2:0:0:
235,185,74654,6,0,P|211:159|161:154,2,63.9450005366478,14|8|4,1:2|1:3|1:3,0:0:0:0:
345,274,75029,2,0,P|374:263|395:239,2,63.9450005366478,10|8|4,1:2|1:3|1:3,0:0:0:0:
334,119,75404,2,0,L|326:193,1,63.9450005366478,10|8,1:2|1:3,0:0:0:0:
264,66,75654,2,0,P|288:40|338:35,2,63.9450005366478,14|8|4,1:2|1:3|1:3,0:0:0:0:
154,155,76029,2,0,P|124:144|103:120,2,63.9450005366478,10|0|8,1:2|1:2|1:3,0:0:0:0:
165,0,76404,2,0,L|173:74,1,63.9450005366478,10|8,1:2|1:3,0:0:0:0:
194,233,76654,5,14,0:2:0:0:
194,233,76779,1,0,1:2:0:0:
296,129,76904,2,0,P|332:131|353:149,1,63.9450005366478,8|8,0:2|1:3,0:0:0:0:
420,279,77154,2,0,P|456:277|477:258,1,63.9450005366478,8|4,0:2|1:3,0:0:0:0:
430,135,77404,1,8,0:2:0:0:
430,135,77529,1,8,1:3:0:0:
329,277,77654,2,0,P|287:297|237:274,1,95.9175008049717,8|8,1:2|0:2,0:0:0:0:
244,262,77904,2,0,P|276:283|299:280,1,63.9450005366478,8|10,0:2|0:2,0:0:0:0:
246,166,78154,2,0,P|214:165|189:184,1,63.9450005366478,10|8,0:2|1:3,0:0:0:0:
106,317,78404,1,6,1:3:0:0:
106,317,78529,1,8,0:2:0:0:
3,115,78654,6,0,P|55:81|122:127,1,142.590003372414,6|8,1:2|0:2,0:0:0:0:
230,274,79029,2,0,P|266:268|306:265,1,71.2950016862069,10|0,0:3|1:2,0:0:0:0:
360,74,79279,2,0,P|324:70|289:65,1,71.2950016862069,10|8,1:3|0:2,0:0:0:0:
396,246,79529,2,0,B|485:238|435:190|522:172,1,142.590003372414,6|8,1:2|1:3,0:0:0:0:
404,0,79904,1,8,0:2:0:0:
404,0,80029,2,0,P|397:70|392:147,1,142.590003372414,2|8,0:2|1:3,0:0:0:0:
299,334,80404,2,0,P|295:298|290:263,1,71.2950016862069,10|0,0:2|0:2,0:0:0:0:
185,102,80654,6,0,P|114:95|42:90,1,142.590003372414,6|10,1:2|0:2,0:0:0:0:
130,256,81029,2,0,P|176:251|222:248,1,71.2950016862069,2|0,0:2|1:2,0:0:0:0:
106,79,81279,2,0,P|59:74|13:71,1,71.2950016862069,10|8,1:3|0:2,0:0:0:0:
142,274,81529,2,0,P|212:267|284:262,1,142.590003372414,6|8,1:2|1:3,0:0:0:0:
468,308,81904,2,0,P|465:343|461:379,1,71.2950016862069,8|0,0:2|0:2,0:0:0:0:
382,190,82154,2,0,P|414:164|468:172,1,71.2950016862069,2|8,1:2|1:3,0:0:0:0:
355,364,82404,2,0,P|320:359|294:335,1,71.2950016862069,10|0,0:2|0:2,0:0:0:0:
254,132,82654,6,0,P|208:81|140:94,1,142.590003372414,6|8,1:2|0:2,0:0:0:0:
24,261,83029,2,0,P|29:307|32:353,1,71.2950016862069,2|0,0:2|1:3,0:0:0:0:
181,244,83279,2,0,P|186:197|189:151,1,71.2950016862069,10|8,1:3|0:2,0:0:0:0:
0,102,83529,2,0,P|8:182|14:263,1,142.590003372414,6|0,1:2|0:2,0:0:0:0:
132,89,83904,1,8,0:2:0:0:
132,89,84029,2,0,P|199:77|244:127,1,142.590003372414,2|8,0:2|1:3,0:0:0:0:
205,284,84404,2,0,P|240:280|275:277,1,71.2950016862069,10|0,0:2|0:2,0:0:0:0:
426,194,84654,2,0,P|428:158|432:123,1,71.2950016862069,6|0,1:2|0:0,0:0:0:0:
289,251,84904,1,10,0:2:0:0:
346,89,85029,2,0,P|349:124|352:159,1,71.2950016862069,6|0,1:2|0:2,0:0:0:0:
198,263,85279,2,0,P|201:227|204:192,1,71.2950016862069,10|8,1:3|0:2,0:0:0:0:
102,48,85529,6,0,B|185:57|134:102|227:111,1,142.590003372414,6|8,1:2|1:3,0:0:0:0:
344,0,85904,1,8,0:2:0:0:
443,167,86029,2,0,P|436:237|431:309,1,142.590003372414,6|8,1:2|1:3,0:0:0:0:
299,198,86404,2,0,P|331:178|375:178,1,71.2950016862069,10|0,0:2|0:2,0:0:0:0:
252,326,86654,2,0,P|216:322|181:319,1,71.2950016862069,6|0,1:2|0:2,0:0:0:0:
59,223,86904,1,10,0:2:0:0:
59,223,87029,1,10,0:3:0:0:
199,120,87154,2,0,P|195:155|192:190,1,71.2950016862069,2|8,1:2|1:3,0:0:0:0:
76,50,87404,1,10,0:2:0:0:
76,50,87529,1,2,1:2:0:0:
281,0,87654,6,0,P|288:70|293:142,1,142.590003372414,2|8,0:2|0:2,0:0:0:0:
410,263,88029,2,0,B|386:239|386:239|333:252|269:268,1,142.590003372414,2|8,0:2|1:3,0:0:0:0:
140,344,88404,2,0,P|175:347|219:354,1,71.2950016862069,8|2,0:2|0:2,0:0:0:0:
88,211,88654,2,0,P|52:216|17:219,1,71.2950016862069,0|2,1:2|0:2,0:0:0:0:
180,121,88904,2,0,P|174:156|171:191,1,71.2950016862069,10|2,0:2|0:2,0:0:0:0:
94,86,89154,1,2,1:2:0:0:
94,86,89279,1,8,1:3:0:0:
265,159,89404,2,0,P|300:153|335:150,1,71.2950016862069,10|4,0:2|1:2,0:0:0:0:
455,204,89654,5,2,0:2:0:0:
455,204,89779,2,0,P|466:120|481:60,1,142.590003372414,6|2,1:3|0:2,0:0:0:0:
305,0,90154,2,0,P|315:36|320:79,1,71.2950016862069,0|8,0:0|1:3,0:0:0:0:
231,233,90404,2,0,P|198:254|149:243,1,71.2950016862069,10|0,0:2|0:2,0:0:0:0:
89,83,90654,2,0,P|156:108|160:193,2,142.590003372414,6|8|0,1:2|0:2|1:2,0:0:0:0:
0,231,91279,1,8,1:3:0:0:
0,231,91404,2,0,P|28:210|71:208,1,71.2950016862069,10|4,0:2|1:3,0:0:0:0:
141,332,91654,6,0,P|81:297|78:229,1,142.590003372414,2|8,0:2|0:2,0:0:0:0:
268,189,92029,2,0,P|252:258|243:329,1,142.590003372414,2|8,0:2|1:3,0:0:0:0:
157,173,92404,2,0,P|128:151|93:148,1,71.2950016862069,10|0,0:2|0:2,0:0:0:0:
165,321,92654,2,0,P|211:321|259:272,1,106.94250252931,6|8,1:2|0:2,0:0:0:0:
280,254,92904,2,0,L|272:346,1,71.2950016862069,8|10,0:2|0:2,0:0:0:0:
365,222,93154,1,8,0:2:0:0:
365,222,93279,1,8,1:3:0:0:
213,113,93404,2,0,L|221:205,1,71.2950016862069,10|4,1:3|1:3,0:0:0:0:
285,31,93654,6,0,P|348:47|347:120,1,142.590003372414,14|0,0:2|1:2,0:0:0:0:
194,203,94029,2,0,P|156:167|48:165,1,142.590003372414,14|8,0:2|1:3,0:0:0:0:
207,82,94404,1,10,1:3:0:0:
207,82,94529,1,8,0:2:0:0:
268,260,94654,6,0,P|310:281|391:211,1,142.590003372414,6|8,1:2|0:2,0:0:0:0:
356,50,95029,2,0,P|350:86|346:131,1,71.2950016862069,2|0,0:2|1:2,0:0:0:0:
194,203,95279,2,0,P|189:167|184:132,1,71.2950016862069,10|8,1:3|0:2,0:0:0:0:
74,5,95529,2,0,P|123:58|176:10,1,142.590003372414,6|8,1:2|1:3,0:0:0:0:
25,124,95904,1,8,0:2:0:0:
25,124,96029,2,0,P|19:159|7:280,1,142.590003372414,2|8,0:2|1:3,0:0:0:0:
141,362,96404,2,0,P|176:357|211:352,1,71.2950016862069,10|0,0:2|0:2,0:0:0:0:
289,227,96654,6,0,P|234:170|183:234,1,142.590003372414,6|10,1:2|0:2,0:0:0:0:
363,321,97029,2,0,P|406:311|451:303,1,71.2950016862069,2|0,0:2|1:2,0:0:0:0:
498,163,97279,2,0,P|463:156|428:148,1,71.2950016862069,10|8,1:3|0:2,0:0:0:0:
245,99,97529,2,0,P|322:115|333:31,1,142.590003372414,6|8,1:2|1:3,0:0:0:0:
219,11,97904,2,0,P|228:54|237:99,1,71.2950016862069,8|0,0:2|0:2,0:0:0:0:
95,151,98154,2,0,P|101:116|109:81,1,71.2950016862069,2|8,1:2|1:3,0:0:0:0:
269,155,98404,2,0,P|278:198|287:243,1,71.2950016862069,10|0,0:2|0:2,0:0:0:0:
171,353,98654,6,0,P|99:329|25:325,1,142.590003372414,6|8,1:2|0:2,0:0:0:0:
207,253,99029,2,0,P|235:224|237:172,1,71.2950016862069,2|0,0:2|1:2,0:0:0:0:
93,121,99279,2,0,P|102:155|127:179,1,71.2950016862069,10|8,1:3|0:2,0:0:0:0:
244,61,99529,2,0,P|173:66|105:89,1,142.590003372414,6|8,1:2|1:3,0:0:0:0:
310,196,99904,1,8,0:2:0:0:
310,196,100029,2,0,P|242:172|171:167,1,142.590003372414,2|8,0:2|1:3,0:0:0:0:
348,110,100404,2,0,P|338:147|330:201,1,71.2950016862069,10|0,0:2|0:2,0:0:0:0:
422,321,100654,2,0,P|388:314|349:308,1,71.2950016862069,6|0,1:2|0:0,0:0:0:0:
252,215,100904,1,10,0:2:0:0:
303,374,101029,2,0,P|269:367|230:361,1,71.2950016862069,2|0,0:2|1:2,0:0:0:0:
80,272,101279,2,0,P|115:266|150:259,1,71.2950016862069,10|8,1:3|0:2,0:0:0:0:
216,120,101529,6,0,P|147:165|163:228,1,142.590003372414,6|8,1:2|1:3,0:0:0:0:
266,278,101904,1,8,0:2:0:0:
334,127,102029,2,0,P|411:153|411:218,1,142.590003372414,4|0,1:2|0:2,0:0:0:0:
266,278,102404,2,0,P|260:231|253:177,1,71.2950016862069,10|0,0:2|0:2,0:0:0:0:
155,79,102654,5,14,0:2:0:0:
121,255,102779,1,0,1:2:0:0:
79,63,102904,2,0,L|0:70,1,71.2950016862069,10|0,0:2|1:2,0:0:0:0:
49,249,103154,2,0,L|127:255,1,71.2950016862069,10|0,0:2|1:2,0:0:0:0:
237,112,103404,1,10,0:2:0:0:
298,267,103529,1,2,1:2:0:0:
415,71,103654,6,0,L|336:77,1,71.2950016862069,8|8,0:2|0:2,0:0:0:0:
329,101,103841,1,8,0:2:0:0:
329,101,103904,2,0,L|317:181,1,71.2950016862069,10|8,0:2|1:3,0:0:0:0:
412,288,104154,1,10,0:0:0:0:
412,288,104279,1,8,0:3:0:0:
241,198,104404,2,0,L|253:278,1,71.2950016862069,10|0,1:3|1:2,0:0:0:0:
419,143,104654,1,14,0:0:0:0:
185,52,106154,6,0,L|117:62,2,47.5300011241379,10|8|8,0:2|0:2|0:2,0:0:0:0:
225,141,106404,2,0,L|290:152,2,47.5300011241379,10|8|8,0:2|0:2|0:2,0:0:0:0:
340,61,106654,6,0,B|364:95|386:117|386:117|363:175|342:262,1,213.885005058621,6|2,1:2|1:2,0:0:0:0:
178,178,107154,2,0,P|212:152|260:229,1,142.590003372414,8|2,0:2|0:2,0:0:0:0:
101,295,107529,2,0,P|94:217|85:146,1,142.590003372414,4|10,1:3|0:2,0:0:0:0:
200,31,107904,2,0,P|191:65|185:108,1,71.2950016862069,0|0,0:2|1:2,0:0:0:0:
330,186,108154,2,0,P|321:152|315:109,1,71.2950016862069,10|0,0:2|0:2,0:0:0:0:
172,248,108404,2,0,P|181:214|187:171,1,71.2950016862069,6|0,1:3|0:2,0:0:0:0:
305,320,108654,6,0,B|441:340|372:239|497:252,1,213.885005058621,6|2,1:2|1:2,0:0:0:0:
382,144,109154,2,0,P|321:182|362:254,1,142.590003372414,8|2,0:2|0:2,0:0:0:0:
485,347,109529,2,0,P|442:311|350:320,1,142.590003372414,0|8,1:2|0:2,0:0:0:0:
218,356,109904,2,0,P|240:318|247:271,1,71.2950016862069,10|4,1:3|1:3,0:0:0:0:
104,197,110154,1,10,0:2:0:0:
104,197,110279,2,0,P|126:261|132:341,1,142.590003372414,2|0,0:2|0:2,0:0:0:0:
204,163,110654,6,0,B|260:153|287:207|287:207|341:160|403:214,1,213.885005058621,6|2,1:2|1:2,0:0:0:0:
229,320,111154,2,0,P|222:279|215:245,1,71.2950016862069,8|0,0:2|0:2,0:0:0:0:
358,160,111404,2,0,P|363:124|370:89,1,71.2950016862069,10|8,0:2|1:3,0:0:0:0:
195,34,111654,1,0,0:0:0:0:
195,34,111779,2,0,P|202:68|207:104,2,71.2950016862069,8|2|8,0:2|0:2|0:2,0:0:0:0:
86,167,112154,2,0,P|60:190|13:190,1,71.2950016862069,10|8,0:2|1:3,0:0:0:0:
94,74,112404,2,0,P|128:77|155:100,1,71.2950016862069,6|0,1:3|1:2,0:0:0:0:
210,270,112654,5,10,0:2:0:0:
210,270,112904,6,0,L|353:252,1,127.890001073296,2|2,0:2|0:2,0:0:0:0:
432,137,113404,1,2,0:2:0:0:
432,137,113529,2,0,L|301:117,1,127.890001073296,2|8,0:2|0:2,0:0:0:0:
297,139,113841,1,8,0:2:0:0:
297,139,113904,2,0,L|379:150,1,63.9450005366478,8|8,0:2|0:2,0:0:0:0:
239,248,114154,2,0,L|302:239,1,63.9450005366478,10|10,0:2|0:2,0:0:0:0:
199,137,114404,1,10,0:2:0:0:
199,137,114529,1,10,0:2:0:0:
118,301,114654,6,0,P|54:301|39:222,2,127.890001073296,6|10|2,1:2|0:2|1:2,0:0:0:0:
190,174,115279,1,8,1:3:0:0:
190,174,115404,1,8,0:2:0:0:
15,92,115529,2,0,L|30:236,1,127.890001073296,4|0,1:2|1:2,0:0:0:0:
129,73,115904,1,8,0:2:0:0:
129,73,116029,2,0,L|213:66,1,63.9450005366478,2|0,0:2|1:2,0:0:0:0:
264,198,116279,1,10,0:3:0:0:
264,198,116404,2,0,L|200:193,1,63.9450005366478,10|0,0:2|0:2,0:0:0:0:
382,100,116654,6,0,L|365:248,1,127.890001073296,6|8,1:2|0:2,0:0:0:0:
213,344,117029,2,0,L|198:216,1,127.890001073296,6|10,0:2|1:3,0:0:0:0:
105,67,117404,1,8,0:2:0:0:
89,210,117529,2,0,L|103:82,1,127.890001073296,6|6,1:2|1:3,0:0:0:0:
239,210,117904,1,8,0:2:0:0:
223,67,118029,2,0,L|237:194,1,127.890001073296,6|0,1:2|1:2,0:0:0:0:
353,68,118404,2,0,P|347:101|343:148,1,63.9450005366478,8|0,0:2|0:0,0:0:0:0:
458,254,118654,5,14,0:2:0:0:
458,254,118779,1,2,1:2:0:0:
498,107,118904,2,0,P|464:104|423:124,1,63.9450005366478,10|2,0:2|1:2,0:0:0:0:
369,275,119154,2,0,P|337:278|307:268,1,63.9450005366478,8|2,0:2|1:2,0:0:0:0:
230,120,119404,1,10,0:2:0:0:
230,120,119529,1,0,1:2:0:0:
133,265,119654,2,0,P|129:233|124:201,1,63.9450005366478,10|0,0:2|1:2,0:0:0:0:
17,58,119904,2,0,P|11:89|8:121,1,63.9450005366478,8|2,0:2|1:2,0:0:0:0:
143,253,120154,2,0,P|139:221|134:189,1,63.9450005366478,8|0,0:2|1:2,0:0:0:0:
28,40,120404,1,10,0:2:0:0:
28,40,120529,1,0,1:2:0:0:
198,133,120654,6,0,P|229:127|261:124,1,63.9450005366478,10|8,0:2|0:2,0:0:0:0:
278,140,120841,1,8,0:2:0:0:
278,140,120904,2,0,L|268:215,1,63.9450005366478,8|8,0:2|0:2,0:0:0:0:
414,93,121154,2,0,L|424:168,1,63.9450005366478,8|8,0:2|0:2,0:0:0:0:
294,17,121404,1,8,0:2:0:0:
294,17,121529,1,8,0:2:0:0:
443,323,122279,5,0,1:2:0:0:
443,323,122341,1,0,1:2:0:0:
443,323,122404,2,0,P|407:309|354:303,1,84.8924983160363,8|0,0:2|0:0,0:0:0:0:
347,317,122654,6,0,P|351:340|354:369,2,49.244997670601,4|2|2,1:2|0:2|0:2,0:0:0:0:
256,272,123029,1,0,1:2:0:0:
256,272,123154,2,0,P|258:247|262:223,1,49.244997670601,10|2,0:2|0:2,0:0:0:0:
156,195,123404,2,0,P|160:219|162:243,1,49.244997670601,2|2,3:2|1:2,0:0:0:0:
241,128,123654,2,0,P|296:120|350:116,2,98.489995341202,2|2|10,0:2|0:2|0:2,0:0:0:0:
132,76,124279,1,0,0:2:0:0:
132,76,124404,2,0,P|134:51|138:27,1,49.244997670601,2|0,1:2|0:2,0:0:0:0:
23,92,124654,6,0,L|131:105,1,98.489995341202,2|0,1:2|3:2,0:0:0:0:
181,202,125029,1,10,1:3:0:0:
181,202,125154,2,0,L|83:213,1,98.489995341202,10|0,0:2|0:2,0:0:0:0:
25,310,125529,2,0,L|123:321,1,98.489995341202,2|10,1:2|0:2,0:0:0:0:
222,273,125904,2,0,L|230:337,2,49.244997670601,0|10|10,3:2|1:3|0:2,0:0:0:0:
338,235,126279,1,0,0:2:0:0:
338,235,126404,2,0,L|330:299,1,49.244997670601,2|2,3:2|0:2,0:0:0:0:
249,181,126654,6,0,P|225:172|201:174,2,49.244997670601,0|2|2,1:2|0:2|0:2,0:0:0:0:
338,235,127029,1,10,1:3:0:0:
338,235,127154,2,0,P|362:236|385:228,1,49.244997670601,10|2,0:2|0:2,0:0:0:0:
347,133,127404,2,0,P|323:124|299:126,1,49.244997670601,2|2,3:2|1:2,0:0:0:0:
226,202,127654,2,0,P|219:148|209:88,2,98.489995341202,2|2|10,0:2|3:2|0:2,0:0:0:0:
201,299,128279,1,0,1:2:0:0:
201,299,128404,2,0,P|226:281|264:272,1,49.244997670601,2|8,0:2|1:3,0:0:0:0:
398,364,128654,5,10,0:2:0:0:
398,364,129529,5,8,0:2:0:0:
295,236,129654,2,0,L|215:248,1,56.5949988773575,0|8,1:2|0:2,0:0:0:0:
227,264,129841,1,0,0:0:0:0:
227,264,129904,2,0,L|171:256,1,56.5949988773575,8|8,1:3|0:2,0:0:0:0:
61,160,130154,1,2,1:2:0:0:
61,160,130279,1,8,0:2:0:0:
34,302,130404,1,10,0:2:0:0:
34,302,130529,1,8,0:2:0:0:
76,144,130654,6,0,L|211:126,1,113.189997754715,6|8,1:2|0:2,0:0:0:0:
284,216,131029,1,0,0:2:0:0:
284,216,131154,2,0,L|295:142,2,56.5949988773575,2|0|8,1:2|0:0|0:2,0:0:0:0:
395,301,131529,1,6,1:2:0:0:
395,301,131654,2,0,L|389:169,1,113.189997754715,2|10,0:2|0:2,0:0:0:0:
421,46,132029,1,2,0:2:0:0:
421,46,132154,2,0,P|449:28|482:29,2,56.5949988773575,0|8|8,1:0|1:3|0:2,0:0:0:0:
368,173,132529,6,0,P|340:169|317:153,1,56.5949988773575,2|4,0:2|1:2,0:0:0:0:
225,61,132779,1,2,0:2:0:0:
225,61,132904,2,0,L|232:123,1,56.5949988773575,8|2,0:2|0:2,0:0:0:0:
88,175,133154,2,0,L|94:118,1,56.5949988773575,2|8,1:2|1:3,0:0:0:0:
189,214,133404,1,10,0:2:0:0:
125,41,133529,6,0,P|79:31|32:76,1,113.189997754715,6|8,1:2|1:3,0:0:0:0:
28,227,133904,2,0,L|96:214,1,56.5949988773575,8|0,0:2|0:0,0:0:0:0:
188,320,134154,2,0,L|120:307,1,56.5949988773575,2|8,1:2|0:2,0:0:0:0:
125,291,134341,1,0,0:0:0:0:
125,291,134404,2,0,L|121:222,1,56.5949988773575,10|10,0:2|0:2,0:0:0:0:
228,125,134654,6,0,B|290:140|247:173|336:188,1,113.189997754715,0|10,1:0|0:2,0:0:0:0:
366,56,135029,1,2,0:2:0:0:
366,56,135154,2,0,P|347:79|340:112,2,56.5949988773575,2|10|10,1:2|1:3|0:2,0:0:0:0:
500,12,135529,1,6,1:3:0:0:
500,12,135654,2,0,L|507:88,1,56.5949988773575,2|0,0:2|1:0,0:0:0:0:
402,197,135904,2,0,L|407:140,1,56.5949988773575,10|0,0:2|0:0,0:0:0:0:
466,282,136154,2,0,P|446:298|404:306,1,56.5949988773575,2|8,1:2|1:3,0:0:0:0:
352,172,136404,2,0,P|379:179|401:196,1,56.5949988773575,10|0,0:2|0:2,0:0:0:0:
266,299,136654,6,0,P|258:229|249:166,1,113.189997754715,14|0,0:2|1:2,0:0:0:0:
154,53,137029,2,0,P|85:75|93:127,1,113.189997754715,8|0,0:2|1:2,0:0:0:0:
162,228,137404,2,0,P|172:191|178:157,1,56.5949988773575,10|0,0:2|0:0,0:0:0:0:
287,43,137654,2,0,P|292:70|300:97,1,56.5949988773575,2|8,1:2|0:2,0:0:0:0:
316,109,137841,1,8,0:2:0:0:
316,109,137904,2,0,P|345:101|381:96,1,56.5949988773575,8|8,0:2|1:3,0:0:0:0:
415,211,138154,2,0,P|385:203|350:198,1,56.5949988773575,10|8,0:2|0:2,0:0:0:0:
309,306,138404,2,0,P|336:299|364:294,1,56.5949988773575,10|4,1:3|1:3,0:0:0:0:
215,216,138654,6,0,L|220:272,1,49.244997670601,6|0,1:2|0:0,0:0:0:0:
117,320,138904,2,0,L|123:237,1,65.6599968941347,2|0,1:2|0:0,0:0:0:0:
75,190,139154,2,0,L|71:129,1,49.244997670601,10|4,1:3|1:3,0:0:0:0:
198,50,139404,1,10,0:2:0:0:
198,50,139654,6,0,L|247:53,1,49.244997670601,2|0,1:2|0:0,0:0:0:0:
291,171,139904,1,6,1:3:0:0:
291,171,140029,2,0,L|409:163,1,98.489995341202,2|8,1:2|1:3,0:0:0:0:
476,46,140404,1,12,0:2:0:0:
476,46,140654,6,0,L|473:95,1,49.244997670601,0|2,1:2|0:2,0:0:0:0:
389,164,140904,1,10,1:3:0:0:
389,164,141029,2,0,L|397:282,1,98.489995341202,4|0,1:3|1:2,0:0:0:0:
265,351,141404,1,10,0:2:0:0:
265,351,141654,6,0,P|244:336|208:327,1,49.244997670601,2|8,1:2|1:3,0:0:0:0:
93,348,141904,1,10,1:3:0:0:
93,348,142029,2,0,P|116:339|136:325,2,49.244997670601,6|12|4,1:3|0:2|1:3,0:0:0:0:
38,240,142404,2,0,P|58:254|82:263,1,49.244997670601,8|10,0:2|0:2,0:0:0:0:
220,159,142654,2,0,L|215:95,1,49.244997670601,0|2,1:2|0:2,0:0:0:0:
325,49,142904,2,0,L|321:98,2,49.244997670601,2|2|2,1:2|0:2|1:2,0:0:0:0:
450,14,143279,1,0,0:0:0:0:
450,14,143404,2,0,L|453:63,1,49.244997670601,10|2,1:3|0:2,0:0:0:0:
462,204,143654,6,0,L|412:200,1,49.244997670601,0|10,1:2|0:2,0:0:0:0:
396,214,143841,1,8,0:2:0:0:
396,214,143904,2,0,L|346:217,1,49.244997670601,10|8,0:2|0:2,0:0:0:0:
261,335,144154,1,10,0:2:0:0:
261,335,144279,1,8,1:3:0:0:
195,188,144404,2,0,L|244:191,1,49.244997670601,6|6,1:3|1:3,0:0:0:0:
105,283,144654,6,0,P|97:223|81:151,1,113.189997754715,6|8,1:2|0:2,0:0:0:0:
213,76,145029,1,6,1:2:0:0:
213,76,145154,2,0,P|201:131|194:187,1,113.189997754715,2|8,0:2|0:2,0:0:0:0:
319,283,145529,2,0,P|307:227|300:171,1,113.189997754715,6|8,1:2|1:3,0:0:0:0:
426,85,145904,1,8,0:2:0:0:
403,219,146029,2,0,P|414:163|421:107,1,113.189997754715,6|4,1:2|1:3,0:0:0:0:
309,28,146404,2,0,P|276:35|237:43,1,56.5949988773575,8|0,0:2|0:0,0:0:0:0:
70,12,146654,6,0,L|62:84,1,56.5949988773575,6|0,1:2|0:2,0:0:0:0:
157,195,146904,2,0,L|152:139,1,56.5949988773575,10|0,0:2|0:2,0:0:0:0:
52,0,147154,2,0,L|44:72,1,56.5949988773575,2|8,1:2|1:3,0:0:0:0:
4,233,147404,1,10,0:2:0:0:
134,135,147529,2,0,L|145:260,1,113.189997754715,6|8,1:2|1:3,0:0:0:0:
248,357,147904,2,0,P|279:348|315:342,1,56.5949988773575,10|0,0:2|0:2,0:0:0:0:
431,275,148154,2,0,P|403:269|376:261,1,56.5949988773575,2|4,1:2|1:3,0:0:0:0:
263,178,148404,1,10,0:2:0:0:
263,178,148529,1,10,1:3:0:0:
414,100,148654,6,0,L|420:176,1,56.5949988773575,6|0,1:2|0:2,0:0:0:0:
272,78,148904,2,0,L|276:21,1,56.5949988773575,10|0,0:2|0:2,0:0:0:0:
427,103,149154,2,0,L|433:179,1,56.5949988773575,2|8,1:2|1:3,0:0:0:0:
340,256,149404,1,10,0:2:0:0:
277,101,149529,2,0,P|237:64|185:79,1,113.189997754715,6|0,1:2|1:3,0:0:0:0:
74,233,149904,2,0,P|105:224|142:220,1,56.5949988773575,8|0,0:2|0:2,0:0:0:0:
41,138,150154,1,2,1:2:0:0:
41,138,150279,1,10,0:2:0:0:
96,317,150404,1,10,0:2:0:0:
96,317,150654,5,2,1:2:0:0:
256,202,150904,1,14,0:2:0:0:
256,202,151154,5,2,1:2:0:0:
96,87,151404,1,14,0:2:0:0:
96,87,151654,6,0,L|93:54,2,28.2974994386788,2|0|8,1:2|0:0|1:3,0:0:0:0:
39,188,151904,1,14,0:2:0:0:
39,188,152154,6,0,L|42:221,2,28.2974994386788,2|0|8,1:2|0:0|1:3,0:0:0:0:
96,87,152404,1,14,0:2:0:0:
96,87,152654,6,0,L|176:72,2,63.9450005366478,14|0|4,1:2|0:0|1:3,0:0:0:0:
219,186,153029,2,0,L|156:174,2,63.9450005366478,10|0|4,1:2|0:0|1:3,0:0:0:0:
299,101,153404,2,0,L|291:27,1,63.9450005366478,10|8,1:2|1:3,0:0:0:0:
451,109,153654,6,0,L|371:94,2,63.9450005366478,14|0|4,1:2|0:0|1:3,0:0:0:0:
328,208,154029,2,0,L|390:196,2,63.9450005366478,10|0|8,1:2|0:0|1:3,0:0:0:0:
473,297,154404,2,0,L|465:223,1,63.9450005366478,10|8,1:2|1:3,0:0:0:0:
365,343,154654,5,14,0:2:0:0:
365,343,154779,1,0,1:2:0:0:
289,194,154904,2,0,P|260:178|224:178,1,63.9450005366478,8|8,0:2|1:3,0:0:0:0:
122,318,155154,2,0,L|117:278,2,31.9725002683239,8|0|4,0:2|0:0|1:3,0:0:0:0:
238,255,155404,2,0,L|234:286,3,31.9725002683239,8|0|8|0,0:2|0:0|1:3|1:2,0:0:0:0:
231,308,155654,5,14,0:2:0:0:
499,257,156404,5,10,0:2:0:0:
498,263,156466,1,8,0:2:0:0:
497,269,156529,1,8,0:2:0:0:
496,275,156591,1,8,0:2:0:0:
495,282,156654,2,0,P|441:314|376:265,1,142.590003372414,6|8,1:2|0:2,0:0:0:0:
316,120,157029,2,0,P|280:113|241:137,1,71.2950016862069,10|0,0:3|1:2,0:0:0:0:
191,296,157279,2,0,P|226:302|265:278,1,71.2950016862069,10|8,1:3|0:2,0:0:0:0:
123,134,157529,2,0,B|40:141|82:195|-6:203,1,142.590003372414,6|8,1:2|1:3,0:0:0:0:
107,356,157904,1,8,0:2:0:0:
107,356,158029,2,0,L|124:207,1,142.590003372414,2|8,0:2|1:3,0:0:0:0:
234,76,158404,2,0,L|240:162,1,71.2950016862069,10|0,0:2|0:2,0:0:0:0:
321,276,158654,6,0,P|391:285|464:292,1,142.590003372414,6|10,1:2|0:2,0:0:0:0:
395,141,159029,2,0,P|347:144|301:145,1,71.2950016862069,2|0,0:2|1:2,0:0:0:0:
402,303,159279,2,0,P|448:309|494:314,1,71.2950016862069,10|8,1:3|0:2,0:0:0:0:
384,122,159529,2,0,P|312:126|239:129,1,142.590003372414,6|8,1:2|1:3,0:0:0:0:
61,70,159904,2,0,P|65:34|70:-1,1,71.2950016862069,8|0,0:2|0:2,0:0:0:0:
134,194,160154,2,0,P|100:218|46:208,1,71.2950016862069,2|8,1:2|1:3,0:0:0:0:
182,39,160404,2,0,P|216:45|241:70,1,71.2950016862069,10|0,0:2|0:2,0:0:0:0:
326,209,160654,6,0,B|310:174|310:174|195:154,1,142.590003372414,6|8,1:2|0:2,0:0:0:0:
268,337,161029,2,0,L|347:325,1,71.2950016862069,2|0,0:2|1:3,0:0:0:0:
275,157,161279,2,0,L|196:145,1,71.2950016862069,10|8,1:3|0:2,0:0:0:0:
80,289,161529,2,0,L|64:126,1,142.590003372414,6|8,1:2|1:3,0:0:0:0:
228,326,161904,1,8,0:2:0:0:
228,326,162029,2,0,L|244:163,1,142.590003372414,2|8,0:2|1:3,0:0:0:0:
277,23,162404,2,0,P|240:13|206:27,1,71.2950016862069,10|0,0:2|0:2,0:0:0:0:
73,132,162654,2,0,L|82:202,1,71.2950016862069,6|0,1:2|0:0,0:0:0:0:
146,80,162904,1,10,0:2:0:0:
248,209,163029,2,0,L|318:200,1,71.2950016862069,6|0,1:2|0:2,0:0:0:0:
418,353,163279,2,0,L|348:344,1,71.2950016862069,10|8,1:3|0:2,0:0:0:0:
147,384,163529,6,0,P|140:313|131:242,1,142.590003372414,6|8,1:2|1:3,0:0:0:0:
231,328,163904,1,8,0:2:0:0:
56,222,164029,2,0,P|65:152|72:80,1,142.590003372414,6|8,1:2|1:3,0:0:0:0:
226,157,164404,2,0,P|195:179|149:174,1,71.2950016862069,10|0,0:2|0:2,0:0:0:0:
238,29,164654,2,0,P|273:30|301:51,1,71.2950016862069,6|0,1:2|0:2,0:0:0:0:
415,208,164904,1,10,0:2:0:0:
415,208,165029,1,8,0:3:0:0:
290,268,165154,2,0,P|295:233|299:198,1,71.2950016862069,2|8,1:2|1:3,0:0:0:0:
405,346,165404,1,10,0:2:0:0:
405,346,165529,1,6,1:2:0:0:
206,361,165654,6,0,L|195:203,1,142.590003372414,2|8,0:2|0:2,0:0:0:0:
82,97,166029,2,0,P|138:140|198:102,1,142.590003372414,2|8,0:2|1:3,0:0:0:0:
346,32,166404,2,0,P|311:27|267:19,1,71.2950016862069,8|2,0:2|0:2,0:0:0:0:
396,163,166654,2,0,P|432:159|467:157,1,71.2950016862069,0|2,1:2|0:2,0:0:0:0:
290,266,166904,2,0,P|297:231|301:196,1,71.2950016862069,10|2,0:2|0:2,0:0:0:0:
378,313,167154,1,2,1:2:0:0:
378,313,167279,1,8,1:3:0:0:
212,219,167404,2,0,L|141:225,1,71.2950016862069,10|4,0:2|1:2,0:0:0:0:
27,110,167654,5,2,0:2:0:0:
27,110,167779,2,0,L|41:256,1,142.590003372414,6|2,1:3|0:2,0:0:0:0:
176,353,168154,2,0,P|211:354|240:335,1,71.2950016862069,0|8,1:0|1:3,0:0:0:0:
281,151,168404,2,0,P|314:131|363:143,1,71.2950016862069,10|0,0:2|0:2,0:0:0:0:
410,307,168654,2,0,P|343:279|342:194,2,142.590003372414,6|8|0,1:2|0:2|1:2,0:0:0:0:
512,161,169279,1,8,1:3:0:0:
512,161,169404,2,0,P|483:181|440:181,1,71.2950016862069,10|4,0:2|1:3,0:0:0:0:
374,55,169654,6,0,P|432:92|433:160,1,142.590003372414,2|8,0:2|0:2,0:0:0:0:
242,194,170029,2,0,P|260:125|271:54,1,142.590003372414,2|8,0:2|1:3,0:0:0:0:
353,214,170404,2,0,P|381:236|416:241,1,71.2950016862069,10|0,0:2|0:2,0:0:0:0:
350,65,170654,2,0,P|304:63|254:110,1,106.94250252931,6|8,1:2|0:2,0:0:0:0:
233,128,170904,2,0,L|244:36,1,71.2950016862069,8|10,0:2|0:2,0:0:0:0:
147,157,171154,1,8,0:2:0:0:
147,157,171279,1,10,1:3:0:0:
295,272,171404,2,0,L|290:179,1,71.2950016862069,8|4,1:3|1:3,0:0:0:0:
220,351,171654,6,0,P|157:332|161:259,1,142.590003372414,14|0,0:2|1:2,0:0:0:0:
303,189,172029,2,0,P|366:208|366:275,1,142.590003372414,14|8,0:2|1:3,0:0:0:0:
220,351,172404,1,10,1:3:0:0:
220,351,172529,1,8,0:2:0:0:
206,132,172654,6,0,P|164:109|81:176,1,142.590003372414,6|8,1:2|0:2,0:0:0:0:
107,327,173029,2,0,P|114:291|119:246,1,71.2950016862069,2|0,0:2|1:2,0:0:0:0:
0,153,173279,2,0,P|3:189|7:224,1,71.2950016862069,10|8,1:3|0:2,0:0:0:0:
171,369,173529,2,0,P|209:346|306:330,1,142.590003372414,6|8,1:2|1:3,0:0:0:0:
474,271,173904,1,8,0:2:0:0:
474,271,174029,2,0,P|481:236|497:115,1,142.590003372414,2|8,0:2|1:3,0:0:0:0:
394,46,174404,2,0,P|358:49|323:53,1,71.2950016862069,10|0,0:2|0:2,0:0:0:0:
223,155,174654,6,0,P|275:213|329:151,1,142.590003372414,6|10,1:2|0:2,0:0:0:0:
152,58,175029,2,0,P|108:66|63:72,1,71.2950016862069,2|0,0:2|1:2,0:0:0:0:
12,212,175279,2,0,P|46:220|81:229,1,71.2950016862069,10|8,1:3|0:2,0:0:0:0:
262,284,175529,2,0,P|185:265|171:348,1,142.590003372414,6|8,1:2|1:3,0:0:0:0:
285,373,175904,2,0,P|277:329|270:284,1,71.2950016862069,8|0,0:2|0:2,0:0:0:0:
414,238,176154,2,0,P|406:272|397:307,1,71.2950016862069,2|8,1:2|1:3,0:0:0:0:
240,228,176404,2,0,P|232:184|225:139,1,71.2950016862069,10|0,0:2|0:2,0:0:0:0:
345,33,176654,6,0,P|416:59|489:66,1,142.590003372414,6|8,1:2|0:2,0:0:0:0:
306,132,177029,2,0,P|277:160|273:211,1,71.2950016862069,2|0,0:2|1:2,0:0:0:0:
415,268,177279,2,0,P|407:233|383:208,1,71.2950016862069,10|8,1:3|0:2,0:0:0:0:
262,322,177529,2,0,P|333:319|401:298,1,142.590003372414,6|8,1:2|1:3,0:0:0:0:
201,185,177904,1,8,0:2:0:0:
201,185,178029,2,0,P|268:211|338:218,1,142.590003372414,2|8,0:2|1:3,0:0:0:0:
235,44,178404,2,0,P|239:80|243:128,1,71.2950016862069,10|0,0:2|0:2,0:0:0:0:
97,175,178654,2,0,P|101:138|105:91,1,71.2950016862069,6|0,1:2|0:0,0:0:0:0:
246,207,178904,1,10,0:2:0:0:
75,151,179029,2,0,P|79:114|83:67,1,71.2950016862069,2|0,0:2|1:2,0:0:0:0:
226,201,179279,2,0,P|221:164|218:117,1,71.2950016862069,10|8,1:3|0:2,0:0:0:0:
358,14,179529,6,0,L|348:163,1,142.590003372414,6|8,1:2|1:3,0:0:0:0:
457,262,179904,1,8,0:2:0:0:
259,183,180029,2,0,L|269:332,1,142.590003372414,4|8,1:2|0:2,0:0:0:0:
123,211,180404,2,0,P|152:188|199:183,1,71.2950016862069,10|8,0:2|1:3,0:0:0:0:
65,322,180654,5,14,0:2:0:0:
182,262,180779,1,0,1:2:0:0:
37,137,180904,2,0,L|46:226,1,71.2950016862069,10|0,0:2|1:2,0:0:0:0:
164,53,181154,2,0,L|155:142,1,71.2950016862069,10|0,0:2|1:2,0:0:0:0:
259,261,181404,1,10,0:2:0:0:
178,154,181529,1,2,1:2:0:0:
363,94,181654,6,0,L|277:103,1,71.2950016862069,8|0,0:2|1:2,0:0:0:0:
429,280,181904,2,0,L|358:272,1,71.2950016862069,10|0,0:2|1:0,0:0:0:0:
481,151,182154,2,0,L|484:187,3,35.6475008431034,10|0|0|0,1:2|1:0|1:0|1:0,0:0:0:0:
451,144,182404,2,0,L|454:180,3,35.6475008431034,10|4|4|4,1:3|1:3|1:3|1:3,0:0:0:0:
428,138,182654,5,10,0:2:0:0:
366,123,183654,5,0,1:0:0:0:
425,244,183779,1,8,0:0:0:0:
425,244,183841,1,8,0:0:0:0:
425,244,183904,2,0,L|472:249,2,47.5300011241379,10|8|8,0:0|0:0|0:0,0:0:0:0:
321,333,184154,6,0,L|389:325,2,47.5300011241379,10|8|8,0:3|0:3|0:3,0:0:0:0:
264,252,184404,2,0,L|217:245,2,47.5300011241379,6|4|4,0:3|0:3|0:3,0:0:0:0:
135,276,184654,6,0,B|129:197|114:119|114:119|142:100|161:69,1,213.885005058621,6|8,1:2|1:3,0:0:0:0:
305,168,185154,2,0,P|247:194|206:123,1,142.590003372414,8|0,0:0|3:0,0:0:0:0:
384,230,185529,2,0,L|394:81,1,142.590003372414,0|8,1:2|0:2,0:0:0:0:
226,243,185904,2,0,L|230:314,1,71.2950016862069,2|8,3:2|1:3,0:0:0:0:
371,214,186154,2,0,L|375:142,1,71.2950016862069,10|0,0:0|0:0,0:0:0:0:
209,251,186404,2,0,L|213:322,1,71.2950016862069,0|0,1:2|0:0,0:0:0:0:
214,130,186654,6,0,B|78:105|144:208|19:191,1,213.885005058621,6|8,1:2|1:3,0:0:0:0:
72,15,187154,2,0,P|10:51|49:125,1,142.590003372414,8|0,0:2|3:2,0:0:0:0:
196,31,187529,2,0,P|264:41|308:95,1,142.590003372414,0|8,1:2|0:2,0:0:0:0:
237,233,187904,2,0,P|247:199|267:170,1,71.2950016862069,2|8,3:2|1:3,0:0:0:0:
401,280,188154,1,10,0:2:0:0:
401,280,188279,2,0,P|381:215|378:135,1,142.590003372414,2|10,0:2|0:2,0:0:0:0:
272,318,188654,6,0,P|215:334|150:215,1,213.885005058621,4|8,1:2|1:3,0:0:0:0:
115,45,189154,2,0,P|76:50|25:59,1,71.2950016862069,8|0,0:2|0:0,0:0:0:0:
215,149,189404,2,0,P|179:143|144:138,1,71.2950016862069,8|0,0:2|1:2,0:0:0:0:
261,23,189654,1,0,0:2:0:0:
261,23,189779,2,0,P|225:27|190:33,2,71.2950016862069,8|2|8,0:2|1:2|0:2,0:0:0:0:
374,124,190154,2,0,L|364:209,1,71.2950016862069,10|0,0:2|0:2,0:0:0:0:
248,267,190404,2,0,L|239:196,1,71.2950016862069,10|4,1:3|1:3,0:0:0:0:
390,117,190654,5,10,0:2:0:0:
390,117,190904,6,0,L|246:99,2,127.890001073296,2|2|2,0:2|0:2|0:2,0:0:0:0:
454,219,191529,1,10,1:3:0:0:
454,219,191591,1,8,1:3:0:0:
454,219,191654,1,8,0:2:0:0:
325,27,191904,5,8,0:2:0:0:
325,27,192029,1,8,0:2:0:0:
241,157,192154,1,8,0:2:0:0:
241,157,192279,2,0,L|164:150,1,63.9450005366478,8|8,1:3|1:3,0:0:0:0:
128,30,192529,1,4,1:3:0:0:
58,180,192654,5,6,1:2:0:0:
108,197,196654,5,4,1:2:0:0:
240,126,199154,5,8,0:2:0:0:
244,130,199404,5,8,0:2:0:0:
244,130,199529,1,8,0:2:0:0:
142,240,199654,2,0,P|111:235|80:234,1,49.244997670601,8|8,0:2|0:2,0:0:0:0:
18,299,199904,2,0,P|11:279|9:258,2,32.8299984470673,8|0|0,0:3|0:0|0:0,0:0:0:0:
134,368,200154,2,0,P|164:363|196:362,2,49.244997670601,8|8|4,1:2|1:3|1:3,0:0:0:0:
222,215,200529,1,8,0:2:0:0:
337,351,200654,6,0,B|386:351|408:311|408:311|449:335|504:295,1,169.784996632073,6|0,1:2|0:2,0:0:0:0:
457,164,201154,2,0,P|450:195|446:228,1,56.5949988773575,6|0,1:3|0:2,0:0:0:0:
295,278,201404,2,0,P|285:212|270:147,1,113.189997754715,2|4,3:2|1:3,0:0:0:0:
208,40,201779,1,2,0:2:0:0:
208,40,201904,2,0,P|143:37|129:90,1,113.189997754715,2|6,3:2|1:3,0:0:0:0:
161,242,202404,1,2,3:2:0:0:
320,100,202654,6,0,B|329:100|349:87|349:87|316:144|301:215,1,169.784996632073,2|0,1:2|0:2,0:0:0:0:
398,301,203154,2,0,P|390:268|387:235,1,56.5949988773575,6|0,1:3|0:2,0:0:0:0:
287,360,203404,2,0,B|220:365|251:327|175:328,1,113.189997754715,2|4,3:2|1:3,0:0:0:0:
47,353,203779,1,2,0:2:0:0:
47,353,203904,2,0,P|41:318|32:284,1,56.5949988773575,2|0,3:2|0:2,0:0:0:0:
138,124,204154,1,6,1:3:0:0:
273,276,204404,1,2,3:2:0:0:
347,80,204654,6,0,B|419:74|481:65|481:65|493:88|513:117,1,169.784996632073,2|0,1:2|0:2,0:0:0:0:
431,231,205154,2,0,L|437:164,1,56.5949988773575,6|0,1:3|0:2,0:0:0:0:
318,84,205404,2,0,L|330:204,1,113.189997754715,2|4,3:2|1:3,0:0:0:0:
231,96,205779,1,2,0:2:0:0:
231,96,205904,2,0,P|207:80|167:80,1,56.5949988773575,2|0,3:2|0:2,0:0:0:0:
123,207,206154,2,0,P|150:203|174:187,1,56.5949988773575,6|0,1:3|0:0,0:0:0:0:
235,87,206404,2,0,P|211:71|171:71,1,56.5949988773575,2|0,3:2|0:0,0:0:0:0:
122,219,206654,5,10,0:2:0:0:
261,158,206779,2,0,L|250:264,1,95.9175008049717,0|0,1:2|0:0,0:0:0:0:
249,272,207029,1,8,1:3:0:0:
365,164,207154,2,0,L|442:156,1,63.9450005366478,10|4,0:2|1:3,0:0:0:0:
499,300,207404,2,0,L|435:293,1,63.9450005366478,0|8,0:0|1:3,0:0:0:0:
290,214,207654,2,0,P|324:245|259:298,1,127.890001073296,10|8,0:2|1:3,0:0:0:0:
123,191,208154,6,0,L|130:238,2,42.6300003577652,10|8|8,0:2|0:2|0:2,0:0:0:0:
219,155,208404,2,0,L|212:202,2,42.6300003577652,8|8|8,0:2|0:2|0:2,0:0:0:0:
192,57,208654,6,0,P|261:55|306:119,2,142.590003372414,4|8|0,1:2|0:2|1:2,0:0:0:0:
114,192,209279,1,0,1:2:0:0:
53,28,209404,1,10,0:2:0:0:
53,28,209529,1,2,0:2:0:0:
138,182,209654,2,0,P|173:176|217:171,1,71.2950016862069,2|8,1:2|1:3,0:0:0:0:
307,306,209904,1,10,0:2:0:0:
307,306,210029,2,0,P|271:300|228:295,1,71.2950016862069,2|0,0:0|1:2,0:0:0:0:
355,185,210279,1,2,1:2:0:0:
355,185,210404,1,8,0:2:0:0:
400,359,210529,6,0,P|468:361|512:307,1,142.590003372414,6|8,1:2|1:3,0:0:0:0:
441,147,210904,2,0,P|435:182|430:226,1,71.2950016862069,8|0,0:2|0:2,0:0:0:0:
245,78,211154,2,0,P|250:113|256:157,1,71.2950016862069,0|4,1:2|1:3,0:0:0:0:
407,55,211404,1,10,0:2:0:0:
407,55,211529,1,2,0:2:0:0:
321,209,211654,2,0,P|248:195|166:182,1,142.590003372414,2|10,1:2|0:2,0:0:0:0:
58,291,212029,2,0,P|53:255|47:220,1,71.2950016862069,2|0,0:2|1:2,0:0:0:0:
188,99,212279,2,0,P|182:134|177:169,1,71.2950016862069,10|8,1:3|0:2,0:0:0:0:
60,52,212529,6,0,P|103:-1|172:0,1,142.590003372414,2|0,1:2|0:0,0:0:0:0:
262,178,212904,2,0,P|330:179|374:125,1,142.590003372414,8|0,0:2|1:2,0:0:0:0:
213,84,213279,1,8,1:3:0:0:
375,34,213404,1,10,0:2:0:0:
375,34,213529,1,2,0:2:0:0:
213,84,213654,2,0,P|178:78|143:73,1,71.2950016862069,2|8,1:2|1:3,0:0:0:0:
39,215,213904,1,10,0:2:0:0:
39,215,214029,2,0,P|35:171|31:133,1,71.2950016862069,2|0,1:2|0:2,0:0:0:0:
195,243,214279,2,0,P|198:199|203:161,1,71.2950016862069,10|8,1:3|0:2,0:0:0:0:
301,328,214529,6,0,P|369:329|413:275,1,142.590003372414,6|8,1:2|1:3,0:0:0:0:
274,161,214904,2,0,L|281:242,1,71.2950016862069,10|0,0:2|0:2,0:0:0:0:
382,115,215154,1,2,1:2:0:0:
382,115,215279,1,10,1:3:0:0:
204,62,215404,2,0,L|197:143,1,71.2950016862069,10|0,0:2|0:2,0:0:0:0:
116,287,215654,2,0,B|125:275|131:261|131:261|187:257|246:246,1,142.590003372414,6|8,1:2|0:2,0:0:0:0:
346,384,216029,2,0,B|337:372|331:358|331:358|275:354|216:343,1,142.590003372414,6|10,1:2|0:2,0:0:0:0:
111,231,216404,1,8,0:2:0:0:
111,231,216529,1,10,0:2:0:0:
261,105,216654,6,0,P|250:173|242:248,1,142.590003372414,4|8,1:2|0:2,0:0:0:0:
164,85,217029,1,0,0:2:0:0:
164,85,217154,2,0,P|137:66|95:60,1,71.2950016862069,0|8,1:2|1:3,0:0:0:0:
164,230,217404,2,0,P|198:224|228:204,1,71.2950016862069,10|0,0:2|0:2,0:0:0:0:
320,46,217654,2,0,P|368:60|377:155,1,142.590003372414,2|8,1:2|0:2,0:0:0:0:
247,205,218029,1,6,1:3:0:0:
247,205,218154,2,0,P|274:186|316:180,1,71.2950016862069,0|0,0:2|1:2,0:0:0:0:
373,329,218404,2,0,P|338:323|308:303,1,71.2950016862069,10|0,0:2|0:2,0:0:0:0:
467,221,218654,6,0,L|452:305,1,71.2950016862069,0|0,1:2|0:2,0:0:0:0:
296,378,218904,2,0,L|283:307,1,71.2950016862069,10|0,0:2|0:2,0:0:0:0:
240,157,219154,2,0,P|212:135|155:140,1,71.2950016862069,2|8,1:2|1:3,0:0:0:0:
107,271,219404,2,0,P|142:267|169:245,1,71.2950016862069,10|0,0:2|0:2,0:0:0:0:
21,146,219654,1,2,1:2:0:0:
21,146,219779,1,8,1:3:0:0:
182,60,219904,2,0,L|176:149,1,71.2950016862069,10|0,0:2|0:2,0:0:0:0:
317,242,220154,2,0,L|312:170,1,71.2950016862069,2|0,1:2|0:2,0:0:0:0:
194,69,220404,2,0,L|188:158,1,71.2950016862069,10|0,0:2|0:2,0:0:0:0:
325,12,220654,6,0,P|252:1|209:55,2,142.590003372414,6|8|0,1:2|0:2|1:2,0:0:0:0:
373,169,221279,1,8,1:3:0:0:
373,169,221404,2,0,P|330:172|282:139,1,71.2950016862069,8|0,0:2|0:2,0:0:0:0:
464,55,221654,2,0,L|452:129,1,71.2950016862069,0|8,1:2|0:2,0:0:0:0:
465,137,221841,1,8,0:2:0:0:
465,137,221904,2,0,L|477:211,1,71.2950016862069,8|8,0:2|0:2,0:0:0:0:
350,276,222154,2,0,P|325:258|280:247,1,71.2950016862069,8|8,0:2|1:3,0:0:0:0:
219,384,222404,2,0,P|244:366|289:355,1,71.2950016862069,6|4,1:3|1:3,0:0:0:0:
137,243,222654,5,10,0:2:0:0:
439,218,224654,5,6,1:2:0:0:
439,218,225154,1,0,1:2:0:0:
109,198,225654,5,0,1:2:0:0:
109,198,226154,1,0,1:2:0:0:
275,362,226654,5,0,1:2:0:0:
275,362,227154,1,0,1:2:0:0:
204,95,227654,5,0,1:2:0:0:
204,95,228154,1,0,1:2:0:0:
61,183,228654,5,2,1:2:0:0:
61,183,229154,1,0,1:2:0:0:
420,313,229654,5,0,1:2:0:0:
420,313,230154,1,0,1:2:0:0:
0,316,230654,5,0,1:2:0:0:
0,316,231154,1,0,1:2:0:0:
286,126,231654,6,0,L|275:227,1,83.7899989771729,12|0,0:2|0:0,0:0:0:0:
174,264,232029,2,0,L|165:203,1,41.8949994885864,8|0,0:3|0:0,0:0:0:0:
307,118,232404,2,0,L|300:159,1,41.8949994885864,4|0,0:3|0:0,0:0:0:0:
196,97,232654,6,0,L|110:89,1,49.244997670601,6|0,1:2|0:0,0:0:0:0:
82,159,232904,2,0,L|32:163,2,49.244997670601,0|0|0,3:2|0:2|1:2,0:0:0:0:
187,262,233404,2,0,L|236:266,1,49.244997670601,0|0,3:2|0:2,0:0:0:0:
333,279,233654,2,0,P|343:226|356:176,1,98.489995341202,0|2,1:2|3:2,0:0:0:0:
313,77,234029,1,0,0:2:0:0:
313,77,234154,2,0,P|289:68|257:65,2,49.244997670601,2|2|0,1:2|0:2|3:2,0:0:0:0:
410,115,234529,5,0,0:2:0:0:
410,115,234654,2,0,P|454:93|516:84,1,98.489995341202,2|0,1:2|3:2,0:0:0:0:
512,186,235029,1,0,0:2:0:0:
512,186,235154,2,0,P|486:176|448:169,1,49.244997670601,0|0,1:2|0:0,0:0:0:0:
399,239,235404,1,0,3:2:0:0:
244,118,235654,5,2,1:2:0:0:
244,118,235779,2,0,L|236:187,1,49.244997670601,2|0,0:2|3:2,0:0:0:0:
161,221,236029,1,2,0:2:0:0:
161,221,236154,2,0,L|169:290,1,49.244997670601,8|2,0:3|0:2,0:0:0:0:
55,281,236404,2,0,L|63:207,1,73.8674965059015,10|0,0:3|0:0,0:0:0:0:
55,186,236654,6,0,L|-9:172,1,56.5949988773575,6|0,1:2|0:0,0:0:0:0:
116,89,236904,2,0,L|60:101,1,56.5949988773575,8|8,0:2|0:2,0:0:0:0:
165,206,237154,1,8,0:2:0:0:
165,206,237279,1,8,0:2:0:0:
190,47,237404,1,10,0:2:0:0:
190,47,237529,1,8,0:2:0:0:
275,204,237654,6,0,L|285:131,1,63.9450005366478,10|8,0:2|0:2,0:0:0:0:
443,58,237904,1,8,0:2:0:0:
230,7,238029,2,0,L|238:70,1,63.9450005366478,10|8,0:2|0:2,0:0:0:0:
424,140,238279,1,8,0:2:0:0:
254,215,238405,2,0,L|262:151,1,63.9450005366478,10|8,0:2|0:2,0:0:0:0:
412,304,238654,6,0,P|453:288|473:240,1,95.9175008049717,6|8,1:2|0:2,0:0:0:0:
466,227,238904,2,0,P|456:261|426:285,1,63.9450005366478,8|10,0:2|0:2,0:0:0:0:
298,232,239154,2,0,P|320:254|328:285,1,63.9450005366478,8|8,0:2|1:3,0:0:0:0:
194,345,239404,2,0,P|216:322|224:291,1,63.9450005366478,6|4,1:3|1:3,0:0:0:0:
55,184,239654,5,10,0:2:0:0:
55,184,240154,5,8,0:2:0:0:
54,177,240217,1,8,0:2:0:0:
53,171,240279,1,8,0:2:0:0:
52,165,240342,1,8,0:2:0:0:
51,159,240404,1,8,0:2:0:0:
158,36,240529,5,8,0:2:0:0:
158,36,240591,1,8,0:2:0:0:
158,36,240654,2,0,P|148:102|139:182,1,142.590003372414,6|8,1:2|0:2,0:0:0:0:
256,59,241029,2,0,P|291:44|327:39,1,71.2950016862069,2|0,0:2|1:2,0:0:0:0:
382,204,241279,2,0,P|347:189|311:184,1,71.2950016862069,10|8,1:3|0:2,0:0:0:0:
467,59,241529,2,0,P|475:129|485:200,1,142.590003372414,6|8,1:2|1:3,0:0:0:0:
419,344,241904,1,8,0:2:0:0:
419,344,242029,2,0,P|394:307|289:320,1,142.590003372414,2|8,0:2|1:3,0:0:0:0:
157,372,242404,2,0,P|184:337|188:289,1,71.2950016862069,10|0,0:2|0:2,0:0:0:0:
45,176,242654,6,0,P|115:166|186:157,1,142.590003372414,6|10,1:2|0:2,0:0:0:0:
338,203,243029,2,0,P|328:238|323:282,1,71.2950016862069,2|0,0:2|1:2,0:0:0:0:
186,157,243279,2,0,P|195:192|201:236,1,71.2950016862069,10|8,1:3|0:2,0:0:0:0:
306,85,243529,2,0,P|363:92|402:177,1,142.590003372414,6|8,1:2|1:3,0:0:0:0:
292,281,243904,2,0,P|288:246|283:210,1,71.2950016862069,8|0,0:2|0:2,0:0:0:0:
170,91,244154,2,0,P|137:67|83:77,1,71.2950016862069,2|8,1:2|1:3,0:0:0:0:
34,245,244404,2,0,P|68:239|93:214,1,71.2950016862069,10|0,0:2|0:2,0:0:0:0:
22,23,244654,6,0,P|27:94|34:178,1,142.590003372414,6|8,1:2|0:2,0:0:0:0:
167,316,245029,2,0,P|202:307|246:304,1,71.2950016862069,2|0,0:2|1:2,0:0:0:0:
365,183,245279,2,0,P|329:179|295:170,1,71.2950016862069,10|8,1:3|0:2,0:0:0:0:
150,22,245529,2,0,P|145:93|138:177,1,142.590003372414,6|8,1:2|1:3,0:0:0:0:
275,32,245904,1,8,0:2:0:0:
275,32,246029,2,0,P|346:26|417:21,1,142.590003372414,2|8,0:2|1:3,0:0:0:0:
479,174,246404,2,0,P|484:131|495:88,1,71.2950016862069,10|0,0:2|0:2,0:0:0:0:
336,231,246654,2,0,P|330:188|320:145,1,71.2950016862069,6|0,1:2|0:0,0:0:0:0:
220,299,246904,1,10,0:2:0:0:
130,148,247029,2,0,L|60:157,1,71.2950016862069,2|0,0:2|1:2,0:0:0:0:
196,299,247279,2,0,L|126:290,1,71.2950016862069,10|8,1:3|0:2,0:0:0:0:
219,130,247529,6,0,P|269:116|333:197,1,142.590003372414,6|8,1:2|1:3,0:0:0:0:
353,325,247904,1,8,0:2:0:0:
483,191,248029,2,0,P|495:107|507:49,1,142.590003372414,4|0,1:2|1:2,0:0:0:0:
304,23,248404,2,0,P|310:61|315:106,1,71.2950016862069,10|0,0:2|0:2,0:0:0:0:
243,238,248654,5,14,0:2:0:0:
243,238,248779,1,0,1:2:0:0:
177,76,248904,2,0,P|150:57|101:61,1,71.2950016862069,10|0,0:2|1:2,0:0:0:0:
56,230,249154,2,0,P|91:229|120:210,1,71.2950016862069,10|0,0:2|1:2,0:0:0:0:
9,73,249404,1,10,0:2:0:0:
9,73,249529,1,2,1:2:0:0:
205,180,249654,6,0,L|195:274,1,71.2950016862069,8|0,0:2|1:2,0:0:0:0:
349,350,249904,2,0,L|341:279,1,71.2950016862069,10|0,0:2|1:2,0:0:0:0:
303,106,250154,1,10,0:2:0:0:
204,252,250279,1,8,0:2:0:0:
204,252,250341,1,8,0:2:0:0:
204,252,250404,2,0,P|169:246|126:241,1,71.2950016862069,10|8,0:2|1:3,0:0:0:0:
290,122,250654,5,10,0:0:0:0:
290,122,252154,6,0,L|216:131,1,71.2950016862069,2|8,1:2|0:2,0:0:0:0:
201,113,252341,1,8,0:2:0:0:
201,113,252404,2,0,L|271:104,1,71.2950016862069,10|8,0:2|1:3,0:0:0:0:
441,79,252654,5,10,0:0:0:0:
441,79,253654,6,0,L|450:153,1,71.2950016862069,0|8,1:2|0:2,0:0:0:0:
432,168,253841,1,8,0:2:0:0:
432,168,253904,2,0,L|423:97,1,71.2950016862069,10|8,0:2|1:3,0:0:0:0:
369,242,254154,2,0,P|336:228|288:219,1,71.2950016862069,10|8,0:0|0:2,0:0:0:0:
203,325,254404,2,0,P|236:311|284:302,1,71.2950016862069,10|8,0:2|0:2,0:0:0:0:
97,252,254654,6,0,L|88:159,1,71.2950016862069,6|0,1:2|0:0,0:0:0:0:
251,92,254904,2,0,L|244:162,1,71.2950016862069,2|10,1:2|0:2,0:0:0:0:
131,62,255154,2,0,P|97:50|62:55,1,71.2950016862069,2|0,0:2|0:0,0:0:0:0:
174,187,255404,1,10,0:2:0:0:
174,187,255529,2,0,P|208:192|242:180,1,71.2950016862069,2|8,0:2|1:3,0:0:0:0:
355,67,255779,1,8,0:2:0:0:
355,67,255904,2,0,P|346:110|339:171,1,71.2950016862069,2|0,0:2|0:2,0:0:0:0:
262,267,256154,2,0,P|256:231|249:196,1,71.2950016862069,10|8,0:2|1:3,0:0:0:0:
385,332,256404,1,10,0:2:0:0:
385,332,256654,6,0,P|352:344|302:319,1,71.2950016862069,14|0,1:2|0:0,0:0:0:0:
249,196,256904,2,0,P|215:186|182:198,1,71.2950016862069,2|8,0:2|0:2,0:0:0:0:
74,324,257154,2,0,P|83:282|88:243,1,71.2950016862069,2|8,0:2|1:3,0:0:0:0:
5,112,257404,1,10,0:2:0:0:
5,112,257529,2,0,P|9:147|18:181,1,71.2950016862069,2|0,0:2|0:0,0:0:0:0:
144,92,257779,1,8,0:2:0:0:
144,92,257904,2,0,P|139:127|130:161,1,71.2950016862069,2|0,1:2|0:0,0:0:0:0:
237,52,258154,6,0,P|261:39|303:44,2,47.5300011241379,10|8|8,1:2|0:2|0:2,0:0:0:0:
282,121,258403,2,0,P|304:127|326:149,2,47.5300011241379,10|8|8,0:2|0:2|0:2,0:0:0:0:
263,204,258654,6,0,P|272:277|279:351,2,142.590003372414,6|10|2,1:2|0:2|1:2,0:0:0:0:
146,79,259279,2,0,P|107:72|48:67,1,71.2950016862069,10|8,1:3|0:2,0:0:0:0:
7,224,259529,1,6,0:2:0:0:
7,224,259654,2,0,P|45:217|105:212,1,71.2950016862069,2|8,0:2|1:3,0:0:0:0:
175,330,259904,1,10,0:2:0:0:
175,330,260029,2,0,P|136:323|77:318,1,71.2950016862069,2|4,0:2|1:3,0:0:0:0:
270,241,260279,1,2,1:2:0:0:
270,241,260404,2,0,P|263:279|258:339,1,71.2950016862069,10|0,0:2|0:2,0:0:0:0:
347,176,260654,6,0,P|327:151|273:144,2,71.2950016862069,6|2|10,1:2|0:2|0:2,0:0:0:0:
441,285,261029,1,2,0:2:0:0:
441,285,261154,2,0,P|445:249|451:214,1,71.2950016862069,2|8,1:2|1:3,0:0:0:0:
501,57,261404,1,10,0:2:0:0:
501,57,261529,2,0,P|457:92|377:74,1,142.590003372414,6|10,1:2|1:3,0:0:0:0:
238,3,261904,1,8,0:2:0:0:
238,3,262029,1,2,0:2:0:0:
158,137,262154,2,0,P|120:125|58:116,1,71.2950016862069,2|8,1:2|1:3,0:0:0:0:
244,27,262404,1,8,0:2:0:0:
244,27,262654,6,0,P|240:64|236:119,1,71.2950016862069,6|0,1:2|0:2,0:0:0:0:
352,225,262904,2,0,P|316:219|281:215,1,71.2950016862069,10|0,0:2|0:2,0:0:0:0:
111,194,263154,2,0,P|146:189|181:184,1,71.2950016862069,2|8,1:2|1:3,0:0:0:0:
208,351,263404,1,10,0:2:0:0:
208,351,263529,2,0,P|205:315|201:280,1,71.2950016862069,6|0,1:2|0:2,0:0:0:0:
287,144,263779,2,0,P|283:179|280:214,1,71.2950016862069,2|8,1:2|0:2,0:0:0:0:
172,79,264029,1,2,0:2:0:0:
172,79,264154,2,0,P|145:61|100:62,1,71.2950016862069,0|8,0:0|1:3,0:0:0:0:
15,244,264404,2,0,P|50:243|79:224,1,71.2950016862069,10|0,0:2|0:0,0:0:0:0:
19,56,264654,6,0,L|29:137,1,71.2950016862069,6|0,1:2|0:2,0:0:0:0:
165,229,264904,2,0,L|155:310,1,71.2950016862069,10|4,0:2|1:2,0:0:0:0:
288,178,265154,2,0,L|298:259,1,71.2950016862069,2|8,0:2|1:3,0:0:0:0:
367,143,265404,1,10,0:2:0:0:
165,61,265529,2,0,L|146:223,1,142.590003372414,6|10,1:2|1:3,0:0:0:0:
264,98,265904,1,8,0:2:0:0:
383,263,266029,2,0,B|466:255|426:210|509:205,1,142.590003372414,6|4,1:2|1:3,0:0:0:0:
406,107,266404,2,0,P|392:141|388:189,1,71.2950016862069,10|0,0:2|0:0,0:0:0:0:
293,305,266654,6,0,P|288:269|274:236,1,71.2950016862069,6|0,1:2|0:2,0:0:0:0:
164,355,266904,1,10,0:2:0:0:
164,355,267029,2,0,P|177:322|182:286,1,71.2950016862069,2|0,0:2|1:2,0:0:0:0:
41,343,267279,1,10,1:3:0:0:
41,343,267404,2,0,P|66:318|85:288,1,71.2950016862069,10|4,0:2|1:2,0:0:0:0:
8,158,267654,1,2,0:2:0:0:
8,158,267779,2,0,P|12:193|26:226,1,71.2950016862069,2|8,1:2|0:2,0:0:0:0:
109,99,268029,1,2,0:2:0:0:
109,99,268154,2,0,P|99:133|98:168,1,71.2950016862069,2|8,1:2|1:3,0:0:0:0:
201,81,268404,1,10,0:2:0:0:
201,81,268529,1,2,0:2:0:0:
314,205,268654,6,0,P|354:197|402:191,2,71.2950016862069,6|2|8,1:2|0:2|0:2,0:0:0:0:
227,65,269029,2,0,P|262:70|297:77,1,71.2950016862069,2|0,0:2|1:2,0:0:0:0:
140,151,269279,2,0,P|133:111|120:63,1,71.2950016862069,10|8,1:3|0:2,0:0:0:0:
259,235,269529,6,0,P|271:162|295:76,1,142.590003372414,6|0,1:2|1:2,0:0:0:0:
138,247,269904,2,0,P|100:251|66:217,1,71.2950016862069,10|0,0:2|0:2,0:0:0:0:
173,118,270154,1,10,0:3:0:0:
173,118,270279,1,8,0:3:0:0:
275,257,270404,2,0,P|313:261|347:227,1,71.2950016862069,6|4,0:3|0:3,0:0:0:0:
438,83,270654,5,14,0:2:0:0:
413,253,270779,1,0,1:2:0:0:
285,152,270904,2,0,L|274:49,1,71.2950016862069,8|0,0:2|1:2,0:0:0:0:
141,246,271154,2,0,L|152:143,1,71.2950016862069,8|0,0:2|1:2,0:0:0:0:
276,72,271404,1,8,0:2:0:0:
166,162,271529,1,2,1:2:0:0:
319,266,271654,6,0,L|402:256,1,71.2950016862069,10|0,0:2|1:2,0:0:0:0:
504,77,271904,2,0,L|433:68,1,71.2950016862069,10|0,0:2|1:2,0:0:0:0:
393,235,272154,1,10,0:2:0:0:
341,76,272279,1,0,1:2:0:0:
291,249,272404,2,0,L|220:257,1,71.2950016862069,10|0,0:2|1:2,0:0:0:0:
52,193,272654,6,0,P|47:156|39:114,1,71.2950016862069,14|0,0:2|1:2,0:0:0:0:
208,248,272904,2,0,P|212:211|221:169,1,71.2950016862069,8|0,0:2|1:2,0:0:0:0:
49,280,273154,1,10,0:2:0:0:
136,153,273279,1,0,1:2:0:0:
200,344,273404,2,0,P|238:343|277:314,1,71.2950016862069,8|0,0:2|1:2,0:0:0:0:
349,168,273654,5,14,0:0:0:0:
208,248,273779,1,0,1:2:0:0:
414,352,273904,2,0,L|420:274,1,71.2950016862069,8|0,0:2|1:2,0:0:0:0:
270,142,274154,2,0,L|275:213,1,71.2950016862069,14|0,0:2|1:2,0:0:0:0:
260,233,274341,1,8,0:2:0:0:
260,233,274404,2,0,L|219:228,3,35.6475008431034,8|8|8|8,0:2|0:2|0:2|0:2,0:0:0:0:
196,225,274654,1,14,0:2:0:0:
63,55,274904,5,0,1:2:0:0:
63,55,275029,2,0,L|45:205,1,142.590003372414,10|8,0:2|1:3,0:0:0:0:
159,89,275404,2,0,P|209:65|273:142,1,142.590003372414,14|4,0:2|1:3,0:0:0:0:
364,319,275779,2,0,P|414:343|478:266,1,142.590003372414,10|0,0:2|1:2,0:0:0:0:
406,145,276154,2,0,P|394:181|384:241,1,71.2950016862069,14|0,0:2|1:2,0:0:0:0:
218,288,276404,2,0,P|210:253|198:219,1,71.2950016862069,8|0,0:2|1:2,0:0:0:0:
49,101,276654,1,14,0:2:0:0:
304,30,276904,5,0,1:2:0:0:
304,30,277029,2,0,P|339:30|368:49,1,71.2950016862069,10|0,0:2|0:0,0:0:0:0:
331,216,277279,1,8,1:3:0:0:
331,216,277404,2,0,P|295:215|266:196,1,71.2950016862069,14|0,0:2|0:0,0:0:0:0:
454,133,277654,1,4,1:3:0:0:
454,133,277779,2,0,P|446:178|442:226,1,71.2950016862069,10|0,0:2|0:0,0:0:0:0:
307,296,278029,1,8,0:2:0:0:
307,296,278154,2,0,P|314:341|319:389,1,71.2950016862069,14|8,0:2|1:3,0:0:0:0:
383,249,278404,1,4,0:3:0:0:
383,249,278529,1,0,1:2:0:0:
191,219,278654,1,14,0:2:0:0:
191,219,279654,6,0,L|183:135,1,63.9450005366478,0|8,1:2|0:2,0:0:0:0:
166,141,279841,1,8,0:2:0:0:
166,141,279904,2,0,P|147:130|115:127,2,42.6300003577652,8|8|8,0:2|0:2|0:2,0:0:0:0:
116,44,280154,2,0,P|95:48|76:58,2,42.6300003577652,10|8|8,1:3|1:3|1:3,0:0:0:0:
17,8,280404,2,0,P|5:26|1:46,2,42.6300003577652,4|4|4,1:3|1:3|1:3,0:0:0:0:
30,124,280654,5,6,1:2:0:0:
291,45,280904,1,8,0:2:0:0:
291,45,281029,2,0,L|277:185,1,127.890001073296,6|8,1:2|0:0,0:0:0:0:
253,347,281404,6,0,B|116:318|235:219|65:210,1,241.814996310196,6|0,1:2|0:0,0:0:0:0:
