osu file format v14

[General]
AudioFilename: audio.mp3
AudioLeadIn: 0
PreviewTime:208591
Countdown: 0
SampleSet: Soft
StackLeniency: 0.7
Mode: 0
LetterboxInBreaks: 0
WidescreenStoryboard: 1

[Editor]
Bookmarks: 193113,199613
DistanceSpacing: 1.9
BeatDivisor: 4
GridSize: 32
TimelineZoom: 3.199999

[Metadata]
Title:Zutto Summer de Koishiteru
TitleUnicode:ずっとサマーで恋してる
Artist:Niji no Conquistador
ArtistUnicode:虹のコンキスタドール
Creator:Sotarks
Version:Akitoshi's Extreme
Source:
Tags:smokelind akitoshi -laura- corinn jpop j-pop pop idols japanese female vocalists band 12th single Nemoto Nagi Nakamura Akari Matoba Karin Tsurumi Moe Yamato Ao Yamasaki Nana Okada Ayame Shimizu Riko Hiruta Airi Kataoka Miyu Kumamoto Marina Yamamoto Rio Murakawa Motonari King Records 岡田彩夢 片岡未優 隈本茉莉奈 清水理子 鶴見萌 中村朱里 根本凪 蛭田愛梨 的場華鈴 山崎夏菜 大和明桜 山本莉唯 2zicon 虹コン nijicon
BeatmapID:2638888
BeatmapSetID:1263383

[Difficulty]
HPDrainRate:5.2
CircleSize:3.5
OverallDifficulty:9.3
ApproachRate:9.5
SliderMultiplier:1.8
SliderTickRate:1

[Events]
//Background and Video events
0,0,"bg.jpg"
Video,-447,"video.mp4"
//Break Periods
2,192854,196129
2,196854,198629
//Storyboard Layer 0 (Background)
//Storyboard Layer 1 (Fail)
//Storyboard Layer 2 (Pass)
//Storyboard Layer 3 (Foreground)
//Storyboard Layer 4 (Overlay)
//Storyboard Sound Samples

[TimingPoints]
4654,250,4,2,22,52,1,0
4654,-166.666666666667,4,2,22,52,0,0
10654,-125,4,2,22,52,0,0
11654,-100,4,2,22,72,0,0
12654,-100,4,2,22,82,0,0
24654,-100,4,2,22,92,0,0
27654,-100,4,2,22,52,0,0
28654,-125,4,2,22,72,0,0
43654,-250,4,2,22,72,0,0
44404,-83.3333333333333,4,2,22,72,0,0
44591,-83.3333333333333,4,2,22,72,0,0
44654,-125,4,2,22,72,0,0
58591,-125,4,2,22,72,0,0
58654,-111.111111111111,4,2,22,72,0,0
60654,-142.857142857143,4,2,22,72,0,0
66654,-125,4,2,22,72,0,0
72904,-66.6666666666667,4,2,22,72,0,0
73154,-125,4,2,22,72,0,0
73404,-66.6666666666667,4,2,22,72,0,0
73654,-125,4,2,22,72,0,0
73904,-66.6666666666667,4,2,22,72,0,0
74154,-125,4,2,22,72,0,0
74404,-66.6666666666667,4,2,22,72,0,0
74654,-100,4,2,22,72,0,0
78654,-90.9090909090909,4,2,22,82,0,0
102654,-90.9090909090909,4,2,22,92,0,0
106154,-90.9090909090909,4,2,22,62,0,0
106654,-111.111111111111,4,2,22,72,0,0
112654,-142.857142857143,4,2,22,52,0,0
113779,-111.111111111111,4,2,22,52,0,0
113904,-111.111111111111,4,2,22,62,0,0
114654,-100,4,2,22,82,0,0
118654,-100,4,2,22,92,0,0
121654,-100,4,2,22,52,0,0
122654,-142.857142857143,4,2,22,62,0,0
129529,-111.111111111111,4,2,22,72,0,0
130654,-125,4,2,22,72,0,0
136591,-125,4,2,22,72,0,0
136654,-111.111111111111,4,2,22,72,0,0
138654,-142.857142857143,4,2,22,72,0,0
144654,-125,4,2,22,72,0,0
150904,-66.6666666666667,4,2,22,72,0,0
151154,-125,4,2,22,72,0,0
151404,-66.6666666666667,4,2,22,72,0,0
151654,-125,4,2,22,72,0,0
151904,-66.6666666666667,4,2,22,72,0,0
152154,-125,4,2,22,72,0,0
152404,-66.6666666666667,4,2,22,72,0,0
152654,-100,4,2,22,72,0,0
156341,-100,4,2,22,5,0,0
156404,-100,4,2,22,72,0,0
156654,-90.9090909090909,4,2,22,82,0,0
180654,-90.9090909090909,4,2,22,92,0,0
182654,-90.9090909090909,4,2,22,82,0,0
183654,-90.9090909090909,4,2,22,52,0,0
184654,-111.111111111111,4,2,22,72,0,0
190654,-142.857142857143,4,2,22,52,0,0
191654,-111.111111111111,4,2,22,62,0,0
192654,-142.857142857143,4,2,22,72,0,0
199154,-125,4,2,22,62,0,0
200654,-142.857142857143,4,2,22,72,0,0
206654,-125,4,2,22,72,0,0
208654,-83.3333333333333,4,2,22,82,0,1
222654,-125,4,2,22,62,0,0
222779,-125,4,2,22,62,0,0
224529,-125,4,2,22,62,0,0
224654,-250.000000000001,4,2,22,62,0,0
232654,-200,4,2,22,62,0,0
236654,-125,4,2,22,62,0,0
236904,-125,4,2,22,72,0,0
237654,-111.111111111111,4,2,22,72,0,0
238654,-100,4,2,22,72,0,0
240654,-90.9090909090909,4,2,22,82,0,0
248654,-90.9090909090909,4,2,22,92,0,0
250654,-90.9090909090909,4,2,22,82,0,0
252154,-90.9090909090909,4,2,22,72,0,0
254654,-90.9090909090909,4,2,22,82,0,0
262341,-90.9090909090909,4,2,22,82,0,0
262404,-90.9090909090909,4,2,22,82,0,0
264591,-90.9090909090909,4,2,22,82,0,0
264654,-90.9090909090909,4,2,22,82,0,0
270654,-83.3333333333333,4,2,22,92,0,0
278654,-111.111111111111,4,2,22,92,0,0
279654,-90.9090909090908,4,2,22,72,0,0
280654,-90.9090909090909,4,2,22,92,0,0
281404,-125,4,2,22,92,0,0
282029,-125,4,2,22,92,0,0
282279,-125,4,2,22,12,0,0

[Colours]
Combo1 : 202,250,255
Combo2 : 168,185,255
Combo3 : 91,176,164
Combo4 : 94,123,240

[HitObjects]
83,130,4654,6,0,B|110:162|110:162|92:241,1,107.999996704102,6|0,0:2|0:2,0:2:0:0:
154,289,5029,2,0,P|184:289|214:304,1,53.9999983520508,2|8,0:2|0:1,0:2:0:0:
272,242,5279,2,0,P|287:267|289:301,1,53.9999983520508,2|0,0:2|0:2,0:2:0:0:
342,360,5529,6,0,P|369:351|397:346,1,53.9999983520508,2|0,0:2|0:0,0:2:0:0:
472,310,5779,2,0,P|458:262|392:270,1,107.999996704102,0|2,0:0|0:2,0:0:0:0:
352,188,6154,2,0,P|359:144|370:75,1,107.999996704102,0|2,0:0|0:2,0:0:0:0:
369,82,6654,6,0,B|328:100|328:100|265:74,1,107.999996704102,2|2,0:2|0:2,0:2:0:0:
189,41,7029,2,0,P|173:89|171:100,1,53.9999983520508,2|8,0:2|0:1,0:2:0:0:
93,126,7279,2,0,P|109:174|111:185,1,53.9999983520508,2|0,0:2|0:2,0:2:0:0:
169,239,7529,6,0,P|126:211|43:288,1,161.999995056153,2|0,0:2|0:0,0:2:0:0:
194,351,8154,2,0,P|231:343|252:341,1,53.9999983520508,10|0,0:1|0:2,0:2:0:0:
298,270,8404,2,0,P|335:278|356:280,1,53.9999983520508,2|0,0:2|0:2,0:2:0:0:
437,269,8654,6,0,P|452:320|467:382,2,107.999996704102,2|2|10,0:2|0:2|0:1,0:2:0:0:
329,134,9404,1,2,0:2:0:0:
329,134,9529,6,0,P|281:162|225:138,1,107.999996704102,2|0,0:2|0:2,0:2:0:0:
187,73,9904,2,0,P|218:63|241:57,1,53.9999983520508,2|0,0:2|0:2,0:2:0:0:
139,149,10154,2,0,P|112:141|87:133,1,53.9999983520508,10|0,0:1|0:2,0:2:0:0:
132,244,10404,2,0,P|157:235|183:228,1,53.9999983520508,2|0,0:2|0:2,0:2:0:0:
342,245,10654,5,10,0:2:0:0:
342,245,11654,5,10,0:2:0:0:
205,114,11779,1,8,0:2:0:0:
205,114,11841,1,8,0:2:0:0:
205,114,11904,2,0,P|157:122|97:137,1,90,8|8,0:2|0:2,0:0:0:0:
318,28,12154,5,8,0:2:0:0:
252,205,12279,1,8,0:2:0:0:
194,15,12404,1,8,0:2:0:0:
350,135,12529,1,8,0:2:0:0:
141,220,12654,6,0,B|116:299|116:299|140:312|160:335,1,135,4|0,1:2|0:0,0:2:0:0:
224,376,12904,2,0,P|268:368|313:363,1,90,10|0,0:2|0:2,0:2:0:0:
422,220,13154,1,2,1:2:0:0:
242,235,13279,1,8,1:3:0:0:
417,326,13404,1,8,0:2:0:0:
343,161,13529,6,0,B|354:101|373:41|373:41|344:65|314:76,1,180,4|4,1:2|1:3,0:0:0:0:
160,114,13904,2,0,P|144:69|171:19,1,90,8|2,0:2|0:2,0:0:0:0:
246,209,14154,1,0,1:2:0:0:
59,177,14279,1,8,1:3:0:0:
240,72,14404,1,8,0:2:0:0:
149,258,14529,6,0,B|22:290|22:290|83:318,1,180,2|0,0:2|1:0,0:0:0:0:
275,321,14904,2,0,P|282:283|260:230,1,90,10|0,0:2|0:2,0:2:0:0:
112,107,15154,2,0,P|141:132|198:139,1,90,2|8,1:2|1:3,0:2:0:0:
378,73,15404,2,0,P|341:85|306:131,1,90,8|4,0:2|1:2,0:2:0:0:
275,321,15654,5,2,0:2:0:0:
424,214,15779,2,0,P|468:220|512:228,1,90,6|8,1:3|0:2,0:0:0:0:
371,374,16029,1,2,0:2:0:0:
246,209,16154,1,0,1:2:0:0:
185,368,16279,1,8,1:3:0:0:
93,182,16404,1,10,0:2:0:0:
265,236,16529,6,0,B|338:223|338:223|357:199|357:199|445:182,1,180,2|0,0:2|1:0,0:0:0:0:
288,72,16904,2,0,P|224:71|190:96,1,90,10|0,0:2|0:2,0:0:0:0:
68,191,17154,1,2,1:2:0:0:
98,22,17279,1,8,1:3:0:0:
173,185,17404,1,8,0:2:0:0:
8,91,17529,1,4,1:2:0:0:
4,265,17654,5,2,0:2:0:0:
4,265,17779,2,0,P|13:309|18:360,1,90,6|8,1:3|0:2,0:0:0:0:
182,281,18029,2,0,P|172:325|168:369,1,90,2|0,0:2|1:2,0:2:0:0:
342,319,18279,1,10,1:3:0:0:
220,186,18404,2,0,P|165:178|124:198,1,90,10|0,0:2|0:2,0:2:0:0:
393,235,18654,6,0,B|443:194|443:194|385:69,1,180,6|8,1:2|0:2,0:2:0:0:
194,0,19029,2,0,P|179:50|169:87,1,90,6|0,1:2|0:0,0:2:0:0:
81,263,19279,1,8,1:3:0:0:
21,93,19404,1,8,0:2:0:0:
220,186,19529,6,0,B|250:197|250:197|314:183,1,90,6|0,1:2|0:0,0:2:0:0:
353,349,19779,2,0,P|308:342|263:336,1,90,4|8,1:3|0:2,0:0:0:0:
116,152,20029,2,0,B|155:39|155:39|130:58|103:73,1,180,6|0,1:2|1:2,0:2:0:0:
4,285,20404,1,8,0:2:0:0:
4,285,20654,6,0,B|20:304|20:304|31:385,1,90,4|0,1:2|0:2,0:2:0:0:
216,225,20904,2,0,P|232:188|216:136,1,90,10|0,0:2|0:2,0:2:0:0:
135,300,21154,1,2,1:2:0:0:
310,260,21279,1,8,1:3:0:0:
130,177,21404,1,8,0:2:0:0:
304,82,21529,6,0,B|356:75|405:58|405:58|445:75|455:122,1,180,4|6,1:2|1:3,0:0:0:0:
310,260,21904,2,0,P|326:200|338:157,1,90,10|2,0:2|0:2,0:2:0:0:
380,330,22154,1,2,1:2:0:0:
221,297,22279,2,0,P|182:310|125:294,1,90,10|8,1:3|0:2,0:2:0:0:
0,179,22529,6,0,P|12:225|25:268,1,90,2|0,0:2|1:2,0:2:0:0:
128,95,22779,2,0,P|115:141|103:184,1,90,2|8,0:2|0:2,0:2:0:0:
204,9,23029,2,0,P|216:55|229:98,1,90,2|0,0:2|1:2,0:2:0:0:
310,257,23279,1,8,1:3:0:0:
372,88,23404,1,8,0:2:0:0:
455,247,23529,1,4,1:2:0:0:
273,180,23654,5,2,0:2:0:0:
273,180,23779,2,0,P|201:196|174:204,1,90,2|8,1:2|0:2,0:2:0:0:
31,296,24029,2,0,B|130:281|104:341|206:315,1,180,2|4,0:2|1:3,0:2:0:0:
383,280,24404,2,0,P|371:341|367:381,1,90,10|0,0:2|0:2,0:2:0:0:
186,201,24654,5,14,0:2:0:0:
391,177,24779,1,0,1:2:0:0:
233,305,24904,1,8,0:2:0:0:
286,95,25029,1,0,1:2:0:0:
81,165,25154,2,0,B|66:193|66:193|80:259,1,90,8|0,0:2|1:2,0:0:0:0:
289,180,25404,2,0,B|301:123|301:123|286:95,1,90,8|0,0:2|1:2,0:0:0:0:
99,25,25654,5,10,0:2:0:0:
186,201,25779,1,0,1:2:0:0:
237,1,25904,1,8,0:2:0:0:
93,137,26029,1,0,1:2:0:0:
289,180,26154,2,0,B|330:166|330:166|375:175,1,90,8|0,0:2|1:2,0:0:0:0:
494,357,26404,2,0,B|448:366|448:366|407:352,1,90,8|0,0:2|1:2,0:0:0:0:
199,286,26654,5,10,0:2:0:0:
428,259,26779,1,8,0:2:0:0:
428,259,26841,1,8,0:2:0:0:
428,259,26904,1,8,0:2:0:0:
310,377,27029,1,8,0:2:0:0:
191,174,27154,5,8,0:2:0:0:
154,368,27279,1,8,0:2:0:0:
296,258,27404,1,8,0:2:0:0:
60,252,27529,1,0,1:2:0:0:
60,252,28404,6,0,P|49:215|75:170,1,90,8|2,0:2|0:2,0:0:0:0:
218,109,28654,6,0,B|203:178|195:220|195:220|200:253,1,144,4|10,1:2|0:2,0:0:0:0:
304,308,29029,1,2,0:2:0:0:
304,308,29154,2,0,P|322:267|321:236,1,72,2|8,1:2|1:3,0:2:0:0:
388,147,29404,1,10,0:2:0:0:
388,147,29529,1,6,1:3:0:0:
493,193,29654,6,0,P|481:284|472:348,2,144,2|10|2,0:2|0:2|1:2,0:2:0:0:
512,81,30279,1,8,1:3:0:0:
512,81,30404,2,0,P|474:68|432:64,1,72,10|0,0:2|0:2,0:2:0:0:
330,88,30654,6,0,P|353:116|333:229,1,144,2|8,1:2|0:2,0:2:0:0:
235,255,31029,1,2,0:2:0:0:
235,255,31154,2,0,B|144:247|181:290|68:273,1,144,2|8,1:2|0:2,0:2:0:0:
12,132,31529,6,0,B|41:204|41:204|8:227|2:277,1,144,6|2,1:3|1:2,0:2:0:0:
70,360,31904,1,10,0:2:0:0:
70,360,32029,1,2,0:2:0:0:
170,303,32154,2,0,P|179:344|186:379,1,72,2|8,1:2|1:3,0:2:0:0:
244,225,32404,1,10,0:2:0:0:
324,307,32529,6,0,B|417:295|401:298|479:289,1,144,2|2,0:2|0:2,0:2:0:0:
509,182,32904,2,0,P|472:170|433:170,1,72,10|2,0:2|0:2,0:0:0:0:
365,87,33154,1,2,1:2:0:0:
365,87,33279,2,0,P|400:85|434:74,1,72,10|8,1:3|0:2,0:2:0:0:
290,7,33529,1,6,1:3:0:0:
194,70,33654,6,0,P|229:132|215:219,2,144,2|10|2,0:2|0:2|1:2,0:2:0:0:
92,24,34279,1,8,1:3:0:0:
92,24,34404,2,0,P|82:80|79:107,1,72,10|0,0:2|0:2,0:2:0:0:
7,185,34654,6,0,B|35:275|35:275|2:326,1,144,2|8,1:2|0:2,0:2:0:0:
111,369,35029,1,2,0:2:0:0:
111,369,35154,2,0,P|169:327|237:348,1,144,2|8,1:2|0:2,0:2:0:0:
347,367,35529,6,0,B|354:355|354:355|372:222,1,144,4|0,1:2|1:2,0:2:0:0:
472,170,35904,2,0,P|489:215|484:247,1,72,8|0,0:2|0:0,0:2:0:0:
380,115,36154,1,2,1:2:0:0:
510,67,36279,1,8,0:2:0:0:
380,115,36404,1,10,0:2:0:0:
510,67,36529,1,8,0:2:0:0:
372,4,36654,6,0,B|335:10|278:21,1,72,6|0,1:2|0:0,0:2:0:0:
209,86,36904,2,0,B|242:92|279:98,1,72,8|0,0:2|0:2,0:0:0:0:
197,180,37154,2,0,B|160:186|103:197,1,72,2|0,1:2|0:0,0:2:0:0:
35,263,37404,1,8,0:2:0:0:
128,329,37529,5,6,1:2:0:0:
128,329,37654,2,0,P|185:302|257:343,1,144,2|10,0:2|0:2,0:2:0:0:
362,371,38029,2,0,P|350:310|332:225,1,144,2|8,0:2|1:3,0:2:0:0:
380,126,38404,1,8,0:2:0:0:
380,126,38529,6,0,P|437:153|509:112,1,144,2|2,1:2|0:2,0:2:0:0:
375,34,38904,1,10,0:2:0:0:
375,34,39029,1,2,0:2:0:0:
280,97,39154,1,2,1:2:0:0:
280,97,39279,2,0,P|264:148|257:176,1,72,8|10,1:3|0:2,0:0:0:0:
153,210,39529,6,0,B|96:177|49:183|49:183|14:202,1,144,6|8,1:2|1:3,0:2:0:0:
133,310,39904,2,0,P|184:300|225:293,1,72,8|0,0:2|0:0,0:0:0:0:
318,276,40154,2,0,P|325:240|336:200,1,72,2|8,1:2|0:2,0:2:0:0:
342,184,40341,1,8,0:2:0:0:
342,184,40404,2,0,P|387:190|431:178,1,72,10|10,0:2|0:2,0:0:0:0:
279,64,40654,6,0,B|190:48|190:48|166:78|135:88,1,144,4|10,1:2|0:2,0:0:0:0:
53,16,41029,1,2,0:2:0:0:
9,124,41154,1,2,1:2:0:0:
9,124,41279,2,0,P|23:167|28:200,1,72,10|8,1:3|0:2,0:2:0:0:
105,277,41529,1,6,1:3:0:0:
105,277,41654,6,0,P|162:290|246:243,2,144,2|10|2,0:2|0:2|1:2,0:2:0:0:
156,174,42279,1,8,1:3:0:0:
156,174,42404,2,0,P|205:163|233:158,1,72,10|0,0:2|0:2,0:2:0:0:
344,145,42654,5,6,1:2:0:0:
273,53,42779,1,8,0:2:0:0:
344,145,42904,2,0,P|393:156|421:161,1,72,8|8,0:2|1:3,0:0:0:0:
498,240,43154,5,4,1:3:0:0:
384,262,43279,1,10,1:3:0:0:
498,240,43404,2,0,P|491:275|483:310,1,72,10|0,1:3|1:2,0:0:0:0:
306,373,43654,6,0,P|272:360|223:364,2,72,10|0|0,0:2|3:2|3:2,0:0:0:0:
327,360,44404,6,0,B|271:331|214:347|214:347|237:332|253:313,1,161.999995056153,8|0,0:2|0:0,0:0:0:0:
178,271,44654,6,0,B|134:277|103:296|103:296|69:288|55:251,1,144,4|10,1:2|0:2,0:0:0:0:
36,140,45029,1,2,0:2:0:0:
153,164,45154,1,2,1:2:0:0:
153,164,45279,2,0,P|159:120|165:87,1,72,10|8,1:3|0:2,0:2:0:0:
248,12,45529,1,6,1:3:0:0:
340,80,45654,6,0,P|399:46|477:65,2,144,2|10|2,0:2|0:2|1:2,0:2:0:0:
275,177,46279,1,8,1:3:0:0:
275,177,46404,2,0,P|312:183|358:191,1,72,10|0,0:2|0:2,0:2:0:0:
414,282,46654,6,0,B|329:274|359:321|265:314,1,144,6|8,1:2|0:2,0:2:0:0:
174,275,47029,1,2,0:2:0:0:
174,275,47154,2,0,P|158:311|166:350,1,72,2|0,1:2|0:0,0:2:0:0:
263,209,47404,1,8,0:2:0:0:
155,166,47529,6,0,B|104:174|64:193|64:193|45:182|25:162,1,144,6|10,1:3|1:3,0:2:0:0:
9,47,47904,1,10,0:2:0:0:
9,47,48029,1,2,0:2:0:0:
123,33,48154,2,0,P|162:48|218:35,1,72,2|8,1:2|1:3,0:2:0:0:
302,13,48404,1,10,0:2:0:0:
377,99,48529,6,0,B|347:141|343:194|343:194|372:231,1,144,2|2,0:2|0:2,0:2:0:0:
467,285,48904,2,0,P|455:326|446:369,1,72,10|2,0:2|0:2,0:0:0:0:
337,373,49154,1,2,1:2:0:0:
337,373,49279,2,0,P|291:344|254:342,1,72,0|8,0:0|0:2,0:0:0:0:
163,349,49529,1,6,1:3:0:0:
163,349,49654,6,0,P|172:287|190:204,2,144,2|10|2,0:2|0:2|1:2,0:2:0:0:
48,367,50279,1,8,1:3:0:0:
48,367,50404,2,0,P|36:326|50:293,1,72,10|0,0:2|0:2,0:2:0:0:
99,196,50654,6,0,P|30:196|0:135,1,144,2|8,1:2|0:2,0:2:0:0:
82,53,51029,1,2,0:2:0:0:
82,53,51154,2,0,B|161:62|141:99|219:104,1,144,2|8,1:2|0:2,0:2:0:0:
321,61,51529,6,0,P|309:135|299:211,1,144,4|0,1:3|1:2,0:2:0:0:
287,318,51904,1,8,0:2:0:0:
401,282,52029,1,8,0:2:0:0:
401,282,52091,1,8,0:2:0:0:
401,282,52154,2,0,P|443:290|474:286,1,72,10|10,0:2|0:2,0:0:0:0:
406,158,52404,1,10,0:2:0:0:
300,203,52529,1,8,0:2:0:0:
209,132,52654,6,0,B|202:89|202:89|214:55,1,72,6|0,1:2|0:0,0:2:0:0:
112,3,52904,2,0,P|102:59|95:96,1,72,8|0,0:2|0:2,0:0:0:0:
81,188,53154,2,0,P|26:193|3:207,1,72,2|0,1:2|0:0,0:2:0:0:
67,307,53404,1,8,0:2:0:0:
67,307,53529,1,4,1:3:0:0:
171,259,53654,6,0,B|259:250|232:298|325:279,1,144,2|10,0:2|0:2,0:2:0:0:
414,232,54029,2,0,P|352:177|293:193,1,144,2|8,0:2|1:3,0:2:0:0:
400,321,54404,1,8,0:2:0:0:
503,270,54529,6,0,P|511:237|503:193,1,72,2|0,0:2|1:2,0:2:0:0:
485,86,54779,1,2,0:2:0:0:
369,85,54904,2,0,P|377:48|386:-2,1,72,10|2,0:2|0:2,0:0:0:0:
261,102,55154,1,2,1:2:0:0:
261,102,55279,2,0,P|267:137|275:172,1,72,8|10,1:3|0:2,0:0:0:0:
198,258,55529,6,0,B|149:283|95:279|95:279|65:250,1,144,2|8,1:2|1:3,0:2:0:0:
1,159,55904,2,0,P|30:142|72:139,1,72,8|0,0:2|0:0,0:0:0:0:
181,162,56154,1,2,1:2:0:0:
119,39,56279,1,8,0:2:0:0:
181,162,56404,1,10,0:2:0:0:
119,39,56529,1,10,0:2:0:0:
250,75,56654,6,0,P|285:70|342:62,1,72,4|0,1:2|0:2,0:2:0:0:
409,161,56904,2,0,P|373:155|337:150,1,72,10|0,0:2|0:2,0:2:0:0:
250,248,57154,2,0,P|285:243|342:235,1,72,2|8,1:2|1:3,0:2:0:0:
257,344,57404,1,10,0:2:0:0:
257,344,57529,1,6,1:3:0:0:
148,306,57654,6,0,B|127:269|127:269|159:150,2,144,2|10|2,0:2|0:2|1:2,0:2:0:0:
257,344,58279,1,10,1:3:0:0:
319,247,58404,2,0,P|360:230|433:251,1,108,10|0,0:2|0:0,0:2:0:0:
440,256,58654,6,0,B|465:153|465:153|436:149|406:121,1,161.999995056153,14|0,0:2|1:2,0:2:0:0:
304,19,59029,2,0,B|245:34|245:34|226:63|226:63|154:81,1,161.999995056153,8|0,0:2|1:2,0:2:0:0:
64,199,59404,2,0,P|99:202|147:227,1,80.9999975280763,10|0,0:2|0:2,0:2:0:0:
260,319,59654,5,2,1:2:0:0:
332,186,59779,1,8,0:2:0:0:
332,186,59841,1,8,0:2:0:0:
332,186,59904,2,0,P|318:129|311:100,1,80.9999975280763,8|8,0:2|1:3,0:0:0:0:
451,219,60154,1,10,0:2:0:0:
349,286,60279,1,8,0:2:0:0:
451,219,60404,1,10,1:3:0:0:
349,286,60529,1,4,1:3:0:0:
237,215,60654,6,0,B|153:223|153:223|134:242|108:251,1,125.999996154785,6|2,1:2|1:2,0:2:0:0:
19,233,61029,1,8,1:3:0:0:
79,152,61154,2,0,P|68:113|73:88,1,62.9999980773926,10|4,1:3|1:3,0:2:0:0:
145,22,61404,1,10,0:2:0:0:
145,22,61654,6,0,P|165:55|255:43,1,125.999996154785,2|6,1:2|1:3,0:2:0:0:
341,22,62029,2,0,B|320:104|320:104|360:140,1,125.999996154785,2|8,1:2|1:3,0:2:0:0:
465,65,62404,1,12,0:2:0:0:
465,65,62654,6,0,P|473:124|483:201,1,125.999996154785,0|10,1:2|1:3,0:0:0:0:
427,275,63029,1,4,1:3:0:0:
336,233,63154,2,0,P|299:238|274:253,1,62.9999980773926,2|0,0:2|1:2,0:2:0:0:
211,327,63404,1,10,0:2:0:0:
211,327,63654,6,0,B|137:320|153:360|83:344,1,125.999996154785,2|10,1:2|1:3,0:2:0:0:
18,273,64029,1,6,1:3:0:0:
110,231,64154,2,0,B|115:216|115:216|101:161,1,62.9999980773926,14|4,0:2|1:3,0:2:0:0:
79,72,64404,1,8,0:2:0:0:
9,144,64529,1,10,0:2:0:0:
83,75,64654,6,0,P|111:63|161:57,1,62.9999980773926,0|2,1:2|0:2,0:0:0:0:
229,5,64904,2,0,P|253:23|283:63,1,62.9999980773926,2|0,1:2|0:2,0:2:0:0:
375,42,65154,2,0,P|378:108|350:176,1,125.999996154785,2|10,1:2|1:3,0:2:0:0:
266,207,65529,6,0,P|275:250|283:294,1,62.9999980773926,2|0,0:2|1:2,0:2:0:0:
305,376,65779,1,10,0:2:0:0:
305,376,65841,1,8,0:2:0:0:
305,376,65904,2,0,P|336:364|371:363,1,62.9999980773926,10|8,0:2|0:2,0:0:0:0:
466,363,66154,1,10,0:2:0:0:
412,277,66279,1,8,1:3:0:0:
504,236,66404,2,0,P|506:202|497:170,1,62.9999980773926,6|4,1:3|1:3,0:0:0:0:
411,41,66654,6,0,B|363:118|363:118|383:139|394:171,1,144,6|8,1:2|0:2,0:2:0:0:
206,208,67029,2,0,B|301:182|301:182|292:206|288:235,1,144,6|0,1:2|0:0,0:0:0:0:
150,301,67404,1,8,0:2:0:0:
95,152,67529,6,0,B|68:176|68:176|17:131|48:64,1,144,6|8,1:2|1:3,0:2:0:0:
195,117,67904,1,8,0:2:0:0:
285,253,68029,2,0,B|338:239|338:239|368:253|368:253|422:238,1,144,6|4,1:2|1:3,0:2:0:0:
488,94,68404,1,8,0:2:0:0:
488,94,68654,6,0,P|443:100|417:122,1,72,6|0,1:2|0:2,0:2:0:0:
335,8,68904,2,0,P|317:49|323:83,1,72,10|0,0:2|0:2,0:2:0:0:
184,89,69154,2,0,P|211:124|243:136,1,72,2|8,1:2|1:3,0:0:0:0:
338,188,69404,1,10,0:2:0:0:
250,262,69529,6,0,B|171:249|191:305|87:276,1,144,6|8,1:2|1:3,0:2:0:0:
8,228,69904,1,10,0:2:0:0:
8,228,70029,1,2,0:2:0:0:
74,134,70154,2,0,P|64:90|57:64,1,72,2|0,1:2|0:2,0:2:0:0:
180,4,70404,2,0,P|170:38|163:73,1,72,10|8,0:2|1:3,0:2:0:0:
259,137,70654,6,0,P|296:84|375:90,1,144,6|10,1:2|0:2,0:2:0:0:
468,155,71029,1,0,0:2:0:0:
468,155,71154,2,0,P|457:215|456:235,1,72,2|8,1:2|1:3,0:0:0:0:
379,312,71404,1,10,0:2:0:0:
290,237,71529,6,8,B|229:251|229:251|215:268|215:268|139:287,1,144,6|0,1:2|1:3,0:2:0:0:
54,230,71904,2,0,P|39:183|50:153,1,72,8|0,0:2|0:2,0:2:0:0:
112,43,72154,1,2,1:2:0:0:
171,166,72279,1,8,0:2:0:0:
112,43,72404,1,10,0:2:0:0:
171,166,72529,1,8,0:2:0:0:
255,58,72654,5,2,1:2:0:0:
270,77,72904,2,0,B|396:39|396:39|374:77|401:122,1,202.500007724762,14|0,0:2|0:2,0:2:0:0:
429,191,73154,5,2,1:2:0:0:
435,219,73404,2,0,B|358:177|281:231|281:231|333:264,1,202.500007724762,12|0,0:2|0:2,0:2:0:0:
386,306,73654,5,2,1:2:0:0:
396,332,73904,2,0,B|351:339|323:357|323:357|275:332|275:332|245:351|190:357,1,202.500007724762,14|0,0:2|0:2,0:2:0:0:
118,347,74154,5,2,1:2:0:0:
99,369,74404,2,0,B|136:238|136:238|108:269|55:279,1,202.500007724762,14|0,0:2|0:0,0:0:0:0:
12,223,74654,6,0,B|5:210|5:210|22:137,1,90,14|8,1:2|1:3,0:2:0:0:
146,32,74904,1,4,1:3:0:0:
229,170,75029,2,0,P|314:148|418:135,1,180,10|4,1:2|1:3,0:2:0:0:
510,259,75404,2,0,P|471:284|419:280,1,90,10|8,1:2|1:3,0:0:0:0:
268,259,75654,6,0,P|249:321|243:351,1,90,14|8,1:2|1:3,0:2:0:0:
83,370,75904,1,4,1:3:0:0:
12,223,76029,2,0,P|37:155|136:156,1,180,10|8,1:2|1:3,0:2:0:0:
296,152,76404,2,0,P|286:110|270:56,1,90,10|8,1:2|1:3,0:2:0:0:
438,16,76654,5,14,0:2:0:0:
396,182,76779,1,0,1:2:0:0:
273,65,76904,2,0,P|220:64|182:80,1,90,8|8,0:2|1:3,0:0:0:0:
35,161,77154,5,8,0:2:0:0:
100,3,77279,1,4,1:3:0:0:
156,173,77404,2,0,P|142:229|133:272,1,90,8|8,0:2|1:3,0:0:0:0:
264,372,77654,5,8,1:2:0:0:
427,308,77779,1,8,0:2:0:0:
427,308,77841,1,8,0:2:0:0:
427,308,77904,1,8,0:2:0:0:
268,243,78029,1,10,0:2:0:0:
425,175,78154,6,0,P|475:177|516:195,1,90,10|8,0:2|1:3,0:0:0:0:
395,64,78404,2,0,P|353:80|308:81,1,90,6|8,1:3|0:2,0:0:0:0:
121,11,78654,6,0,B|74:121|74:121|95:161|164:148,1,198.000006042481,6|8,1:2|0:2,0:2:0:0:
269,276,79029,2,0,P|255:324|243:380,1,99.0000030212403,10|0,0:3|1:2,0:2:0:0:
427,308,79279,1,10,1:3:0:0:
298,170,79404,1,8,0:2:0:0:
152,289,79529,6,0,B|92:300|16:323|16:323|57:254,1,198.000006042481,6|8,1:2|1:3,0:2:0:0:
215,193,79904,1,8,0:2:0:0:
245,371,80029,2,0,P|293:377|349:358,1,99.0000030212403,2|0,0:2|1:2,0:2:0:0:
481,237,80279,1,8,1:3:0:0:
329,124,80404,2,0,P|319:199|316:238,1,99.0000030212403,10|0,0:2|0:2,0:2:0:0:
158,49,80654,6,0,B|196:32|225:36|225:36|261:54|261:54|297:20|350:28,1,198.000006042481,6|10,1:2|0:2,0:2:0:0:
498,131,81029,2,0,P|508:180|485:241,1,99.0000030212403,2|0,0:2|1:2,0:0:0:0:
359,356,81279,1,10,1:3:0:0:
412,175,81404,1,8,0:2:0:0:
230,275,81529,6,0,B|157:254|157:254|134:221|134:221|53:193,1,198.000006042481,6|8,1:2|1:3,0:2:0:0:
43,15,81904,2,0,P|94:11|142:29,1,99.0000030212403,8|0,0:2|0:2,0:2:0:0:
252,178,82154,1,2,1:2:0:0:
341,12,82279,1,8,1:3:0:0:
159,131,82404,2,0,P|108:115|57:100,1,99.0000030212403,10|0,0:2|0:2,0:0:0:0:
230,275,82654,6,0,B|346:249|346:249|390:273|380:315,1,198.000006042481,6|8,1:2|0:2,0:2:0:0:
143,324,83029,2,0,P|129:277|140:230,1,99.0000030212403,2|0,0:2|1:3,0:2:0:0:
322,148,83279,1,10,1:3:0:0:
267,358,83404,1,8,0:2:0:0:
186,123,83529,6,0,B|57:98|57:98|40:133|8:155,1,198.000006042481,6|0,1:2|0:2,0:2:0:0:
223,11,83904,1,8,0:2:0:0:
346,139,84029,2,0,P|358:195|336:254,1,99.0000030212403,2|0,0:2|1:2,0:2:0:0:
186,123,84279,1,8,1:3:0:0:
376,39,84404,2,0,P|430:56|470:105,1,99.0000030212403,10|0,0:2|0:2,0:2:0:0:
494,330,84654,6,0,B|421:320|421:320|379:348|379:348|286:330,1,198.000006042481,6|10,1:2|0:2,0:2:0:0:
153,206,85029,2,0,B|172:243|172:243|144:311,1,99.0000030212403,6|0,1:2|0:2,0:2:0:0:
63,118,85279,1,10,1:3:0:0:
259,186,85404,1,8,0:2:0:0:
36,269,85529,6,0,B|17:306|17:306|45:374,1,99.0000030212403,6|0,1:2|0:2,0:2:0:0:
164,181,85779,1,8,1:3:0:0:
0,188,85904,1,8,0:2:0:0:
133,55,86029,2,0,B|248:32|219:109|332:78,1,198.000006042481,6|8,1:2|1:3,0:2:0:0:
507,35,86404,2,0,P|479:101|465:201,1,148.50000453186,10|0,0:2|0:0,0:2:0:0:
464,261,86654,6,0,B|424:278|424:278|345:259,1,99.0000030212403,6|0,1:2|0:2,0:2:0:0:
179,206,86904,1,10,0:2:0:0:
302,360,87029,1,10,0:3:0:0:
336,129,87154,2,0,P|326:77|310:11,1,99.0000030212403,2|8,1:2|1:3,0:2:0:0:
117,140,87404,1,10,0:2:0:0:
274,235,87529,1,2,1:2:0:0:
184,36,87654,6,0,P|92:18|3:93,1,198.000006042481,2|8,0:2|0:2,0:2:0:0:
0,284,88029,2,0,B|97:253|73:263|192:229,1,198.000006042481,2|8,0:2|1:3,0:2:0:0:
370,265,88404,1,8,0:2:0:0:
195,358,88529,6,0,P|134:363|92:341,1,99.0000030212403,2|0,0:2|1:2,0:2:0:0:
117,140,88779,1,2,0:2:0:0:
278,270,88904,1,10,0:2:0:0:
323,80,89029,1,2,0:2:0:0:
484,210,89154,2,0,P|473:265|465:317,1,99.0000030212403,2|8,1:2|1:3,0:2:0:0:
284,169,89404,1,10,0:2:0:0:
472,107,89529,1,4,1:2:0:0:
262,6,89654,5,2,0:2:0:0:
262,6,89779,2,0,P|202:19|162:29,1,99.0000030212403,6|8,1:3|0:2,0:2:0:0:
21,166,90029,2,0,B|142:152|95:225|217:204,1,198.000006042481,2|8,0:2|1:3,0:2:0:0:
403,161,90404,2,0,P|373:218|371:263,1,99.0000030212403,10|0,0:2|0:2,0:0:0:0:
195,344,90654,6,0,B|87:326|97:330|-7:315,2,198.000006042481,6|8|0,1:2|0:2|1:2,0:2:0:0:
391,367,91279,1,8,1:3:0:0:
271,209,91404,2,0,P|217:197|161:215,1,99.0000030212403,10|4,0:2|1:3,0:0:0:0:
403,161,91654,5,2,0:2:0:0:
403,161,91779,2,0,P|386:108|342:68,1,99.0000030212403,0|8,1:2|0:2,0:0:0:0:
168,101,92029,2,0,B|145:194|147:183|121:295,1,198.000006042481,2|8,0:2|1:3,0:2:0:0:
309,295,92404,2,0,P|257:298|216:328,1,99.0000030212403,10|0,0:2|0:2,0:2:0:0:
421,374,92654,5,6,1:2:0:0:
297,195,92779,1,8,0:2:0:0:
297,195,92841,1,8,0:2:0:0:
297,195,92904,1,8,0:2:0:0:
288,383,93029,1,10,0:2:0:0:
121,293,93154,6,0,P|68:301|13:310,1,99.0000030212403,8|8,0:2|1:3,0:0:0:0:
71,95,93404,1,10,1:3:0:0:
188,215,93529,1,4,1:3:0:0:
261,20,93654,6,0,B|324:28|367:64|367:64|416:51|421:-3,1,198.000006042481,14|0,0:2|1:2,0:2:0:0:
507,217,94029,2,0,B|439:205|371:186|371:186|400:206|412:241,1,198.000006042481,14|8,0:2|1:3,0:2:0:0:
351,371,94404,1,10,1:3:0:0:
351,371,94529,1,8,0:2:0:0:
199,228,94654,6,0,B|124:241|124:241|97:282|97:282|17:297,1,198.000006042481,6|8,1:2|0:2,0:2:0:0:
102,113,95029,2,0,P|150:121|199:131,1,99.0000030212403,2|0,0:2|1:2,0:2:0:0:
297,293,95279,1,10,1:3:0:0:
111,260,95404,1,8,0:2:0:0:
309,149,95529,6,0,B|347:17|347:17|316:36|285:46,1,198.000006042481,6|8,1:2|1:3,0:2:0:0:
210,255,95904,1,8,0:2:0:0:
393,215,96029,2,0,P|467:222|492:240,1,99.0000030212403,2|0,0:2|1:2,0:2:0:0:
317,317,96279,1,8,1:3:0:0:
196,159,96404,2,0,P|146:169|87:183,1,99.0000030212403,10|0,0:2|0:2,0:2:0:0:
238,349,96654,6,0,B|358:376|358:376|398:352|398:308,1,198.000006042481,6|10,1:2|0:2,0:2:0:0:
318,121,97029,2,0,P|287:171|288:215,1,99.0000030212403,2|0,0:2|1:2,0:0:0:0:
443,70,97279,1,10,1:3:0:0:
252,16,97404,1,8,0:2:0:0:
391,195,97529,6,0,B|512:171|512:171|463:243,1,198.000006042481,6|8,1:2|1:3,0:2:0:0:
309,365,97904,2,0,P|252:353|191:338,1,99.0000030212403,8|0,0:2|0:2,0:2:0:0:
101,177,98154,1,2,1:2:0:0:
287,243,98279,1,8,1:3:0:0:
107,325,98404,2,0,P|50:326|8:301,1,99.0000030212403,10|0,0:2|0:2,0:2:0:0:
133,93,98654,6,0,B|178:78|222:99|222:99|240:120|240:120|279:134|328:117,1,198.000006042481,6|8,1:2|0:2,0:2:0:0:
508,67,99029,2,0,P|488:134|475:180,1,99.0000030212403,2|0,0:2|1:2,0:2:0:0:
288,218,99279,1,10,1:3:0:0:
333,15,99404,1,8,0:2:0:0:
171,185,99529,6,0,B|114:170|61:199|61:199|14:171|38:109,1,198.000006042481,6|8,1:2|1:3,0:2:0:0:
244,74,99904,1,8,0:2:0:0:
210,280,100029,2,0,P|152:291|105:278,1,99.0000030212403,2|0,0:2|1:2,0:2:0:0:
134,93,100279,1,8,1:3:0:0:
319,207,100404,2,0,P|368:200|420:194,1,99.0000030212403,10|0,0:2|0:2,0:2:0:0:
186,3,100654,6,0,B|134:48|134:48|185:175,1,198.000006042481,6|10,1:2|0:2,0:2:0:0:
259,352,101029,2,0,P|309:360|362:341,1,99.0000030212403,2|0,0:2|1:2,0:2:0:0:
295,186,101279,1,10,1:3:0:0:
162,333,101404,1,8,0:2:0:0:
27,174,101529,6,0,B|15:141|15:141|37:72,1,99.0000030212403,6|0,1:2|0:0,0:2:0:0:
210,169,101779,1,8,1:3:0:0:
58,262,101904,1,8,0:2:0:0:
147,74,102029,1,4,1:2:0:0:
300,214,102154,2,0,P|351:213|409:182,1,99.0000030212403,2|0,0:2|0:2,0:2:0:0:
510,33,102404,2,0,P|464:13|415:12,1,99.0000030212403,10|0,0:2|0:2,0:2:0:0:
212,140,102654,5,14,0:2:0:0:
305,303,102779,1,0,1:2:0:0:
329,111,102904,1,10,0:2:0:0:
210,252,103029,1,0,1:2:0:0:
115,89,103154,5,10,0:2:0:0:
112,277,103279,1,0,1:2:0:0:
300,214,103404,1,10,0:2:0:0:
114,179,103529,1,2,1:2:0:0:
243,42,103654,5,8,0:2:0:0:
394,193,103779,1,8,0:2:0:0:
394,193,103841,1,8,0:2:0:0:
394,193,103904,2,0,P|408:241|392:298,1,99.0000030212403,10|8,0:2|1:3,0:0:0:0:
234,380,104154,5,10,0:0:0:0:
210,169,104279,1,8,0:3:0:0:
129,349,104404,1,10,1:3:0:0:
288,270,104529,1,0,1:2:0:0:
99,182,104654,5,14,0:0:0:0:
99,182,106154,5,10,0:2:0:0:
99,182,106237,2,0,P|88:219|103:275,1,66.0000020141602,8|8,0:2|0:2,0:0:0:0:
205,165,106404,5,10,0:2:0:0:
205,165,106487,2,0,P|231:193|287:208,1,66.0000020141602,8|8,0:2|0:2,0:0:0:0:
267,52,106654,6,0,B|177:41|177:41|174:42|174:42|101:32,1,161.999995056153,6|0,1:2|0:2,0:2:0:0:
22,133,107029,1,2,1:2:0:0:
90,245,107154,2,0,P|80:287|72:330,1,80.9999975280763,8|0,0:2|0:2,0:2:0:0:
203,361,107404,5,2,0:2:0:0:
203,361,107529,2,0,P|195:321|185:281,1,80.9999975280763,4|0,1:3|0:2,0:2:0:0:
286,199,107779,2,0,P|329:240|426:209,1,161.999995056153,10|0,0:2|1:2,0:0:0:0:
475,98,108154,2,0,P|421:110|392:117,1,80.9999975280763,10|0,0:2|0:2,0:0:0:0:
259,15,108404,2,0,P|298:24|337:33,1,80.9999975280763,6|0,1:3|0:2,0:2:0:0:
199,119,108654,6,0,P|156:160|59:129,1,161.999995056153,6|0,1:2|0:2,0:2:0:0:
5,252,109029,1,2,1:2:0:0:
130,283,109154,2,0,P|142:337|148:368,1,80.9999975280763,8|0,0:2|0:0,0:2:0:0:
269,278,109404,5,2,0:2:0:0:
269,278,109529,2,0,P|276:238|285:198,1,80.9999975280763,0|0,1:2|0:2,0:2:0:0:
377,105,109779,2,0,P|454:119|494:196,1,161.999995056153,8|4,0:2|1:3,0:0:0:0:
395,273,110154,2,0,P|388:233|401:196,1,80.9999975280763,10|0,0:2|0:2,0:2:0:0:
328,353,110404,2,0,P|290:339|263:309,1,80.9999975280763,2|0,1:2|0:2,0:2:0:0:
162,170,110654,6,0,B|108:182|53:203|53:203|66:178|72:156,1,161.999995056153,6|0,1:2|0:2,0:2:0:0:
96,30,111029,1,2,1:2:0:0:
218,72,111154,2,0,P|260:77|299:62,1,80.9999975280763,8|0,0:2|0:2,0:2:0:0:
429,55,111404,5,10,0:2:0:0:
429,55,111529,2,0,P|419:109|414:148,1,80.9999975280763,8|0,1:3|0:0,0:2:0:0:
336,239,111779,1,8,0:2:0:0:
336,239,111904,2,0,P|330:198|322:159,1,80.9999975280763,2|8,0:2|0:2,0:0:0:0:
175,151,112154,5,10,0:2:0:0:
235,265,112279,1,8,1:3:0:0:
105,256,112404,2,0,P|57:247|17:241,1,80.9999975280763,6|0,1:3|1:2,0:0:0:0:
180,361,112654,6,0,P|223:350|325:337,1,125.999996154785,10|2,0:2|0:2,0:0:0:0:
468,222,113154,2,0,P|405:213|344:199,1,125.999996154785,2|2,0:2|0:2,0:0:0:0:
247,172,113529,1,2,0:2:0:0:
472,43,113779,5,8,0:2:0:0:
472,43,113841,1,8,0:2:0:0:
472,43,113904,2,0,P|488:88|478:117,1,80.9999975280763,8|8,0:2|0:2,0:0:0:0:
344,199,114154,5,10,0:2:0:0:
291,37,114279,1,10,0:2:0:0:
227,194,114404,1,10,0:2:0:0:
370,103,114529,1,10,0:2:0:0:
188,51,114654,6,0,B|163:63|163:63|110:25|47:54,1,135,6|0,1:2|0:0,0:2:0:0:
10,111,114904,2,0,P|17:156|26:208,1,90,10|0,0:2|0:2,0:2:0:0:
147,333,115154,1,2,1:2:0:0:
144,153,115279,1,8,1:3:0:0:
34,295,115404,1,8,0:2:0:0:
231,275,115529,6,0,B|323:303|323:303|371:291|364:238,1,180,4|0,1:2|1:2,0:0:0:0:
398,81,115904,1,8,0:2:0:0:
508,199,116029,2,0,P|498:242|487:288,1,90,2|0,0:2|1:2,0:2:0:0:
354,381,116279,1,10,0:3:0:0:
279,197,116404,2,0,P|272:147|287:108,1,90,10|0,0:2|0:2,0:2:0:0:
126,25,116654,6,0,B|0:9|0:9|26:26|43:58,1,180,6|8,1:2|0:2,0:2:0:0:
142,192,117029,2,0,B|164:165|164:165|150:102,1,90,6|0,0:2|0:2,0:2:0:0:
263,285,117279,2,0,B|251:338|251:338|273:365,1,90,10|8,1:3|0:2,0:2:0:0:
443,244,117529,6,0,B|400:227|400:227|351:236,1,90,6|0,1:2|0:0,0:2:0:0:
261,102,117779,1,6,1:3:0:0:
420,132,117904,1,8,0:2:0:0:
236,205,118029,2,0,B|131:189|131:189|109:218|60:225,1,180,6|0,1:2|1:2,0:2:0:0:
185,360,118404,2,0,P|227:371|285:360,1,90,8|0,0:2|0:0,0:0:0:0:
450,274,118654,5,14,0:2:0:0:
260,215,118779,1,2,1:2:0:0:
425,106,118904,1,10,0:2:0:0:
349,288,119029,1,2,1:2:0:0:
272,105,119154,2,0,B|261:56|261:56|274:8,1,90,8|2,0:2|1:2,0:0:0:0:
73,17,119404,2,0,B|83:55|83:55|72:104,1,90,10|0,0:2|1:2,0:0:0:0:
35,298,119654,5,10,0:2:0:0:
170,153,119779,1,0,1:2:0:0:
134,347,119904,1,8,0:2:0:0:
14,189,120029,1,2,1:2:0:0:
203,247,120154,2,0,P|250:237|298:227,1,90,8|0,0:2|1:2,0:0:0:0:
467,138,120404,2,0,P|422:128|378:119,1,90,10|0,0:2|1:2,0:0:0:0:
176,76,120654,5,10,0:2:0:0:
399,20,120779,1,8,0:2:0:0:
399,20,120841,1,8,0:2:0:0:
399,20,120904,1,8,0:2:0:0:
296,199,121029,1,8,0:2:0:0:
233,1,121154,5,8,0:2:0:0:
136,163,121279,1,8,0:2:0:0:
296,104,121404,1,8,0:2:0:0:
80,40,121529,1,8,0:2:0:0:
80,40,122279,5,0,1:2:0:0:
80,40,122341,1,0,1:2:0:0:
80,40,122404,2,0,P|59:86|69:128,1,90,8|2,0:2|0:2,0:0:0:0:
154,223,122654,6,0,B|227:211|209:260|301:236,1,125.999996154785,4|2,1:2|0:2,0:0:0:0:
365,194,123029,1,0,1:2:0:0:
447,252,123154,2,0,P|437:300|435:315,1,62.9999980773926,10|2,0:2|0:2,0:0:0:0:
351,372,123404,1,2,3:2:0:0:
351,372,123529,1,2,1:2:0:0:
258,346,123654,5,2,0:2:0:0:
258,346,123779,2,0,P|194:332|131:377,1,125.999996154785,8|8,0:2|1:3,0:0:0:0:
43,378,124154,2,0,P|36:331|32:307,1,62.9999980773926,10|0,0:2|0:2,0:2:0:0:
1,220,124404,2,0,P|8:173|12:149,1,62.9999980773926,2|0,1:2|0:2,0:2:0:0:
95,102,124654,6,0,P|122:136|211:123,1,125.999996154785,2|0,1:2|3:2,0:2:0:0:
260,54,125029,1,10,1:3:0:0:
332,123,125154,2,0,P|317:177|304:257,1,125.999996154785,10|0,0:2|0:2,0:2:0:0:
350,336,125529,6,0,P|377:331|419:325,1,62.9999980773926,2|0,1:2|3:2,0:2:0:0:
499,274,125779,2,0,P|466:224|385:234,1,125.999996154785,10|10,0:2|1:3,0:2:0:0:
305,245,126154,2,0,P|278:240|236:234,1,62.9999980773926,10|0,0:2|0:2,0:2:0:0:
145,224,126404,1,2,3:2:0:0:
145,224,126529,1,2,0:2:0:0:
185,131,126654,6,0,B|264:106|264:106|281:120|312:126,1,125.999996154785,0|2,1:0|0:2,0:0:0:0:
399,94,127029,1,10,1:3:0:0:
322,28,127154,2,0,P|288:16|261:17,1,62.9999980773926,10|2,0:2|0:2,0:0:0:0:
163,19,127404,1,2,3:2:0:0:
163,19,127529,1,2,1:2:0:0:
103,101,127654,5,2,0:2:0:0:
103,101,127779,2,0,P|45:84|0:132,1,125.999996154785,8|8,0:2|1:3,0:0:0:0:
13,225,128154,2,0,P|55:208|84:204,1,62.9999980773926,10|0,0:2|1:2,0:0:0:0:
174,234,128404,1,2,0:2:0:0:
174,234,128529,1,8,1:3:0:0:
74,310,128654,5,10,0:2:0:0:
74,310,129529,6,0,P|127:314|170:318,1,80.9999975280763,8|0,0:2|1:2,0:2:0:0:
299,330,129779,1,8,0:2:0:0:
224,204,129904,2,0,P|220:163|245:111,1,80.9999975280763,8|8,1:3|0:2,0:0:0:0:
348,34,130154,1,2,1:2:0:0:
321,177,130279,1,8,0:2:0:0:
348,34,130404,1,10,0:2:0:0:
321,177,130529,1,8,0:2:0:0:
438,123,130654,6,0,P|472:120|509:134,1,72,6|0,1:2|0:0,0:2:0:0:
418,228,130904,2,0,P|437:255|443:295,1,72,8|0,0:2|0:2,0:0:0:0:
316,262,131154,2,0,P|301:292|270:317,1,72,2|0,1:2|0:0,0:2:0:0:
162,341,131404,1,8,0:2:0:0:
162,341,131529,1,6,1:2:0:0:
60,285,131654,6,0,B|80:263|80:263|53:143,1,144,2|10,0:2|0:2,0:2:0:0:
120,55,132029,2,0,P|175:103|254:72,1,144,2|8,0:2|1:3,0:2:0:0:
324,9,132404,1,8,0:2:0:0:
404,91,132529,6,0,P|395:138|392:175,1,72,2|4,0:2|1:2,0:2:0:0:
302,235,132779,2,0,P|297:199|290:164,1,72,2|8,0:2|0:2,0:0:0:0:
199,92,133029,1,2,0:2:0:0:
135,189,133154,1,2,1:2:0:0:
135,189,133279,2,0,P|92:183|64:192,1,72,8|10,1:3|0:2,0:0:0:0:
8,292,133529,6,0,B|88:284|68:333|150:319,1,144,6|8,1:2|1:3,0:2:0:0:
260,307,133904,2,0,P|246:348|247:381,1,72,8|0,0:2|0:0,0:0:0:0:
367,298,134154,1,2,1:2:0:0:
278,219,134279,1,8,0:2:0:0:
278,219,134341,1,8,0:0:0:0:
278,219,134404,1,10,0:0:0:0:
379,182,134529,1,8,0:0:0:0:
310,80,134654,6,0,B|301:31|301:31|318:1,1,72,4|2,1:2|0:2,0:0:0:0:
201,43,134904,2,0,P|179:83|175:113,1,72,10|2,0:2|0:2,0:0:0:0:
81,177,135154,2,0,P|73:141|55:111,1,72,2|10,1:2|1:3,0:0:0:0:
39,257,135404,1,10,0:2:0:0:
39,257,135529,1,6,1:3:0:0:
153,246,135654,6,0,P|213:227|301:208,2,144,2|10|2,0:2|0:2|1:2,0:2:0:0:
83,339,136279,1,8,1:3:0:0:
194,369,136404,2,0,B|255:373|296:337,1,108,10|0,0:2|0:0,0:2:0:0:
316,326,136654,6,0,B|363:326|389:360|389:360|420:329|467:329,1,161.999995056153,14|0,0:2|1:2,0:2:0:0:
504,180,137029,2,0,B|464:133|398:129|398:129|349:164,1,161.999995056153,8|0,0:2|1:2,0:2:0:0:
213,185,137404,2,0,P|170:174|129:164,1,80.9999975280763,10|0,0:2|0:0,0:2:0:0:
7,67,137654,5,2,1:2:0:0:
161,29,137779,1,8,0:2:0:0:
161,29,137841,1,8,0:2:0:0:
161,29,137904,2,0,P|199:30|239:49,1,80.9999975280763,8|8,0:2|1:3,0:0:0:0:
334,156,138154,1,10,0:2:0:0:
408,59,138279,1,8,0:2:0:0:
334,156,138404,1,10,1:3:0:0:
408,59,138529,1,4,1:3:0:0:
498,155,138654,6,0,B|474:232|474:232|483:255|489:279,1,125.999996154785,6|2,1:2|1:2,0:2:0:0:
420,351,139029,1,8,1:3:0:0:
344,284,139154,2,0,P|300:289|279:299,1,62.9999980773926,10|4,1:3|1:3,0:2:0:0:
189,330,139404,1,10,0:2:0:0:
189,330,139654,6,0,P|180:264|171:193,1,125.999996154785,2|6,1:2|1:3,0:2:0:0:
116,121,140029,2,0,P|68:140|10:97,1,125.999996154785,2|8,1:2|1:3,0:2:0:0:
130,26,140404,1,12,0:2:0:0:
264,176,140654,6,0,B|343:192|343:192|392:160,1,125.999996154785,0|10,1:2|1:3,0:0:0:0:
459,104,141029,1,4,1:3:0:0:
498,196,141154,2,0,P|486:240|481:270,1,62.9999980773926,2|0,0:2|1:2,0:2:0:0:
458,354,141404,1,10,0:2:0:0:
458,354,141654,6,0,P|421:328|330:337,1,125.999996154785,2|10,1:2|1:3,0:2:0:0:
248,365,142029,1,6,1:3:0:0:
189,283,142154,1,12,0:2:0:0:
189,283,142279,2,0,P|201:241|213:154,1,125.999996154785,4|10,1:3|0:2,0:0:0:0:
182,63,142654,6,0,P|119:74|54:88,1,125.999996154785,0|2,1:2|1:2,0:0:0:0:
10,177,143029,1,2,0:2:0:0:
10,177,143154,2,0,P|5:210|18:251,1,62.9999980773926,2|0,1:2|0:0,0:2:0:0:
108,207,143404,2,0,P|134:227|176:237,1,62.9999980773926,10|2,1:3|0:2,0:0:0:0:
262,243,143654,5,0,1:2:0:0:
350,190,143779,1,10,0:2:0:0:
350,190,143841,1,8,0:2:0:0:
350,190,143904,2,0,P|386:197|430:208,1,62.9999980773926,10|8,0:2|0:2,0:0:0:0:
487,270,144154,1,10,0:2:0:0:
426,350,144279,1,8,1:3:0:0:
328,324,144404,2,0,P|292:331|248:342,1,62.9999980773926,6|6,1:3|1:3,0:0:0:0:
108,343,144654,6,0,B|74:251|74:251|128:271,1,144,6|8,1:2|0:2,0:2:0:0:
256,188,145029,2,0,B|217:145|150:162|150:162|172:193,1,144,6|0,1:2|0:0,0:0:0:0:
249,321,145404,1,8,0:2:0:0:
373,222,145529,6,0,B|379:168|379:168|362:141|362:141|375:60,1,144,6|8,1:2|1:3,0:2:0:0:
488,192,145904,1,8,0:2:0:0:
401,325,146029,2,0,B|314:309|314:309|292:331|249:341,1,144,6|4,1:2|1:3,0:2:0:0:
109,303,146404,1,8,0:2:0:0:
109,303,146654,6,0,P|87:341|87:389,1,72,6|0,1:2|0:2,0:2:0:0:
82,208,146904,2,0,P|38:207|-3:231,1,72,10|0,0:2|0:2,0:2:0:0:
143,129,147154,2,0,P|121:90|79:66,1,72,2|8,1:2|1:3,0:0:0:0:
197,14,147404,1,10,0:2:0:0:
265,106,147529,6,0,B|355:118|355:118|370:100|396:81,1,144,6|8,1:2|1:3,0:2:0:0:
498,130,147904,2,0,P|492:168|486:217,1,72,10|0,0:2|0:2,0:0:0:0:
398,274,148154,2,0,P|393:238|387:202,1,72,2|4,1:2|1:3,0:2:0:0:
292,265,148404,1,10,0:2:0:0:
292,265,148529,1,10,1:3:0:0:
195,201,148654,6,0,P|117:196|78:244,1,144,6|10,1:2|0:2,0:2:0:0:
149,340,149029,1,0,0:2:0:0:
149,340,149154,2,0,P|183:346|228:353,1,72,2|8,1:2|1:3,0:0:0:0:
334,368,149404,1,10,0:2:0:0:
398,274,149529,6,8,B|383:215|383:215|392:195|392:195|373:120,1,144,6|0,1:2|1:3,0:2:0:0:
273,82,149904,2,0,P|233:101|191:95,1,72,8|0,0:2|0:2,0:2:0:0:
98,75,150154,1,2,1:2:0:0:
136,183,150279,1,10,0:2:0:0:
98,75,150404,2,0,P|58:56|16:62,1,72,10|8,0:2|0:2,0:0:0:0:
0,169,150654,5,2,1:2:0:0:
27,172,150904,2,0,B|6:307|6:307|25:275|60:264,1,202.500007724762,14|0,0:2|0:2,0:2:0:0:
83,351,151154,5,2,1:2:0:0:
108,358,151404,2,0,B|218:328|218:328|248:368|299:366,1,202.500007724762,14|0,0:2|0:2,0:2:0:0:
373,322,151654,6,0,L|417:331,2,36,2|0|8,1:2|0:0|1:3,0:2:0:0:
296,228,151904,2,0,B|280:168|320:107|320:107|290:138|243:137,1,202.500007724762,14|0,0:2|0:2,0:2:0:0:
173,93,152154,6,0,L|118:103,2,36,2|0|8,1:2|0:0|1:3,0:0:0:0:
268,13,152404,2,0,B|285:62|337:84|337:84|393:73|431:11,1,202.500007724762,14|0,0:2|0:0,0:0:0:0:
501,52,152654,6,0,B|483:79|483:79|492:149,1,90,14|0,1:2|0:0,0:2:0:0:
508,298,152904,1,4,1:3:0:0:
374,206,153029,2,0,P|276:198|219:269,1,180,10|4,1:2|1:3,0:2:0:0:
97,353,153404,2,0,P|50:344|1:338,1,90,10|8,1:2|1:3,0:0:0:0:
0,176,153654,6,0,P|46:169|92:188,1,90,14|0,1:2|0:0,0:2:0:0:
217,280,153904,1,4,1:3:0:0:
357,198,154029,2,0,P|341:70|332:10,1,180,10|8,1:2|1:3,0:2:0:0:
478,154,154404,2,0,P|471:198|466:243,1,90,10|8,1:2|1:3,0:2:0:0:
347,355,154654,5,14,0:2:0:0:
270,212,154779,1,0,1:2:0:0:
127,289,154904,2,0,P|62:294|36:279,1,90,8|8,0:2|1:3,0:0:0:0:
20,131,155154,5,8,0:2:0:0:
20,131,155216,1,0,0:0:0:0:
20,131,155279,2,0,L|27:84,1,45,4|0,1:3|0:0,0:0:0:0:
98,39,155404,1,8,0:2:0:0:
120,42,155466,1,0,0:0:0:0:
142,45,155529,1,8,1:3:0:0:
164,49,155591,1,0,1:2:0:0:
186,52,155654,1,14,0:2:0:0:
186,52,156404,5,10,0:2:0:0:
164,49,156466,1,8,0:2:0:0:
142,45,156529,1,8,0:2:0:0:
120,42,156591,1,8,0:2:0:0:
98,39,156654,6,0,B|130:144|130:144|96:182|102:234,1,198.000006042481,6|8,1:2|0:2,0:2:0:0:
293,203,157029,2,0,P|245:196|200:214,1,99.0000030212403,10|0,0:3|1:2,0:2:0:0:
383,292,157279,1,10,1:3:0:0:
349,106,157404,1,8,0:2:0:0:
257,299,157529,6,0,B|191:302|140:338|140:338|104:334|65:304,1,198.000006042481,6|8,1:2|1:3,0:2:0:0:
123,128,157904,1,8,0:2:0:0:
293,203,158029,2,0,P|339:198|406:191,1,99.0000030212403,2|0,0:2|1:2,0:2:0:0:
219,112,158279,1,8,1:3:0:0:
257,299,158404,2,0,P|301:314|371:302,1,99.0000030212403,10|0,0:2|0:2,0:2:0:0:
474,141,158654,6,0,B|393:159|393:159|374:184|374:184|281:206,1,198.000006042481,6|10,1:2|0:2,0:2:0:0:
101,224,159029,2,0,P|54:216|-1:207,1,99.0000030212403,2|0,0:2|1:2,0:0:0:0:
112,54,159279,1,10,1:3:0:0:
203,218,159404,1,8,0:2:0:0:
311,40,159529,6,0,B|376:-6|446:23|446:23|405:64,1,198.000006042481,6|8,1:2|1:3,0:2:0:0:
293,203,159904,2,0,P|301:255|308:307,1,99.0000030212403,8|0,0:2|0:2,0:2:0:0:
198,123,160154,1,2,1:2:0:0:
383,156,160279,1,8,1:3:0:0:
193,242,160404,2,0,P|140:257|90:247,1,99.0000030212403,10|0,0:2|0:2,0:0:0:0:
149,26,160654,6,0,B|210:-1|263:38|263:38|294:30|348:22,1,198.000006042481,6|8,1:2|0:2,0:2:0:0:
480,146,161029,2,0,P|467:202|455:249,1,99.0000030212403,2|0,0:2|1:3,0:2:0:0:
277,304,161279,1,10,1:3:0:0:
362,136,161404,1,8,0:2:0:0:
155,162,161529,6,0,B|102:154|44:134|44:134|3:164|17:207,1,198.000006042481,6|8,1:2|1:3,0:2:0:0:
151,339,161904,1,8,0:2:0:0:
268,192,162029,2,0,P|278:144|266:96,1,99.0000030212403,2|0,0:2|1:2,0:2:0:0:
97,250,162279,1,8,1:3:0:0:
277,304,162404,2,0,P|319:297|387:285,1,99.0000030212403,10|0,0:2|0:2,0:2:0:0:
445,76,162654,6,0,B|318:54|318:54|298:91|250:100,1,198.000006042481,6|10,1:2|0:2,0:2:0:0:
88,226,163029,2,0,B|118:238|118:238|194:223,1,99.0000030212403,6|0,1:2|0:2,0:2:0:0:
361,160,163279,1,10,1:3:0:0:
165,126,163404,1,8,0:2:0:0:
318,281,163529,6,0,B|330:346|330:346|318:376,1,99.0000030212403,6|0,1:2|0:2,0:2:0:0:
183,225,163779,1,8,1:3:0:0:
361,160,163904,1,8,0:2:0:0:
223,328,164029,2,0,B|105:342|114:340|24:351,1,198.000006042481,6|8,1:2|1:3,0:2:0:0:
0,134,164404,2,0,P|42:90|133:94,1,148.50000453186,10|0,0:2|0:0,0:2:0:0:
202,125,164654,6,0,B|220:97|220:97|203:11,1,99.0000030212403,6|0,1:2|0:2,0:2:0:0:
86,174,164904,1,10,0:2:0:0:
271,203,165029,1,8,0:3:0:0:
124,320,165154,2,0,P|72:330|8:311,1,99.0000030212403,2|8,1:2|1:3,0:2:0:0:
183,225,165404,1,10,0:2:0:0:
252,366,165529,1,6,1:2:0:0:
366,216,165654,6,0,P|457:233|511:156,1,198.000006042481,2|8,0:2|0:2,0:2:0:0:
312,45,166029,2,0,B|204:38|233:105|122:89,1,198.000006042481,2|8,0:2|1:3,0:2:0:0:
5,234,166404,1,8,0:2:0:0:
188,275,166529,6,0,P|196:229|210:171,1,99.0000030212403,2|0,0:2|1:2,0:2:0:0:
278,352,166779,1,2,0:2:0:0:
88,265,166904,1,10,0:2:0:0:
163,377,167029,1,2,0:2:0:0:
294,256,167154,2,0,P|345:275|405:258,1,99.0000030212403,2|8,1:2|1:3,0:2:0:0:
462,104,167404,1,10,0:2:0:0:
290,153,167529,1,4,1:2:0:0:
486,235,167654,5,2,0:2:0:0:
486,235,167779,2,0,P|477:289|469:345,1,99.0000030212403,6|8,1:3|0:2,0:2:0:0:
287,377,168029,2,0,P|226:326|113:339,1,198.000006042481,2|8,0:2|1:3,0:2:0:0:
2,185,168404,2,0,P|54:168|109:155,1,99.0000030212403,10|0,0:2|0:2,0:0:0:0:
244,41,168654,6,0,P|209:104|181:226,2,198.000006042481,6|8|0,1:2|0:2|1:2,0:2:0:0:
429,10,169279,1,8,1:3:0:0:
401,196,169404,2,0,P|349:204|295:217,1,99.0000030212403,10|4,0:2|1:3,0:0:0:0:
178,357,169654,5,2,0:2:0:0:
178,357,169779,2,0,P|225:365|290:340,1,99.0000030212403,0|8,1:2|0:2,0:0:0:0:
223,147,170029,2,0,B|116:132|134:133|4:117,1,198.000006042481,2|8,0:2|1:3,0:2:0:0:
206,15,170404,2,0,P|253:7|318:32,1,99.0000030212403,10|0,0:2|0:2,0:2:0:0:
482,145,170654,5,6,1:2:0:0:
293,247,170779,1,8,0:2:0:0:
293,247,170841,1,8,0:2:0:0:
293,247,170904,1,8,0:2:0:0:
399,56,171029,1,10,0:2:0:0:
462,264,171154,6,0,P|472:318|457:362,1,99.0000030212403,8|10,0:2|1:3,0:0:0:0:
291,377,171404,1,8,1:3:0:0:
376,232,171529,1,4,1:3:0:0:
186,289,171654,6,0,B|70:266|70:266|47:304|-5:313,1,198.000006042481,14|0,0:2|1:2,0:2:0:0:
269,216,172029,2,0,B|344:199|344:199|366:171|366:171|463:150,1,198.000006042481,14|8,0:2|1:3,0:2:0:0:
505,17,172404,1,10,1:3:0:0:
505,17,172529,1,8,0:2:0:0:
314,70,172654,6,0,B|259:66|199:42|199:42|149:59|157:115,1,198.000006042481,6|8,1:2|0:2,0:2:0:0:
186,289,173029,2,0,P|227:306|286:298,1,99.0000030212403,2|0,0:2|1:2,0:2:0:0:
419,160,173279,1,10,1:3:0:0:
430,347,173404,1,8,0:2:0:0:
262,192,173529,6,0,B|195:174|139:207|139:207|104:205|70:178,1,198.000006042481,6|8,1:2|1:3,0:2:0:0:
314,70,173904,1,8,0:2:0:0:
423,246,174029,2,0,P|410:297|399:356,1,99.0000030212403,2|0,0:2|1:2,0:2:0:0:
291,189,174279,1,8,1:3:0:0:
414,89,174404,2,0,P|463:89|523:113,1,99.0000030212403,10|0,0:2|0:2,0:2:0:0:
324,283,174654,6,0,B|205:255|249:339|107:311,1,198.000006042481,6|10,1:2|0:2,0:2:0:0:
122,126,175029,2,0,P|139:180|130:233,1,99.0000030212403,2|0,0:2|1:2,0:0:0:0:
10,67,175279,1,10,1:3:0:0:
194,29,175404,1,8,0:2:0:0:
28,185,175529,6,0,B|0:319|0:319|17:289|52:269,1,198.000006042481,6|8,1:2|1:3,0:2:0:0:
246,171,175904,2,0,P|298:178|350:187,1,99.0000030212403,8|0,0:2|0:2,0:2:0:0:
440,347,176154,1,2,1:2:0:0:
266,274,176279,1,8,1:3:0:0:
449,232,176404,2,0,P|457:186|443:135,1,99.0000030212403,10|0,0:2|0:2,0:2:0:0:
228,34,176654,6,0,B|187:45|143:33|143:33|114:54|114:54|74:44|33:58,1,198.000006042481,6|8,1:2|0:2,0:2:0:0:
4,271,177029,2,0,P|48:288|115:273,1,99.0000030212403,2|0,0:2|1:2,0:2:0:0:
246,171,177279,1,10,1:3:0:0:
48,162,177404,1,8,0:2:0:0:
233,276,177529,6,0,B|311:260|311:260|350:285|350:285|442:267,1,198.000006042481,6|8,1:2|1:3,0:2:0:0:
507,102,177904,1,8,0:2:0:0:
324,58,178029,2,0,P|332:105|343:162,1,99.0000030212403,2|0,0:2|1:2,0:2:0:0:
221,302,178279,1,8,1:3:0:0:
95,161,178404,2,0,P|41:157|2:185,1,99.0000030212403,10|0,0:2|0:2,0:2:0:0:
224,30,178654,6,0,B|279:20|331:63|331:63|368:69|415:45,1,198.000006042481,6|10,1:2|0:2,0:2:0:0:
508,228,179029,2,0,P|459:237|400:248,1,99.0000030212403,2|0,0:2|1:2,0:2:0:0:
218,330,179279,1,10,1:3:0:0:
420,375,179404,1,8,0:2:0:0:
268,233,179529,6,0,P|272:188|278:131,1,99.0000030212403,6|0,1:2|0:0,0:2:0:0:
113,261,179779,2,0,P|118:310|122:359,1,99.0000030212403,8|8,1:3|0:2,0:0:0:0:
4,188,180029,1,4,1:2:0:0:
161,174,180154,5,2,0:2:0:0:
13,305,180279,1,8,0:2:0:0:
85,110,180404,2,0,P|115:85|183:76,1,99.0000030212403,10|8,0:2|1:3,0:0:0:0:
358,113,180654,5,14,0:2:0:0:
186,186,180779,1,0,1:2:0:0:
274,19,180904,1,10,0:2:0:0:
315,202,181029,1,0,1:2:0:0:
441,62,181154,5,10,0:2:0:0:
264,118,181279,1,0,1:2:0:0:
439,186,181404,1,10,0:2:0:0:
364,13,181529,1,2,1:2:0:0:
315,202,181654,5,8,0:2:0:0:
164,88,181779,1,0,1:0:0:0:
173,275,181904,1,10,0:2:0:0:
264,118,182029,1,0,1:0:0:0:
317,291,182154,6,0,P|309:339|310:374,3,49.5000015106202,10|8|4|8,1:2|1:3|1:3|1:3,0:0:0:0:
159,354,182404,2,0,P|157:321|151:289,3,49.5000015106202,4|8|8|8,0:3|1:3|1:3|1:3,0:0:0:0:
93,167,182654,5,10,0:2:0:0:
93,167,183654,5,0,1:0:0:0:
252,88,183779,1,8,0:0:0:0:
252,88,183841,1,8,0:0:0:0:
252,88,183904,2,0,P|246:49|227:22,2,66.0000020141602,10|8|8,0:0|0:0|0:0,0:0:0:0:
333,133,184154,2,0,P|363:108|377:78,2,66.0000020141602,10|8|8,0:3|0:3|0:3,0:0:0:0:
340,225,184404,2,0,P|376:239|409:236,2,66.0000020141602,6|4|4,0:3|0:3|0:3,0:0:0:0:
235,192,184654,6,0,B|193:183|154:190|154:190|123:208|123:208|80:194,1,161.999995056153,6|0,1:2|0:0,0:0:0:0:
8,301,185029,1,8,1:3:0:0:
118,368,185154,2,0,P|138:331|134:291,1,80.9999975280763,8|0,0:0|0:0,0:0:0:0:
247,226,185404,1,0,3:0:0:0:
247,226,185529,6,0,P|244:265|263:300,1,80.9999975280763,0|0,1:2|0:0,0:0:0:0:
391,321,185779,2,0,P|402:244|417:154,1,161.999995056153,8|8,0:2|1:3,0:0:0:0:
439,33,186154,2,0,P|479:36|512:59,1,80.9999975280763,10|0,0:0|0:0,0:0:0:0:
336,92,186404,2,0,P|303:114|263:118,1,80.9999975280763,0|0,1:2|0:0,0:0:0:0:
133,110,186654,6,0,B|144:207|145:195|155:294,1,161.999995056153,6|0,1:2|0:0,0:0:0:0:
266,332,187029,1,8,1:3:0:0:
327,217,187154,2,0,P|366:210|409:220,1,80.9999975280763,8|0,0:2|0:0,0:2:0:0:
458,343,187404,1,0,3:2:0:0:
458,343,187529,6,0,P|418:351|379:344,1,80.9999975280763,0|0,1:2|0:2,0:2:0:0:
253,309,187779,2,0,B|175:327|148:333|82:349,1,161.999995056153,8|8,0:2|1:3,0:0:0:0:
15,243,188154,2,0,P|10:199|22:164,1,80.9999975280763,10|2,0:2|0:2,0:0:0:0:
148,132,188404,2,0,P|159:170|154:210,1,80.9999975280763,0|10,1:2|0:2,0:0:0:0:
80,48,188654,6,0,B|182:19|182:19|227:74,1,161.999995056153,4|0,1:2|0:0,0:2:0:0:
283,175,189029,1,8,1:3:0:0:
374,83,189154,2,0,P|415:82|453:95,1,80.9999975280763,8|0,0:2|0:0,0:2:0:0:
507,218,189404,5,8,0:2:0:0:
507,218,189529,2,0,P|493:269|488:303,1,80.9999975280763,0|0,1:2|0:2,0:0:0:0:
377,361,189779,1,8,0:2:0:0:
377,361,189904,2,0,P|370:321|358:282,1,80.9999975280763,2|8,1:2|0:2,0:0:0:0:
283,175,190154,5,10,0:2:0:0:
230,293,190279,1,0,0:2:0:0:
134,205,190404,2,0,P|88:206|33:180,1,80.9999975280763,10|4,1:3|1:3,0:0:0:0:
90,46,190654,6,0,B|174:60|164:60|218:69,1,125.999996154785,10|2,0:2|0:2,0:0:0:0:
407,153,191154,2,0,B|356:161|366:161|282:175,1,125.999996154785,2|2,0:2|0:2,0:0:0:0:
243,268,191529,1,10,1:3:0:0:
243,268,191591,1,8,1:3:0:0:
243,268,191654,6,0,P|263:304|261:348,1,80.9999975280763,8|0,0:2|0:0,0:0:0:0:
136,377,191904,1,8,0:2:0:0:
147,247,192029,1,8,0:2:0:0:
23,285,192154,5,8,0:2:0:0:
30,308,192279,5,8,1:3:0:0:
36,331,192404,5,8,1:3:0:0:
43,354,192529,5,4,1:3:0:0:
131,256,192654,5,6,1:2:0:0:
256,192,196654,5,4,1:2:0:0:
256,192,199154,6,0,P|262:238|268:276,1,72,8|0,0:2|0:0,0:0:0:0:
343,349,199404,1,8,0:2:0:0:
379,239,199529,1,8,0:2:0:0:
491,262,199654,2,0,P|506:212|503:184,1,72,8|8,0:2|0:2,0:0:0:0:
408,129,199904,2,0,P|393:79|396:51,1,72,8|0,0:3|1:0,0:0:0:0:
294,13,200154,5,8,1:2:0:0:
223,104,200279,1,8,1:3:0:0:
294,13,200404,1,4,1:3:0:0:
223,104,200529,1,8,0:2:0:0:
124,24,200654,6,0,B|50:8|3:61|3:61|52:108,1,188.999994232178,6|0,1:2|0:2,0:2:0:0:
109,175,201154,2,0,P|100:214|97:241,1,62.9999980773926,6|0,1:3|0:2,0:2:0:0:
1,270,201404,6,0,B|112:233|81:321|210:267,1,188.999994232178,2|2,3:2|0:2,0:2:0:0:
275,235,201904,2,0,P|288:271|295:300,1,62.9999980773926,2|0,3:2|0:0,0:2:0:0:
371,368,202154,5,6,1:3:0:0:
371,368,202404,1,2,3:2:0:0:
494,208,202654,6,0,P|445:233|378:138,1,188.999994232178,2|0,1:2|0:2,0:2:0:0:
430,59,203154,2,0,P|475:68|494:71,1,62.9999980773926,6|0,1:3|0:2,0:2:0:0:
315,17,203404,6,0,B|238:41|238:41|223:66|223:66|120:93,1,188.999994232178,2|2,3:2|0:2,0:2:0:0:
70,153,203904,2,0,P|88:197|92:217,1,62.9999980773926,2|0,3:2|0:2,0:2:0:0:
100,316,204154,5,6,1:3:0:0:
100,316,204404,1,2,3:2:0:0:
272,211,204654,6,0,P|321:186|388:281,1,188.999994232178,2|0,1:2|0:2,0:2:0:0:
301,323,205154,2,0,P|256:311|229:306,1,62.9999980773926,6|0,1:3|0:2,0:2:0:0:
170,234,205404,6,0,B|210:108|210:108|180:120|155:128,1,188.999994232178,2|2,3:2|0:2,0:2:0:0:
59,158,205904,2,0,P|45:125|51:90,1,62.9999980773926,2|0,3:2|0:2,0:2:0:0:
119,27,206154,5,6,1:3:0:0:
119,27,206404,1,2,3:2:0:0:
298,151,206654,5,10,0:2:0:0:
387,122,206779,2,0,P|381:70|300:39,1,144,0|8,1:2|1:3,0:2:0:0:
214,151,207154,1,10,0:2:0:0:
125,122,207279,2,0,P|131:70|212:39,1,144,4|8,1:3|1:3,0:0:0:0:
298,151,207654,6,0,P|290:192|285:225,1,72,10|0,0:2|0:0,0:2:0:0:
206,333,207904,2,0,P|200:297|193:262,1,72,8|0,1:3|0:0,0:0:0:0:
100,117,208154,5,10,0:2:0:0:
61,135,208237,1,8,0:2:0:0:
32,166,208320,1,8,0:2:0:0:
14,206,208404,1,8,0:2:0:0:
12,249,208487,1,8,0:2:0:0:
24,289,208570,1,8,0:2:0:0:
50,325,208654,6,0,B|115:305|115:305|131:279|131:279|201:259,1,161.999995056153,4|0,1:2|0:0,0:2:0:0:
286,221,208904,2,0,P|342:235|393:248,1,107.999996704102,8|0,0:2|0:0,0:0:0:0:
194,157,209154,1,0,1:2:0:0:
298,333,209279,1,0,1:2:0:0:
340,121,209404,1,10,0:2:0:0:
192,262,209529,1,2,0:2:0:0:
432,325,209654,6,0,B|493:299|493:299|453:147,1,215.999993408203,2|10,1:2|0:2,0:2:0:0:
251,54,210029,2,0,P|215:98|222:155,1,107.999996704102,2|0,0:0|1:2,0:2:0:0:
321,323,210279,1,2,1:2:0:0:
340,121,210404,1,8,0:2:0:0:
192,293,210529,6,0,B|61:262|61:262|39:300|2:315,1,215.999993408203,6|8,1:2|1:3,0:2:0:0:
1,86,210904,2,0,P|63:70|117:58,1,107.999996704102,8|0,0:2|0:2,0:2:0:0:
314,123,211154,1,0,1:2:0:0:
115,174,211279,1,4,1:3:0:0:
241,12,211404,1,10,0:2:0:0:
235,222,211529,1,2,0:2:0:0:
419,71,211654,6,0,B|488:88|488:88|441:252,1,215.999993408203,2|10,1:2|0:2,0:2:0:0:
235,222,212029,2,0,P|283:205|341:217,1,107.999996704102,2|0,0:2|1:2,0:2:0:0:
208,377,212279,1,10,1:3:0:0:
139,183,212404,2,0,P|148:132|187:88,1,107.999996704102,8|2,0:2|1:2,0:0:0:0:
382,144,212654,6,0,B|356:254|364:228|332:361,2,215.999993408203,4|8|0,1:2|0:2|1:2,0:0:0:0:
225,9,213279,1,8,1:3:0:0:
235,222,213404,1,10,0:2:0:0:
335,43,213529,1,2,0:2:0:0:
140,159,213654,6,0,B|2:129|2:129|40:149|60:190,1,215.999993408203,2|10,1:2|0:2,0:2:0:0:
205,337,214029,2,0,P|222:283|208:231,1,107.999996704102,2|0,1:2|0:2,0:2:0:0:
127,44,214279,1,10,1:3:0:0:
61,272,214404,1,8,0:2:0:0:
270,138,214529,6,0,B|355:154|355:154|373:189|373:189|475:211,1,215.999993408203,6|8,1:2|1:3,0:2:0:0:
278,39,214904,1,10,0:2:0:0:
314,256,215029,1,0,0:2:0:0:
431,74,215154,1,2,1:2:0:0:
314,256,215279,1,10,1:3:0:0:
278,39,215404,2,0,P|215:51|171:61,1,107.999996704102,10|0,0:2|0:2,0:2:0:0:
33,281,215654,6,0,B|152:309|152:309|205:276|164:207,1,215.999993408203,6|8,1:2|0:2,0:2:0:0:
421,199,216029,2,0,P|407:260|394:324,1,107.999996704102,6|0,1:2|0:0,0:2:0:0:
300,61,216279,1,10,0:2:0:0:
491,134,216404,1,8,0:2:0:0:
298,205,216529,1,10,0:2:0:0:
183,34,216654,6,0,B|130:28|86:13|86:13|50:26|44:56,1,161.999995056153,4|0,1:2|0:0,0:2:0:0:
59,156,216904,2,0,P|108:150|172:142,1,107.999996704102,8|0,0:2|0:2,0:0:0:0:
382,115,217154,1,0,1:2:0:0:
202,15,217279,1,8,1:3:0:0:
273,218,217404,2,0,P|262:274|253:326,1,107.999996704102,10|0,0:2|0:2,0:0:0:0:
48,342,217654,5,2,1:2:0:0:
154,166,217779,1,8,1:3:0:0:
159,381,217904,1,8,0:2:0:0:
6,228,218029,2,0,B|21:137|18:152|45:2,1,215.999993408203,6|0,1:3|1:2,0:0:0:0:
252,131,218404,2,0,P|192:154|148:137,1,107.999996704102,10|0,0:2|0:2,0:2:0:0:
360,20,218654,6,0,B|420:25|508:36|508:36|472:51|443:85,2,215.999993408203,0|10|2,1:2|0:2|1:2,0:2:0:0:
156,56,219279,1,8,1:3:0:0:
257,234,219404,2,0,P|269:299|243:355,1,107.999996704102,10|0,0:2|0:2,0:2:0:0:
154,166,219654,5,2,1:2:0:0:
357,191,219779,1,8,1:3:0:0:
162,284,219904,2,0,P|97:275|31:266,1,107.999996704102,10|0,0:2|0:2,0:2:0:0:
268,118,220154,1,2,1:2:0:0:
255,337,220279,1,0,0:2:0:0:
446,237,220404,2,0,P|457:193|435:128,1,107.999996704102,10|0,0:2|0:2,0:2:0:0:
184,48,220654,6,0,B|101:71|101:71|78:115|78:115|0:134,2,215.999993408203,6|8|0,1:2|0:2|1:2,0:2:0:0:
388,14,221279,1,8,1:3:0:0:
337,212,221404,2,0,P|281:230|228:217,1,107.999996704102,8|0,0:2|0:2,0:2:0:0:
450,116,221654,5,0,1:2:0:0:
390,317,221779,1,8,0:2:0:0:
390,317,221841,1,8,0:2:0:0:
390,317,221904,1,8,0:2:0:0:
275,134,222029,1,8,0:2:0:0:
144,262,222154,2,0,P|167:314|176:367,1,107.999996704102,8|8,0:2|1:3,0:0:0:0:
0,228,222404,2,0,P|9:175|31:125,1,107.999996704102,6|4,1:3|1:3,0:0:0:0:
196,22,222654,5,10,0:2:0:0:
256,192,222716,12,0,224529,0:0:0:0:
163,148,224654,6,0,P|71:173|20:200,3,144,6|0|0|0,1:2|1:2|1:2|1:2,0:0:0:0:
349,148,226654,6,0,P|441:173|492:200,3,144,0|0|0|0,1:2|1:2|1:2|1:2,0:0:0:0:
322,322,228654,6,0,B|281:322|255:346|255:346|231:321|190:321,3,144,2|0|0|0,1:2|1:2|1:2|1:2,0:0:0:0:
27,195,230654,6,0,P|63:143|141:137,1,144,0|0,1:2|1:2,0:0:0:0:
306,188,231654,2,0,P|314:134|322:81,2,108,12|8|4,0:2|0:3|0:3,0:2:0:0:
295,350,232654,6,0,P|343:347|389:335,1,90,6|0,1:2|3:2,0:0:0:0:
476,203,233154,2,0,P|432:192|387:189,1,90,0|0,1:2|3:2,0:0:0:0:
224,191,233654,6,0,P|215:153|211:134,1,45,0|0,1:2|0:0,0:0:0:0:
136,122,233904,2,0,P|131:143|125:165,1,45,2|0,3:2|0:2,0:0:0:0:
63,216,234154,1,2,1:2:0:0:
63,216,234279,2,0,P|67:237|73:259,1,45,2|0,0:2|3:2,0:0:0:0:
142,302,234529,6,0,P|181:293|228:318,1,90,0|0,0:2|0:0,0:0:0:0:
278,374,234904,1,0,3:2:0:0:
427,312,235154,2,0,P|436:258|445:215,1,90,0|0,1:2|3:2,0:0:0:0:
345,101,235654,5,2,1:2:0:0:
345,101,235779,2,0,P|334:128|331:149,1,45,2|0,0:2|3:2,0:2:0:0:
266,191,236029,1,2,0:2:0:0:
266,191,236154,2,0,P|218:171|178:169,1,90,8|10,0:3|0:3,0:0:0:0:
9,273,236654,6,0,P|20:322|25:358,1,72,6|0,1:2|0:0,0:0:0:0:
148,284,236904,1,8,0:2:0:0:
148,284,237029,1,8,0:2:0:0:
73,168,237154,2,0,P|40:181|5:178,1,72,8|8,0:2|0:2,0:0:0:0:
112,52,237404,2,0,P|147:49|180:62,1,72,10|8,0:2|0:2,0:0:0:0:
290,183,237654,5,10,0:2:0:0:
350,32,237779,1,8,0:2:0:0:
468,142,237904,2,0,P|458:196|449:245,1,80.9999975280763,8|10,0:2|0:2,0:0:0:0:
339,337,238154,1,8,0:2:0:0:
290,183,238279,1,8,0:2:0:0:
176,299,238404,2,0,P|130:307|92:297,1,80.9999975280763,10|8,0:2|0:2,0:0:0:0:
187,93,238654,5,6,1:2:0:0:
274,278,238779,1,8,0:0:0:0:
274,278,238841,1,8,0:2:0:0:
274,278,238904,2,0,P|265:327|257:375,1,90,8|10,0:2|0:2,0:0:0:0:
135,199,239154,1,8,0:2:0:0:
302,164,239279,1,8,1:3:0:0:
168,71,239404,2,0,P|104:83|75:103,1,90,6|4,1:3|1:3,0:0:0:0:
16,293,239654,5,10,0:2:0:0:
16,293,240154,1,8,0:2:0:0:
38,288,240216,1,8,0:2:0:0:
60,284,240279,1,8,0:2:0:0:
82,280,240341,1,8,0:2:0:0:
104,276,240404,1,8,0:2:0:0:
215,199,240529,1,8,0:2:0:0:
237,203,240591,1,8,0:2:0:0:
259,207,240654,6,0,B|304:260|304:260|443:220,1,198.000006042481,6|8,1:2|0:2,0:2:0:0:
364,36,241029,2,0,P|307:34|252:65,1,99.0000030212403,2|0,0:2|1:2,0:2:0:0:
118,181,241279,1,10,1:3:0:0:
332,136,241404,1,8,0:2:0:0:
135,41,241529,6,0,B|78:33|0:11|0:11|29:29|60:62,1,198.000006042481,6|8,1:2|1:3,0:2:0:0:
237,203,241904,1,8,0:2:0:0:
23,245,242029,2,0,P|37:312|42:354,1,99.0000030212403,2|0,0:2|1:2,0:2:0:0:
260,352,242279,1,8,1:3:0:0:
140,157,242404,2,0,P|79:138|39:154,1,99.0000030212403,10|0,0:2|0:2,0:2:0:0:
309,271,242654,6,0,B|352:251|399:264|399:264|416:282|416:282|446:302|514:275,1,198.000006042481,6|10,1:2|0:2,0:2:0:0:
352,76,243029,2,0,P|334:129|354:180,1,99.0000030212403,2|0,0:2|1:2,0:0:0:0:
439,16,243279,1,10,1:3:0:0:
237,68,243404,1,8,0:2:0:0:
449,194,243529,6,0,B|408:311|408:311|437:339|444:379,1,198.000006042481,6|8,1:2|1:3,0:2:0:0:
212,290,243904,2,0,P|260:279|308:270,1,99.0000030212403,8|0,0:2|0:2,0:2:0:0:
119,180,244154,1,2,1:2:0:0:
145,356,244279,1,8,1:3:0:0:
239,171,244404,2,0,P|237:127|207:72,1,99.0000030212403,10|0,0:2|0:2,0:2:0:0:
16,40,244654,6,0,B|30:112|30:112|10:151|10:151|31:242,1,198.000006042481,6|8,1:2|0:2,0:2:0:0:
214,263,245029,2,0,P|152:257|103:292,1,99.0000030212403,2|0,0:2|1:2,0:2:0:0:
290,358,245279,1,10,1:3:0:0:
262,151,245404,1,8,0:2:0:0:
449,262,245529,6,0,B|500:238|500:238|465:72,1,198.000006042481,6|8,1:2|1:3,0:2:0:0:
305,6,245904,1,8,0:2:0:0:
354,187,246029,2,0,P|346:238|338:288,1,99.0000030212403,2|0,0:2|1:2,0:2:0:0:
170,372,246279,1,8,1:3:0:0:
145,178,246404,2,0,P|194:162|244:173,1,99.0000030212403,10|0,0:2|0:2,0:2:0:0:
444,290,246654,6,0,B|359:303|359:303|338:327|338:327|242:341,1,198.000006042481,6|10,1:2|0:2,0:2:0:0:
72,263,247029,2,0,P|139:276|173:283,1,99.0000030212403,2|0,0:2|1:2,0:2:0:0:
20,164,247279,1,10,1:3:0:0:
61,367,247404,1,8,0:2:0:0:
192,162,247529,6,0,B|201:130|201:130|188:56,1,99.0000030212403,6|0,1:2|0:0,0:2:0:0:
380,8,247779,2,0,B|368:72|368:72|377:104,1,99.0000030212403,8|8,1:3|0:2,0:0:0:0:
444,290,248029,1,4,1:2:0:0:
260,252,248154,2,0,P|195:263|154:299,1,99.0000030212403,2|0,0:2|1:2,0:2:0:0:
11,143,248404,2,0,P|53:168|102:172,1,99.0000030212403,10|0,0:2|0:2,0:2:0:0:
300,148,248654,5,14,0:2:0:0:
161,51,248779,1,0,1:2:0:0:
231,225,248904,1,10,0:2:0:0:
277,42,249029,1,0,1:2:0:0:
128,169,249154,5,10,0:2:0:0:
315,177,249279,1,0,1:2:0:0:
150,267,249404,1,10,0:2:0:0:
221,113,249529,1,2,1:2:0:0:
334,263,249654,5,8,0:2:0:0:
407,89,249779,1,0,1:2:0:0:
455,270,249904,1,10,0:2:0:0:
300,148,250029,1,0,1:2:0:0:
247,349,250154,5,10,0:2:0:0:
124,200,250279,1,8,0:2:0:0:
124,200,250341,1,8,0:2:0:0:
124,200,250404,1,10,0:2:0:0:
334,263,250529,1,8,1:3:0:0:
126,377,250654,5,10,0:0:0:0:
126,377,252154,5,2,1:2:0:0:
191,195,252279,1,8,0:2:0:0:
191,195,252341,1,8,0:2:0:0:
191,195,252404,1,10,0:2:0:0:
21,297,252529,1,8,1:3:0:0:
268,298,252654,5,10,0:0:0:0:
268,298,253654,5,0,1:2:0:0:
91,232,253779,1,8,0:2:0:0:
91,232,253841,1,8,0:2:0:0:
91,232,253904,1,10,0:2:0:0:
271,150,254029,1,8,1:3:0:0:
91,67,254154,2,0,P|36:73|-1:97,1,99.0000030212403,10|8,0:0|0:2,0:0:0:0:
241,7,254404,2,0,P|283:32|332:36,1,99.0000030212403,10|8,0:2|0:2,0:0:0:0:
485,160,254654,6,0,B|417:178|417:178|463:318,1,198.000006042481,6|2,1:2|1:2,0:2:0:0:
271,369,255029,2,0,B|152:337|152:337|125:371|63:375,1,198.000006042481,10|0,0:2|0:0,0:0:0:0:
1,193,255404,2,0,P|44:163|101:171,1,99.0000030212403,10|2,0:2|0:2,0:0:0:0:
278,222,255654,5,8,1:3:0:0:
236,28,255779,2,0,B|126:50|134:48|20:73,1,198.000006042481,8|0,0:2|0:2,0:0:0:0:
192,196,256154,1,10,0:2:0:0:
263,22,256279,1,8,1:3:0:0:
411,152,256404,2,0,P|428:206|411:262,1,99.0000030212403,10|0,0:2|0:0,0:0:0:0:
245,362,256654,6,0,B|313:350|313:350|368:374|368:374|448:358,1,198.000006042481,14|2,1:2|0:2,0:2:0:0:
189,227,257029,2,0,B|125:222|85:271|85:271|35:259|10:229,1,198.000006042481,8|8,0:2|1:3,0:0:0:0:
172,41,257404,2,0,P|192:85|189:140,1,99.0000030212403,10|2,0:2|0:2,0:0:0:0:
148,340,257654,5,0,0:0:0:0:
62,150,257779,1,8,0:2:0:0:
266,185,257904,2,0,P|338:173|368:168,1,99.0000030212403,2|0,1:2|0:0,0:0:0:0:
497,327,258154,5,10,1:2:0:0:
456,360,258237,1,8,0:2:0:0:
407,379,258320,1,8,0:2:0:0:
355,381,258404,1,10,0:2:0:0:
305,366,258487,1,8,0:2:0:0:
262,335,258570,1,8,0:2:0:0:
232,291,258654,2,0,B|205:312|205:312|135:316,1,99.0000030212403,6|0,1:2|0:0,0:2:0:0:
259,44,258904,6,0,P|283:97|277:144,1,99.0000030212403,10|0,0:2|0:0,0:0:0:0:
191,109,259154,1,2,1:2:0:0:
370,163,259279,6,0,P|336:210|292:228,1,99.0000030212403,10|8,1:3|0:2,0:2:0:0:
279,136,259529,1,6,0:2:0:0:
323,320,259654,6,0,P|265:314|227:285,1,99.0000030212403,2|8,0:2|1:3,0:2:0:0:
300,227,259904,1,10,0:2:0:0:
164,358,260029,6,0,P|140:304|146:257,1,99.0000030212403,2|4,0:2|1:3,0:2:0:0:
233,291,260279,1,2,1:2:0:0:
52,239,260404,6,0,P|85:191|129:173,1,99.0000030212403,10|0,0:2|0:2,0:2:0:0:
144,265,260654,1,6,1:2:0:0:
35,111,260779,5,2,0:2:0:0:
211,201,260904,1,10,0:2:0:0:
35,111,261029,1,2,0:2:0:0:
215,28,261154,2,0,P|281:36|315:58,1,99.0000030212403,2|8,1:2|1:3,0:2:0:0:
469,201,261404,1,10,0:2:0:0:
426,27,261529,1,6,1:2:0:0:
329,201,261654,5,2,0:0:0:0:
329,201,261779,2,0,P|337:264|342:311,1,99.0000030212403,10|8,1:3|0:2,0:0:0:0:
182,381,262029,1,2,0:2:0:0:
62,248,262154,2,0,P|99:209|191:208,1,148.50000453186,2|0,1:2|0:0,0:2:0:0:
242,143,262404,2,0,P|249:98|257:35,1,99.0000030212403,8|0,0:2|0:0,0:0:0:0:
478,101,262654,6,0,P|425:109|376:116,1,99.0000030212403,6|0,1:2|0:2,0:2:0:0:
242,284,262904,2,0,P|290:291|339:298,1,99.0000030212403,10|0,0:2|0:2,0:2:0:0:
242,143,263154,1,2,1:2:0:0:
146,290,263279,1,8,1:3:0:0:
127,92,263404,1,10,0:2:0:0:
329,201,263529,6,0,B|376:215|376:215|434:199,1,99.0000030212403,6|0,1:2|0:2,0:2:0:0:
477,10,263779,1,2,1:2:0:0:
287,68,263904,1,8,0:2:0:0:
479,125,264029,2,0,B|464:214|468:198|443:341,1,198.000006042481,2|8,0:2|1:3,0:0:0:0:
253,370,264404,2,0,P|197:309|125:327,1,148.50000453186,10|0,0:2|0:0,0:0:0:0:
58,347,264654,6,0,B|43:328|43:328|27:240,1,99.0000030212403,6|0,1:2|0:2,0:2:0:0:
7,56,264904,1,10,0:2:0:0:
150,192,265029,1,4,1:2:0:0:
283,45,265154,2,0,P|335:48|375:79,1,99.0000030212403,2|8,0:2|1:3,0:2:0:0:
487,237,265404,1,10,0:2:0:0:
284,231,265529,6,0,P|293:182|303:134,1,99.0000030212403,6|0,1:2|0:0,0:2:0:0:
207,312,265779,1,10,1:3:0:0:
389,235,265904,1,8,0:2:0:0:
177,182,266029,2,0,B|120:189|67:220|67:220|23:196|32:143,1,198.000006042481,6|4,1:2|1:3,0:2:0:0:
194,10,266404,2,0,P|263:22|346:36,1,148.50000453186,10|0,0:2|0:0,0:0:0:0:
393,102,266654,6,0,P|387:159|358:197,1,99.0000030212403,6|0,1:2|0:2,0:2:0:0:
301,124,266904,1,10,0:2:0:0:
429,260,267029,6,0,P|376:283|328:277,1,99.0000030212403,2|0,0:2|1:2,0:2:0:0:
364,191,267279,1,10,1:3:0:0:
308,372,267404,6,0,P|260:337|242:293,1,99.0000030212403,10|4,0:2|1:2,0:2:0:0:
336,279,267654,1,2,0:2:0:0:
152,324,267779,6,0,P|158:265|186:227,1,99.0000030212403,2|8,1:2|0:2,0:2:0:0:
244,302,268029,1,2,0:2:0:0:
116,167,268154,6,0,P|168:141|215:148,1,99.0000030212403,2|8,1:2|1:3,0:2:0:0:
180,233,268404,1,10,0:2:0:0:
83,63,268529,5,2,0:2:0:0:
45,257,268654,1,6,1:2:0:0:
207,144,268779,2,0,P|203:91|199:33,1,99.0000030212403,2|8,0:2|0:2,0:0:0:0:
363,192,269029,2,0,P|359:241|355:290,1,99.0000030212403,2|0,0:2|1:2,0:2:0:0:
439,133,269279,1,10,1:3:0:0:
261,221,269404,1,8,0:2:0:0:
172,44,269529,6,0,B|119:48|62:80|62:80|20:63|23:12,1,198.000006042481,6|0,1:2|1:2,0:2:0:0:
289,35,269904,2,0,P|309:91|294:143,1,99.0000030212403,10|0,0:2|0:2,0:0:0:0:
219,308,270154,1,10,0:3:0:0:
171,167,270279,1,8,0:3:0:0:
343,241,270404,2,0,P|397:234|448:228,1,99.0000030212403,6|4,0:3|0:3,0:2:0:0:
277,370,270654,5,14,0:2:0:0:
289,154,270779,1,0,1:2:0:0:
123,292,270904,1,8,0:2:0:0:
135,76,271029,1,0,1:2:0:0:
315,247,271154,5,8,0:2:0:0:
238,44,271279,1,0,1:2:0:0:
439,133,271404,1,8,0:2:0:0:
206,182,271529,1,2,1:2:0:0:
376,16,271654,6,0,P|435:18|481:44,1,107.999996704102,10|0,0:2|1:2,0:0:0:0:
501,279,271904,2,0,P|453:303|399:303,1,107.999996704102,10|0,0:2|1:2,0:0:0:0:
185,201,272154,5,10,0:2:0:0:
400,213,272279,1,0,1:2:0:0:
214,323,272404,1,10,0:2:0:0:
301,128,272529,1,0,1:2:0:0:
90,178,272654,5,14,0:2:0:0:
292,254,272779,1,0,1:2:0:0:
80,297,272904,1,8,0:2:0:0:
164,98,273029,1,0,1:2:0:0:
242,333,273154,5,10,0:2:0:0:
382,168,273279,1,0,1:2:0:0:
174,228,273404,1,8,0:2:0:0:
379,295,273529,1,0,1:2:0:0:
294,98,273654,6,0,P|237:78|178:91,1,107.999996704102,14|0,0:0|1:2,0:0:0:0:
379,295,273904,2,0,P|432:301|481:282,1,107.999996704102,8|0,0:2|1:2,0:0:0:0:
391,39,274154,5,14,0:2:0:0:
263,259,274279,1,0,1:2:0:0:
263,259,274341,1,8,0:2:0:0:
263,259,274404,2,8,L|272:329,1,53.9999983520508,8|8,0:2|0:2,0:2:0:0:
100,372,274529,2,0,L|106:318,1,53.9999983520508,8|8,0:2|0:2,0:0:0:0:
129,156,274654,6,0,B|192:162|259:124|259:124|303:137|330:182,1,215.999993408203,14|0,0:2|1:2,0:0:0:0:
482,345,275029,2,0,B|508:204|508:204|477:242|439:251,1,215.999993408203,10|8,0:2|1:3,0:2:0:0:
333,40,275404,2,0,P|374:33|437:65,1,107.999996704102,14|0,0:2|0:0,0:2:0:0:
354,273,275654,5,4,1:3:0:0:
208,99,275779,2,0,B|131:119|131:119|105:165|105:165|7:194,1,215.999993408203,10|0,0:2|1:2,0:2:0:0:
236,0,276154,1,14,0:2:0:0:
200,213,276279,1,0,1:2:0:0:
79,8,276404,1,8,0:2:0:0:
235,104,276529,1,0,1:2:0:0:
25,189,276654,6,0,B|58:269|10:338|10:338|56:382,1,215.999993408203,14|0,0:2|1:2,0:0:0:0:
270,260,277029,2,0,B|128:233|128:233|157:268|162:312,1,215.999993408203,10|8,0:2|1:3,0:2:0:0:
386,325,277404,2,0,P|404:269|392:211,1,107.999996704102,14|0,0:2|0:0,0:2:0:0:
331,13,277654,5,4,1:3:0:0:
149,130,277779,2,0,B|77:148|77:148|50:8,1,215.999993408203,10|8,0:2|0:2,0:2:0:0:
261,97,278154,1,14,0:2:0:0:
89,245,278279,1,8,1:3:0:0:
165,31,278404,1,4,0:3:0:0:
268,232,278529,1,0,1:2:0:0:
435,55,278654,5,14,0:2:0:0:
435,55,279654,5,0,1:2:0:0:
306,261,279779,1,8,0:2:0:0:
306,261,279841,1,8,0:2:0:0:
306,261,279904,2,0,L|319:349,1,66.0000020141602,8|8,0:2|0:2,0:2:0:0:
181,233,280070,2,0,L|190:165,1,66.0000020141602,8|10,0:2|1:3,0:0:0:0:
208,34,280237,5,8,1:3:0:0:
162,18,280320,1,8,1:3:0:0:
113,21,280403,1,4,1:3:0:0:
69,41,280486,1,4,1:3:0:0:
35,75,280570,1,4,1:3:0:0:
16,119,280654,6,0,B|63:149|63:149|32:315,1,198.000006042481,6|8,1:2|0:2,0:0:0:0:
314,314,281029,2,0,B|250:269|167:296|167:296|215:329,1,198.000006042481,6|8,1:2|0:0,0:0:0:0:
448,350,281404,6,0,B|469:282|424:220|424:220|440:199|443:168|443:168|450:162|450:162|452:126|472:92|472:92|438:18|345:22|311:112|374:152,1,504,6|0,1:2|0:0,0:2:0:0:
