osu file format v14

[General]
AudioFilename: audio.ogg
AudioLeadIn: 0
PreviewTime: 80794
Countdown: 0
SampleSet: Soft
StackLeniency: 0.7
Mode: 3
LetterboxInBreaks: 0
SpecialStyle: 0
WidescreenStoryboard: 1

[Editor]
Bookmarks: 1025,23221,45418,67614,81487,103684,128655,150851,173048,186921,209117,234088,250736,260447,282643,307614,329811
DistanceSpacing: 1
BeatDivisor: 4
GridSize: 32
TimelineZoom: 1.900001

[Metadata]
Title:Triangle Dreamer
TitleUnicode:トライアングル・ドリーマー
Artist:Niji no Conquistador
ArtistUnicode:虹のコンキスタドール
Creator:chocomilku-
Version:Normal
Source:
Tags:2zicon 虹コン nijicon 11th single female vocals vocalists king records 鶴見 萌 Tsurumi Moe 根本 凪 Nemoto Nagi 中村 朱里 Nakamura Akari 的場 華鈴 Matoba Karin 大和 明桜 Yamato Ao 清水 理子 Shimizu Riko 隈本 茉莉奈 Kumamoto Marina 山崎 夏菜 Yamasaki Nana 蛭田 愛梨 Hiruta Airi 岡田 彩夢 Okada Ayame 片岡 未優 Kataoka Miyu japanese pop j-pop jpop idols 村カワ基成 Motonari Murakawa full version DEARSTAGE ディアステージ
BeatmapID:4462488
BeatmapSetID:2095320

[Difficulty]
HPDrainRate:7
CircleSize:4
OverallDifficulty:7
ApproachRate:5
SliderMultiplier:1.4
SliderTickRate:1

[Events]
//Background and Video events
Video,-595,"MV.mp4"
0,0,"bg3.jpg",0,0
//Break Periods
//Storyboard Layer 0 (Background)
//Storyboard Layer 1 (Fail)
//Storyboard Layer 2 (Pass)
//Storyboard Layer 3 (Foreground)
//Storyboard Layer 4 (Overlay)
//Storyboard Sound Samples
Sample,11950,0,"hat.wav",70
Sample,72470,0,"Hihat.wav",70
Sample,97961,0,"hat.wav",70
Sample,120158,0,"hat.wav",70
Sample,139580,0,"hat.wav",70
Sample,153626,0,"hat.wav",70
Sample,156401,0,"hat.wav",70
Sample,159175,0,"hat.wav",70
Sample,164724,0,"hat.wav",70
Sample,167499,0,"hat.wav",70
Sample,170273,0,"hat.wav",70
Sample,175822,0,"Hihat.wav",70
Sample,177903,0,"Hihat.wav",70
Sample,203395,0,"hat.wav",70
Sample,225591,0,"hat.wav",70
Sample,251083,0,"hat.wav",70
Sample,251429,0,"hat.wav",70
Sample,251776,0,"hat.wav",70
Sample,252123,0,"hat.wav",70
Sample,252470,0,"hat.wav",70
Sample,252817,0,"hat.wav",70
Sample,253164,0,"hat.wav",70
Sample,253857,0,"hat.wav",70
Sample,254204,0,"hat.wav",70
Sample,254551,0,"hat.wav",70
Sample,255591,0,"soft-hitclap.wav",65
Sample,255938,0,"soft-hitclap.wav",65
Sample,276921,0,"hat.wav",70
Sample,299117,0,"hat.wav",70
Sample,312643,0,"hat.wav",70
Sample,312990,0,"hat.wav",70
Sample,318192,0,"hat.wav",70
Sample,324262,0,"hat.wav",70

[TimingPoints]
-362,346.820809248555,4,2,1,50,1,0
81487,-100,4,2,1,65,0,1
125880,-100,4,2,1,65,0,0
186921,-100,4,2,1,65,0,1
231314,-100,4,2,1,65,0,0
260447,-100,4,2,1,65,0,1
304840,-100,4,2,1,65,0,0

[HitObjects]
64,192,331,128,0,678:0:0:0:0:
448,192,678,128,0,1025:0:0:0:0:
64,192,1025,1,2,0:2:0:0:
192,192,1025,128,4,1372:0:2:0:0:
320,192,1372,1,8,0:2:0:0:
448,192,1372,1,2,0:2:0:0:
64,192,1718,1,2,0:2:0:0:
192,192,2065,1,8,0:2:0:0:
320,192,2065,1,2,0:2:0:0:
448,192,2239,1,0,0:0:0:70:hat.wav
64,192,2412,128,2,2759:0:2:0:0:
192,192,2759,1,8,0:2:0:0:
448,192,2759,1,2,0:2:0:0:
448,192,3106,128,2,3453:0:2:0:0:
64,192,3453,1,8,0:2:0:0:
320,192,3453,1,2,0:2:0:0:
320,192,3799,128,2,4146:0:2:0:0:
64,192,4146,1,8,0:2:0:0:
448,192,4146,1,2,0:2:0:0:
320,192,4320,1,0,0:0:0:70:hat.wav
192,192,4493,128,2,4840:0:2:0:0:
320,192,4840,1,8,0:2:0:0:
448,192,4840,1,2,0:2:0:0:
64,192,5013,1,0,0:0:0:70:hat.wav
448,192,5187,1,2,0:2:0:0:
320,192,5360,1,0,0:0:0:70:hat.wav
64,192,5533,1,8,0:2:0:0:
192,192,5533,1,2,0:2:0:0:
320,192,5707,1,0,0:0:0:70:hat.wav
448,192,5880,128,2,6227:0:2:0:0:
64,192,6227,128,8,6574:0:2:0:0:
192,192,6227,1,2,0:2:0:0:
320,192,6574,128,2,6921:0:2:0:0:
64,192,6921,1,8,0:2:0:0:
192,192,6921,1,2,0:2:0:0:
448,192,7268,1,2,0:2:0:0:
192,192,7614,1,8,0:2:0:0:
320,192,7614,1,2,0:2:0:0:
64,192,7788,1,0,0:0:0:70:hat.wav
448,192,7961,128,2,8308:0:2:0:0:
64,192,8308,1,2,0:2:0:0:
192,192,8308,1,8,0:2:0:0:
64,192,8655,128,2,9002:0:2:0:0:
320,192,9002,1,8,0:2:0:0:
448,192,9002,1,2,0:2:0:0:
192,192,9348,128,2,9695:0:2:0:0:
64,192,9695,1,2,0:2:0:0:
448,192,9695,1,8,0:2:0:0:
192,192,9869,1,0,0:0:0:70:hat.wav
320,192,10042,128,2,10389:0:2:0:0:
64,192,10389,1,8,0:2:0:0:
192,192,10389,1,2,0:2:0:0:
448,192,10562,1,0,0:0:0:70:hat.wav
320,192,10909,1,8,0:2:0:0:
448,192,10909,1,0,0:0:0:70:hat.wav
64,192,11083,1,8,0:2:0:0:
192,192,11083,1,0,0:0:0:0:
320,192,11256,1,0,0:0:0:70:hat.wav
64,192,11429,1,8,0:2:0:0:
192,192,11429,1,2,0:2:0:0:
448,192,11603,1,0,0:0:0:70:hat.wav
192,192,11776,1,8,0:2:0:0:
320,192,11776,1,2,0:2:0:0:
64,192,11950,1,8,0:2:0:0:
320,192,12123,128,2,12470:0:2:0:0:
448,192,12123,1,4,0:2:0:0:
64,192,12470,1,2,0:2:0:0:
192,192,12470,1,8,0:2:0:0:
448,192,12817,1,2,0:2:0:0:
192,192,13164,1,2,0:2:0:0:
320,192,13164,1,8,0:2:0:0:
64,192,13337,1,0,0:0:0:70:hat.wav
448,192,13510,128,2,13857:0:2:0:0:
64,192,13857,1,8,0:2:0:0:
320,192,13857,1,2,0:2:0:0:
64,192,14204,128,2,14551:0:2:0:0:
192,192,14551,1,2,0:2:0:0:
448,192,14551,1,8,0:2:0:0:
192,192,14898,128,2,15244:0:2:0:0:
64,192,15244,1,8,0:2:0:0:
448,192,15244,1,2,0:2:0:0:
192,192,15418,1,0,0:0:0:70:hat.wav
320,192,15591,128,2,15938:0:2:0:0:
64,192,15938,1,2,0:2:0:0:
192,192,15938,1,8,0:2:0:0:
448,192,16111,1,0,0:0:0:70:hat.wav
64,192,16285,1,2,0:2:0:0:
192,192,16458,1,0,0:0:0:70:hat.wav
320,192,16632,1,8,0:2:0:0:
448,192,16632,1,2,0:2:0:0:
192,192,16805,1,0,0:0:0:70:hat.wav
64,192,16979,128,2,17325:0:2:0:0:
320,192,17325,1,2,0:2:0:0:
448,192,17325,128,8,17672:0:2:0:0:
192,192,17672,128,2,18019:0:2:0:0:
320,192,18019,1,8,0:2:0:0:
448,192,18019,1,2,0:2:0:0:
64,192,18366,1,2,0:2:0:0:
192,192,18713,1,2,0:2:0:0:
320,192,18713,1,8,0:2:0:0:
448,192,18886,1,0,0:0:0:70:hat.wav
64,192,19059,128,2,19406:0:2:0:0:
320,192,19406,128,8,19753:0:2:0:0:
448,192,19406,1,2,0:2:0:0:
192,192,19753,128,2,20100:0:2:0:0:
64,192,20100,1,2,0:2:0:0:
448,192,20100,128,8,20447:0:2:0:0:
64,192,20447,128,2,20794:0:2:0:0:
192,192,20794,1,8,0:2:0:0:
448,192,20794,1,2,0:2:0:0:
320,192,20967,1,0,0:0:0:70:hat.wav
192,192,21140,128,2,21487:0:2:0:0:
320,192,21487,1,2,0:2:0:0:
448,192,21487,1,8,0:2:0:0:
64,192,21661,1,10,0:2:0:0:
64,192,22007,1,8,0:2:0:0:
192,192,22007,1,0,0:0:0:0:
320,192,22181,1,8,0:2:0:0:
448,192,22181,1,2,0:2:0:0:
64,192,22354,1,0,0:0:0:70:hat.wav
320,192,22528,1,8,0:2:0:0:
448,192,22528,1,2,0:2:0:0:
192,192,22701,1,0,0:0:0:0:
64,192,22874,1,8,0:2:0:0:
448,192,22874,1,0,0:0:0:0:
320,192,23048,1,8,0:2:0:0:
64,192,23221,128,2,23568:0:2:0:0:
192,192,23221,1,4,0:2:0:0:
320,192,23568,1,8,0:2:0:0:
448,192,23568,1,0,0:0:0:0:
192,192,23742,1,0,0:0:0:0:
448,192,23915,128,2,24088:0:2:0:0:
192,192,24262,1,8,0:2:0:0:
320,192,24262,1,0,0:0:0:0:
64,192,24435,1,0,0:0:0:0:
448,192,24609,128,2,24782:0:2:0:0:
64,192,24955,1,8,0:2:0:0:
192,192,24955,1,0,0:0:0:0:
448,192,25129,1,0,0:0:0:0:
320,192,25302,1,2,0:2:0:0:
192,192,25476,1,0,0:0:0:0:
320,192,25649,1,8,0:2:0:0:
448,192,25649,1,0,0:0:0:0:
64,192,25822,1,0,0:0:0:0:
192,192,25996,128,2,26343:0:2:0:0:
64,192,26343,1,8,0:2:0:0:
448,192,26343,1,0,0:0:0:0:
448,192,26516,1,0,0:0:0:0:
192,192,26690,1,2,0:2:0:0:
320,192,26863,1,0,0:0:0:0:
64,192,27036,1,8,0:2:0:0:
448,192,27036,1,0,0:0:0:0:
192,192,27210,128,0,27557:0:0:0:0:
448,192,27383,1,2,0:2:0:0:
320,192,27557,1,0,0:0:0:0:
64,192,27730,1,8,0:2:0:0:
192,192,27730,1,0,0:0:0:0:
320,192,27903,1,0,0:0:0:0:
64,192,28077,1,2,0:2:0:0:
320,192,28250,1,0,0:0:0:0:
192,192,28424,1,8,0:2:0:0:
448,192,28424,1,0,0:0:0:0:
64,192,28597,1,0,0:0:0:0:
448,192,28770,128,2,29117:0:2:0:0:
64,192,29117,1,8,0:2:0:0:
192,192,29117,1,0,0:0:0:0:
320,192,29291,1,0,0:0:0:0:
64,192,29464,128,2,29638:0:2:0:0:
192,192,29811,1,8,0:2:0:0:
320,192,29811,1,0,0:0:0:0:
448,192,29984,1,0,0:0:0:0:
64,192,30158,128,2,30331:0:2:0:0:
320,192,30505,1,8,0:2:0:0:
448,192,30505,1,0,0:0:0:0:
64,192,30678,1,0,0:0:0:0:
192,192,30851,1,2,0:2:0:0:
320,192,31025,1,0,0:0:0:0:
64,192,31198,1,8,0:2:0:0:
192,192,31198,1,0,0:0:0:0:
448,192,31372,1,0,0:0:0:0:
320,192,31545,128,2,31892:0:2:0:0:
64,192,31892,1,8,0:2:0:0:
448,192,31892,1,0,0:0:0:0:
64,192,32065,1,0,0:0:0:0:
320,192,32239,1,2,0:2:0:0:
192,192,32412,1,0,0:0:0:0:
64,192,32585,1,8,0:2:0:0:
448,192,32585,1,0,0:0:0:0:
320,192,32759,128,0,33106:0:0:0:0:
64,192,32932,1,2,0:2:0:0:
192,192,33106,1,0,0:0:0:0:
320,192,33279,1,8,0:2:0:0:
448,192,33279,1,0,0:0:0:0:
192,192,33453,1,0,0:0:0:0:
448,192,33626,1,2,0:2:0:0:
192,192,33799,1,0,0:0:0:0:
64,192,33973,1,8,0:2:0:0:
320,192,33973,1,0,0:0:0:0:
448,192,34146,1,0,0:0:0:0:
64,192,34320,128,2,34666:0:2:0:0:
192,192,34666,1,8,0:2:0:0:
320,192,34666,1,0,0:0:0:0:
448,192,34840,1,0,0:0:0:0:
192,192,35013,1,2,0:2:0:0:
320,192,35187,1,0,0:0:0:0:
64,192,35360,1,8,0:2:0:0:
448,192,35360,1,0,0:0:0:0:
192,192,35533,128,0,35880:0:0:0:0:
320,192,35707,1,2,0:2:0:0:
448,192,35880,1,0,0:0:0:0:
64,192,36054,1,8,0:2:0:0:
192,192,36054,1,0,0:0:0:0:
448,192,36227,1,0,0:0:0:0:
320,192,36401,128,2,36747:0:2:0:0:
64,192,36747,1,8,0:2:0:0:
192,192,36747,128,0,37094:0:0:0:0:
448,192,37094,128,2,37441:0:2:0:0:
192,192,37441,1,8,0:2:0:0:
320,192,37441,1,0,0:0:0:0:
64,192,37614,1,0,0:0:0:0:
320,192,37788,1,2,0:2:0:0:
192,192,37961,1,0,0:0:0:0:
64,192,38135,1,8,0:2:0:0:
448,192,38135,1,0,0:0:0:0:
320,192,38308,128,0,38655:0:0:0:0:
192,192,38481,1,2,0:2:0:0:
64,192,38655,1,0,0:0:0:0:
320,192,38828,1,8,0:2:0:0:
448,192,38828,1,0,0:0:0:0:
64,192,39002,1,0,0:0:0:0:
192,192,39175,128,2,39522:0:2:0:0:
320,192,39522,128,8,39869:0:2:0:0:
448,192,39522,1,0,0:0:0:0:
64,192,39869,128,2,40216:0:2:0:0:
192,192,40216,1,8,0:2:0:0:
448,192,40216,1,0,0:0:0:0:
320,192,40562,1,2,0:2:0:0:
64,192,40909,128,8,41256:0:2:0:0:
192,192,40909,1,0,0:0:0:0:
448,192,41256,128,2,41603:0:2:0:0:
64,192,41603,1,8,0:2:0:0:
192,192,41603,128,0,41950:0:0:0:0:
320,192,41950,128,2,42296:0:2:0:0:
64,192,42296,1,8,0:2:0:0:
192,192,42470,1,0,0:0:0:0:
448,192,42643,128,2,42990:0:2:0:0:
64,192,42990,1,8,0:2:0:0:
320,192,42990,1,0,0:0:0:0:
64,192,43337,128,2,43684:0:2:0:0:
192,192,43684,1,8,0:2:0:0:
448,192,43684,1,0,0:0:0:0:
320,192,44031,128,2,44204:0:2:0:0:
192,192,44204,128,0,44377:0:0:0:0:
64,192,44377,1,8,0:2:0:0:
448,192,44377,1,0,0:0:0:0:
320,192,44551,128,0,44724:0:0:0:0:
64,192,44898,1,8,0:2:0:0:
448,192,44898,1,0,0:0:0:0:
192,192,45071,1,10,0:2:0:0:
320,192,45244,1,8,0:2:0:0:
64,192,45418,1,2,0:2:0:0:
448,192,45418,128,4,45765:0:2:0:0:
64,192,45765,1,8,0:2:0:0:
192,192,45765,1,0,0:0:0:0:
320,192,45938,1,0,0:0:0:70:hat.wav
64,192,46111,128,2,46285:0:2:0:0:
192,192,46458,1,8,0:2:0:0:
320,192,46458,1,0,0:0:0:0:
448,192,46632,1,0,0:0:0:70:hat.wav
64,192,46805,128,2,46979:0:2:0:0:
320,192,47152,1,8,0:2:0:0:
448,192,47152,1,0,0:0:0:0:
64,192,47325,1,0,0:0:0:70:hat.wav
192,192,47499,1,2,0:2:0:0:
320,192,47672,1,0,0:0:0:70:hat.wav
64,192,47846,1,8,0:2:0:0:
192,192,47846,1,0,0:0:0:0:
448,192,48019,1,0,0:0:0:70:hat.wav
320,192,48192,128,2,48539:0:2:0:0:
64,192,48539,1,8,0:2:0:0:
448,192,48539,1,0,0:0:0:0:
64,192,48713,1,0,0:0:0:70:hat.wav
320,192,48886,1,2,0:2:0:0:
192,192,49059,1,0,0:0:0:70:hat.wav
64,192,49233,1,8,0:2:0:0:
448,192,49233,1,0,0:0:0:0:
320,192,49406,128,0,49753:0:0:0:70:hat.wav
64,192,49580,1,2,0:2:0:0:
192,192,49753,1,0,0:0:0:70:hat.wav
320,192,49927,1,8,0:2:0:0:
448,192,49927,1,0,0:0:0:0:
192,192,50100,1,0,0:0:0:70:hat.wav
448,192,50273,1,2,0:2:0:0:
192,192,50447,1,0,0:0:0:70:hat.wav
64,192,50620,1,8,0:2:0:0:
320,192,50620,1,0,0:0:0:0:
448,192,50794,1,0,0:0:0:70:hat.wav
64,192,50967,128,2,51314:0:2:0:0:
320,192,51314,1,8,0:2:0:0:
448,192,51314,1,0,0:0:0:0:
192,192,51487,1,0,0:0:0:70:hat.wav
448,192,51661,128,2,51834:0:2:0:0:
192,192,52007,1,8,0:2:0:0:
320,192,52007,1,0,0:0:0:0:
64,192,52181,1,0,0:0:0:70:hat.wav
448,192,52354,128,2,52528:0:2:0:0:
64,192,52701,1,8,0:2:0:0:
192,192,52701,1,0,0:0:0:0:
448,192,52874,1,0,0:0:0:70:hat.wav
320,192,53048,1,2,0:2:0:0:
192,192,53221,1,0,0:0:0:70:hat.wav
320,192,53395,1,8,0:2:0:0:
448,192,53395,1,0,0:0:0:0:
64,192,53568,1,0,0:0:0:70:hat.wav
192,192,53742,128,2,54088:0:2:0:0:
64,192,54088,1,8,0:2:0:0:
448,192,54088,1,0,0:0:0:0:
448,192,54262,1,0,0:0:0:70:hat.wav
192,192,54435,1,2,0:2:0:0:
320,192,54609,1,0,0:0:0:70:hat.wav
64,192,54782,1,8,0:2:0:0:
448,192,54782,1,0,0:0:0:0:
192,192,54955,128,0,55302:0:0:0:70:hat.wav
448,192,55129,1,2,0:2:0:0:
320,192,55302,1,0,0:0:0:70:hat.wav
64,192,55476,1,8,0:2:0:0:
192,192,55476,1,0,0:0:0:0:
320,192,55649,1,0,0:0:0:70:hat.wav
64,192,55822,1,2,0:2:0:0:
320,192,55996,1,0,0:0:0:70:hat.wav
192,192,56169,1,8,0:2:0:0:
448,192,56169,1,0,0:0:0:0:
64,192,56343,1,0,0:0:0:70:hat.wav
448,192,56516,128,2,56863:0:2:0:0:
192,192,56863,1,8,0:2:0:0:
320,192,56863,1,0,0:0:0:0:
64,192,57036,1,0,0:0:0:70:hat.wav
320,192,57210,1,2,0:2:0:0:
192,192,57383,1,0,0:0:0:70:hat.wav
64,192,57557,1,8,0:2:0:0:
448,192,57557,1,0,0:0:0:0:
320,192,57730,128,0,58077:0:0:0:70:hat.wav
192,192,57903,1,2,0:2:0:0:
64,192,58077,1,0,0:0:0:70:hat.wav
320,192,58250,1,8,0:2:0:0:
448,192,58250,1,0,0:0:0:0:
64,192,58424,1,0,0:0:0:70:hat.wav
192,192,58597,128,2,58944:0:2:0:0:
320,192,58944,128,8,59291:0:2:0:0:
448,192,58944,1,0,0:0:0:0:
64,192,59291,128,2,59638:0:2:0:0:
192,192,59638,1,8,0:2:0:0:
320,192,59638,1,0,0:0:0:0:
448,192,59811,1,0,0:0:0:70:hat.wav
192,192,59984,1,2,0:2:0:0:
320,192,60158,1,0,0:0:0:70:hat.wav
64,192,60331,1,8,0:2:0:0:
448,192,60331,1,0,0:0:0:0:
192,192,60505,128,0,60851:0:0:0:70:hat.wav
320,192,60678,1,2,0:2:0:0:
448,192,60851,1,0,0:0:0:70:hat.wav
64,192,61025,1,8,0:2:0:0:
192,192,61025,1,0,0:0:0:0:
448,192,61198,1,0,0:0:0:70:hat.wav
320,192,61372,128,2,61718:0:2:0:0:
64,192,61718,1,8,0:2:0:0:
192,192,61718,128,0,62065:0:0:0:0:
448,192,62065,128,2,62412:0:2:0:0:
64,192,62412,1,8,0:2:0:0:
320,192,62412,1,0,0:0:0:0:
192,192,62759,1,2,0:2:0:0:
320,192,63106,1,8,0:2:0:0:
448,192,63106,128,0,63453:0:0:0:0:
64,192,63453,128,2,63799:0:2:0:0:
320,192,63799,128,8,64146:0:2:0:0:
448,192,63799,1,0,0:0:0:0:
192,192,64146,128,2,64493:0:2:0:0:
64,192,64493,1,8,0:2:0:0:
448,192,64493,128,0,64666:0:0:0:0:
320,192,64666,128,0,64840:0:0:0:70:hat.wav
192,192,64840,1,2,0:2:0:0:
448,192,65013,1,0,0:0:0:70:hat.wav
192,192,65187,1,8,0:2:0:0:
320,192,65187,1,0,0:0:0:0:
64,192,65360,1,0,0:0:0:70:hat.wav
448,192,65533,128,2,65880:0:2:0:0:
64,192,65880,1,8,0:2:0:0:
320,192,65880,1,0,0:0:0:0:
192,192,66054,128,0,66227:0:0:0:70:hat.wav
64,192,66227,1,2,0:2:0:0:
320,192,66401,1,8,0:2:0:0:
448,192,66401,1,0,0:0:0:0:
64,192,66574,1,8,0:2:0:0:
192,192,66574,1,0,0:0:0:0:
320,192,66747,1,0,0:0:0:0:
192,192,66921,1,2,0:2:0:0:
64,192,67094,1,8,0:2:0:0:
448,192,67094,1,0,0:0:0:0:
448,192,67268,1,10,0:2:0:0:
320,192,67441,1,8,0:2:0:0:
192,192,67528,1,8,0:2:0:0:
64,192,67614,1,2,0:2:0:0:
448,192,67614,128,4,68135:0:2:0:0:
320,192,68135,1,2,0:2:0:0:
64,192,68308,1,8,0:2:0:0:
192,192,68308,128,0,68481:0:0:0:70:Hihat.wav
320,192,68655,128,2,68828:0:2:0:0:
64,192,68828,128,2,69002:0:2:0:0:
192,192,69175,1,2,0:2:0:0:
192,192,69522,1,2,0:2:0:0:
64,192,69695,1,8,0:2:0:0:
448,192,69695,1,0,0:0:0:70:Hihat.wav
192,192,70042,1,2,0:2:0:0:
320,192,70042,1,0,0:0:0:0:
64,192,70216,128,0,70389:0:0:0:0:
192,192,70389,1,2,0:2:0:0:
448,192,70389,128,0,70736:0:0:0:70:Hihat.wav
320,192,70736,128,0,70909:0:0:0:0:
192,192,70909,1,2,0:2:0:0:
64,192,71083,128,8,71256:0:2:0:0:
448,192,71083,1,0,0:0:0:70:Hihat.wav
320,192,71429,128,0,71603:0:0:0:0:
192,192,71603,128,2,71950:0:2:0:0:
320,192,71950,1,8,0:2:0:0:
448,192,71950,1,0,0:0:0:0:
192,192,72123,1,2,0:2:0:0:
64,192,72296,1,2,0:2:0:0:
448,192,72470,1,2,0:2:0:0:
64,192,72643,1,8,0:2:0:0:
192,192,72643,1,0,0:0:0:0:
320,192,72817,1,8,0:2:0:0:
64,192,72990,1,8,0:2:0:0:
448,192,72990,1,0,0:0:0:0:
64,192,73164,128,2,73684:0:2:0:0:
448,192,73164,1,4,0:2:0:0:
192,192,73684,1,2,0:2:0:0:
320,192,73857,128,8,74031:0:2:0:0:
448,192,73857,1,0,0:0:0:70:Hihat.wav
192,192,74204,128,2,74377:0:2:0:0:
448,192,74377,128,2,74551:0:2:0:0:
64,192,74724,1,8,0:2:0:0:
320,192,74724,1,0,0:0:0:0:
192,192,75071,1,2,0:2:0:0:
320,192,75244,1,8,0:2:0:0:
448,192,75244,1,0,0:0:0:70:Hihat.wav
192,192,75418,1,2,0:2:0:0:
64,192,75591,1,8,0:2:0:0:
320,192,75591,1,0,0:0:0:70:Hihat.wav
320,192,75765,1,8,0:2:0:0:
64,192,75938,1,2,0:2:0:0:
448,192,75938,1,4,0:2:0:0:
192,192,76111,1,0,0:0:0:0:
64,192,76285,1,8,0:2:0:0:
320,192,76285,1,0,0:0:0:0:
448,192,76458,1,0,0:0:0:0:
192,192,76632,128,2,76805:0:2:0:0:
448,192,76805,1,0,0:0:0:0:
64,192,76979,1,8,0:2:0:0:
320,192,76979,1,0,0:0:0:0:
192,192,77152,1,0,0:0:0:0:
448,192,77325,128,2,77499:0:2:0:0:
192,192,77499,1,0,0:0:0:0:
64,192,77672,1,8,0:2:0:0:
320,192,77672,1,0,0:0:0:0:
448,192,77846,1,0,0:0:0:0:
192,192,78019,128,2,78192:0:2:0:0:
448,192,78192,1,0,0:0:0:0:
64,192,78366,1,8,0:2:0:0:
320,192,78366,1,0,0:0:0:0:
192,192,78539,1,0,0:0:0:0:
64,192,78713,128,2,79059:0:2:0:0:
448,192,78713,1,8,0:2:0:0:
192,192,79059,128,0,79406:0:0:0:0:
64,192,79406,1,2,0:2:0:0:
448,192,79406,128,8,79753:0:2:0:0:
320,192,79753,128,0,79927:0:0:0:0:
192,192,79927,1,0,0:0:0:0:
64,192,80100,128,8,80273:0:2:0:0:
448,192,80100,128,2,80273:0:2:0:0:
192,192,80447,128,8,80620:0:2:0:0:
320,192,80447,128,2,80620:0:2:0:0:
192,192,80794,1,8,0:2:0:0:
448,192,80794,1,0,0:0:0:0:
320,192,80967,1,8,0:2:0:0:
64,192,81140,1,8,0:2:0:0:
448,192,81140,1,0,0:0:0:0:
192,192,81314,1,8,0:2:0:0:
64,192,81487,1,2,0:2:0:0:
320,192,81487,128,4,81834:0:2:0:0:
64,192,81834,1,8,0:2:0:0:
448,192,81834,1,2,0:2:0:0:
192,192,82007,1,0,0:0:0:70:hat.wav
320,192,82181,128,2,82528:0:2:0:0:
64,192,82354,1,0,0:0:0:70:hat.wav
192,192,82528,128,8,82874:0:2:0:0:
448,192,82528,1,2,0:2:0:0:
64,192,82701,1,0,0:0:0:70:hat.wav
320,192,82874,128,2,83221:0:2:0:0:
64,192,83221,128,2,83395:0:2:0:0:
192,192,83221,1,8,0:2:0:0:
448,192,83395,128,0,83568:0:0:0:70:hat.wav
320,192,83568,1,2,0:2:0:0:
64,192,83742,128,0,84088:0:0:0:70:hat.wav
192,192,83915,1,8,0:2:0:0:
448,192,83915,1,2,0:2:0:0:
192,192,84262,128,2,84609:0:2:0:0:
320,192,84609,1,2,0:2:0:0:
448,192,84609,128,8,84782:0:2:0:0:
64,192,84782,128,0,85129:0:0:0:70:hat.wav
448,192,84955,1,2,0:2:0:0:
320,192,85129,128,0,85302:0:0:0:70:hat.wav
64,192,85302,1,8,0:2:0:0:
192,192,85302,1,2,0:2:0:0:
448,192,85476,128,0,85649:0:0:0:70:hat.wav
320,192,85649,128,2,85822:0:2:0:0:
192,192,85822,128,0,85996:0:0:0:70:hat.wav
64,192,85996,1,2,0:2:0:0:
448,192,85996,1,8,0:2:0:0:
320,192,86169,128,0,86343:0:0:0:70:hat.wav
192,192,86343,1,2,0:2:0:0:
320,192,86516,1,8,0:2:0:0:
448,192,86516,1,0,0:0:0:70:hat.wav
64,192,86690,1,8,0:2:0:0:
192,192,86690,1,2,0:2:0:0:
448,192,86863,1,0,0:0:0:70:hat.wav
192,192,87036,128,2,87383:0:2:0:0:
64,192,87383,1,2,0:2:0:0:
448,192,87383,1,8,0:2:0:0:
320,192,87557,1,0,0:0:0:70:hat.wav
192,192,87730,128,2,88077:0:2:0:0:
448,192,87903,1,0,0:0:0:70:hat.wav
64,192,88077,1,8,0:2:0:0:
320,192,88077,128,2,88424:0:2:0:0:
448,192,88250,1,0,0:0:0:70:hat.wav
192,192,88424,128,2,88770:0:2:0:0:
320,192,88770,1,2,0:2:0:0:
448,192,88770,128,8,88944:0:2:0:0:
64,192,88944,128,0,89117:0:0:0:70:hat.wav
192,192,89117,1,2,0:2:0:0:
448,192,89291,128,0,89638:0:0:0:70:hat.wav
64,192,89464,1,8,0:2:0:0:
320,192,89464,1,2,0:2:0:0:
320,192,89811,128,2,90158:0:2:0:0:
64,192,90158,128,2,90331:0:2:0:0:
192,192,90158,1,8,0:2:0:0:
448,192,90331,128,0,90678:0:0:0:70:hat.wav
64,192,90505,1,2,0:2:0:0:
192,192,90678,128,0,90851:0:0:0:70:hat.wav
320,192,90851,1,8,0:2:0:0:
448,192,90851,1,2,0:2:0:0:
64,192,91025,128,0,91198:0:0:0:70:hat.wav
192,192,91198,128,2,91372:0:2:0:0:
320,192,91372,128,0,91545:0:0:0:70:hat.wav
64,192,91545,1,2,0:2:0:0:
448,192,91545,1,8,0:2:0:0:
192,192,91718,128,0,91892:0:0:0:70:hat.wav
320,192,91892,1,2,0:2:0:0:
64,192,92065,1,8,0:2:0:0:
192,192,92065,1,0,0:0:0:70:hat.wav
320,192,92239,1,8,0:2:0:0:
448,192,92239,1,2,0:2:0:0:
64,192,92412,1,8,0:2:0:0:
192,192,92499,1,8,0:2:0:0:
320,192,92585,1,2,0:2:0:0:
448,192,92585,128,4,92932:0:2:0:0:
64,192,92932,1,2,0:2:0:0:
192,192,92932,1,8,0:2:0:0:
320,192,93279,128,2,93626:0:2:0:0:
192,192,93453,1,0,0:0:0:70:hat.wav
64,192,93626,128,8,93973:0:2:0:0:
448,192,93626,1,2,0:2:0:0:
320,192,93799,1,0,0:0:0:70:hat.wav
448,192,93973,128,2,94320:0:2:0:0:
64,192,94320,1,2,0:2:0:0:
320,192,94320,1,8,0:2:0:0:
192,192,94666,128,2,95013:0:2:0:0:
320,192,94840,1,0,0:0:0:70:hat.wav
64,192,95013,1,8,0:2:0:0:
448,192,95013,128,2,95360:0:2:0:0:
64,192,95360,128,2,95707:0:2:0:0:
192,192,95533,1,0,0:0:0:70:hat.wav
320,192,95707,128,2,96054:0:2:0:0:
448,192,95707,1,8,0:2:0:0:
192,192,95880,1,0,0:0:0:70:hat.wav
64,192,96054,128,2,96401:0:2:0:0:
320,192,96227,1,0,0:0:0:70:hat.wav
192,192,96401,128,8,96747:0:2:0:0:
448,192,96401,1,2,0:2:0:0:
64,192,96574,1,0,0:0:0:70:hat.wav
320,192,96747,128,2,97094:0:2:0:0:
64,192,97094,1,2,0:2:0:0:
448,192,97094,1,8,0:2:0:0:
448,192,97441,1,2,0:2:0:0:
64,192,97614,1,8,0:2:0:0:
192,192,97614,1,0,0:0:0:70:hat.wav
320,192,97788,1,8,0:2:0:0:
448,192,97788,1,2,0:2:0:0:
192,192,97961,1,8,0:2:0:0:
320,192,98048,1,8,0:2:0:0:
64,192,98135,1,2,0:2:0:0:
448,192,98135,1,0,0:0:0:0:
192,192,98308,1,0,0:0:0:70:hat.wav
320,192,98481,1,2,0:2:0:0:
448,192,98481,1,8,0:2:0:0:
64,192,98655,1,0,0:0:0:70:hat.wav
192,192,98828,128,2,99175:0:2:0:0:
320,192,99175,1,8,0:2:0:0:
448,192,99175,1,2,0:2:0:0:
192,192,99348,1,0,0:0:0:70:hat.wav
64,192,99522,1,2,0:2:0:0:
320,192,99695,1,0,0:0:0:70:hat.wav
64,192,99869,1,2,0:2:0:0:
192,192,99869,1,8,0:2:0:0:
448,192,100042,1,0,0:0:0:70:hat.wav
320,192,100216,128,2,100562:0:2:0:0:
64,192,100562,1,8,0:2:0:0:
448,192,100562,1,2,0:2:0:0:
320,192,100736,1,0,0:0:0:70:hat.wav
64,192,100909,128,2,101256:0:2:0:0:
192,192,100909,1,0,0:0:0:0:
320,192,101256,1,2,0:2:0:0:
448,192,101256,128,8,101603:0:2:0:0:
64,192,101603,1,2,0:2:0:0:
448,192,101776,1,0,0:0:0:70:hat.wav
192,192,101950,1,8,0:2:0:0:
320,192,101950,1,2,0:2:0:0:
64,192,102123,1,0,0:0:0:70:hat.wav
320,192,102296,1,2,0:2:0:0:
448,192,102296,1,8,0:2:0:0:
192,192,102470,1,10,0:2:0:0:
320,192,102643,1,8,0:2:0:0:
448,192,102643,1,2,0:2:0:0:
64,192,102990,1,2,0:2:0:0:
320,192,102990,1,0,0:0:0:0:
192,192,103164,1,8,0:2:0:0:
64,192,103337,1,8,0:2:0:0:
448,192,103337,1,2,0:2:0:0:
320,192,103510,1,8,0:2:0:0:
64,192,103684,128,2,104031:0:2:0:0:
448,192,103684,1,4,0:2:0:0:
192,192,104031,1,2,0:2:0:0:
320,192,104031,1,8,0:2:0:0:
448,192,104204,1,0,0:0:0:70:hat.wav
64,192,104377,128,2,104724:0:2:0:0:
192,192,104551,1,0,0:0:0:70:hat.wav
320,192,104724,1,2,0:2:0:0:
448,192,104724,128,8,105071:0:2:0:0:
192,192,104898,1,0,0:0:0:70:hat.wav
64,192,105071,128,2,105418:0:2:0:0:
320,192,105418,128,8,105591:0:2:0:0:
448,192,105418,1,2,0:2:0:0:
192,192,105591,128,0,105765:0:0:0:70:hat.wav
448,192,105765,1,2,0:2:0:0:
320,192,105938,128,0,106285:0:0:0:70:hat.wav
64,192,106111,1,2,0:2:0:0:
192,192,106111,1,8,0:2:0:0:
64,192,106458,128,2,106805:0:2:0:0:
320,192,106805,128,8,106979:0:2:0:0:
448,192,106805,1,2,0:2:0:0:
192,192,106979,128,0,107325:0:0:0:70:hat.wav
64,192,107152,1,2,0:2:0:0:
448,192,107325,128,0,107499:0:0:0:70:hat.wav
192,192,107499,1,2,0:2:0:0:
320,192,107499,1,8,0:2:0:0:
64,192,107672,128,0,107846:0:0:0:70:hat.wav
192,192,107846,128,2,108019:0:2:0:0:
320,192,108019,128,0,108192:0:0:0:70:hat.wav
64,192,108192,1,8,0:2:0:0:
448,192,108192,1,2,0:2:0:0:
192,192,108366,128,0,108539:0:0:0:70:hat.wav
320,192,108539,1,2,0:2:0:0:
64,192,108713,1,8,0:2:0:0:
192,192,108713,1,0,0:0:0:70:hat.wav
320,192,108886,1,2,0:2:0:0:
448,192,108886,1,8,0:2:0:0:
64,192,109059,1,0,0:0:0:70:hat.wav
448,192,109233,128,2,109580:0:2:0:0:
192,192,109580,1,8,0:2:0:0:
320,192,109580,1,2,0:2:0:0:
64,192,109753,1,0,0:0:0:70:hat.wav
448,192,109927,128,2,110273:0:2:0:0:
320,192,110100,1,0,0:0:0:70:hat.wav
64,192,110273,128,2,110620:0:2:0:0:
192,192,110273,1,8,0:2:0:0:
320,192,110447,1,0,0:0:0:70:hat.wav
448,192,110620,128,2,110967:0:2:0:0:
64,192,110967,1,8,0:2:0:0:
192,192,110967,128,2,111140:0:2:0:0:
320,192,111140,128,0,111314:0:0:0:70:hat.wav
64,192,111314,1,2,0:2:0:0:
192,192,111487,128,0,111834:0:0:0:70:hat.wav
320,192,111661,1,2,0:2:0:0:
448,192,111661,1,8,0:2:0:0:
448,192,112007,128,2,112354:0:2:0:0:
192,192,112354,128,8,112528:0:2:0:0:
320,192,112354,1,2,0:2:0:0:
448,192,112528,128,0,112701:0:0:0:70:hat.wav
64,192,112701,128,2,112874:0:2:0:0:
320,192,112874,128,0,113048:0:0:0:70:hat.wav
64,192,113048,1,2,0:2:0:0:
192,192,113048,1,8,0:2:0:0:
448,192,113221,128,0,113395:0:0:0:70:hat.wav
320,192,113395,128,2,113568:0:2:0:0:
192,192,113568,128,0,113742:0:0:0:70:hat.wav
64,192,113742,1,8,0:2:0:0:
448,192,113742,1,2,0:2:0:0:
320,192,113915,128,0,114088:0:0:0:70:hat.wav
192,192,114088,1,2,0:2:0:0:
320,192,114262,1,8,0:2:0:0:
448,192,114262,1,0,0:0:0:70:hat.wav
64,192,114435,1,2,0:2:0:0:
192,192,114435,1,8,0:2:0:0:
448,192,114609,1,8,0:2:0:0:
320,192,114695,1,8,0:2:0:0:
64,192,114782,128,4,115129:0:2:0:0:
192,192,114782,1,2,0:2:0:0:
320,192,115129,1,8,0:2:0:0:
448,192,115129,1,2,0:2:0:0:
192,192,115476,128,2,115822:0:2:0:0:
320,192,115649,1,0,0:0:0:70:hat.wav
64,192,115822,1,2,0:2:0:0:
448,192,115822,128,8,116169:0:2:0:0:
192,192,115996,1,0,0:0:0:70:hat.wav
64,192,116169,128,2,116516:0:2:0:0:
192,192,116516,1,8,0:2:0:0:
448,192,116516,1,2,0:2:0:0:
320,192,116863,128,2,117210:0:2:0:0:
192,192,117036,1,0,0:0:0:70:hat.wav
64,192,117210,128,2,117557:0:2:0:0:
448,192,117210,1,8,0:2:0:0:
448,192,117557,128,2,117903:0:2:0:0:
320,192,117730,1,0,0:0:0:70:hat.wav
64,192,117903,1,8,0:2:0:0:
192,192,117903,128,2,118250:0:2:0:0:
320,192,118077,1,0,0:0:0:70:hat.wav
448,192,118250,128,2,118597:0:2:0:0:
192,192,118424,1,0,0:0:0:70:hat.wav
64,192,118597,1,2,0:2:0:0:
320,192,118597,128,8,118944:0:2:0:0:
448,192,118770,1,0,0:0:0:70:hat.wav
192,192,118944,128,2,119291:0:2:0:0:
64,192,119291,1,8,0:2:0:0:
448,192,119291,1,2,0:2:0:0:
320,192,119638,1,2,0:2:0:0:
64,192,119811,1,8,0:2:0:0:
192,192,119811,1,0,0:0:0:70:hat.wav
320,192,119984,1,2,0:2:0:0:
448,192,119984,1,8,0:2:0:0:
192,192,120158,1,8,0:2:0:0:
320,192,120244,1,8,0:2:0:0:
64,192,120331,128,2,121025:0:2:0:0:
448,192,120331,1,0,0:0:0:0:
192,192,120505,1,0,0:0:0:70:hat.wav
320,192,120678,1,8,0:2:0:0:
448,192,120678,1,2,0:2:0:0:
192,192,120851,1,0,0:0:0:70:hat.wav
448,192,121025,1,2,0:2:0:0:
64,192,121372,128,2,121718:0:2:0:0:
448,192,121372,1,8,0:2:0:0:
320,192,121545,1,0,0:0:0:70:hat.wav
192,192,121718,128,2,122065:0:2:0:0:
64,192,122065,1,8,0:2:0:0:
320,192,122065,128,2,122412:0:2:0:0:
448,192,122412,128,2,122759:0:2:0:0:
192,192,122759,128,10,122932:0:2:0:0:
64,192,122932,128,0,123106:0:0:0:70:hat.wav
320,192,123106,1,2,0:2:0:0:
448,192,123106,128,0,123453:0:0:0:0:
64,192,123453,128,8,123799:0:2:0:0:
192,192,123453,1,2,0:2:0:0:
320,192,123799,1,2,0:2:0:0:
448,192,123799,1,0,0:0:0:0:
64,192,123973,1,0,0:0:0:70:hat.wav
192,192,124146,1,2,0:2:0:0:
320,192,124146,1,8,0:2:0:0:
448,192,124320,1,0,0:0:0:70:hat.wav
64,192,124493,1,2,0:2:0:0:
320,192,124666,1,0,0:0:0:70:hat.wav
64,192,124840,1,8,0:2:0:0:
192,192,124840,1,2,0:2:0:0:
64,192,125187,1,2,0:2:0:0:
320,192,125360,1,8,0:2:0:0:
448,192,125360,1,0,0:0:0:0:
192,192,125533,1,10,0:2:0:0:
64,192,125707,1,8,0:2:0:0:
448,192,125707,1,0,0:0:0:0:
64,192,125880,128,2,126574:0:2:0:0:
448,192,125880,128,4,126921:0:2:0:0:
320,192,126921,128,0,127268:0:0:0:0:
64,192,127268,1,2,0:2:0:0:
192,192,127268,1,0,0:0:0:0:
64,192,127961,1,8,0:2:0:0:
320,192,127961,1,0,0:0:0:0:
192,192,128135,1,2,0:2:0:0:
320,192,128308,1,8,0:2:0:0:
448,192,128308,1,0,0:0:0:0:
64,192,128481,1,8,0:2:0:0:
192,192,128568,1,8,0:2:0:0:
320,192,128655,128,2,129002:0:2:0:0:
448,192,128655,1,4,0:2:0:0:
64,192,129002,1,8,0:2:0:0:
192,192,129002,1,2,0:2:0:0:
448,192,129348,1,2,0:2:0:0:
192,192,129695,1,8,0:2:0:0:
320,192,129695,1,2,0:2:0:0:
64,192,129869,1,0,0:0:0:70:hat.wav
448,192,130042,128,2,130389:0:2:0:0:
64,192,130389,1,8,0:2:0:0:
320,192,130389,1,2,0:2:0:0:
64,192,130736,128,2,131083:0:2:0:0:
192,192,131083,1,8,0:2:0:0:
448,192,131083,1,2,0:2:0:0:
192,192,131429,128,2,131776:0:2:0:0:
64,192,131776,1,8,0:2:0:0:
448,192,131776,1,2,0:2:0:0:
192,192,131950,1,0,0:0:0:70:hat.wav
320,192,132123,128,2,132470:0:2:0:0:
64,192,132470,1,8,0:2:0:0:
192,192,132470,1,2,0:2:0:0:
448,192,132643,1,0,0:0:0:70:hat.wav
64,192,132817,1,2,0:2:0:0:
192,192,132990,1,0,0:0:0:70:hat.wav
320,192,133164,1,8,0:2:0:0:
448,192,133164,1,2,0:2:0:0:
192,192,133337,1,0,0:0:0:70:hat.wav
64,192,133510,128,2,133857:0:2:0:0:
320,192,133857,1,8,0:2:0:0:
448,192,133857,128,2,134204:0:2:0:0:
192,192,134204,128,2,134551:0:2:0:0:
320,192,134551,1,8,0:2:0:0:
448,192,134551,1,2,0:2:0:0:
64,192,134898,1,2,0:2:0:0:
192,192,135244,1,8,0:2:0:0:
320,192,135244,1,2,0:2:0:0:
448,192,135418,1,0,0:0:0:70:hat.wav
64,192,135591,128,2,135938:0:2:0:0:
320,192,135938,1,2,0:2:0:0:
448,192,135938,1,8,0:2:0:0:
448,192,136285,128,2,136632:0:2:0:0:
64,192,136632,1,8,0:2:0:0:
192,192,136632,1,2,0:2:0:0:
320,192,136979,128,2,137325:0:2:0:0:
64,192,137325,1,2,0:2:0:0:
448,192,137325,1,8,0:2:0:0:
320,192,137499,1,0,0:0:0:70:hat.wav
192,192,137672,128,2,138019:0:2:0:0:
320,192,138019,1,8,0:2:0:0:
448,192,138019,1,2,0:2:0:0:
64,192,138192,1,0,0:0:0:70:hat.wav
64,192,138539,1,8,0:2:0:0:
192,192,138539,1,0,0:0:0:70:hat.wav
320,192,138713,1,8,0:2:0:0:
448,192,138713,1,0,0:0:0:0:
192,192,138886,1,0,0:0:0:70:hat.wav
320,192,139059,1,8,0:2:0:0:
448,192,139059,1,2,0:2:0:0:
64,192,139233,1,0,0:0:0:70:hat.wav
192,192,139406,1,8,0:2:0:0:
320,192,139406,1,2,0:2:0:0:
448,192,139580,1,8,0:2:0:0:
64,192,139753,1,2,0:2:0:0:
192,192,139753,128,4,140100:0:2:0:0:
320,192,140100,1,2,0:2:0:0:
448,192,140100,1,8,0:2:0:0:
64,192,140447,1,2,0:2:0:0:
192,192,140794,1,2,0:2:0:0:
320,192,140794,1,8,0:2:0:0:
448,192,140967,1,0,0:0:0:70:hat.wav
64,192,141140,128,2,141487:0:2:0:0:
192,192,141487,1,8,0:2:0:0:
448,192,141487,1,2,0:2:0:0:
448,192,141834,128,2,142181:0:2:0:0:
64,192,142181,1,2,0:2:0:0:
320,192,142181,1,8,0:2:0:0:
320,192,142528,128,2,142874:0:2:0:0:
64,192,142874,1,8,0:2:0:0:
448,192,142874,1,2,0:2:0:0:
320,192,143048,1,0,0:0:0:70:hat.wav
192,192,143221,128,2,143568:0:2:0:0:
320,192,143568,1,2,0:2:0:0:
448,192,143568,1,8,0:2:0:0:
64,192,143742,1,0,0:0:0:70:hat.wav
448,192,143915,1,2,0:2:0:0:
320,192,144088,1,0,0:0:0:70:hat.wav
64,192,144262,1,8,0:2:0:0:
192,192,144262,1,2,0:2:0:0:
320,192,144435,1,0,0:0:0:70:hat.wav
448,192,144609,128,2,144955:0:2:0:0:
64,192,144955,128,2,145302:0:2:0:0:
192,192,144955,1,8,0:2:0:0:
320,192,145302,128,2,145649:0:2:0:0:
64,192,145649,1,8,0:2:0:0:
192,192,145649,1,2,0:2:0:0:
448,192,145996,1,2,0:2:0:0:
192,192,146343,1,2,0:2:0:0:
320,192,146343,1,8,0:2:0:0:
64,192,146516,1,0,0:0:0:70:hat.wav
448,192,146690,128,2,147036:0:2:0:0:
64,192,147036,1,8,0:2:0:0:
192,192,147036,128,2,147383:0:2:0:0:
320,192,147383,128,2,147730:0:2:0:0:
64,192,147730,128,2,148077:0:2:0:0:
448,192,147730,1,8,0:2:0:0:
448,192,148077,128,2,148424:0:2:0:0:
64,192,148424,1,8,0:2:0:0:
320,192,148424,1,2,0:2:0:0:
192,192,148597,1,0,0:0:0:70:hat.wav
320,192,148770,128,2,149117:0:2:0:0:
64,192,149117,1,2,0:2:0:0:
192,192,149117,1,8,0:2:0:0:
448,192,149291,1,2,0:2:0:0:
320,192,149638,1,8,0:2:0:0:
448,192,149638,1,0,0:0:0:0:
64,192,149811,1,8,0:2:0:0:
192,192,149811,1,2,0:2:0:0:
448,192,149984,1,0,0:0:0:70:hat.wav
64,192,150158,1,8,0:2:0:0:
192,192,150158,1,2,0:2:0:0:
320,192,150331,1,0,0:0:0:0:
64,192,150505,1,8,0:2:0:0:
448,192,150505,1,0,0:0:0:0:
192,192,150678,1,8,0:2:0:0:
320,192,150851,1,2,0:2:0:0:
448,192,150851,128,4,151198:0:2:0:0:
64,192,151198,1,8,0:2:0:0:
192,192,151198,1,0,0:0:0:0:
192,192,151545,1,2,0:2:0:0:
320,192,151718,1,2,0:2:0:0:
64,192,151892,1,8,0:2:0:0:
448,192,151892,1,0,0:0:0:0:
320,192,152065,1,2,0:2:0:0:
320,192,152412,1,2,0:2:0:0:
64,192,152585,1,8,0:2:0:0:
448,192,152585,1,0,0:0:0:0:
320,192,152932,1,2,0:2:0:0:
192,192,153106,1,2,0:2:0:0:
64,192,153279,1,8,0:2:0:0:
448,192,153279,1,0,0:0:0:0:
64,192,153626,128,2,153973:0:2:0:0:
192,192,153973,1,8,0:2:0:0:
448,192,153973,1,0,0:0:0:0:
320,192,154320,1,2,0:2:0:0:
192,192,154493,1,2,0:2:0:0:
64,192,154666,1,8,0:2:0:0:
448,192,154666,1,0,0:0:0:0:
192,192,154840,1,2,0:2:0:0:
192,192,155187,1,2,0:2:0:0:
64,192,155360,1,8,0:2:0:0:
448,192,155360,1,0,0:0:0:0:
192,192,155707,1,2,0:2:0:0:
320,192,155880,1,2,0:2:0:0:
64,192,156054,1,8,0:2:0:0:
448,192,156054,1,0,0:0:0:0:
192,192,156401,128,2,156747:0:2:0:0:
320,192,156747,1,8,0:2:0:0:
448,192,156747,1,0,0:0:0:0:
64,192,157094,1,2,0:2:0:0:
192,192,157268,1,2,0:2:0:0:
320,192,157441,1,8,0:2:0:0:
448,192,157441,1,0,0:0:0:0:
192,192,157614,1,2,0:2:0:0:
192,192,157961,1,2,0:2:0:0:
320,192,158135,1,8,0:2:0:0:
448,192,158135,1,0,0:0:0:0:
192,192,158481,1,2,0:2:0:0:
64,192,158655,1,2,0:2:0:0:
320,192,158828,1,8,0:2:0:0:
448,192,158828,1,0,0:0:0:0:
320,192,159175,128,2,159522:0:2:0:0:
64,192,159522,1,8,0:2:0:0:
192,192,159522,1,0,0:0:0:0:
448,192,159869,1,2,0:2:0:0:
320,192,160042,1,2,0:2:0:0:
64,192,160216,1,8,0:2:0:0:
192,192,160216,1,0,0:0:0:0:
320,192,160389,1,2,0:2:0:0:
320,192,160736,1,2,0:2:0:0:
64,192,160909,1,8,0:2:0:0:
192,192,160909,1,0,0:0:0:0:
320,192,161256,1,2,0:2:0:0:
448,192,161429,1,2,0:2:0:0:
64,192,161603,1,8,0:2:0:0:
192,192,161603,1,0,0:0:0:0:
64,192,161950,128,2,162296:0:2:0:0:
192,192,162296,1,8,0:2:0:0:
448,192,162296,1,0,0:0:0:0:
320,192,162643,1,2,0:2:0:0:
192,192,162817,1,2,0:2:0:0:
64,192,162990,1,8,0:2:0:0:
448,192,162990,1,0,0:0:0:0:
192,192,163164,1,2,0:2:0:0:
192,192,163510,1,2,0:2:0:0:
64,192,163684,1,8,0:2:0:0:
448,192,163684,1,0,0:0:0:0:
192,192,164031,1,2,0:2:0:0:
320,192,164204,1,2,0:2:0:0:
64,192,164377,1,8,0:2:0:0:
448,192,164377,1,0,0:0:0:0:
448,192,164724,128,2,165071:0:2:0:0:
64,192,165071,1,8,0:2:0:0:
320,192,165071,1,0,0:0:0:0:
192,192,165418,1,2,0:2:0:0:
320,192,165591,1,2,0:2:0:0:
64,192,165765,1,8,0:2:0:0:
448,192,165765,1,0,0:0:0:0:
320,192,165938,1,2,0:2:0:0:
320,192,166285,1,2,0:2:0:0:
64,192,166458,1,8,0:2:0:0:
448,192,166458,1,0,0:0:0:0:
320,192,166805,1,2,0:2:0:0:
192,192,166979,1,2,0:2:0:0:
64,192,167152,1,8,0:2:0:0:
448,192,167152,1,0,0:0:0:0:
320,192,167499,128,2,167846:0:2:0:0:
64,192,167846,1,8,0:2:0:0:
192,192,167846,1,0,0:0:0:0:
448,192,168192,1,2,0:2:0:0:
320,192,168366,1,2,0:2:0:0:
64,192,168539,1,8,0:2:0:0:
192,192,168539,1,0,0:0:0:0:
320,192,168713,1,2,0:2:0:0:
320,192,169059,1,2,0:2:0:0:
64,192,169233,1,8,0:2:0:0:
192,192,169233,1,0,0:0:0:0:
320,192,169580,1,2,0:2:0:0:
448,192,169753,1,2,0:2:0:0:
64,192,169927,1,8,0:2:0:0:
192,192,169927,1,0,0:0:0:0:
192,192,170273,1,2,0:2:0:0:
448,192,170447,128,0,170620:0:0:0:0:
64,192,170620,1,8,0:2:0:0:
320,192,170620,1,0,0:0:0:0:
192,192,170794,1,0,0:0:0:0:
64,192,170967,128,2,171140:0:2:0:0:
320,192,171140,1,2,0:2:0:0:
192,192,171314,1,8,0:2:0:0:
448,192,171314,1,0,0:0:0:0:
320,192,171487,128,2,171661:0:2:0:0:
64,192,171834,1,8,0:2:0:0:
192,192,171834,1,2,0:2:0:0:
320,192,172007,1,8,0:2:0:0:
448,192,172007,1,0,0:0:0:0:
192,192,172181,1,0,0:0:0:0:
320,192,172354,1,2,0:2:0:0:
64,192,172528,1,8,0:2:0:0:
448,192,172528,1,0,0:0:0:0:
64,192,172701,1,10,0:2:0:0:
192,192,172874,1,8,0:2:0:0:
320,192,172961,1,8,0:2:0:0:
64,192,173048,128,2,173568:0:2:0:0:
448,192,173048,1,4,0:2:0:0:
192,192,173568,1,2,0:2:0:0:
320,192,173742,128,8,173915:0:2:0:0:
448,192,173742,1,0,0:0:0:70:Hihat.wav
192,192,174088,128,2,174262:0:2:0:0:
448,192,174262,128,2,174435:0:2:0:0:
320,192,174609,1,2,0:2:0:0:
320,192,174955,1,2,0:2:0:0:
64,192,175129,1,8,0:2:0:0:
448,192,175129,1,0,0:0:0:70:Hihat.wav
192,192,175476,1,2,0:2:0:0:
320,192,175476,1,0,0:0:0:0:
448,192,175649,128,0,175822:0:0:0:0:
64,192,175822,128,2,176169:0:2:0:0:
192,192,176169,128,0,176343:0:0:0:0:
320,192,176343,1,2,0:2:0:0:
64,192,176516,1,8,0:2:0:0:
448,192,176516,128,0,176690:0:0:0:70:Hihat.wav
192,192,176863,128,0,177036:0:0:0:0:
320,192,177036,128,2,177383:0:2:0:0:
64,192,177383,1,8,0:2:0:0:
192,192,177383,1,0,0:0:0:0:
320,192,177557,1,2,0:2:0:0:
448,192,177730,1,2,0:2:0:0:
192,192,177903,1,2,0:2:0:0:
320,192,178077,1,8,0:2:0:0:
448,192,178077,1,0,0:0:0:0:
64,192,178250,1,8,0:2:0:0:
192,192,178424,1,8,0:2:0:0:
320,192,178424,1,0,0:0:0:0:
64,192,178597,1,4,0:2:0:0:
448,192,178597,128,2,179117:0:2:0:0:
320,192,179117,1,2,0:2:0:0:
64,192,179291,1,8,0:2:0:0:
192,192,179291,128,0,179464:0:0:0:70:Hihat.wav
320,192,179638,128,2,179811:0:2:0:0:
64,192,179811,128,2,179984:0:2:0:0:
192,192,180158,1,8,0:2:0:0:
448,192,180158,1,0,0:0:0:0:
192,192,180505,1,2,0:2:0:0:
64,192,180678,1,8,0:2:0:0:
448,192,180678,1,0,0:0:0:70:Hihat.wav
320,192,180851,1,2,0:2:0:0:
192,192,181025,1,8,0:2:0:0:
448,192,181025,1,0,0:0:0:70:Hihat.wav
192,192,181198,1,8,0:2:0:0:
64,192,181372,1,4,0:2:0:0:
448,192,181372,1,2,0:2:0:0:
320,192,181545,1,0,0:0:0:0:
192,192,181718,1,8,0:2:0:0:
448,192,181718,1,0,0:0:0:0:
64,192,181892,1,0,0:0:0:0:
320,192,182065,128,2,182239:0:2:0:0:
64,192,182239,1,0,0:0:0:0:
192,192,182412,1,8,0:2:0:0:
448,192,182412,1,0,0:0:0:0:
320,192,182585,1,0,0:0:0:0:
64,192,182759,128,2,182932:0:2:0:0:
320,192,182932,1,0,0:0:0:0:
192,192,183106,1,8,0:2:0:0:
448,192,183106,1,0,0:0:0:0:
64,192,183279,1,0,0:0:0:0:
320,192,183453,128,2,183626:0:2:0:0:
64,192,183626,1,0,0:0:0:0:
192,192,183799,1,8,0:2:0:0:
448,192,183799,1,0,0:0:0:0:
320,192,183973,1,0,0:0:0:0:
192,192,184146,1,8,0:2:0:0:
448,192,184146,128,2,184493:0:2:0:0:
320,192,184493,128,0,184840:0:0:0:0:
64,192,184840,128,8,185187:0:2:0:0:
448,192,184840,1,2,0:2:0:0:
192,192,185187,128,0,185360:0:0:0:0:
320,192,185360,1,0,0:0:0:0:
64,192,185533,128,2,185707:0:2:0:0:
448,192,185533,128,8,185707:0:2:0:0:
192,192,185880,128,2,186054:0:2:0:0:
320,192,185880,128,8,186054:0:2:0:0:
64,192,186227,1,8,0:2:0:0:
320,192,186227,1,0,0:0:0:0:
192,192,186401,1,8,0:2:0:0:
64,192,186574,1,8,0:2:0:0:
448,192,186574,1,0,0:0:0:0:
320,192,186747,1,8,0:2:0:0:
192,192,186921,128,4,187268:0:2:0:0:
448,192,186921,1,2,0:2:0:0:
64,192,187268,1,2,0:2:0:0:
448,192,187268,1,8,0:2:0:0:
320,192,187441,1,0,0:0:0:70:hat.wav
192,192,187614,128,2,187961:0:2:0:0:
448,192,187788,1,0,0:0:0:70:hat.wav
64,192,187961,1,2,0:2:0:0:
320,192,187961,128,8,188308:0:2:0:0:
448,192,188135,1,0,0:0:0:70:hat.wav
192,192,188308,128,2,188655:0:2:0:0:
320,192,188655,1,8,0:2:0:0:
448,192,188655,128,2,188828:0:2:0:0:
64,192,188828,128,0,189002:0:0:0:70:hat.wav
192,192,189002,1,2,0:2:0:0:
448,192,189175,128,0,189522:0:0:0:70:hat.wav
64,192,189348,1,2,0:2:0:0:
320,192,189348,1,8,0:2:0:0:
320,192,189695,128,2,190042:0:2:0:0:
64,192,190042,128,8,190216:0:2:0:0:
192,192,190042,1,2,0:2:0:0:
448,192,190216,128,0,190562:0:0:0:70:hat.wav
64,192,190389,1,2,0:2:0:0:
192,192,190562,128,0,190736:0:0:0:70:hat.wav
320,192,190736,1,2,0:2:0:0:
448,192,190736,1,8,0:2:0:0:
64,192,190909,128,0,191083:0:0:0:70:hat.wav
192,192,191083,128,2,191256:0:2:0:0:
320,192,191256,128,0,191429:0:0:0:70:hat.wav
64,192,191429,1,8,0:2:0:0:
448,192,191429,1,2,0:2:0:0:
192,192,191603,128,0,191776:0:0:0:70:hat.wav
320,192,191776,1,2,0:2:0:0:
64,192,191950,1,8,0:2:0:0:
192,192,191950,1,0,0:0:0:70:hat.wav
320,192,192123,1,2,0:2:0:0:
448,192,192123,1,8,0:2:0:0:
64,192,192296,1,0,0:0:0:70:hat.wav
320,192,192470,128,2,192817:0:2:0:0:
64,192,192817,1,8,0:2:0:0:
448,192,192817,1,2,0:2:0:0:
192,192,192990,1,0,0:0:0:70:hat.wav
320,192,193164,128,2,193510:0:2:0:0:
64,192,193337,1,0,0:0:0:70:hat.wav
192,192,193510,128,2,193857:0:2:0:0:
448,192,193510,1,8,0:2:0:0:
64,192,193684,1,0,0:0:0:70:hat.wav
320,192,193857,128,2,194204:0:2:0:0:
64,192,194204,128,8,194377:0:2:0:0:
192,192,194204,1,2,0:2:0:0:
448,192,194377,128,0,194551:0:0:0:70:hat.wav
320,192,194551,1,2,0:2:0:0:
64,192,194724,128,0,195071:0:0:0:70:hat.wav
192,192,194898,1,2,0:2:0:0:
448,192,194898,1,8,0:2:0:0:
192,192,195244,128,2,195591:0:2:0:0:
320,192,195591,1,8,0:2:0:0:
448,192,195591,128,2,195765:0:2:0:0:
64,192,195765,128,0,196111:0:0:0:70:hat.wav
448,192,195938,1,2,0:2:0:0:
320,192,196111,128,0,196285:0:0:0:70:hat.wav
64,192,196285,1,2,0:2:0:0:
192,192,196285,1,8,0:2:0:0:
448,192,196458,128,0,196632:0:0:0:70:hat.wav
320,192,196632,128,2,196805:0:2:0:0:
192,192,196805,128,0,196979:0:0:0:70:hat.wav
64,192,196979,1,8,0:2:0:0:
448,192,196979,1,2,0:2:0:0:
320,192,197152,128,0,197325:0:0:0:70:hat.wav
192,192,197325,1,2,0:2:0:0:
320,192,197499,1,8,0:2:0:0:
448,192,197499,1,0,0:0:0:70:hat.wav
64,192,197672,1,2,0:2:0:0:
192,192,197672,1,8,0:2:0:0:
448,192,197846,1,8,0:2:0:0:
320,192,197932,1,8,0:2:0:0:
64,192,198019,128,4,198366:0:2:0:0:
192,192,198019,1,2,0:2:0:0:
320,192,198366,1,8,0:2:0:0:
448,192,198366,1,2,0:2:0:0:
192,192,198713,128,2,199059:0:2:0:0:
320,192,198886,1,0,0:0:0:70:hat.wav
64,192,199059,1,2,0:2:0:0:
448,192,199059,128,8,199406:0:2:0:0:
192,192,199233,1,0,0:0:0:70:hat.wav
64,192,199406,128,2,199753:0:2:0:0:
192,192,199753,1,8,0:2:0:0:
448,192,199753,1,2,0:2:0:0:
320,192,200100,128,2,200447:0:2:0:0:
192,192,200273,1,0,0:0:0:70:hat.wav
64,192,200447,128,2,200794:0:2:0:0:
448,192,200447,1,8,0:2:0:0:
448,192,200794,128,2,201140:0:2:0:0:
320,192,200967,1,0,0:0:0:70:hat.wav
64,192,201140,1,8,0:2:0:0:
192,192,201140,128,2,201487:0:2:0:0:
320,192,201314,1,0,0:0:0:70:hat.wav
448,192,201487,128,2,201834:0:2:0:0:
192,192,201661,1,0,0:0:0:70:hat.wav
64,192,201834,1,2,0:2:0:0:
320,192,201834,128,8,202181:0:2:0:0:
448,192,202007,1,0,0:0:0:70:hat.wav
192,192,202181,128,2,202528:0:2:0:0:
64,192,202528,1,8,0:2:0:0:
448,192,202528,1,2,0:2:0:0:
64,192,202874,1,2,0:2:0:0:
320,192,203048,1,8,0:2:0:0:
448,192,203048,1,0,0:0:0:70:hat.wav
64,192,203221,1,2,0:2:0:0:
192,192,203221,1,8,0:2:0:0:
320,192,203395,1,8,0:2:0:0:
192,192,203481,1,8,0:2:0:0:
64,192,203568,1,2,0:2:0:0:
448,192,203568,1,0,0:0:0:0:
320,192,203742,1,0,0:0:0:70:hat.wav
64,192,203915,1,8,0:2:0:0:
192,192,203915,1,2,0:2:0:0:
448,192,204088,1,0,0:0:0:70:hat.wav
320,192,204262,128,2,204609:0:2:0:0:
64,192,204609,1,2,0:2:0:0:
192,192,204609,1,8,0:2:0:0:
320,192,204782,1,0,0:0:0:70:hat.wav
448,192,204955,1,2,0:2:0:0:
192,192,205129,1,0,0:0:0:70:hat.wav
320,192,205302,1,8,0:2:0:0:
448,192,205302,1,2,0:2:0:0:
64,192,205476,1,0,0:0:0:70:hat.wav
192,192,205649,128,2,205996:0:2:0:0:
64,192,205996,1,2,0:2:0:0:
448,192,205996,1,8,0:2:0:0:
192,192,206169,1,0,0:0:0:70:hat.wav
320,192,206343,1,2,0:2:0:0:
448,192,206343,128,0,206690:0:0:0:0:
64,192,206690,128,8,207036:0:2:0:0:
192,192,206690,1,2,0:2:0:0:
448,192,207036,1,2,0:2:0:0:
64,192,207210,1,0,0:0:0:70:hat.wav
192,192,207383,1,2,0:2:0:0:
320,192,207383,1,8,0:2:0:0:
448,192,207557,1,0,0:0:0:70:hat.wav
64,192,207730,1,8,0:2:0:0:
192,192,207730,1,2,0:2:0:0:
320,192,207903,1,10,0:2:0:0:
64,192,208077,1,2,0:2:0:0:
192,192,208077,1,8,0:2:0:0:
192,192,208424,1,2,0:2:0:0:
448,192,208424,1,0,0:0:0:0:
320,192,208597,1,8,0:2:0:0:
64,192,208770,1,2,0:2:0:0:
448,192,208770,1,8,0:2:0:0:
192,192,208944,1,8,0:2:0:0:
64,192,209117,1,4,0:2:0:0:
448,192,209117,128,2,209464:0:2:0:0:
192,192,209464,1,8,0:2:0:0:
320,192,209464,1,2,0:2:0:0:
64,192,209638,1,0,0:0:0:70:hat.wav
448,192,209811,128,2,210158:0:2:0:0:
320,192,209984,1,0,0:0:0:70:hat.wav
64,192,210158,128,8,210505:0:2:0:0:
192,192,210158,1,2,0:2:0:0:
320,192,210331,1,0,0:0:0:70:hat.wav
448,192,210505,128,2,210851:0:2:0:0:
64,192,210851,1,2,0:2:0:0:
192,192,210851,128,8,211025:0:2:0:0:
320,192,211025,128,0,211198:0:0:0:70:hat.wav
64,192,211198,1,2,0:2:0:0:
192,192,211372,128,0,211718:0:0:0:70:hat.wav
320,192,211545,1,8,0:2:0:0:
448,192,211545,1,2,0:2:0:0:
448,192,211892,128,2,212239:0:2:0:0:
64,192,212239,1,2,0:2:0:0:
192,192,212239,128,8,212412:0:2:0:0:
320,192,212412,128,0,212759:0:0:0:70:hat.wav
448,192,212585,1,2,0:2:0:0:
64,192,212759,128,0,212932:0:0:0:70:hat.wav
192,192,212932,1,8,0:2:0:0:
320,192,212932,1,2,0:2:0:0:
448,192,213106,128,0,213279:0:0:0:70:hat.wav
320,192,213279,128,2,213453:0:2:0:0:
192,192,213453,128,0,213626:0:0:0:70:hat.wav
64,192,213626,1,2,0:2:0:0:
448,192,213626,1,8,0:2:0:0:
320,192,213799,128,0,213973:0:0:0:70:hat.wav
192,192,213973,1,2,0:2:0:0:
320,192,214146,1,8,0:2:0:0:
448,192,214146,1,0,0:0:0:70:hat.wav
64,192,214320,1,8,0:2:0:0:
192,192,214320,1,2,0:2:0:0:
448,192,214493,1,0,0:0:0:70:hat.wav
64,192,214666,128,2,215013:0:2:0:0:
192,192,215013,1,2,0:2:0:0:
320,192,215013,1,8,0:2:0:0:
448,192,215187,1,0,0:0:0:70:hat.wav
64,192,215360,128,2,215707:0:2:0:0:
192,192,215533,1,0,0:0:0:70:hat.wav
320,192,215707,1,8,0:2:0:0:
448,192,215707,128,2,216054:0:2:0:0:
192,192,215880,1,0,0:0:0:70:hat.wav
64,192,216054,128,2,216401:0:2:0:0:
320,192,216401,128,2,216574:0:2:0:0:
448,192,216401,1,8,0:2:0:0:
192,192,216574,128,0,216747:0:0:0:70:hat.wav
448,192,216747,1,2,0:2:0:0:
320,192,216921,128,0,217268:0:0:0:70:hat.wav
64,192,217094,1,8,0:2:0:0:
192,192,217094,1,2,0:2:0:0:
64,192,217441,128,2,217788:0:2:0:0:
192,192,217788,1,2,0:2:0:0:
320,192,217788,128,8,217961:0:2:0:0:
64,192,217961,128,0,218135:0:0:0:70:hat.wav
448,192,218135,128,2,218308:0:2:0:0:
192,192,218308,128,0,218481:0:0:0:70:hat.wav
320,192,218481,1,8,0:2:0:0:
448,192,218481,1,2,0:2:0:0:
64,192,218655,128,0,218828:0:0:0:70:hat.wav
192,192,218828,128,2,219002:0:2:0:0:
320,192,219002,128,0,219175:0:0:0:70:hat.wav
64,192,219175,1,2,0:2:0:0:
448,192,219175,1,8,0:2:0:0:
192,192,219348,128,0,219522:0:0:0:70:hat.wav
320,192,219522,1,2,0:2:0:0:
64,192,219695,1,8,0:2:0:0:
192,192,219695,1,0,0:0:0:70:hat.wav
320,192,219869,1,8,0:2:0:0:
448,192,219869,1,2,0:2:0:0:
64,192,220042,1,8,0:2:0:0:
192,192,220129,1,8,0:2:0:0:
320,192,220216,1,2,0:2:0:0:
448,192,220216,128,4,220562:0:2:0:0:
64,192,220562,1,2,0:2:0:0:
192,192,220562,1,8,0:2:0:0:
320,192,220909,128,2,221256:0:2:0:0:
192,192,221083,1,0,0:0:0:70:hat.wav
64,192,221256,128,8,221603:0:2:0:0:
448,192,221256,1,2,0:2:0:0:
320,192,221429,1,0,0:0:0:70:hat.wav
448,192,221603,128,2,221950:0:2:0:0:
64,192,221950,1,2,0:2:0:0:
320,192,221950,1,8,0:2:0:0:
192,192,222296,128,2,222643:0:2:0:0:
320,192,222470,1,0,0:0:0:70:hat.wav
64,192,222643,1,8,0:2:0:0:
448,192,222643,128,2,222990:0:2:0:0:
64,192,222990,128,2,223337:0:2:0:0:
192,192,223164,1,0,0:0:0:70:hat.wav
320,192,223337,128,2,223684:0:2:0:0:
448,192,223337,1,8,0:2:0:0:
192,192,223510,1,0,0:0:0:70:hat.wav
64,192,223684,128,2,224031:0:2:0:0:
320,192,223857,1,0,0:0:0:70:hat.wav
192,192,224031,128,8,224377:0:2:0:0:
448,192,224031,1,2,0:2:0:0:
64,192,224204,1,0,0:0:0:70:hat.wav
320,192,224377,128,2,224724:0:2:0:0:
64,192,224724,1,2,0:2:0:0:
448,192,224724,1,8,0:2:0:0:
192,192,225071,1,2,0:2:0:0:
320,192,225244,1,8,0:2:0:0:
448,192,225244,1,0,0:0:0:70:hat.wav
64,192,225418,1,8,0:2:0:0:
192,192,225418,1,2,0:2:0:0:
320,192,225591,1,8,0:2:0:0:
192,192,225678,1,8,0:2:0:0:
64,192,225765,1,2,0:2:0:0:
448,192,225765,128,0,226458:0:0:0:0:
320,192,225938,1,0,0:0:0:70:hat.wav
64,192,226111,1,2,0:2:0:0:
192,192,226111,1,8,0:2:0:0:
320,192,226285,1,0,0:0:0:70:hat.wav
64,192,226458,1,2,0:2:0:0:
64,192,226805,1,8,0:2:0:0:
448,192,226805,128,2,227152:0:2:0:0:
192,192,226979,1,0,0:0:0:70:hat.wav
320,192,227152,128,2,227499:0:2:0:0:
192,192,227499,128,2,227846:0:2:0:0:
448,192,227499,1,8,0:2:0:0:
64,192,227846,128,2,228192:0:2:0:0:
320,192,228192,128,10,228366:0:2:0:0:
448,192,228366,128,0,228539:0:0:0:70:hat.wav
64,192,228539,128,2,228886:0:2:0:0:
192,192,228539,1,0,0:0:0:0:
320,192,228886,1,2,0:2:0:0:
448,192,228886,128,8,229233:0:2:0:0:
64,192,229233,1,2,0:2:0:0:
192,192,229233,1,0,0:0:0:0:
448,192,229406,1,0,0:0:0:70:hat.wav
192,192,229580,1,8,0:2:0:0:
320,192,229580,1,2,0:2:0:0:
64,192,229753,1,0,0:0:0:70:hat.wav
448,192,229927,1,2,0:2:0:0:
192,192,230100,1,0,0:0:0:70:hat.wav
320,192,230273,1,2,0:2:0:0:
448,192,230273,1,8,0:2:0:0:
64,192,230620,1,2,0:2:0:0:
320,192,230794,1,8,0:2:0:0:
448,192,230794,1,0,0:0:0:0:
192,192,230967,1,10,0:2:0:0:
64,192,231140,1,8,0:2:0:0:
448,192,231140,1,0,0:0:0:0:
64,192,231314,128,4,232354:0:2:0:0:
448,192,231314,128,2,232007:0:2:0:0:
192,192,232354,128,0,232701:0:0:0:0:
320,192,232701,1,2,0:2:0:0:
448,192,232701,1,0,0:0:0:0:
192,192,233742,128,0,234088:0:0:0:0:
64,192,234088,1,2,0:2:0:0:
448,192,234088,1,4,0:2:0:0:
320,192,234435,1,8,0:2:0:0:
320,192,234609,1,0,0:0:0:0:
64,192,234782,1,8,0:2:0:0:
192,192,235013,1,8,0:2:0:0:
320,192,235244,1,8,0:2:0:0:
64,192,235476,1,8,0:2:0:0:
448,192,235476,1,0,0:0:0:0:
192,192,235822,1,8,0:2:0:0:
192,192,235996,1,0,0:0:0:0:
448,192,236169,1,8,0:2:0:0:
320,192,236401,1,8,0:2:0:0:
192,192,236632,1,8,0:2:0:0:
64,192,236863,1,8,0:2:0:0:
448,192,236863,1,0,0:0:0:0:
448,192,237210,1,8,0:2:0:0:
448,192,237383,1,0,0:0:0:0:
64,192,237557,1,8,0:2:0:0:
192,192,237788,1,8,0:2:0:0:
320,192,238019,1,8,0:2:0:0:
64,192,238250,1,8,0:2:0:0:
448,192,238250,1,0,0:0:0:0:
64,192,238424,1,0,0:0:0:0:
320,192,238597,1,8,0:2:0:0:
448,192,238944,1,8,0:2:0:0:
320,192,239175,1,8,0:2:0:0:
192,192,239406,1,8,0:2:0:0:
192,192,239638,1,4,0:2:0:0:
448,192,239638,128,8,241025:0:2:0:0:
64,192,239984,1,8,0:2:0:0:
64,192,240158,1,0,0:0:0:0:
320,192,240331,1,8,0:2:0:0:
192,192,240562,1,8,0:2:0:0:
64,192,240794,1,8,0:2:0:0:
64,192,241025,128,8,242412:0:2:0:0:
320,192,241025,1,0,0:0:0:0:
448,192,241372,1,8,0:2:0:0:
448,192,241545,1,0,0:0:0:0:
192,192,241718,1,8,0:2:0:0:
320,192,241950,1,8,0:2:0:0:
448,192,242181,1,8,0:2:0:0:
320,192,242412,128,8,243799:0:2:0:0:
448,192,242412,1,0,0:0:0:0:
192,192,242759,1,8,0:2:0:0:
192,192,242932,1,0,0:0:0:0:
448,192,243106,1,8,0:2:0:0:
192,192,243337,1,8,0:2:0:0:
64,192,243568,1,8,0:2:0:0:
64,192,243799,1,8,0:2:0:0:
192,192,243799,128,0,245187:0:0:0:0:
320,192,244146,1,8,0:2:0:0:
64,192,244493,1,8,0:2:0:0:
320,192,244724,1,8,0:2:0:0:
448,192,244955,1,8,0:2:0:0:
64,192,245187,1,12,0:2:0:0:
448,192,245187,128,2,245880:0:2:0:0:
192,192,245533,1,8,0:2:0:0:
192,192,245707,1,0,0:0:0:0:
64,192,245880,1,8,0:2:0:0:
320,192,245880,128,2,246574:0:2:0:0:
192,192,246111,1,8,0:2:0:0:
448,192,246343,1,8,0:2:0:0:
64,192,246574,128,8,247268:0:2:0:0:
192,192,246574,1,2,0:2:0:0:
320,192,246921,1,8,0:2:0:0:
320,192,247094,1,0,0:0:0:0:
192,192,247268,128,8,247961:0:2:0:0:
448,192,247268,1,2,0:2:0:0:
320,192,247499,1,8,0:2:0:0:
64,192,247730,1,8,0:2:0:0:
320,192,247961,1,8,0:2:0:0:
448,192,247961,128,2,248655:0:2:0:0:
192,192,248308,1,8,0:2:0:0:
192,192,248481,1,0,0:0:0:0:
64,192,248655,1,8,0:2:0:0:
320,192,248655,128,2,249348:0:2:0:0:
192,192,248886,1,8,0:2:0:0:
448,192,249117,1,8,0:2:0:0:
64,192,249348,128,8,250042:0:2:0:0:
192,192,249348,1,2,0:2:0:0:
448,192,249695,1,8,0:2:0:0:
448,192,249869,1,0,0:0:0:0:
192,192,250042,1,2,0:2:0:0:
320,192,250042,1,8,0:2:0:0:
192,192,250273,1,10,0:2:0:0:
448,192,250505,1,10,0:2:0:0:
64,192,250736,1,2,0:2:0:0:
448,192,250736,1,4,0:2:0:0:
192,192,250909,1,8,0:2:0:0:
320,192,251083,1,2,0:2:0:0:
64,192,251256,1,8,0:2:0:0:
192,192,251256,1,0,0:0:0:0:
448,192,251429,1,2,0:2:0:0:
192,192,251603,1,8,0:2:0:0:
320,192,251603,1,0,0:0:0:0:
64,192,251776,1,2,0:2:0:0:
320,192,251950,1,8,0:2:0:0:
448,192,251950,1,0,0:0:0:0:
64,192,252123,1,2,0:2:0:0:
192,192,252296,1,8,0:2:0:0:
320,192,252296,1,0,0:0:0:0:
448,192,252470,1,2,0:2:0:0:
64,192,252643,1,8,0:2:0:0:
192,192,252643,1,0,0:0:0:0:
320,192,252817,1,2,0:2:0:0:
64,192,252990,1,8,0:2:0:0:
448,192,252990,1,0,0:0:0:0:
192,192,253164,1,2,0:2:0:0:
320,192,253337,1,8,0:2:0:0:
64,192,253510,1,2,0:2:0:0:
448,192,253510,1,4,0:2:0:0:
192,192,253684,1,8,0:2:0:0:
320,192,253684,1,0,0:0:0:0:
64,192,253857,1,2,0:2:0:0:
320,192,254031,1,8,0:2:0:0:
448,192,254031,1,0,0:0:0:0:
192,192,254204,1,2,0:2:0:0:
64,192,254377,1,8,0:2:0:0:
448,192,254377,1,0,0:0:0:0:
320,192,254551,1,2,0:2:0:0:
192,192,254724,1,8,0:2:0:0:
64,192,254898,1,2,0:2:0:0:
448,192,254898,1,0,0:0:0:70:hat.wav
320,192,255071,1,10,0:2:0:0:
64,192,255244,1,2,0:2:0:0:
448,192,255244,1,0,0:0:0:70:hat.wav
192,192,255418,1,10,0:2:0:0:
64,192,255591,1,0,0:0:0:70:hat.wav
448,192,255591,1,2,0:2:0:0:
448,192,255765,1,8,0:2:0:0:
64,192,255938,1,0,0:0:0:70:hat.wav
192,192,255938,1,2,0:2:0:0:
320,192,256111,128,8,256285:0:2:0:0:
448,192,256111,1,2,0:2:0:0:
64,192,256285,128,8,256805:0:2:0:0:
192,192,256285,1,2,0:2:0:0:
448,192,256805,128,0,256979:0:0:0:0:
192,192,256979,128,8,257499:0:2:0:0:
320,192,256979,1,2,0:2:0:0:
448,192,257499,128,0,257672:0:0:0:0:
64,192,257672,128,10,258886:0:2:0:0:
320,192,257672,1,4,0:2:0:0:
192,192,258019,1,8,0:2:0:0:
448,192,258366,1,8,0:2:0:0:
448,192,258539,1,8,0:2:0:0:
320,192,258713,1,8,0:2:0:0:
192,192,258886,1,8,0:2:0:0:
64,192,259059,1,2,0:2:0:0:
448,192,259059,1,0,0:0:0:0:
320,192,259233,1,8,0:2:0:0:
192,192,259406,1,8,0:2:0:0:
320,192,259580,1,8,0:2:0:0:
448,192,259753,128,0,259927:0:0:0:0:
320,192,259927,128,0,260100:0:0:0:0:
192,192,260100,128,0,260447:0:0:0:0:
64,192,260447,1,2,0:2:0:0:
320,192,260447,128,4,260794:0:2:0:0:
64,192,260794,1,2,0:2:0:0:
448,192,260794,1,8,0:2:0:0:
192,192,260967,1,0,0:0:0:70:hat.wav
320,192,261140,128,2,261487:0:2:0:0:
64,192,261314,1,0,0:0:0:70:hat.wav
192,192,261487,128,2,261834:0:2:0:0:
448,192,261487,1,8,0:2:0:0:
64,192,261661,1,0,0:0:0:70:hat.wav
320,192,261834,128,2,262181:0:2:0:0:
64,192,262181,128,8,262354:0:2:0:0:
192,192,262181,1,2,0:2:0:0:
448,192,262354,128,0,262528:0:0:0:70:hat.wav
320,192,262528,1,2,0:2:0:0:
64,192,262701,128,0,263048:0:0:0:70:hat.wav
192,192,262874,1,2,0:2:0:0:
448,192,262874,1,8,0:2:0:0:
192,192,263221,128,2,263568:0:2:0:0:
320,192,263568,1,8,0:2:0:0:
448,192,263568,128,2,263742:0:2:0:0:
64,192,263742,128,0,264088:0:0:0:70:hat.wav
448,192,263915,1,2,0:2:0:0:
320,192,264088,128,0,264262:0:0:0:70:hat.wav
64,192,264262,1,2,0:2:0:0:
192,192,264262,1,8,0:2:0:0:
448,192,264435,128,0,264609:0:0:0:70:hat.wav
320,192,264609,128,2,264782:0:2:0:0:
192,192,264782,128,0,264955:0:0:0:70:hat.wav
64,192,264955,1,8,0:2:0:0:
448,192,264955,1,2,0:2:0:0:
320,192,265129,128,0,265302:0:0:0:70:hat.wav
192,192,265302,1,2,0:2:0:0:
320,192,265476,1,8,0:2:0:0:
448,192,265476,1,0,0:0:0:70:hat.wav
64,192,265649,1,2,0:2:0:0:
192,192,265649,1,8,0:2:0:0:
448,192,265822,1,0,0:0:0:70:hat.wav
192,192,265996,128,2,266343:0:2:0:0:
64,192,266343,1,8,0:2:0:0:
448,192,266343,1,2,0:2:0:0:
320,192,266516,1,0,0:0:0:70:hat.wav
192,192,266690,128,2,267036:0:2:0:0:
448,192,266863,1,0,0:0:0:70:hat.wav
64,192,267036,1,2,0:2:0:0:
320,192,267036,128,8,267383:0:2:0:0:
448,192,267210,1,0,0:0:0:70:hat.wav
192,192,267383,128,2,267730:0:2:0:0:
320,192,267730,1,8,0:2:0:0:
448,192,267730,128,2,267903:0:2:0:0:
64,192,267903,128,0,268077:0:0:0:70:hat.wav
192,192,268077,1,2,0:2:0:0:
448,192,268250,128,0,268597:0:0:0:70:hat.wav
64,192,268424,1,2,0:2:0:0:
320,192,268424,1,8,0:2:0:0:
320,192,268770,128,2,269117:0:2:0:0:
64,192,269117,128,8,269291:0:2:0:0:
192,192,269117,1,2,0:2:0:0:
448,192,269291,128,0,269638:0:0:0:70:hat.wav
64,192,269464,1,2,0:2:0:0:
192,192,269638,128,0,269811:0:0:0:70:hat.wav
320,192,269811,1,2,0:2:0:0:
448,192,269811,1,8,0:2:0:0:
64,192,269984,128,0,270158:0:0:0:70:hat.wav
192,192,270158,128,2,270331:0:2:0:0:
320,192,270331,128,0,270505:0:0:0:70:hat.wav
64,192,270505,1,8,0:2:0:0:
448,192,270505,1,2,0:2:0:0:
192,192,270678,128,0,270851:0:0:0:70:hat.wav
320,192,270851,1,2,0:2:0:0:
64,192,271025,1,8,0:2:0:0:
192,192,271025,1,0,0:0:0:70:hat.wav
320,192,271198,1,2,0:2:0:0:
448,192,271198,1,8,0:2:0:0:
64,192,271372,1,8,0:2:0:0:
192,192,271458,1,8,0:2:0:0:
320,192,271545,1,4,0:2:0:0:
448,192,271545,128,2,271892:0:2:0:0:
64,192,271892,1,8,0:2:0:0:
192,192,271892,1,2,0:2:0:0:
320,192,272239,128,2,272585:0:2:0:0:
192,192,272412,1,0,0:0:0:70:hat.wav
64,192,272585,128,2,272932:0:2:0:0:
448,192,272585,1,8,0:2:0:0:
320,192,272759,1,0,0:0:0:70:hat.wav
448,192,272932,128,2,273279:0:2:0:0:
64,192,273279,1,8,0:2:0:0:
320,192,273279,1,2,0:2:0:0:
192,192,273626,128,2,273973:0:2:0:0:
320,192,273799,1,0,0:0:0:70:hat.wav
64,192,273973,1,2,0:2:0:0:
448,192,273973,128,8,274320:0:2:0:0:
64,192,274320,128,2,274666:0:2:0:0:
192,192,274493,1,0,0:0:0:70:hat.wav
320,192,274666,128,8,275013:0:2:0:0:
448,192,274666,1,2,0:2:0:0:
192,192,274840,1,0,0:0:0:70:hat.wav
64,192,275013,128,2,275360:0:2:0:0:
320,192,275187,1,0,0:0:0:70:hat.wav
192,192,275360,128,2,275707:0:2:0:0:
448,192,275360,1,8,0:2:0:0:
64,192,275533,1,0,0:0:0:70:hat.wav
320,192,275707,128,2,276054:0:2:0:0:
64,192,276054,1,8,0:2:0:0:
448,192,276054,1,2,0:2:0:0:
448,192,276401,1,2,0:2:0:0:
64,192,276574,1,8,0:2:0:0:
192,192,276574,1,0,0:0:0:70:hat.wav
320,192,276747,1,2,0:2:0:0:
448,192,276747,1,8,0:2:0:0:
192,192,276921,1,8,0:2:0:0:
320,192,277007,1,8,0:2:0:0:
64,192,277094,1,2,0:2:0:0:
448,192,277094,1,0,0:0:0:0:
192,192,277268,1,0,0:0:0:70:hat.wav
320,192,277441,1,8,0:2:0:0:
448,192,277441,1,2,0:2:0:0:
64,192,277614,1,0,0:0:0:70:hat.wav
192,192,277788,128,2,278135:0:2:0:0:
320,192,278135,1,2,0:2:0:0:
448,192,278135,1,8,0:2:0:0:
192,192,278308,1,0,0:0:0:70:hat.wav
64,192,278481,1,2,0:2:0:0:
320,192,278655,1,0,0:0:0:70:hat.wav
64,192,278828,1,8,0:2:0:0:
192,192,278828,1,2,0:2:0:0:
448,192,279002,1,0,0:0:0:70:hat.wav
320,192,279175,128,2,279522:0:2:0:0:
64,192,279522,1,2,0:2:0:0:
448,192,279522,1,8,0:2:0:0:
320,192,279695,1,0,0:0:0:70:hat.wav
64,192,279869,128,2,280216:0:2:0:0:
192,192,279869,1,0,0:0:0:0:
320,192,280216,1,8,0:2:0:0:
448,192,280216,128,2,280562:0:2:0:0:
64,192,280562,1,2,0:2:0:0:
448,192,280736,1,0,0:0:0:70:hat.wav
192,192,280909,1,2,0:2:0:0:
320,192,280909,1,8,0:2:0:0:
64,192,281083,1,0,0:0:0:70:hat.wav
320,192,281256,1,8,0:2:0:0:
448,192,281256,1,2,0:2:0:0:
192,192,281429,1,10,0:2:0:0:
320,192,281603,1,2,0:2:0:0:
448,192,281603,1,8,0:2:0:0:
64,192,281950,1,2,0:2:0:0:
320,192,281950,1,0,0:0:0:0:
192,192,282123,1,8,0:2:0:0:
64,192,282296,1,2,0:2:0:0:
448,192,282296,1,8,0:2:0:0:
320,192,282470,1,8,0:2:0:0:
64,192,282643,128,4,282990:0:2:0:0:
448,192,282643,1,2,0:2:0:0:
192,192,282990,1,8,0:2:0:0:
320,192,282990,1,2,0:2:0:0:
448,192,283164,1,0,0:0:0:70:hat.wav
64,192,283337,128,2,283684:0:2:0:0:
192,192,283510,1,0,0:0:0:70:hat.wav
320,192,283684,1,8,0:2:0:0:
448,192,283684,128,2,284031:0:2:0:0:
192,192,283857,1,0,0:0:0:70:hat.wav
64,192,284031,128,2,284377:0:2:0:0:
320,192,284377,128,2,284551:0:2:0:0:
448,192,284377,1,8,0:2:0:0:
192,192,284551,128,0,284724:0:0:0:70:hat.wav
448,192,284724,1,2,0:2:0:0:
320,192,284898,128,0,285244:0:0:0:70:hat.wav
64,192,285071,1,8,0:2:0:0:
192,192,285071,1,2,0:2:0:0:
64,192,285418,128,2,285765:0:2:0:0:
320,192,285765,128,2,285938:0:2:0:0:
448,192,285765,1,8,0:2:0:0:
192,192,285938,128,0,286285:0:0:0:70:hat.wav
64,192,286111,1,2,0:2:0:0:
448,192,286285,128,0,286458:0:0:0:70:hat.wav
192,192,286458,1,8,0:2:0:0:
320,192,286458,1,2,0:2:0:0:
64,192,286632,128,0,286805:0:0:0:70:hat.wav
192,192,286805,128,2,286979:0:2:0:0:
320,192,286979,128,0,287152:0:0:0:70:hat.wav
64,192,287152,1,2,0:2:0:0:
448,192,287152,1,8,0:2:0:0:
192,192,287325,128,0,287499:0:0:0:70:hat.wav
320,192,287499,1,2,0:2:0:0:
64,192,287672,1,8,0:2:0:0:
192,192,287672,1,0,0:0:0:70:hat.wav
320,192,287846,1,8,0:2:0:0:
448,192,287846,1,2,0:2:0:0:
64,192,288019,1,0,0:0:0:70:hat.wav
448,192,288192,128,2,288539:0:2:0:0:
192,192,288539,1,2,0:2:0:0:
320,192,288539,1,8,0:2:0:0:
64,192,288713,1,0,0:0:0:70:hat.wav
448,192,288886,128,2,289233:0:2:0:0:
320,192,289059,1,0,0:0:0:70:hat.wav
64,192,289233,128,8,289580:0:2:0:0:
192,192,289233,1,2,0:2:0:0:
320,192,289406,1,0,0:0:0:70:hat.wav
448,192,289580,128,2,289927:0:2:0:0:
64,192,289927,1,2,0:2:0:0:
192,192,289927,128,8,290100:0:2:0:0:
320,192,290100,128,0,290273:0:0:0:70:hat.wav
64,192,290273,1,2,0:2:0:0:
192,192,290447,128,0,290794:0:0:0:70:hat.wav
320,192,290620,1,8,0:2:0:0:
448,192,290620,1,2,0:2:0:0:
448,192,290967,128,2,291314:0:2:0:0:
192,192,291314,128,2,291487:0:2:0:0:
320,192,291314,1,8,0:2:0:0:
448,192,291487,128,0,291661:0:0:0:70:hat.wav
64,192,291661,128,2,291834:0:2:0:0:
320,192,291834,128,0,292007:0:0:0:70:hat.wav
64,192,292007,1,8,0:2:0:0:
192,192,292007,1,2,0:2:0:0:
448,192,292181,128,0,292354:0:0:0:70:hat.wav
320,192,292354,128,2,292528:0:2:0:0:
192,192,292528,128,0,292701:0:0:0:70:hat.wav
64,192,292701,1,2,0:2:0:0:
448,192,292701,1,8,0:2:0:0:
64,192,292874,128,0,293048:0:0:0:70:hat.wav
192,192,293048,1,2,0:2:0:0:
320,192,293221,1,8,0:2:0:0:
448,192,293221,1,0,0:0:0:70:hat.wav
64,192,293395,1,8,0:2:0:0:
192,192,293395,1,2,0:2:0:0:
448,192,293568,1,8,0:2:0:0:
320,192,293655,1,8,0:2:0:0:
64,192,293742,128,2,294088:0:2:0:0:
192,192,293742,1,4,0:2:0:0:
320,192,294088,1,2,0:2:0:0:
448,192,294088,1,8,0:2:0:0:
192,192,294435,128,2,294782:0:2:0:0:
320,192,294609,1,0,0:0:0:70:hat.wav
64,192,294782,1,8,0:2:0:0:
448,192,294782,128,2,295129:0:2:0:0:
192,192,294955,1,0,0:0:0:70:hat.wav
64,192,295129,128,2,295476:0:2:0:0:
192,192,295476,1,2,0:2:0:0:
448,192,295476,1,8,0:2:0:0:
320,192,295822,128,2,296169:0:2:0:0:
192,192,295996,1,0,0:0:0:70:hat.wav
64,192,296169,128,8,296516:0:2:0:0:
448,192,296169,1,2,0:2:0:0:
448,192,296516,128,2,296863:0:2:0:0:
320,192,296690,1,0,0:0:0:70:hat.wav
64,192,296863,1,2,0:2:0:0:
192,192,296863,128,8,297210:0:2:0:0:
320,192,297036,1,0,0:0:0:70:hat.wav
448,192,297210,128,2,297557:0:2:0:0:
192,192,297383,1,0,0:0:0:70:hat.wav
64,192,297557,1,8,0:2:0:0:
320,192,297557,128,2,297903:0:2:0:0:
448,192,297730,1,0,0:0:0:70:hat.wav
192,192,297903,128,2,298250:0:2:0:0:
64,192,298250,1,2,0:2:0:0:
448,192,298250,1,8,0:2:0:0:
320,192,298597,1,2,0:2:0:0:
64,192,298770,1,8,0:2:0:0:
192,192,298770,1,0,0:0:0:70:hat.wav
320,192,298944,1,8,0:2:0:0:
448,192,298944,1,2,0:2:0:0:
192,192,299117,1,8,0:2:0:0:
320,192,299204,1,8,0:2:0:0:
64,192,299291,128,2,299984:0:2:0:0:
448,192,299291,1,0,0:0:0:0:
192,192,299464,1,0,0:0:0:70:hat.wav
320,192,299638,1,2,0:2:0:0:
448,192,299638,1,8,0:2:0:0:
192,192,299811,1,0,0:0:0:70:hat.wav
448,192,299984,1,2,0:2:0:0:
64,192,300331,128,8,300678:0:2:0:0:
448,192,300331,1,2,0:2:0:0:
320,192,300505,1,0,0:0:0:70:hat.wav
192,192,300678,128,2,301025:0:2:0:0:
64,192,301025,1,2,0:2:0:0:
320,192,301025,128,8,301372:0:2:0:0:
448,192,301372,128,2,301718:0:2:0:0:
192,192,301718,128,10,301892:0:2:0:0:
64,192,301892,128,0,302065:0:0:0:70:hat.wav
320,192,302065,1,2,0:2:0:0:
448,192,302065,128,0,302412:0:0:0:0:
64,192,302412,128,2,302759:0:2:0:0:
192,192,302412,1,8,0:2:0:0:
320,192,302759,1,2,0:2:0:0:
448,192,302759,1,0,0:0:0:0:
64,192,302932,1,0,0:0:0:70:hat.wav
192,192,303106,1,8,0:2:0:0:
320,192,303106,1,2,0:2:0:0:
448,192,303279,1,0,0:0:0:70:hat.wav
64,192,303453,1,2,0:2:0:0:
320,192,303626,1,0,0:0:0:70:hat.wav
64,192,303799,1,2,0:2:0:0:
192,192,303799,1,8,0:2:0:0:
448,192,304146,1,2,0:2:0:0:
64,192,304320,1,8,0:2:0:0:
192,192,304320,1,0,0:0:0:0:
320,192,304493,1,10,0:2:0:0:
64,192,304666,1,8,0:2:0:0:
448,192,304666,1,0,0:0:0:0:
64,192,304840,128,4,305533:0:2:0:0:
448,192,304840,128,2,305880:0:2:0:0:
320,192,305880,128,0,306227:0:0:0:0:
64,192,306227,1,2,0:2:0:0:
192,192,306227,1,0,0:0:0:0:
320,192,306921,128,2,307094:0:2:0:0:
192,192,307094,1,2,0:2:0:0:
64,192,307268,1,8,0:2:0:0:
448,192,307268,1,0,0:0:0:0:
448,192,307441,1,8,0:2:0:0:
320,192,307528,1,8,0:2:0:0:
64,192,307614,1,4,0:2:0:0:
192,192,307614,1,2,0:2:0:0:
64,192,307961,1,2,0:2:0:0:
320,192,307961,1,8,0:2:0:0:
320,192,308308,1,2,0:2:0:0:
448,192,308308,1,0,0:0:0:0:
192,192,308655,1,2,0:2:0:0:
448,192,308655,1,8,0:2:0:0:
64,192,309002,1,2,0:2:0:0:
320,192,309002,1,0,0:0:0:0:
64,192,309348,1,2,0:2:0:0:
192,192,309348,1,8,0:2:0:0:
192,192,309695,1,2,0:2:0:0:
448,192,309695,1,0,0:0:0:0:
320,192,310042,1,8,0:2:0:0:
448,192,310042,1,2,0:2:0:0:
64,192,310389,1,2,0:2:0:0:
192,192,310389,1,0,0:0:0:0:
64,192,310736,1,2,0:2:0:0:
320,192,310736,1,8,0:2:0:0:
192,192,311083,1,2,0:2:0:0:
320,192,311083,1,0,0:0:0:0:
192,192,311429,1,8,0:2:0:0:
448,192,311429,1,2,0:2:0:0:
64,192,311603,128,0,311776:0:0:0:70:hat.wav
192,192,311776,128,2,311950:0:2:0:0:
320,192,311950,128,0,312123:0:0:0:70:hat.wav
64,192,312123,1,2,0:2:0:0:
448,192,312123,1,8,0:2:0:0:
192,192,312296,128,0,312470:0:0:0:70:hat.wav
448,192,312470,1,2,0:2:0:0:
320,192,312643,128,8,312817:0:2:0:0:
64,192,312817,1,8,0:2:0:0:
192,192,312817,1,2,0:2:0:0:
320,192,312990,1,8,0:2:0:0:
64,192,313164,1,2,0:2:0:0:
448,192,313164,1,0,0:0:0:0:
64,192,313510,1,8,0:2:0:0:
320,192,313510,1,2,0:2:0:0:
320,192,313857,1,2,0:2:0:0:
448,192,313857,1,0,0:0:0:0:
192,192,314204,1,2,0:2:0:0:
448,192,314204,1,8,0:2:0:0:
64,192,314551,1,2,0:2:0:0:
192,192,314551,1,0,0:0:0:0:
64,192,314898,1,8,0:2:0:0:
320,192,314898,1,2,0:2:0:0:
192,192,315244,1,2,0:2:0:0:
448,192,315244,1,0,0:0:0:0:
64,192,315591,1,2,0:2:0:0:
448,192,315591,1,8,0:2:0:0:
192,192,315938,1,2,0:2:0:0:
448,192,316111,128,0,316285:0:0:0:70:hat.wav
192,192,316285,1,8,0:2:0:0:
320,192,316285,128,2,316458:0:2:0:0:
64,192,316458,128,0,316632:0:0:0:70:hat.wav
192,192,316632,128,2,316805:0:2:0:0:
448,192,316805,128,0,316979:0:0:0:70:hat.wav
64,192,316979,128,2,317152:0:2:0:0:
192,192,316979,1,8,0:2:0:0:
448,192,317152,128,0,317325:0:0:0:70:hat.wav
320,192,317325,128,2,317499:0:2:0:0:
192,192,317499,128,0,317672:0:0:0:70:hat.wav
64,192,317672,1,8,0:2:0:0:
448,192,317672,1,2,0:2:0:0:
320,192,317846,128,0,318019:0:0:0:70:hat.wav
64,192,318019,1,2,0:2:0:0:
192,192,318192,128,8,318366:0:2:0:0:
320,192,318366,1,2,0:2:0:0:
448,192,318366,1,8,0:2:0:0:
192,192,318539,1,8,0:2:0:0:
64,192,318713,1,2,0:2:0:0:
448,192,318713,128,4,319059:0:2:0:0:
64,192,319059,1,8,0:2:0:0:
192,192,319059,1,2,0:2:0:0:
320,192,319406,128,2,319580:0:2:0:0:
192,192,319580,128,0,319753:0:0:0:70:hat.wav
64,192,319753,1,2,0:2:0:0:
448,192,319753,128,8,319927:0:2:0:0:
320,192,319927,128,0,320273:0:0:0:70:hat.wav
192,192,320100,1,2,0:2:0:0:
320,192,320447,1,8,0:2:0:0:
448,192,320447,1,2,0:2:0:0:
64,192,320620,128,0,320967:0:0:0:70:hat.wav
192,192,320794,1,2,0:2:0:0:
448,192,320967,128,0,321140:0:0:0:70:hat.wav
192,192,321140,128,2,321314:0:2:0:0:
320,192,321140,1,8,0:2:0:0:
448,192,321487,128,2,321834:0:2:0:0:
64,192,321834,128,8,322007:0:2:0:0:
192,192,321834,1,2,0:2:0:0:
448,192,322007,1,0,0:0:0:70:hat.wav
320,192,322181,128,2,322354:0:2:0:0:
192,192,322354,128,0,322528:0:0:0:70:hat.wav
64,192,322528,128,2,322701:0:2:0:0:
448,192,322528,1,8,0:2:0:0:
448,192,322701,128,0,323221:0:0:0:70:hat.wav
192,192,322874,1,2,0:2:0:0:
64,192,323221,1,8,0:2:0:0:
320,192,323221,1,2,0:2:0:0:
192,192,323568,1,2,0:2:0:0:
320,192,323742,1,8,0:2:0:0:
448,192,323742,1,0,0:0:0:70:hat.wav
64,192,323915,1,8,0:2:0:0:
192,192,323915,1,0,0:0:0:0:
448,192,324262,128,2,324435:0:2:0:0:
64,192,324435,128,0,324609:0:0:0:70:hat.wav
192,192,324609,1,2,0:2:0:0:
448,192,324609,1,8,0:2:0:0:
320,192,324782,128,0,324955:0:0:0:70:hat.wav
192,192,324955,128,2,325129:0:2:0:0:
64,192,325302,128,8,325476:0:2:0:0:
448,192,325302,1,2,0:2:0:0:
448,192,325476,128,0,325649:0:0:0:70:hat.wav
320,192,325649,1,2,0:2:0:0:
192,192,325822,128,0,325996:0:0:0:70:hat.wav
64,192,325996,1,2,0:2:0:0:
320,192,325996,128,8,326169:0:2:0:0:
448,192,326343,128,2,326516:0:2:0:0:
64,192,326516,128,0,326690:0:0:0:70:hat.wav
192,192,326690,1,8,0:2:0:0:
448,192,326690,1,2,0:2:0:0:
320,192,326863,1,0,0:0:0:70:hat.wav
64,192,327036,1,2,0:2:0:0:
448,192,327036,1,0,0:0:0:0:
192,192,327210,128,0,327383:0:0:0:70:hat.wav
64,192,327383,1,2,0:2:0:0:
320,192,327383,128,8,327557:0:2:0:0:
448,192,327557,128,0,328424:0:0:0:70:hat.wav
320,192,327730,1,2,0:2:0:0:
64,192,328077,1,8,0:2:0:0:
192,192,328077,1,2,0:2:0:0:
192,192,328424,1,2,0:2:0:0:
320,192,328597,128,0,328770:0:0:0:70:hat.wav
192,192,328770,128,2,328944:0:2:0:0:
448,192,328770,1,8,0:2:0:0:
64,192,328944,128,0,329291:0:0:0:70:hat.wav
192,192,329117,1,2,0:2:0:0:
320,192,329291,1,8,0:2:0:0:
448,192,329291,1,0,0:0:0:70:hat.wav
64,192,329464,1,8,0:2:0:0:
192,192,329464,1,2,0:2:0:0:
320,192,329638,1,8,0:2:0:0:
192,192,329724,1,8,0:2:0:0:
64,192,329811,128,2,330851:0:2:0:0:
448,192,329811,128,4,333626:0:2:0:0:
