osu file format v14

[General]
AudioFilename: audio.ogg
AudioLeadIn: 0
PreviewTime: 80794
Countdown: 0
SampleSet: Soft
StackLeniency: 0.7
Mode: 3
LetterboxInBreaks: 0
SpecialStyle: 0
WidescreenStoryboard: 1

[Editor]
Bookmarks: 1025,23221,45418,67614,81487,103684,128655,150851,173048,186921,209117,234088,250736,260447,282643,307614,329811
DistanceSpacing: 1
BeatDivisor: 4
GridSize: 32
TimelineZoom: 2.400001

[Metadata]
Title:Triangle Dreamer
TitleUnicode:トライアングル・ドリーマー
Artist:Niji no Conquistador
ArtistUnicode:虹のコンキスタドール
Creator:chocomilku-
Version:Hard
Source:
Tags:2zicon 虹コン nijicon 11th single female vocals vocalists king records 鶴見 萌 Tsurumi Moe 根本 凪 Nemoto Nagi 中村 朱里 Nakamura Akari 的場 華鈴 Matoba Karin 大和 明桜 Yamato Ao 清水 理子 Shimizu Riko 隈本 茉莉奈 Kumamoto Marina 山崎 夏菜 Yamasaki Nana 蛭田 愛梨 Hiruta Airi 岡田 彩夢 Okada Ayame 片岡 未優 Kataoka Miyu japanese pop j-pop jpop idols 村カワ基成 Motonari Murakawa full version DEARSTAGE ディアステージ
BeatmapID:4441930
BeatmapSetID:2095320

[Difficulty]
HPDrainRate:7.5
CircleSize:4
OverallDifficulty:7.5
ApproachRate:5
SliderMultiplier:1.4
SliderTickRate:1

[Events]
//Background and Video events
Video,-595,"MV.mp4"
0,0,"bg4.jpg",0,0
//Break Periods
//Storyboard Layer 0 (Background)
//Storyboard Layer 1 (Fail)
//Storyboard Layer 2 (Pass)
//Storyboard Layer 3 (Foreground)
//Storyboard Layer 4 (Overlay)
//Storyboard Sound Samples
Sample,97961,0,"hat.wav",70
Sample,120158,0,"hat.wav",70
Sample,203395,0,"hat.wav",70
Sample,225591,0,"hat.wav",70
Sample,255591,0,"soft-hitclap.wav",65
Sample,255938,0,"soft-hitclap.wav",65
Sample,276921,0,"hat.wav",70
Sample,299117,0,"hat.wav",70

[TimingPoints]
-362,346.820809248555,4,2,1,50,1,0
81487,-100,4,2,1,65,0,1
125880,-100,4,2,1,65,0,0
186921,-100,4,2,1,65,0,1
231314,-100,4,2,1,65,0,0
260447,-100,4,2,1,65,0,1
304840,-100,4,2,1,65,0,0

[HitObjects]
64,192,331,128,0,678:0:0:0:0:
320,192,678,128,0,1025:0:0:0:0:
64,192,1025,1,2,0:2:0:0:
192,192,1025,128,4,1372:0:2:0:0:
448,192,1025,1,0,0:0:0:0:
320,192,1198,1,0,0:0:0:70:hat.wav
64,192,1372,1,8,0:2:0:0:
448,192,1372,1,2,0:2:0:0:
192,192,1545,1,0,0:0:0:70:hat.wav
320,192,1718,1,2,0:2:0:0:
448,192,1718,1,0,0:0:0:0:
192,192,1892,1,0,0:0:0:70:hat.wav
64,192,2065,1,8,0:2:0:0:
448,192,2065,1,2,0:2:0:0:
320,192,2239,1,0,0:0:0:70:hat.wav
64,192,2412,1,2,0:2:0:0:
320,192,2412,128,0,2759:0:0:0:0:
192,192,2585,1,0,0:0:0:70:hat.wav
64,192,2759,128,8,3106:0:2:0:0:
448,192,2759,1,2,0:2:0:0:
192,192,2932,1,0,0:0:0:70:hat.wav
320,192,3106,1,2,0:2:0:0:
448,192,3106,128,0,3453:0:0:0:0:
64,192,3279,1,0,0:0:0:70:hat.wav
192,192,3453,128,8,3799:0:2:0:0:
320,192,3453,1,2,0:2:0:0:
448,192,3626,1,0,0:0:0:70:hat.wav
64,192,3799,1,2,0:2:0:0:
320,192,3799,128,0,4146:0:0:0:0:
448,192,3973,1,0,0:0:0:70:hat.wav
64,192,4146,1,8,0:2:0:0:
192,192,4146,1,2,0:2:0:0:
448,192,4320,1,0,0:0:0:70:hat.wav
320,192,4493,1,2,0:2:0:0:
448,192,4493,128,0,4840:0:0:0:0:
192,192,4666,1,0,0:0:0:70:hat.wav
64,192,4840,1,8,0:2:0:0:
320,192,4840,1,2,0:2:0:0:
192,192,5013,1,0,0:0:0:70:hat.wav
320,192,5100,1,0,0:0:0:0:
64,192,5187,1,2,0:2:0:0:
448,192,5187,1,0,0:0:0:0:
64,192,5360,1,0,0:0:0:70:hat.wav
192,192,5533,1,8,0:2:0:0:
320,192,5533,1,2,0:2:0:0:
192,192,5707,1,0,0:0:0:70:hat.wav
320,192,5880,1,2,0:2:0:0:
448,192,5880,128,0,6227:0:0:0:0:
64,192,6054,1,0,0:0:0:70:hat.wav
192,192,6227,128,8,6574:0:2:0:0:
320,192,6227,1,2,0:2:0:0:
448,192,6401,1,0,0:0:0:70:hat.wav
64,192,6574,1,2,0:2:0:0:
320,192,6574,128,0,6921:0:0:0:0:
192,192,6747,1,0,0:0:0:70:hat.wav
64,192,6921,1,8,0:2:0:0:
448,192,6921,1,2,0:2:0:0:
320,192,7094,1,0,0:0:0:70:hat.wav
64,192,7268,1,2,0:2:0:0:
192,192,7268,1,0,0:0:0:0:
320,192,7441,1,0,0:0:0:70:hat.wav
64,192,7614,1,8,0:2:0:0:
448,192,7614,1,2,0:2:0:0:
192,192,7788,1,0,0:0:0:70:hat.wav
192,192,7961,128,2,8308:0:2:0:0:
448,192,7961,1,0,0:0:0:0:
320,192,8135,1,0,0:0:0:70:hat.wav
64,192,8308,1,2,0:2:0:0:
448,192,8308,128,8,8655:0:2:0:0:
320,192,8481,1,0,0:0:0:70:hat.wav
64,192,8655,128,2,9002:0:2:0:0:
192,192,8655,1,0,0:0:0:0:
448,192,8828,1,0,0:0:0:70:hat.wav
192,192,9002,1,8,0:2:0:0:
320,192,9002,128,2,9348:0:2:0:0:
64,192,9175,1,0,0:0:0:70:hat.wav
192,192,9348,128,2,9695:0:2:0:0:
448,192,9348,1,0,0:0:0:0:
64,192,9522,1,0,0:0:0:70:hat.wav
320,192,9695,1,2,0:2:0:0:
448,192,9695,1,8,0:2:0:0:
64,192,9869,1,0,0:0:0:70:hat.wav
64,192,10042,128,2,10389:0:2:0:0:
192,192,10042,1,0,0:0:0:0:
320,192,10216,1,0,0:0:0:70:hat.wav
192,192,10389,1,8,0:2:0:0:
448,192,10389,1,2,0:2:0:0:
320,192,10562,128,0,10736:0:0:0:70:hat.wav
64,192,10736,1,2,0:2:0:0:
192,192,10736,1,0,0:0:0:0:
64,192,10909,1,8,0:2:0:0:
320,192,10909,1,0,0:0:0:70:hat.wav
192,192,11083,1,8,0:2:0:0:
448,192,11083,1,0,0:0:0:0:
320,192,11256,1,0,0:0:0:70:hat.wav
64,192,11429,1,8,0:2:0:0:
448,192,11429,1,2,0:2:0:0:
64,192,11603,1,0,0:0:0:70:hat.wav
192,192,11690,1,8,0:2:0:0:
320,192,11776,1,8,0:2:0:0:
448,192,11776,1,2,0:2:0:0:
64,192,11950,1,8,0:2:0:0:
192,192,11950,1,0,0:0:0:70:hat.wav
64,192,12123,1,2,0:2:0:0:
320,192,12123,128,4,12470:0:2:0:0:
448,192,12123,1,0,0:0:0:0:
192,192,12296,1,0,0:0:0:70:hat.wav
64,192,12470,1,2,0:2:0:0:
448,192,12470,1,8,0:2:0:0:
320,192,12643,1,0,0:0:0:70:hat.wav
64,192,12817,1,2,0:2:0:0:
192,192,12817,1,0,0:0:0:0:
320,192,12990,1,0,0:0:0:70:hat.wav
64,192,13164,1,2,0:2:0:0:
448,192,13164,1,8,0:2:0:0:
192,192,13337,1,0,0:0:0:70:hat.wav
192,192,13510,128,2,13857:0:2:0:0:
448,192,13510,1,0,0:0:0:0:
320,192,13684,1,0,0:0:0:70:hat.wav
64,192,13857,1,8,0:2:0:0:
448,192,13857,128,2,14204:0:2:0:0:
320,192,14031,1,0,0:0:0:70:hat.wav
64,192,14204,128,2,14551:0:2:0:0:
192,192,14204,1,0,0:0:0:0:
448,192,14377,1,0,0:0:0:70:hat.wav
192,192,14551,1,2,0:2:0:0:
320,192,14551,128,8,14898:0:2:0:0:
64,192,14724,1,0,0:0:0:70:hat.wav
192,192,14898,128,2,15244:0:2:0:0:
448,192,14898,1,0,0:0:0:0:
64,192,15071,1,0,0:0:0:70:hat.wav
320,192,15244,1,8,0:2:0:0:
448,192,15244,1,2,0:2:0:0:
64,192,15418,1,0,0:0:0:70:hat.wav
64,192,15591,128,2,15938:0:2:0:0:
192,192,15591,1,0,0:0:0:0:
320,192,15765,1,0,0:0:0:70:hat.wav
192,192,15938,1,2,0:2:0:0:
448,192,15938,1,8,0:2:0:0:
320,192,16111,1,0,0:0:0:70:hat.wav
192,192,16198,1,0,0:0:0:0:
64,192,16285,1,2,0:2:0:0:
448,192,16285,1,0,0:0:0:0:
64,192,16458,1,0,0:0:0:70:hat.wav
192,192,16632,1,8,0:2:0:0:
320,192,16632,1,2,0:2:0:0:
192,192,16805,1,0,0:0:0:70:hat.wav
320,192,16979,1,2,0:2:0:0:
448,192,16979,128,0,17325:0:0:0:0:
64,192,17152,1,0,0:0:0:70:hat.wav
192,192,17325,128,2,17672:0:2:0:0:
320,192,17325,1,8,0:2:0:0:
448,192,17499,1,0,0:0:0:70:hat.wav
320,192,17672,128,2,18019:0:2:0:0:
192,192,17846,1,0,0:0:0:70:hat.wav
64,192,18019,1,8,0:2:0:0:
448,192,18019,1,2,0:2:0:0:
320,192,18192,1,0,0:0:0:70:hat.wav
64,192,18366,1,2,0:2:0:0:
192,192,18366,1,0,0:0:0:0:
320,192,18539,1,0,0:0:0:70:hat.wav
64,192,18713,1,2,0:2:0:0:
448,192,18713,1,8,0:2:0:0:
192,192,18886,1,0,0:0:0:70:hat.wav
192,192,19059,128,2,19406:0:2:0:0:
448,192,19059,1,0,0:0:0:0:
320,192,19233,1,0,0:0:0:70:hat.wav
64,192,19406,1,8,0:2:0:0:
448,192,19406,128,2,19753:0:2:0:0:
320,192,19580,1,0,0:0:0:70:hat.wav
64,192,19753,128,2,20100:0:2:0:0:
192,192,19753,1,0,0:0:0:0:
448,192,19927,1,0,0:0:0:70:hat.wav
192,192,20100,1,2,0:2:0:0:
320,192,20100,128,8,20447:0:2:0:0:
64,192,20273,1,0,0:0:0:70:hat.wav
192,192,20447,128,2,20794:0:2:0:0:
448,192,20447,1,0,0:0:0:0:
64,192,20620,1,0,0:0:0:70:hat.wav
320,192,20794,1,8,0:2:0:0:
448,192,20794,1,2,0:2:0:0:
64,192,20967,1,0,0:0:0:70:hat.wav
64,192,21140,128,2,21487:0:2:0:0:
192,192,21140,1,0,0:0:0:0:
448,192,21314,1,0,0:0:0:70:hat.wav
192,192,21487,1,2,0:2:0:0:
320,192,21487,1,8,0:2:0:0:
192,192,21661,1,2,0:2:0:0:
320,192,21661,1,8,0:2:0:0:
64,192,22007,1,8,0:2:0:0:
448,192,22007,1,0,0:0:0:0:
64,192,22181,1,8,0:2:0:0:
192,192,22181,1,2,0:2:0:0:
320,192,22354,1,0,0:0:0:70:hat.wav
64,192,22528,1,8,0:2:0:0:
448,192,22528,1,2,0:2:0:0:
320,192,22701,1,0,0:0:0:0:
192,192,22788,1,8,0:2:0:0:
320,192,22874,1,8,0:2:0:0:
448,192,22874,1,0,0:0:0:0:
320,192,23048,1,8,0:2:0:0:
448,192,23048,1,0,0:0:0:0:
64,192,23221,128,2,23568:0:2:0:0:
192,192,23221,1,4,0:2:0:0:
448,192,23221,1,0,0:0:0:0:
192,192,23395,1,0,0:0:0:0:
320,192,23568,1,8,0:2:0:0:
448,192,23568,1,0,0:0:0:0:
192,192,23742,1,0,0:0:0:0:
320,192,23828,1,8,0:2:0:0:
64,192,23915,1,2,0:2:0:0:
448,192,23915,128,0,24262:0:0:0:0:
320,192,24088,1,0,0:0:0:0:
64,192,24262,1,8,0:2:0:0:
192,192,24262,1,0,0:0:0:0:
320,192,24435,1,0,0:0:0:0:
64,192,24609,128,2,24955:0:2:0:0:
448,192,24609,1,0,0:0:0:0:
192,192,24782,1,0,0:0:0:0:
320,192,24955,1,8,0:2:0:0:
448,192,24955,1,0,0:0:0:0:
192,192,25129,1,0,0:0:0:0:
64,192,25216,1,8,0:2:0:0:
320,192,25302,128,2,25476:0:2:0:0:
448,192,25302,1,0,0:0:0:0:
192,192,25476,128,0,25649:0:0:0:0:
64,192,25649,1,8,0:2:0:0:
448,192,25649,128,0,25822:0:0:0:0:
320,192,25822,128,0,25996:0:0:0:0:
64,192,25996,128,2,26343:0:2:0:0:
192,192,25996,1,0,0:0:0:0:
320,192,26169,1,0,0:0:0:0:
192,192,26343,1,8,0:2:0:0:
448,192,26343,1,0,0:0:0:0:
320,192,26516,128,0,26863:0:0:0:0:
192,192,26603,1,8,0:2:0:0:
64,192,26690,1,2,0:2:0:0:
448,192,26690,1,0,0:0:0:0:
192,192,26863,128,0,27210:0:0:0:0:
320,192,27036,1,8,0:2:0:0:
448,192,27036,1,0,0:0:0:0:
448,192,27210,128,0,27557:0:0:0:0:
64,192,27383,1,2,0:2:0:0:
192,192,27383,1,0,0:0:0:0:
320,192,27557,128,0,27730:0:0:0:0:
64,192,27730,1,8,0:2:0:0:
448,192,27730,1,0,0:0:0:0:
192,192,27903,128,0,28077:0:0:0:0:
320,192,28077,1,2,0:2:0:0:
448,192,28077,1,0,0:0:0:0:
64,192,28250,128,0,28424:0:0:0:0:
320,192,28424,128,8,28597:0:2:0:0:
448,192,28424,1,0,0:0:0:0:
64,192,28597,128,0,28770:0:0:0:0:
192,192,28770,1,2,0:2:0:0:
448,192,28770,128,0,29117:0:0:0:0:
320,192,28944,1,0,0:0:0:0:
64,192,29117,1,8,0:2:0:0:
192,192,29117,1,0,0:0:0:0:
320,192,29291,1,0,0:0:0:0:
192,192,29377,1,8,0:2:0:0:
64,192,29464,128,2,29811:0:2:0:0:
448,192,29464,1,0,0:0:0:0:
192,192,29638,1,0,0:0:0:0:
320,192,29811,1,8,0:2:0:0:
448,192,29811,1,0,0:0:0:0:
192,192,29984,1,0,0:0:0:0:
64,192,30158,1,2,0:2:0:0:
448,192,30158,128,0,30505:0:0:0:0:
320,192,30331,1,0,0:0:0:0:
64,192,30505,1,8,0:2:0:0:
192,192,30505,1,0,0:0:0:0:
320,192,30678,1,0,0:0:0:0:
448,192,30765,1,8,0:2:0:0:
64,192,30851,1,2,0:2:0:0:
192,192,30851,128,0,31025:0:0:0:0:
320,192,31025,128,0,31198:0:0:0:0:
64,192,31198,128,8,31372:0:2:0:0:
448,192,31198,1,0,0:0:0:0:
192,192,31372,128,0,31545:0:0:0:0:
320,192,31545,1,2,0:2:0:0:
448,192,31545,128,0,31892:0:0:0:0:
192,192,31718,1,0,0:0:0:0:
64,192,31892,1,8,0:2:0:0:
320,192,31892,1,0,0:0:0:0:
192,192,32065,128,0,32412:0:0:0:0:
320,192,32152,1,8,0:2:0:0:
64,192,32239,1,2,0:2:0:0:
448,192,32239,1,0,0:0:0:0:
320,192,32412,128,0,32759:0:0:0:0:
64,192,32585,1,8,0:2:0:0:
192,192,32585,1,0,0:0:0:0:
64,192,32759,128,0,33106:0:0:0:0:
320,192,32932,1,2,0:2:0:0:
448,192,32932,1,0,0:0:0:0:
192,192,33106,128,0,33279:0:0:0:0:
64,192,33279,1,8,0:2:0:0:
448,192,33279,1,0,0:0:0:0:
320,192,33453,128,0,33626:0:0:0:0:
64,192,33626,1,2,0:2:0:0:
192,192,33626,1,0,0:0:0:0:
448,192,33799,128,0,33973:0:0:0:0:
64,192,33973,1,8,0:2:0:0:
192,192,33973,128,0,34146:0:0:0:0:
448,192,34146,128,0,34320:0:0:0:0:
64,192,34320,128,2,34666:0:2:0:0:
320,192,34320,1,0,0:0:0:0:
320,192,34493,1,0,0:0:0:0:
192,192,34666,1,8,0:2:0:0:
448,192,34666,1,0,0:0:0:0:
320,192,34840,128,0,35013:0:0:0:0:
192,192,34927,1,8,0:2:0:0:
64,192,35013,1,2,0:2:0:0:
448,192,35013,1,0,0:0:0:0:
192,192,35187,128,0,35360:0:0:0:0:
320,192,35360,1,8,0:2:0:0:
448,192,35360,1,0,0:0:0:0:
64,192,35533,128,0,35880:0:0:0:0:
192,192,35707,1,2,0:2:0:0:
320,192,35707,1,0,0:0:0:0:
448,192,35880,128,0,36054:0:0:0:0:
64,192,36054,1,8,0:2:0:0:
192,192,36054,128,0,36227:0:0:0:0:
448,192,36227,128,0,36401:0:0:0:0:
64,192,36401,1,2,0:2:0:0:
320,192,36401,128,0,36747:0:0:0:0:
192,192,36574,1,0,0:0:0:0:
64,192,36747,128,8,37094:0:2:0:0:
448,192,36747,1,0,0:0:0:0:
320,192,36921,1,0,0:0:0:0:
192,192,37094,1,2,0:2:0:0:
448,192,37094,128,0,37441:0:0:0:0:
192,192,37268,1,0,0:0:0:0:
64,192,37441,1,8,0:2:0:0:
320,192,37441,1,0,0:0:0:0:
192,192,37614,128,0,37788:0:0:0:0:
320,192,37701,1,8,0:2:0:0:
64,192,37788,1,2,0:2:0:0:
448,192,37788,1,0,0:0:0:0:
320,192,37961,128,0,38135:0:0:0:0:
64,192,38135,1,8,0:2:0:0:
192,192,38135,1,0,0:0:0:0:
448,192,38308,128,0,38655:0:0:0:0:
192,192,38481,1,2,0:2:0:0:
320,192,38481,1,0,0:0:0:0:
64,192,38655,128,0,38828:0:0:0:0:
320,192,38828,128,8,39002:0:2:0:0:
448,192,38828,1,0,0:0:0:0:
64,192,39002,128,0,39175:0:0:0:0:
192,192,39175,128,2,39522:0:2:0:0:
448,192,39175,1,0,0:0:0:0:
320,192,39348,1,0,0:0:0:0:
64,192,39522,1,8,0:2:0:0:
448,192,39522,128,0,39869:0:0:0:0:
192,192,39695,1,0,0:0:0:0:
64,192,39869,128,2,40216:0:2:0:0:
320,192,39869,1,0,0:0:0:0:
448,192,40042,1,0,0:0:0:0:
192,192,40216,1,8,0:2:0:0:
320,192,40216,1,0,0:0:0:0:
64,192,40389,1,0,0:0:0:0:
192,192,40476,1,8,0:2:0:0:
320,192,40562,1,2,0:2:0:0:
448,192,40562,1,0,0:0:0:0:
64,192,40736,1,0,0:0:0:0:
192,192,40909,128,8,41083:0:2:0:0:
320,192,40909,1,0,0:0:0:0:
64,192,41083,1,0,0:0:0:0:
192,192,41256,1,2,0:2:0:0:
448,192,41256,128,0,41429:0:0:0:0:
320,192,41429,1,0,0:0:0:0:
64,192,41603,128,8,41776:0:2:0:0:
448,192,41603,1,0,0:0:0:0:
320,192,41776,1,0,0:0:0:0:
192,192,41863,1,8,0:2:0:0:
320,192,41950,128,2,42123:0:2:0:0:
448,192,41950,1,0,0:0:0:0:
64,192,42123,1,0,0:0:0:0:
192,192,42296,128,8,42470:0:2:0:0:
448,192,42296,1,0,0:0:0:0:
320,192,42470,128,0,42643:0:0:0:0:
64,192,42643,128,2,42990:0:2:0:0:
448,192,42643,1,0,0:0:0:0:
192,192,42817,1,0,0:0:0:0:
320,192,42990,1,8,0:2:0:0:
448,192,42990,1,0,0:0:0:0:
64,192,43164,1,0,0:0:0:0:
192,192,43337,1,2,0:2:0:0:
448,192,43337,128,0,43684:0:0:0:0:
320,192,43510,1,0,0:0:0:0:
64,192,43684,1,8,0:2:0:0:
192,192,43684,1,0,0:0:0:0:
448,192,43857,1,0,0:0:0:0:
64,192,44031,1,2,0:2:0:0:
192,192,44031,128,0,44204:0:0:0:0:
320,192,44204,128,0,44377:0:0:0:0:
64,192,44377,1,8,0:2:0:0:
448,192,44377,1,0,0:0:0:0:
192,192,44551,128,0,44724:0:0:0:0:
64,192,44724,1,2,0:2:0:0:
448,192,44724,1,0,0:0:0:0:
320,192,44898,1,8,0:2:0:0:
448,192,44898,1,0,0:0:0:0:
64,192,45071,1,8,0:2:0:0:
192,192,45071,1,2,0:2:0:0:
320,192,45244,1,8,0:2:0:0:
448,192,45244,1,0,0:0:0:0:
64,192,45418,1,2,0:2:0:0:
192,192,45418,1,4,0:2:0:0:
448,192,45418,128,0,45765:0:0:0:0:
320,192,45591,1,0,0:0:0:0:
64,192,45765,1,8,0:2:0:0:
192,192,45765,1,0,0:0:0:0:
320,192,45938,1,0,0:0:0:70:hat.wav
64,192,46111,128,2,46458:0:2:0:0:
448,192,46111,1,0,0:0:0:0:
192,192,46285,1,0,0:0:0:70:hat.wav
320,192,46458,1,8,0:2:0:0:
448,192,46458,1,0,0:0:0:0:
192,192,46632,1,0,0:0:0:70:hat.wav
64,192,46805,1,2,0:2:0:0:
448,192,46805,128,0,47152:0:0:0:0:
320,192,46979,1,0,0:0:0:70:hat.wav
64,192,47152,1,8,0:2:0:0:
192,192,47152,1,0,0:0:0:0:
320,192,47325,1,0,0:0:0:70:hat.wav
448,192,47412,1,8,0:2:0:0:
64,192,47499,1,2,0:2:0:0:
192,192,47499,128,0,47672:0:0:0:0:
320,192,47672,128,0,47846:0:0:0:70:hat.wav
64,192,47846,128,8,48019:0:2:0:0:
448,192,47846,1,0,0:0:0:0:
192,192,48019,128,0,48192:0:0:0:70:hat.wav
320,192,48192,1,2,0:2:0:0:
448,192,48192,128,0,48539:0:0:0:0:
192,192,48366,1,0,0:0:0:70:hat.wav
64,192,48539,1,8,0:2:0:0:
320,192,48539,1,0,0:0:0:0:
192,192,48713,128,0,49059:0:0:0:70:hat.wav
320,192,48799,1,8,0:2:0:0:
64,192,48886,1,2,0:2:0:0:
448,192,48886,1,0,0:0:0:0:
320,192,49059,128,0,49406:0:0:0:70:hat.wav
64,192,49233,1,8,0:2:0:0:
192,192,49233,1,0,0:0:0:0:
64,192,49406,128,0,49753:0:0:0:70:hat.wav
320,192,49580,1,2,0:2:0:0:
448,192,49580,1,0,0:0:0:0:
192,192,49753,128,0,49927:0:0:0:70:hat.wav
64,192,49927,1,8,0:2:0:0:
448,192,49927,1,0,0:0:0:0:
320,192,50100,128,0,50273:0:0:0:70:hat.wav
64,192,50273,1,2,0:2:0:0:
192,192,50273,1,0,0:0:0:0:
448,192,50447,128,0,50620:0:0:0:70:hat.wav
64,192,50620,1,8,0:2:0:0:
192,192,50620,128,0,50794:0:0:0:0:
448,192,50794,128,0,50967:0:0:0:70:hat.wav
64,192,50967,128,2,51314:0:2:0:0:
320,192,50967,1,0,0:0:0:0:
192,192,51140,1,0,0:0:0:70:hat.wav
320,192,51314,1,8,0:2:0:0:
448,192,51314,1,0,0:0:0:0:
192,192,51487,1,0,0:0:0:70:hat.wav
320,192,51574,1,8,0:2:0:0:
64,192,51661,1,2,0:2:0:0:
448,192,51661,128,0,52007:0:0:0:0:
320,192,51834,1,0,0:0:0:70:hat.wav
64,192,52007,1,8,0:2:0:0:
192,192,52007,1,0,0:0:0:0:
320,192,52181,1,0,0:0:0:70:hat.wav
64,192,52354,128,2,52701:0:2:0:0:
448,192,52354,1,0,0:0:0:0:
192,192,52528,1,0,0:0:0:70:hat.wav
320,192,52701,1,8,0:2:0:0:
448,192,52701,1,0,0:0:0:0:
64,192,52874,128,0,53048:0:0:0:70:hat.wav
320,192,53048,128,2,53221:0:2:0:0:
448,192,53048,1,0,0:0:0:0:
192,192,53221,128,0,53395:0:0:0:70:hat.wav
64,192,53395,1,8,0:2:0:0:
448,192,53395,128,0,53568:0:0:0:0:
320,192,53568,128,0,53742:0:0:0:70:hat.wav
64,192,53742,128,2,54088:0:2:0:0:
192,192,53742,1,0,0:0:0:0:
320,192,53915,1,0,0:0:0:70:hat.wav
192,192,54088,1,8,0:2:0:0:
448,192,54088,1,0,0:0:0:0:
320,192,54262,128,0,54609:0:0:0:70:hat.wav
192,192,54348,1,8,0:2:0:0:
64,192,54435,1,2,0:2:0:0:
448,192,54435,1,0,0:0:0:0:
192,192,54609,128,0,54955:0:0:0:70:hat.wav
320,192,54782,1,8,0:2:0:0:
448,192,54782,1,0,0:0:0:0:
448,192,54955,128,0,55302:0:0:0:70:hat.wav
64,192,55129,1,2,0:2:0:0:
192,192,55129,1,0,0:0:0:0:
320,192,55302,128,0,55476:0:0:0:70:hat.wav
64,192,55476,1,8,0:2:0:0:
448,192,55476,1,0,0:0:0:0:
192,192,55649,128,0,55822:0:0:0:70:hat.wav
320,192,55822,1,2,0:2:0:0:
448,192,55822,1,0,0:0:0:0:
64,192,55996,128,0,56169:0:0:0:70:hat.wav
320,192,56169,128,8,56343:0:2:0:0:
448,192,56169,1,0,0:0:0:0:
64,192,56343,128,0,56516:0:0:0:70:hat.wav
192,192,56516,1,2,0:2:0:0:
448,192,56516,128,0,56863:0:0:0:0:
192,192,56690,1,0,0:0:0:70:hat.wav
64,192,56863,1,8,0:2:0:0:
320,192,56863,1,0,0:0:0:0:
192,192,57036,128,0,57210:0:0:0:70:hat.wav
320,192,57123,1,8,0:2:0:0:
64,192,57210,1,2,0:2:0:0:
448,192,57210,1,0,0:0:0:0:
320,192,57383,128,0,57557:0:0:0:70:hat.wav
64,192,57557,1,8,0:2:0:0:
192,192,57557,1,0,0:0:0:0:
448,192,57730,128,0,58077:0:0:0:70:hat.wav
192,192,57903,1,2,0:2:0:0:
320,192,57903,1,0,0:0:0:0:
64,192,58077,128,0,58250:0:0:0:70:hat.wav
320,192,58250,128,8,58424:0:2:0:0:
448,192,58250,1,0,0:0:0:0:
64,192,58424,128,0,58597:0:0:0:70:hat.wav
192,192,58597,128,2,58944:0:2:0:0:
448,192,58597,1,0,0:0:0:0:
320,192,58770,1,0,0:0:0:70:hat.wav
64,192,58944,1,8,0:2:0:0:
448,192,58944,128,0,59291:0:0:0:0:
192,192,59117,1,0,0:0:0:70:hat.wav
64,192,59291,128,2,59638:0:2:0:0:
320,192,59291,1,0,0:0:0:0:
320,192,59464,1,0,0:0:0:70:hat.wav
192,192,59638,1,8,0:2:0:0:
448,192,59638,1,0,0:0:0:0:
320,192,59811,128,0,59984:0:0:0:70:hat.wav
192,192,59898,1,8,0:2:0:0:
64,192,59984,1,2,0:2:0:0:
448,192,59984,1,0,0:0:0:0:
192,192,60158,128,0,60331:0:0:0:70:hat.wav
320,192,60331,1,8,0:2:0:0:
448,192,60331,1,0,0:0:0:0:
64,192,60505,128,0,60851:0:0:0:70:hat.wav
192,192,60678,1,2,0:2:0:0:
320,192,60678,1,0,0:0:0:0:
448,192,60851,128,0,61025:0:0:0:70:hat.wav
64,192,61025,1,8,0:2:0:0:
192,192,61025,128,0,61198:0:0:0:0:
448,192,61198,128,0,61372:0:0:0:70:hat.wav
64,192,61372,1,2,0:2:0:0:
320,192,61372,128,0,61718:0:0:0:0:
192,192,61545,1,0,0:0:0:70:hat.wav
64,192,61718,128,8,62065:0:2:0:0:
448,192,61718,1,0,0:0:0:0:
320,192,61892,1,0,0:0:0:70:hat.wav
192,192,62065,1,2,0:2:0:0:
448,192,62065,128,0,62412:0:0:0:0:
64,192,62239,1,0,0:0:0:70:hat.wav
192,192,62412,1,8,0:2:0:0:
320,192,62412,1,0,0:0:0:0:
448,192,62585,1,0,0:0:0:70:hat.wav
320,192,62672,1,8,0:2:0:0:
64,192,62759,1,2,0:2:0:0:
192,192,62759,1,0,0:0:0:0:
448,192,62932,1,0,0:0:0:70:hat.wav
192,192,63106,1,8,0:2:0:0:
320,192,63106,128,0,63279:0:0:0:0:
448,192,63279,1,0,0:0:0:70:hat.wav
64,192,63453,128,2,63626:0:2:0:0:
320,192,63453,1,0,0:0:0:0:
192,192,63626,1,0,0:0:0:70:hat.wav
64,192,63799,1,8,0:2:0:0:
448,192,63799,128,0,63973:0:0:0:0:
192,192,63973,1,0,0:0:0:70:hat.wav
320,192,64059,1,8,0:2:0:0:
64,192,64146,1,2,0:2:0:0:
192,192,64146,128,0,64320:0:0:0:0:
448,192,64320,1,0,0:0:0:70:hat.wav
64,192,64493,1,8,0:2:0:0:
320,192,64493,128,0,64666:0:0:0:0:
192,192,64666,128,0,64840:0:0:0:70:hat.wav
64,192,64840,1,2,0:2:0:0:
448,192,64840,1,0,0:0:0:0:
448,192,65013,128,0,65187:0:0:0:70:hat.wav
64,192,65187,1,8,0:2:0:0:
320,192,65187,1,0,0:0:0:0:
192,192,65360,1,0,0:0:0:70:hat.wav
64,192,65533,128,2,65880:0:2:0:0:
448,192,65533,1,0,0:0:0:0:
320,192,65707,1,0,0:0:0:70:hat.wav
192,192,65880,1,8,0:2:0:0:
448,192,65880,1,0,0:0:0:0:
320,192,66054,128,0,66227:0:0:0:70:hat.wav
64,192,66227,1,2,0:2:0:0:
448,192,66227,1,0,0:0:0:0:
64,192,66401,1,8,0:2:0:0:
192,192,66401,1,0,0:0:0:0:
320,192,66574,1,8,0:2:0:0:
448,192,66574,1,0,0:0:0:0:
192,192,66747,1,0,0:0:0:0:
320,192,66921,1,2,0:2:0:0:
448,192,66921,1,0,0:0:0:0:
64,192,67094,1,8,0:2:0:0:
192,192,67094,1,0,0:0:0:0:
64,192,67268,1,8,0:2:0:0:
192,192,67268,1,2,0:2:0:0:
320,192,67441,1,8,0:2:0:0:
192,192,67528,1,8,0:2:0:0:
64,192,67614,1,2,0:2:0:0:
320,192,67614,1,4,0:2:0:0:
448,192,67614,128,0,67961:0:0:0:0:
192,192,68135,128,2,68308:0:2:0:0:
448,192,68135,1,0,0:0:0:0:
64,192,68308,1,8,0:2:0:0:
320,192,68308,128,0,68481:0:0:0:70:Hihat.wav
64,192,68655,128,2,68828:0:2:0:0:
192,192,68655,1,0,0:0:0:0:
320,192,68828,1,2,0:2:0:0:
448,192,68828,128,0,69002:0:0:0:0:
64,192,69175,1,2,0:2:0:0:
192,192,69175,1,0,0:0:0:0:
448,192,69435,1,2,0:2:0:0:
192,192,69522,1,2,0:2:0:0:
320,192,69522,1,0,0:0:0:0:
64,192,69695,1,8,0:2:0:0:
448,192,69695,1,0,0:0:0:70:Hihat.wav
192,192,70042,1,2,0:2:0:0:
320,192,70042,1,0,0:0:0:0:
64,192,70216,128,0,70389:0:0:0:0:
320,192,70389,1,2,0:2:0:0:
448,192,70389,128,0,70736:0:0:0:70:Hihat.wav
192,192,70736,128,0,70909:0:0:0:0:
64,192,70909,1,2,0:2:0:0:
448,192,70909,1,0,0:0:0:0:
192,192,71083,1,8,0:2:0:0:
320,192,71083,128,0,71343:0:0:0:70:Hihat.wav
192,192,71343,1,2,0:2:0:0:
64,192,71429,128,0,71603:0:0:0:0:
320,192,71603,1,2,0:2:0:0:
448,192,71603,128,0,71950:0:0:0:0:
64,192,71950,1,8,0:2:0:0:
192,192,71950,1,0,0:0:0:0:
320,192,72123,1,2,0:2:0:0:
448,192,72123,1,0,0:0:0:0:
64,192,72296,1,2,0:2:0:0:
192,192,72296,1,0,0:0:0:0:
320,192,72470,1,2,0:2:0:0:
448,192,72470,1,0,0:0:0:70:Hihat.wav
192,192,72557,1,2,0:2:0:0:
320,192,72643,1,8,0:2:0:0:
448,192,72643,1,0,0:0:0:0:
64,192,72817,1,8,0:2:0:0:
192,192,72817,1,0,0:0:0:0:
64,192,72990,1,8,0:2:0:0:
192,192,72990,1,0,0:0:0:0:
64,192,73164,128,2,73510:0:2:0:0:
320,192,73164,1,4,0:2:0:0:
448,192,73164,1,0,0:0:0:0:
64,192,73684,1,2,0:2:0:0:
320,192,73684,128,0,73857:0:0:0:0:
192,192,73857,128,8,74031:0:2:0:0:
448,192,73857,1,0,0:0:0:70:Hihat.wav
320,192,74204,1,2,0:2:0:0:
448,192,74204,128,0,74377:0:0:0:0:
64,192,74377,128,2,74551:0:2:0:0:
192,192,74377,1,0,0:0:0:0:
320,192,74724,1,8,0:2:0:0:
448,192,74724,1,0,0:0:0:0:
192,192,74984,1,2,0:2:0:0:
320,192,75071,1,2,0:2:0:0:
448,192,75071,1,0,0:0:0:0:
64,192,75244,1,8,0:2:0:0:
448,192,75244,1,0,0:0:0:70:Hihat.wav
192,192,75418,1,2,0:2:0:0:
320,192,75418,1,0,0:0:0:0:
64,192,75591,1,8,0:2:0:0:
448,192,75591,1,0,0:0:0:70:Hihat.wav
192,192,75765,1,8,0:2:0:0:
320,192,75851,1,8,0:2:0:0:
64,192,75938,1,2,0:2:0:0:
192,192,75938,1,4,0:2:0:0:
448,192,75938,1,0,0:0:0:0:
448,192,76111,128,0,76285:0:0:0:0:
64,192,76285,1,8,0:2:0:0:
320,192,76285,128,0,76458:0:0:0:0:
192,192,76458,128,0,76632:0:0:0:0:
320,192,76632,1,2,0:2:0:0:
448,192,76632,1,0,0:0:0:0:
64,192,76805,128,0,76979:0:0:0:0:
192,192,76979,128,8,77152:0:2:0:0:
448,192,76979,1,0,0:0:0:0:
320,192,77152,128,0,77325:0:0:0:0:
64,192,77325,1,2,0:2:0:0:
192,192,77325,1,0,0:0:0:0:
448,192,77499,128,0,77672:0:0:0:0:
64,192,77672,1,8,0:2:0:0:
320,192,77672,128,0,77846:0:0:0:0:
192,192,77846,128,0,78019:0:0:0:0:
320,192,78019,1,2,0:2:0:0:
448,192,78019,1,0,0:0:0:0:
64,192,78192,128,0,78366:0:0:0:0:
192,192,78366,128,8,78539:0:2:0:0:
448,192,78366,1,0,0:0:0:0:
320,192,78539,128,0,78713:0:0:0:0:
64,192,78713,128,2,79059:0:2:0:0:
192,192,78713,1,8,0:2:0:0:
192,192,79059,128,0,79406:0:0:0:0:
320,192,79406,1,2,0:2:0:0:
448,192,79406,128,8,79753:0:2:0:0:
320,192,79753,128,0,79927:0:0:0:0:
64,192,79927,128,0,80100:0:0:0:0:
192,192,80100,128,8,80273:0:2:0:0:
448,192,80100,128,2,80273:0:2:0:0:
64,192,80447,128,8,80620:0:2:0:0:
320,192,80447,128,2,80620:0:2:0:0:
448,192,80707,1,8,0:2:0:0:
64,192,80794,1,8,0:2:0:0:
192,192,80794,1,0,0:0:0:0:
64,192,80967,1,8,0:2:0:0:
192,192,80967,1,0,0:0:0:0:
320,192,81140,1,8,0:2:0:0:
448,192,81140,1,0,0:0:0:0:
320,192,81314,1,8,0:2:0:0:
448,192,81314,1,0,0:0:0:0:
64,192,81487,128,2,81661:0:2:0:0:
192,192,81487,1,4,0:2:0:0:
448,192,81487,1,0,0:0:0:0:
320,192,81661,1,0,0:0:0:70:hat.wav
64,192,81834,1,8,0:2:0:0:
448,192,81834,1,2,0:2:0:0:
192,192,82007,1,0,0:0:0:70:hat.wav
320,192,82181,1,2,0:2:0:0:
448,192,82181,128,0,82354:0:0:0:0:
192,192,82354,1,0,0:0:0:70:hat.wav
64,192,82528,128,8,82701:0:2:0:0:
448,192,82528,1,2,0:2:0:0:
320,192,82701,1,0,0:0:0:70:hat.wav
192,192,82874,1,2,0:2:0:0:
448,192,82874,128,0,83048:0:0:0:0:
64,192,83048,1,0,0:0:0:70:hat.wav
192,192,83221,128,2,83395:0:2:0:0:
448,192,83221,1,8,0:2:0:0:
320,192,83395,128,0,83568:0:0:0:70:hat.wav
64,192,83568,1,2,0:2:0:0:
192,192,83568,1,0,0:0:0:0:
448,192,83742,128,0,84088:0:0:0:70:hat.wav
64,192,83915,1,8,0:2:0:0:
320,192,83915,1,2,0:2:0:0:
192,192,84088,1,0,0:0:0:70:hat.wav
64,192,84262,128,2,84435:0:2:0:0:
448,192,84262,1,0,0:0:0:0:
320,192,84435,1,0,0:0:0:70:hat.wav
192,192,84609,1,2,0:2:0:0:
448,192,84609,128,8,84782:0:2:0:0:
64,192,84782,128,0,84955:0:0:0:70:hat.wav
192,192,84955,1,2,0:2:0:0:
448,192,84955,1,0,0:0:0:0:
320,192,85129,128,0,85302:0:0:0:70:hat.wav
64,192,85302,1,8,0:2:0:0:
448,192,85302,1,2,0:2:0:0:
64,192,85476,128,0,85649:0:0:0:70:hat.wav
192,192,85649,128,2,85822:0:2:0:0:
448,192,85649,1,0,0:0:0:0:
320,192,85822,128,0,85996:0:0:0:70:hat.wav
64,192,85996,1,2,0:2:0:0:
448,192,85996,1,8,0:2:0:0:
64,192,86169,128,0,86343:0:0:0:70:hat.wav
192,192,86343,1,2,0:2:0:0:
320,192,86343,1,0,0:0:0:0:
320,192,86516,1,8,0:2:0:0:
448,192,86516,128,0,86690:0:0:0:70:hat.wav
64,192,86690,1,8,0:2:0:0:
192,192,86690,1,2,0:2:0:0:
320,192,86863,1,0,0:0:0:70:hat.wav
64,192,86950,1,8,0:2:0:0:
192,192,87036,128,2,87210:0:2:0:0:
448,192,87036,1,0,0:0:0:0:
320,192,87210,1,0,0:0:0:70:hat.wav
64,192,87383,1,2,0:2:0:0:
448,192,87383,1,8,0:2:0:0:
192,192,87557,1,0,0:0:0:70:hat.wav
64,192,87730,1,2,0:2:0:0:
320,192,87730,128,0,87903:0:0:0:0:
448,192,87903,1,0,0:0:0:70:hat.wav
192,192,88077,128,8,88250:0:2:0:0:
320,192,88077,1,2,0:2:0:0:
64,192,88250,1,0,0:0:0:70:hat.wav
320,192,88424,128,2,88597:0:2:0:0:
448,192,88424,1,0,0:0:0:0:
192,192,88597,1,0,0:0:0:70:hat.wav
64,192,88770,128,2,88944:0:2:0:0:
320,192,88770,1,8,0:2:0:0:
448,192,88944,128,0,89117:0:0:0:70:hat.wav
64,192,89117,1,2,0:2:0:0:
320,192,89117,1,0,0:0:0:0:
192,192,89291,128,0,89638:0:0:0:70:hat.wav
320,192,89464,1,8,0:2:0:0:
448,192,89464,1,2,0:2:0:0:
64,192,89638,1,0,0:0:0:70:hat.wav
192,192,89811,1,2,0:2:0:0:
448,192,89811,128,0,90158:0:0:0:0:
320,192,89984,1,0,0:0:0:70:hat.wav
64,192,90158,1,2,0:2:0:0:
192,192,90158,128,8,90331:0:2:0:0:
320,192,90331,128,0,90505:0:0:0:70:hat.wav
64,192,90505,1,2,0:2:0:0:
448,192,90505,1,0,0:0:0:0:
64,192,90678,128,0,90851:0:0:0:70:hat.wav
192,192,90851,1,8,0:2:0:0:
448,192,90851,1,2,0:2:0:0:
320,192,91025,128,0,91198:0:0:0:70:hat.wav
192,192,91198,128,2,91372:0:2:0:0:
448,192,91198,1,0,0:0:0:0:
64,192,91372,128,0,91545:0:0:0:70:hat.wav
320,192,91545,1,2,0:2:0:0:
448,192,91545,1,8,0:2:0:0:
64,192,91718,128,0,91892:0:0:0:70:hat.wav
192,192,91892,1,2,0:2:0:0:
320,192,91892,1,0,0:0:0:0:
320,192,92065,1,8,0:2:0:0:
448,192,92065,1,0,0:0:0:70:hat.wav
64,192,92239,1,8,0:2:0:0:
192,192,92239,1,2,0:2:0:0:
448,192,92412,1,8,0:2:0:0:
320,192,92499,1,8,0:2:0:0:
64,192,92585,128,2,92759:0:2:0:0:
192,192,92585,1,4,0:2:0:0:
448,192,92585,1,0,0:0:0:0:
320,192,92759,1,0,0:0:0:70:hat.wav
64,192,92932,1,2,0:2:0:0:
192,192,92932,1,8,0:2:0:0:
320,192,93106,1,0,0:0:0:70:hat.wav
64,192,93279,1,2,0:2:0:0:
448,192,93279,128,0,93453:0:0:0:0:
320,192,93453,1,0,0:0:0:70:hat.wav
192,192,93626,128,8,93799:0:2:0:0:
448,192,93626,1,2,0:2:0:0:
64,192,93799,1,0,0:0:0:70:hat.wav
320,192,93973,1,2,0:2:0:0:
448,192,93973,128,0,94146:0:0:0:0:
192,192,94146,1,0,0:0:0:70:hat.wav
64,192,94320,1,2,0:2:0:0:
448,192,94320,1,8,0:2:0:0:
192,192,94493,1,0,0:0:0:70:hat.wav
320,192,94666,128,2,94840:0:2:0:0:
448,192,94666,1,0,0:0:0:0:
192,192,94840,1,0,0:0:0:70:hat.wav
64,192,95013,128,8,95187:0:2:0:0:
448,192,95013,1,2,0:2:0:0:
320,192,95187,1,0,0:0:0:70:hat.wav
64,192,95360,1,2,0:2:0:0:
448,192,95360,128,0,95533:0:0:0:0:
320,192,95533,1,0,0:0:0:70:hat.wav
64,192,95707,1,2,0:2:0:0:
192,192,95707,128,8,95880:0:2:0:0:
448,192,95880,1,0,0:0:0:70:hat.wav
64,192,96054,128,2,96227:0:2:0:0:
192,192,96054,1,0,0:0:0:0:
320,192,96227,1,0,0:0:0:70:hat.wav
192,192,96401,128,8,96574:0:2:0:0:
448,192,96401,1,2,0:2:0:0:
64,192,96574,1,0,0:0:0:70:hat.wav
320,192,96747,128,2,96921:0:2:0:0:
448,192,96747,1,0,0:0:0:0:
192,192,96921,1,0,0:0:0:70:hat.wav
64,192,97094,1,2,0:2:0:0:
448,192,97094,1,8,0:2:0:0:
320,192,97268,1,0,0:0:0:70:hat.wav
64,192,97441,1,2,0:2:0:0:
448,192,97441,1,0,0:0:0:0:
320,192,97614,1,8,0:2:0:0:
448,192,97614,1,0,0:0:0:70:hat.wav
64,192,97788,1,8,0:2:0:0:
192,192,97788,1,2,0:2:0:0:
448,192,97961,1,8,0:2:0:0:
320,192,98048,1,8,0:2:0:0:
64,192,98135,1,2,0:2:0:0:
192,192,98135,1,0,0:0:0:0:
320,192,98308,1,0,0:0:0:70:hat.wav
192,192,98481,1,2,0:2:0:0:
448,192,98481,1,8,0:2:0:0:
320,192,98655,1,0,0:0:0:70:hat.wav
64,192,98828,1,2,0:2:0:0:
192,192,98828,128,0,99002:0:0:0:0:
448,192,99002,1,0,0:0:0:70:hat.wav
192,192,99175,1,8,0:2:0:0:
320,192,99175,128,2,99348:0:2:0:0:
64,192,99348,128,0,99522:0:0:0:70:hat.wav
320,192,99522,1,2,0:2:0:0:
448,192,99522,1,0,0:0:0:0:
192,192,99695,1,0,0:0:0:70:hat.wav
64,192,99869,1,2,0:2:0:0:
320,192,99869,1,8,0:2:0:0:
192,192,100042,1,0,0:0:0:70:hat.wav
320,192,100216,128,2,100389:0:2:0:0:
448,192,100216,1,0,0:0:0:0:
64,192,100389,1,0,0:0:0:70:hat.wav
192,192,100562,1,8,0:2:0:0:
448,192,100562,1,2,0:2:0:0:
64,192,100736,128,0,100909:0:0:0:70:hat.wav
320,192,100909,1,2,0:2:0:0:
448,192,100909,1,0,0:0:0:0:
192,192,101083,1,0,0:0:0:70:hat.wav
64,192,101256,1,2,0:2:0:0:
448,192,101256,128,8,101429:0:2:0:0:
320,192,101429,1,0,0:0:0:70:hat.wav
64,192,101603,128,2,101776:0:2:0:0:
448,192,101603,1,0,0:0:0:0:
192,192,101776,128,0,101950:0:0:0:70:hat.wav
64,192,101950,1,8,0:2:0:0:
448,192,101950,128,2,102123:0:2:0:0:
320,192,102123,128,0,102296:0:0:0:70:hat.wav
64,192,102296,1,2,0:2:0:0:
192,192,102296,1,8,0:2:0:0:
320,192,102470,1,8,0:2:0:0:
448,192,102470,1,2,0:2:0:0:
64,192,102643,1,8,0:2:0:0:
192,192,102643,1,2,0:2:0:0:
192,192,102990,1,2,0:2:0:0:
448,192,102990,1,0,0:0:0:0:
64,192,103164,1,8,0:2:0:0:
320,192,103164,1,0,0:0:0:0:
192,192,103337,1,8,0:2:0:0:
448,192,103337,1,2,0:2:0:0:
320,192,103510,1,8,0:2:0:0:
192,192,103597,1,8,0:2:0:0:
64,192,103684,1,2,0:2:0:0:
320,192,103684,1,4,0:2:0:0:
448,192,103684,128,0,103857:0:0:0:0:
192,192,103857,1,0,0:0:0:70:hat.wav
64,192,104031,1,2,0:2:0:0:
448,192,104031,1,8,0:2:0:0:
320,192,104204,1,0,0:0:0:70:hat.wav
64,192,104377,128,2,104551:0:2:0:0:
192,192,104377,1,0,0:0:0:0:
320,192,104551,1,0,0:0:0:70:hat.wav
64,192,104724,1,2,0:2:0:0:
448,192,104724,128,8,104898:0:2:0:0:
192,192,104898,1,0,0:0:0:70:hat.wav
64,192,105071,128,2,105244:0:2:0:0:
320,192,105071,1,0,0:0:0:0:
448,192,105244,1,0,0:0:0:70:hat.wav
64,192,105418,1,8,0:2:0:0:
320,192,105418,128,2,105591:0:2:0:0:
192,192,105591,128,0,105765:0:0:0:70:hat.wav
320,192,105765,1,2,0:2:0:0:
448,192,105765,1,0,0:0:0:0:
64,192,105938,128,0,106285:0:0:0:70:hat.wav
192,192,106111,1,2,0:2:0:0:
448,192,106111,1,8,0:2:0:0:
320,192,106285,1,0,0:0:0:70:hat.wav
64,192,106458,1,2,0:2:0:0:
448,192,106458,128,0,106632:0:0:0:0:
192,192,106632,1,0,0:0:0:70:hat.wav
64,192,106805,128,8,106979:0:2:0:0:
320,192,106805,1,2,0:2:0:0:
448,192,106979,128,0,107152:0:0:0:70:hat.wav
64,192,107152,1,2,0:2:0:0:
320,192,107152,1,0,0:0:0:0:
192,192,107325,128,0,107499:0:0:0:70:hat.wav
64,192,107499,1,2,0:2:0:0:
448,192,107499,1,8,0:2:0:0:
448,192,107672,128,0,107846:0:0:0:70:hat.wav
64,192,107846,1,2,0:2:0:0:
320,192,107846,128,0,108019:0:0:0:0:
192,192,108019,128,0,108192:0:0:0:70:hat.wav
64,192,108192,1,8,0:2:0:0:
448,192,108192,1,2,0:2:0:0:
448,192,108366,128,0,108539:0:0:0:70:hat.wav
192,192,108539,1,2,0:2:0:0:
320,192,108539,1,0,0:0:0:0:
64,192,108713,128,8,108886:0:2:0:0:
192,192,108713,1,0,0:0:0:70:hat.wav
320,192,108886,1,2,0:2:0:0:
448,192,108886,1,8,0:2:0:0:
192,192,109059,1,0,0:0:0:70:hat.wav
448,192,109146,1,8,0:2:0:0:
64,192,109233,1,2,0:2:0:0:
320,192,109233,128,0,109406:0:0:0:0:
192,192,109406,1,0,0:0:0:70:hat.wav
64,192,109580,1,8,0:2:0:0:
448,192,109580,1,2,0:2:0:0:
320,192,109753,1,0,0:0:0:70:hat.wav
192,192,109927,128,2,110100:0:2:0:0:
448,192,109927,1,0,0:0:0:0:
64,192,110100,1,0,0:0:0:70:hat.wav
192,192,110273,1,2,0:2:0:0:
320,192,110273,128,8,110447:0:2:0:0:
448,192,110447,1,0,0:0:0:70:hat.wav
64,192,110620,1,2,0:2:0:0:
192,192,110620,128,0,110794:0:0:0:0:
320,192,110794,1,0,0:0:0:70:hat.wav
192,192,110967,1,8,0:2:0:0:
448,192,110967,128,2,111140:0:2:0:0:
64,192,111140,128,0,111314:0:0:0:70:hat.wav
192,192,111314,1,2,0:2:0:0:
448,192,111314,1,0,0:0:0:0:
320,192,111487,128,0,111834:0:0:0:70:hat.wav
64,192,111661,1,2,0:2:0:0:
192,192,111661,1,8,0:2:0:0:
448,192,111834,1,0,0:0:0:70:hat.wav
64,192,112007,128,2,112354:0:2:0:0:
320,192,112007,1,0,0:0:0:0:
192,192,112181,1,0,0:0:0:70:hat.wav
320,192,112354,128,8,112528:0:2:0:0:
448,192,112354,1,2,0:2:0:0:
192,192,112528,128,0,112701:0:0:0:70:hat.wav
64,192,112701,1,2,0:2:0:0:
448,192,112701,128,0,112874:0:0:0:0:
320,192,112874,128,0,113048:0:0:0:70:hat.wav
64,192,113048,1,2,0:2:0:0:
448,192,113048,1,8,0:2:0:0:
192,192,113221,128,0,113395:0:0:0:70:hat.wav
64,192,113395,1,2,0:2:0:0:
320,192,113395,128,0,113568:0:0:0:0:
448,192,113568,128,0,113742:0:0:0:70:hat.wav
64,192,113742,1,8,0:2:0:0:
192,192,113742,1,2,0:2:0:0:
448,192,113915,128,0,114088:0:0:0:70:hat.wav
192,192,114088,1,2,0:2:0:0:
320,192,114088,1,0,0:0:0:0:
64,192,114262,1,8,0:2:0:0:
192,192,114262,1,0,0:0:0:70:hat.wav
320,192,114435,1,2,0:2:0:0:
448,192,114435,1,8,0:2:0:0:
64,192,114609,1,8,0:2:0:0:
192,192,114695,1,8,0:2:0:0:
64,192,114782,1,4,0:2:0:0:
320,192,114782,1,2,0:2:0:0:
448,192,114782,128,0,114955:0:0:0:0:
192,192,114955,1,0,0:0:0:70:hat.wav
320,192,115129,1,8,0:2:0:0:
448,192,115129,1,2,0:2:0:0:
192,192,115302,1,0,0:0:0:70:hat.wav
64,192,115476,128,2,115649:0:2:0:0:
448,192,115476,1,0,0:0:0:0:
192,192,115649,1,0,0:0:0:70:hat.wav
64,192,115822,1,2,0:2:0:0:
320,192,115822,128,8,115996:0:2:0:0:
448,192,115996,1,0,0:0:0:70:hat.wav
64,192,116169,128,2,116343:0:2:0:0:
192,192,116169,1,0,0:0:0:0:
320,192,116343,1,0,0:0:0:70:hat.wav
64,192,116516,1,8,0:2:0:0:
448,192,116516,1,2,0:2:0:0:
320,192,116690,1,0,0:0:0:70:hat.wav
64,192,116863,1,2,0:2:0:0:
192,192,116863,128,0,117036:0:0:0:0:
320,192,117036,1,0,0:0:0:70:hat.wav
64,192,117210,1,2,0:2:0:0:
448,192,117210,128,8,117383:0:2:0:0:
192,192,117383,1,0,0:0:0:70:hat.wav
64,192,117557,128,2,117730:0:2:0:0:
448,192,117557,1,0,0:0:0:0:
192,192,117730,1,0,0:0:0:70:hat.wav
320,192,117903,128,8,118077:0:2:0:0:
448,192,117903,1,2,0:2:0:0:
64,192,118077,1,0,0:0:0:70:hat.wav
320,192,118250,1,2,0:2:0:0:
448,192,118250,128,0,118424:0:0:0:0:
192,192,118424,1,0,0:0:0:70:hat.wav
64,192,118597,1,2,0:2:0:0:
320,192,118597,128,8,118770:0:2:0:0:
448,192,118770,1,0,0:0:0:70:hat.wav
64,192,118944,1,2,0:2:0:0:
192,192,118944,128,0,119117:0:0:0:0:
320,192,119117,1,0,0:0:0:70:hat.wav
64,192,119291,1,8,0:2:0:0:
448,192,119291,1,2,0:2:0:0:
192,192,119464,1,0,0:0:0:70:hat.wav
64,192,119638,1,2,0:2:0:0:
448,192,119638,1,0,0:0:0:0:
64,192,119811,1,8,0:2:0:0:
192,192,119811,1,0,0:0:0:70:hat.wav
320,192,119984,1,2,0:2:0:0:
448,192,119984,1,8,0:2:0:0:
64,192,120158,1,8,0:2:0:0:
192,192,120244,1,8,0:2:0:0:
320,192,120331,1,2,0:2:0:0:
448,192,120331,1,0,0:0:0:0:
64,192,120505,1,0,0:0:0:70:hat.wav
192,192,120678,1,8,0:2:0:0:
448,192,120678,1,2,0:2:0:0:
320,192,120851,1,0,0:0:0:70:hat.wav
192,192,120938,1,8,0:2:0:0:
64,192,121025,1,2,0:2:0:0:
448,192,121025,1,0,0:0:0:0:
320,192,121198,1,0,0:0:0:70:hat.wav
64,192,121372,1,2,0:2:0:0:
192,192,121372,128,8,121545:0:2:0:0:
448,192,121545,1,0,0:0:0:70:hat.wav
64,192,121718,1,2,0:2:0:0:
320,192,121718,128,0,121892:0:0:0:0:
192,192,121892,1,0,0:0:0:70:hat.wav
320,192,122065,1,8,0:2:0:0:
448,192,122065,128,2,122239:0:2:0:0:
192,192,122239,1,0,0:0:0:70:hat.wav
320,192,122325,1,8,0:2:0:0:
64,192,122412,128,2,122585:0:2:0:0:
448,192,122412,1,0,0:0:0:0:
192,192,122585,1,0,0:0:0:70:hat.wav
320,192,122759,1,2,0:2:0:0:
448,192,122759,128,8,122932:0:2:0:0:
192,192,122932,128,0,123106:0:0:0:70:hat.wav
64,192,123106,1,2,0:2:0:0:
448,192,123106,128,0,123279:0:0:0:0:
320,192,123279,1,0,0:0:0:70:hat.wav
192,192,123453,1,8,0:2:0:0:
448,192,123453,128,2,123626:0:2:0:0:
320,192,123626,1,0,0:0:0:70:hat.wav
64,192,123799,128,2,123973:0:2:0:0:
448,192,123799,1,0,0:0:0:0:
192,192,123973,128,0,124146:0:0:0:70:hat.wav
64,192,124146,1,2,0:2:0:0:
448,192,124146,128,8,124320:0:2:0:0:
320,192,124320,128,0,124493:0:0:0:70:hat.wav
64,192,124493,1,2,0:2:0:0:
192,192,124493,1,0,0:0:0:0:
448,192,124666,1,0,0:0:0:70:hat.wav
64,192,124840,1,8,0:2:0:0:
320,192,124840,1,2,0:2:0:0:
192,192,125013,1,0,0:0:0:70:hat.wav
64,192,125187,1,2,0:2:0:0:
448,192,125187,128,0,125360:0:0:0:0:
64,192,125360,1,8,0:2:0:0:
192,192,125360,1,0,0:0:0:0:
320,192,125533,1,8,0:2:0:0:
448,192,125533,1,2,0:2:0:0:
192,192,125707,1,8,0:2:0:0:
320,192,125794,1,8,0:2:0:0:
64,192,125880,128,2,127268:0:2:0:0:
192,192,125880,1,4,0:2:0:0:
448,192,125880,128,0,126574:0:0:0:0:
320,192,126921,128,0,127268:0:0:0:0:
192,192,127268,1,2,0:2:0:0:
448,192,127268,1,0,0:0:0:0:
64,192,127961,1,8,0:2:0:0:
192,192,127961,1,0,0:0:0:0:
320,192,128048,1,8,0:2:0:0:
448,192,128135,1,2,0:2:0:0:
192,192,128308,1,8,0:2:0:0:
448,192,128308,1,0,0:0:0:0:
64,192,128481,1,8,0:2:0:0:
192,192,128568,1,8,0:2:0:0:
64,192,128655,1,2,0:2:0:0:
320,192,128655,128,4,129002:0:2:0:0:
448,192,128655,1,0,0:0:0:0:
192,192,128828,1,0,0:0:0:70:hat.wav
64,192,129002,1,8,0:2:0:0:
448,192,129002,1,2,0:2:0:0:
320,192,129175,1,0,0:0:0:70:hat.wav
64,192,129348,1,2,0:2:0:0:
192,192,129348,1,0,0:0:0:0:
320,192,129522,1,0,0:0:0:70:hat.wav
64,192,129695,1,8,0:2:0:0:
448,192,129695,1,2,0:2:0:0:
192,192,129869,1,0,0:0:0:70:hat.wav
192,192,130042,128,2,130389:0:2:0:0:
448,192,130042,1,0,0:0:0:0:
320,192,130216,1,0,0:0:0:70:hat.wav
64,192,130389,1,8,0:2:0:0:
448,192,130389,128,2,130736:0:2:0:0:
320,192,130562,1,0,0:0:0:70:hat.wav
64,192,130736,128,2,131083:0:2:0:0:
192,192,130736,1,0,0:0:0:0:
448,192,130909,1,0,0:0:0:70:hat.wav
192,192,131083,1,8,0:2:0:0:
320,192,131083,128,2,131429:0:2:0:0:
64,192,131256,1,0,0:0:0:70:hat.wav
192,192,131429,128,2,131776:0:2:0:0:
448,192,131429,1,0,0:0:0:0:
64,192,131603,1,0,0:0:0:70:hat.wav
320,192,131776,1,8,0:2:0:0:
448,192,131776,1,2,0:2:0:0:
64,192,131950,1,0,0:0:0:70:hat.wav
64,192,132123,128,2,132470:0:2:0:0:
192,192,132123,1,0,0:0:0:0:
320,192,132296,1,0,0:0:0:70:hat.wav
192,192,132470,1,8,0:2:0:0:
448,192,132470,1,2,0:2:0:0:
320,192,132643,1,0,0:0:0:70:hat.wav
192,192,132730,1,0,0:0:0:0:
64,192,132817,1,2,0:2:0:0:
448,192,132817,1,0,0:0:0:0:
448,192,132990,1,0,0:0:0:70:hat.wav
192,192,133164,1,8,0:2:0:0:
320,192,133164,1,2,0:2:0:0:
320,192,133337,1,0,0:0:0:70:hat.wav
64,192,133510,128,2,133857:0:2:0:0:
192,192,133510,1,0,0:0:0:0:
448,192,133684,1,0,0:0:0:70:hat.wav
192,192,133857,1,8,0:2:0:0:
320,192,133857,128,2,134204:0:2:0:0:
64,192,134031,1,0,0:0:0:70:hat.wav
192,192,134204,128,2,134551:0:2:0:0:
448,192,134204,1,0,0:0:0:0:
320,192,134377,1,0,0:0:0:70:hat.wav
64,192,134551,1,8,0:2:0:0:
448,192,134551,1,2,0:2:0:0:
192,192,134724,1,0,0:0:0:70:hat.wav
320,192,134898,1,2,0:2:0:0:
448,192,134898,1,0,0:0:0:0:
192,192,135071,1,0,0:0:0:70:hat.wav
64,192,135244,1,8,0:2:0:0:
448,192,135244,1,2,0:2:0:0:
320,192,135418,1,0,0:0:0:70:hat.wav
64,192,135591,1,2,0:2:0:0:
320,192,135591,128,0,135938:0:0:0:0:
192,192,135765,1,0,0:0:0:70:hat.wav
64,192,135938,128,2,136285:0:2:0:0:
448,192,135938,1,8,0:2:0:0:
192,192,136111,1,0,0:0:0:70:hat.wav
320,192,136285,1,2,0:2:0:0:
448,192,136285,128,0,136632:0:0:0:0:
64,192,136458,1,0,0:0:0:70:hat.wav
192,192,136632,128,8,136979:0:2:0:0:
320,192,136632,1,2,0:2:0:0:
448,192,136805,1,0,0:0:0:70:hat.wav
64,192,136979,1,2,0:2:0:0:
320,192,136979,128,0,137325:0:0:0:0:
448,192,137152,1,0,0:0:0:70:hat.wav
64,192,137325,1,2,0:2:0:0:
192,192,137325,1,8,0:2:0:0:
448,192,137499,1,0,0:0:0:70:hat.wav
320,192,137672,1,2,0:2:0:0:
448,192,137672,128,0,138019:0:0:0:0:
192,192,137846,1,0,0:0:0:70:hat.wav
64,192,138019,1,8,0:2:0:0:
320,192,138019,1,2,0:2:0:0:
192,192,138192,128,0,138366:0:0:0:70:hat.wav
320,192,138366,1,2,0:2:0:0:
448,192,138366,1,0,0:0:0:0:
192,192,138539,1,8,0:2:0:0:
448,192,138539,1,0,0:0:0:70:hat.wav
64,192,138713,1,8,0:2:0:0:
320,192,138713,1,0,0:0:0:0:
192,192,138886,1,0,0:0:0:70:hat.wav
64,192,139059,1,8,0:2:0:0:
448,192,139059,1,2,0:2:0:0:
448,192,139233,1,0,0:0:0:70:hat.wav
320,192,139320,1,8,0:2:0:0:
64,192,139406,1,8,0:2:0:0:
192,192,139406,1,2,0:2:0:0:
320,192,139580,1,8,0:2:0:0:
448,192,139580,1,0,0:0:0:70:hat.wav
64,192,139753,1,2,0:2:0:0:
192,192,139753,128,4,140100:0:2:0:0:
448,192,139753,1,0,0:0:0:0:
320,192,139927,1,0,0:0:0:70:hat.wav
64,192,140100,1,2,0:2:0:0:
448,192,140100,1,8,0:2:0:0:
192,192,140273,1,0,0:0:0:70:hat.wav
320,192,140447,1,2,0:2:0:0:
448,192,140447,1,0,0:0:0:0:
192,192,140620,1,0,0:0:0:70:hat.wav
64,192,140794,1,2,0:2:0:0:
448,192,140794,1,8,0:2:0:0:
320,192,140967,1,0,0:0:0:70:hat.wav
64,192,141140,1,2,0:2:0:0:
320,192,141140,128,0,141487:0:0:0:0:
192,192,141314,1,0,0:0:0:70:hat.wav
64,192,141487,128,8,141834:0:2:0:0:
448,192,141487,1,2,0:2:0:0:
192,192,141661,1,0,0:0:0:70:hat.wav
320,192,141834,1,2,0:2:0:0:
448,192,141834,128,0,142181:0:0:0:0:
64,192,142007,1,0,0:0:0:70:hat.wav
192,192,142181,128,2,142528:0:2:0:0:
320,192,142181,1,8,0:2:0:0:
448,192,142354,1,0,0:0:0:70:hat.wav
64,192,142528,1,2,0:2:0:0:
320,192,142528,128,0,142874:0:0:0:0:
448,192,142701,1,0,0:0:0:70:hat.wav
64,192,142874,1,8,0:2:0:0:
192,192,142874,1,2,0:2:0:0:
448,192,143048,1,0,0:0:0:70:hat.wav
320,192,143221,1,2,0:2:0:0:
448,192,143221,128,0,143568:0:0:0:0:
192,192,143395,1,0,0:0:0:70:hat.wav
64,192,143568,1,2,0:2:0:0:
320,192,143568,1,8,0:2:0:0:
192,192,143742,1,0,0:0:0:70:hat.wav
320,192,143828,1,0,0:0:0:0:
64,192,143915,1,2,0:2:0:0:
448,192,143915,1,0,0:0:0:0:
448,192,144088,1,0,0:0:0:70:hat.wav
192,192,144262,1,8,0:2:0:0:
320,192,144262,1,2,0:2:0:0:
320,192,144435,1,0,0:0:0:70:hat.wav
64,192,144609,128,2,144955:0:2:0:0:
192,192,144609,1,0,0:0:0:0:
448,192,144782,1,0,0:0:0:70:hat.wav
192,192,144955,1,2,0:2:0:0:
320,192,144955,128,8,145302:0:2:0:0:
64,192,145129,1,0,0:0:0:70:hat.wav
192,192,145302,128,2,145649:0:2:0:0:
320,192,145476,1,0,0:0:0:70:hat.wav
64,192,145649,1,8,0:2:0:0:
448,192,145649,1,2,0:2:0:0:
192,192,145822,1,0,0:0:0:70:hat.wav
320,192,145996,1,2,0:2:0:0:
448,192,145996,1,0,0:0:0:0:
192,192,146169,1,0,0:0:0:70:hat.wav
64,192,146343,1,2,0:2:0:0:
448,192,146343,1,8,0:2:0:0:
320,192,146516,1,0,0:0:0:70:hat.wav
64,192,146690,1,2,0:2:0:0:
320,192,146690,128,0,147036:0:0:0:0:
192,192,146863,1,0,0:0:0:70:hat.wav
64,192,147036,128,8,147383:0:2:0:0:
448,192,147036,1,2,0:2:0:0:
192,192,147210,1,0,0:0:0:70:hat.wav
320,192,147383,1,2,0:2:0:0:
448,192,147383,128,0,147730:0:0:0:0:
64,192,147557,1,0,0:0:0:70:hat.wav
192,192,147730,128,2,148077:0:2:0:0:
320,192,147730,1,8,0:2:0:0:
448,192,147903,1,0,0:0:0:70:hat.wav
64,192,148077,1,2,0:2:0:0:
320,192,148077,128,0,148424:0:0:0:0:
448,192,148250,1,0,0:0:0:70:hat.wav
64,192,148424,1,8,0:2:0:0:
192,192,148424,1,2,0:2:0:0:
448,192,148597,1,0,0:0:0:70:hat.wav
320,192,148770,1,2,0:2:0:0:
448,192,148770,128,0,149117:0:0:0:0:
64,192,148944,1,0,0:0:0:70:hat.wav
192,192,149117,1,2,0:2:0:0:
320,192,149117,1,8,0:2:0:0:
192,192,149291,1,2,0:2:0:0:
320,192,149291,1,0,0:0:0:0:
64,192,149638,1,8,0:2:0:0:
448,192,149638,1,0,0:0:0:0:
320,192,149811,1,8,0:2:0:0:
448,192,149811,1,2,0:2:0:0:
192,192,149984,1,0,0:0:0:70:hat.wav
64,192,150158,1,8,0:2:0:0:
448,192,150158,1,2,0:2:0:0:
192,192,150331,1,0,0:0:0:0:
320,192,150418,1,8,0:2:0:0:
64,192,150505,1,8,0:2:0:0:
192,192,150505,1,0,0:0:0:0:
64,192,150678,1,8,0:2:0:0:
192,192,150678,1,0,0:0:0:0:
64,192,150851,1,2,0:2:0:0:
320,192,150851,1,4,0:2:0:0:
448,192,150851,1,0,0:0:0:0:
192,192,151198,1,8,0:2:0:0:
448,192,151198,1,0,0:0:0:0:
64,192,151545,1,2,0:2:0:0:
192,192,151545,1,0,0:0:0:0:
320,192,151718,1,2,0:2:0:0:
448,192,151718,1,0,0:0:0:0:
64,192,151892,1,8,0:2:0:0:
448,192,151892,1,0,0:0:0:0:
192,192,152065,1,2,0:2:0:0:
320,192,152065,1,0,0:0:0:0:
192,192,152412,1,2,0:2:0:0:
320,192,152412,1,0,0:0:0:0:
64,192,152585,1,8,0:2:0:0:
448,192,152585,1,0,0:0:0:0:
320,192,152932,1,2,0:2:0:0:
448,192,152932,1,0,0:0:0:0:
64,192,153106,1,2,0:2:0:0:
192,192,153106,1,0,0:0:0:0:
64,192,153279,1,8,0:2:0:0:
448,192,153279,1,0,0:0:0:0:
64,192,153626,1,2,0:2:0:0:
320,192,153626,1,0,0:0:0:70:hat.wav
320,192,153973,1,8,0:2:0:0:
448,192,153973,1,0,0:0:0:0:
192,192,154320,1,2,0:2:0:0:
448,192,154320,1,0,0:0:0:0:
64,192,154493,1,2,0:2:0:0:
320,192,154493,1,0,0:0:0:0:
192,192,154666,1,8,0:2:0:0:
320,192,154666,1,0,0:0:0:0:
64,192,154840,1,2,0:2:0:0:
448,192,154840,1,0,0:0:0:0:
64,192,155187,1,2,0:2:0:0:
448,192,155187,1,0,0:0:0:0:
192,192,155360,1,8,0:2:0:0:
320,192,155360,1,0,0:0:0:0:
64,192,155707,1,2,0:2:0:0:
320,192,155707,1,0,0:0:0:0:
192,192,155880,1,2,0:2:0:0:
448,192,155880,1,0,0:0:0:0:
192,192,156054,1,8,0:2:0:0:
320,192,156054,1,0,0:0:0:0:
64,192,156401,1,2,0:2:0:0:
192,192,156401,1,0,0:0:0:70:hat.wav
64,192,156747,1,8,0:2:0:0:
320,192,156747,1,0,0:0:0:0:
320,192,157094,1,2,0:2:0:0:
448,192,157094,1,0,0:0:0:0:
64,192,157268,1,2,0:2:0:0:
192,192,157268,1,0,0:0:0:0:
64,192,157441,1,8,0:2:0:0:
448,192,157441,1,0,0:0:0:0:
192,192,157614,1,2,0:2:0:0:
320,192,157614,1,0,0:0:0:0:
192,192,157961,1,2,0:2:0:0:
320,192,157961,1,0,0:0:0:0:
64,192,158135,1,8,0:2:0:0:
448,192,158135,1,0,0:0:0:0:
64,192,158481,1,2,0:2:0:0:
192,192,158481,1,0,0:0:0:0:
320,192,158655,1,2,0:2:0:0:
448,192,158655,1,0,0:0:0:0:
64,192,158828,1,8,0:2:0:0:
448,192,158828,1,0,0:0:0:0:
192,192,159175,1,2,0:2:0:0:
448,192,159175,1,0,0:0:0:70:hat.wav
64,192,159522,1,8,0:2:0:0:
192,192,159522,1,0,0:0:0:0:
64,192,159869,1,2,0:2:0:0:
320,192,159869,1,0,0:0:0:0:
192,192,160042,1,2,0:2:0:0:
448,192,160042,1,0,0:0:0:0:
192,192,160216,1,8,0:2:0:0:
320,192,160216,1,0,0:0:0:0:
64,192,160389,1,2,0:2:0:0:
448,192,160389,1,0,0:0:0:0:
64,192,160736,1,2,0:2:0:0:
448,192,160736,1,0,0:0:0:0:
192,192,160909,1,8,0:2:0:0:
320,192,160909,1,0,0:0:0:0:
192,192,161256,1,2,0:2:0:0:
448,192,161256,1,0,0:0:0:0:
64,192,161429,1,2,0:2:0:0:
320,192,161429,1,0,0:0:0:0:
192,192,161603,1,8,0:2:0:0:
320,192,161603,1,0,0:0:0:0:
64,192,161950,128,2,162296:0:2:0:0:
192,192,161950,1,0,0:0:0:0:
320,192,162296,1,8,0:2:0:0:
448,192,162296,1,0,0:0:0:0:
192,192,162470,128,0,162643:0:0:0:0:
64,192,162643,1,2,0:2:0:0:
448,192,162643,1,0,0:0:0:0:
192,192,162817,1,2,0:2:0:0:
320,192,162817,1,0,0:0:0:0:
64,192,162990,1,8,0:2:0:0:
448,192,162990,1,0,0:0:0:0:
192,192,163164,1,2,0:2:0:0:
320,192,163164,128,0,163510:0:0:0:0:
64,192,163510,1,2,0:2:0:0:
192,192,163510,1,0,0:0:0:0:
64,192,163684,1,8,0:2:0:0:
320,192,163684,1,0,0:0:0:0:
192,192,163857,1,0,0:0:0:0:
320,192,164031,128,2,164204:0:2:0:0:
448,192,164031,1,0,0:0:0:0:
64,192,164204,1,2,0:2:0:0:
192,192,164204,1,0,0:0:0:0:
192,192,164377,128,8,164551:0:2:0:0:
448,192,164377,1,0,0:0:0:0:
320,192,164724,1,2,0:2:0:0:
448,192,164724,128,0,165071:0:0:0:70:hat.wav
64,192,165071,1,8,0:2:0:0:
192,192,165071,1,0,0:0:0:0:
320,192,165244,128,0,165418:0:0:0:0:
64,192,165418,1,2,0:2:0:0:
448,192,165418,1,0,0:0:0:0:
192,192,165591,1,2,0:2:0:0:
320,192,165591,1,0,0:0:0:0:
64,192,165765,1,8,0:2:0:0:
448,192,165765,1,0,0:0:0:0:
192,192,165938,128,2,166285:0:2:0:0:
320,192,165938,1,0,0:0:0:0:
320,192,166285,1,2,0:2:0:0:
448,192,166285,1,0,0:0:0:0:
192,192,166458,1,8,0:2:0:0:
448,192,166458,1,0,0:0:0:0:
320,192,166632,1,0,0:0:0:0:
64,192,166805,1,2,0:2:0:0:
192,192,166805,128,0,166979:0:0:0:0:
320,192,166979,1,2,0:2:0:0:
448,192,166979,1,0,0:0:0:0:
64,192,167152,1,8,0:2:0:0:
448,192,167152,128,0,167499:0:0:0:0:
64,192,167499,128,2,167846:0:2:0:0:
320,192,167499,1,0,0:0:0:70:hat.wav
192,192,167846,1,8,0:2:0:0:
320,192,167846,1,0,0:0:0:0:
448,192,168019,1,0,0:0:0:0:
64,192,168192,1,2,0:2:0:0:
192,192,168192,1,0,0:0:0:0:
320,192,168366,1,2,0:2:0:0:
448,192,168366,1,0,0:0:0:0:
64,192,168539,1,8,0:2:0:0:
448,192,168539,1,0,0:0:0:0:
192,192,168713,1,2,0:2:0:0:
320,192,168713,1,0,0:0:0:0:
448,192,168886,128,0,169059:0:0:0:0:
64,192,169059,1,2,0:2:0:0:
320,192,169059,1,0,0:0:0:0:
64,192,169233,128,8,169406:0:2:0:0:
192,192,169233,1,0,0:0:0:0:
320,192,169406,1,0,0:0:0:0:
64,192,169580,1,2,0:2:0:0:
448,192,169580,128,0,169753:0:0:0:0:
192,192,169753,1,2,0:2:0:0:
320,192,169753,1,0,0:0:0:0:
192,192,169927,128,8,170273:0:2:0:0:
448,192,169927,1,0,0:0:0:0:
320,192,170100,1,0,0:0:0:0:
64,192,170273,1,2,0:2:0:0:
448,192,170273,1,0,0:0:0:70:hat.wav
64,192,170447,128,0,170620:0:0:0:0:
192,192,170620,1,8,0:2:0:0:
448,192,170620,1,0,0:0:0:0:
320,192,170794,1,0,0:0:0:0:
64,192,170967,1,2,0:2:0:0:
448,192,170967,128,0,171140:0:0:0:0:
192,192,171140,1,2,0:2:0:0:
320,192,171140,1,0,0:0:0:0:
64,192,171314,1,8,0:2:0:0:
448,192,171314,1,0,0:0:0:0:
192,192,171487,128,2,171661:0:2:0:0:
320,192,171487,1,0,0:0:0:0:
320,192,171834,1,8,0:2:0:0:
448,192,171834,1,2,0:2:0:0:
64,192,172007,1,8,0:2:0:0:
192,192,172007,1,0,0:0:0:0:
320,192,172181,1,0,0:0:0:0:
64,192,172354,1,2,0:2:0:0:
192,192,172354,1,0,0:0:0:0:
320,192,172528,1,8,0:2:0:0:
448,192,172528,1,0,0:0:0:0:
320,192,172701,1,8,0:2:0:0:
448,192,172701,1,2,0:2:0:0:
192,192,172874,1,8,0:2:0:0:
320,192,172961,1,8,0:2:0:0:
64,192,173048,128,2,173395:0:2:0:0:
192,192,173048,1,4,0:2:0:0:
448,192,173048,1,0,0:0:0:0:
64,192,173568,1,2,0:2:0:0:
320,192,173568,128,0,173742:0:0:0:0:
192,192,173742,128,8,173915:0:2:0:0:
448,192,173742,1,0,0:0:0:70:Hihat.wav
320,192,174088,1,2,0:2:0:0:
448,192,174088,128,0,174262:0:0:0:0:
64,192,174262,128,2,174435:0:2:0:0:
192,192,174262,1,0,0:0:0:0:
320,192,174609,1,2,0:2:0:0:
448,192,174609,1,0,0:0:0:0:
64,192,174869,1,2,0:2:0:0:
192,192,174955,1,2,0:2:0:0:
320,192,174955,1,0,0:0:0:0:
64,192,175129,1,8,0:2:0:0:
448,192,175129,1,0,0:0:0:70:Hihat.wav
192,192,175476,1,2,0:2:0:0:
320,192,175476,1,0,0:0:0:0:
448,192,175649,128,0,175822:0:0:0:0:
64,192,175822,128,2,176169:0:2:0:0:
192,192,175822,1,0,0:0:0:70:Hihat.wav
320,192,176169,128,0,176343:0:0:0:0:
64,192,176343,1,2,0:2:0:0:
448,192,176343,1,0,0:0:0:0:
192,192,176516,128,8,176776:0:2:0:0:
320,192,176516,1,0,0:0:0:70:Hihat.wav
320,192,176776,1,2,0:2:0:0:
448,192,176863,128,0,177036:0:0:0:0:
64,192,177036,128,2,177383:0:2:0:0:
192,192,177036,1,0,0:0:0:0:
320,192,177383,1,8,0:2:0:0:
448,192,177383,1,0,0:0:0:0:
64,192,177557,1,2,0:2:0:0:
192,192,177557,1,0,0:0:0:0:
320,192,177730,1,2,0:2:0:0:
448,192,177730,1,0,0:0:0:0:
64,192,177903,1,2,0:2:0:0:
192,192,177903,1,0,0:0:0:70:Hihat.wav
320,192,177990,1,2,0:2:0:0:
64,192,178077,1,8,0:2:0:0:
192,192,178077,1,0,0:0:0:0:
320,192,178250,1,8,0:2:0:0:
448,192,178250,1,0,0:0:0:0:
320,192,178424,1,8,0:2:0:0:
448,192,178424,1,0,0:0:0:0:
64,192,178597,1,4,0:2:0:0:
192,192,178597,1,2,0:2:0:0:
448,192,178597,128,0,178944:0:0:0:0:
192,192,179117,128,2,179291:0:2:0:0:
448,192,179117,1,0,0:0:0:0:
64,192,179291,1,8,0:2:0:0:
320,192,179291,128,0,179464:0:0:0:70:Hihat.wav
64,192,179638,128,2,179811:0:2:0:0:
192,192,179638,1,0,0:0:0:0:
320,192,179811,1,2,0:2:0:0:
448,192,179811,128,0,179984:0:0:0:0:
64,192,180158,1,8,0:2:0:0:
192,192,180158,1,0,0:0:0:0:
320,192,180418,1,2,0:2:0:0:
192,192,180505,1,2,0:2:0:0:
64,192,180678,1,8,0:2:0:0:
448,192,180678,1,0,0:0:0:70:Hihat.wav
192,192,180851,1,2,0:2:0:0:
320,192,180851,1,0,0:0:0:0:
64,192,181025,1,8,0:2:0:0:
448,192,181025,1,0,0:0:0:70:Hihat.wav
320,192,181198,1,8,0:2:0:0:
192,192,181285,1,8,0:2:0:0:
64,192,181372,1,4,0:2:0:0:
320,192,181372,1,2,0:2:0:0:
448,192,181372,1,0,0:0:0:0:
64,192,181545,128,0,181718:0:0:0:0:
192,192,181718,128,8,181892:0:2:0:0:
448,192,181718,1,0,0:0:0:0:
320,192,181892,128,0,182065:0:0:0:0:
64,192,182065,1,2,0:2:0:0:
192,192,182065,1,0,0:0:0:0:
448,192,182239,128,0,182412:0:0:0:0:
64,192,182412,1,8,0:2:0:0:
320,192,182412,128,0,182585:0:0:0:0:
192,192,182585,128,0,182759:0:0:0:0:
320,192,182759,1,2,0:2:0:0:
448,192,182759,1,0,0:0:0:0:
64,192,182932,128,0,183106:0:0:0:0:
192,192,183106,128,8,183279:0:2:0:0:
448,192,183106,1,0,0:0:0:0:
320,192,183279,128,0,183453:0:0:0:0:
64,192,183453,1,2,0:2:0:0:
192,192,183453,1,0,0:0:0:0:
448,192,183626,128,0,183799:0:0:0:0:
64,192,183799,1,8,0:2:0:0:
320,192,183799,128,0,183973:0:0:0:0:
192,192,183973,128,0,184146:0:0:0:0:
320,192,184146,1,8,0:2:0:0:
448,192,184146,128,2,184493:0:2:0:0:
320,192,184493,128,0,184840:0:0:0:0:
64,192,184840,128,8,185187:0:2:0:0:
192,192,184840,1,2,0:2:0:0:
192,192,185187,128,0,185360:0:0:0:0:
448,192,185360,128,0,185533:0:0:0:0:
64,192,185533,128,2,185707:0:2:0:0:
320,192,185533,128,8,185707:0:2:0:0:
192,192,185880,128,2,186054:0:2:0:0:
448,192,185880,128,8,186054:0:2:0:0:
64,192,186140,1,8,0:2:0:0:
320,192,186227,1,8,0:2:0:0:
448,192,186227,1,0,0:0:0:0:
320,192,186401,1,8,0:2:0:0:
448,192,186401,1,0,0:0:0:0:
64,192,186574,1,8,0:2:0:0:
192,192,186574,1,0,0:0:0:0:
64,192,186747,1,8,0:2:0:0:
192,192,186747,1,0,0:0:0:0:
64,192,186921,1,4,0:2:0:0:
320,192,186921,1,2,0:2:0:0:
448,192,186921,128,0,187094:0:0:0:0:
192,192,187094,1,0,0:0:0:70:hat.wav
64,192,187268,1,2,0:2:0:0:
448,192,187268,1,8,0:2:0:0:
320,192,187441,1,0,0:0:0:70:hat.wav
64,192,187614,128,2,187788:0:2:0:0:
192,192,187614,1,0,0:0:0:0:
320,192,187788,1,0,0:0:0:70:hat.wav
64,192,187961,1,2,0:2:0:0:
448,192,187961,128,8,188135:0:2:0:0:
192,192,188135,1,0,0:0:0:70:hat.wav
64,192,188308,128,2,188481:0:2:0:0:
320,192,188308,1,0,0:0:0:0:
448,192,188481,1,0,0:0:0:70:hat.wav
64,192,188655,1,8,0:2:0:0:
320,192,188655,128,2,188828:0:2:0:0:
192,192,188828,128,0,189002:0:0:0:70:hat.wav
320,192,189002,1,2,0:2:0:0:
448,192,189002,1,0,0:0:0:0:
64,192,189175,128,0,189522:0:0:0:70:hat.wav
192,192,189348,1,2,0:2:0:0:
448,192,189348,1,8,0:2:0:0:
320,192,189522,1,0,0:0:0:70:hat.wav
64,192,189695,1,2,0:2:0:0:
448,192,189695,128,0,189869:0:0:0:0:
192,192,189869,1,0,0:0:0:70:hat.wav
64,192,190042,128,8,190216:0:2:0:0:
320,192,190042,1,2,0:2:0:0:
448,192,190216,128,0,190389:0:0:0:70:hat.wav
64,192,190389,1,2,0:2:0:0:
320,192,190389,1,0,0:0:0:0:
192,192,190562,128,0,190736:0:0:0:70:hat.wav
64,192,190736,1,2,0:2:0:0:
448,192,190736,1,8,0:2:0:0:
448,192,190909,128,0,191083:0:0:0:70:hat.wav
64,192,191083,1,2,0:2:0:0:
320,192,191083,128,0,191256:0:0:0:0:
192,192,191256,128,0,191429:0:0:0:70:hat.wav
64,192,191429,1,8,0:2:0:0:
448,192,191429,1,2,0:2:0:0:
448,192,191603,128,0,191776:0:0:0:70:hat.wav
192,192,191776,1,2,0:2:0:0:
320,192,191776,1,0,0:0:0:0:
64,192,191950,128,8,192123:0:2:0:0:
192,192,191950,1,0,0:0:0:70:hat.wav
320,192,192123,1,2,0:2:0:0:
448,192,192123,1,8,0:2:0:0:
192,192,192296,1,0,0:0:0:70:hat.wav
448,192,192383,1,8,0:2:0:0:
64,192,192470,1,2,0:2:0:0:
320,192,192470,128,0,192643:0:0:0:0:
192,192,192643,1,0,0:0:0:70:hat.wav
64,192,192817,1,8,0:2:0:0:
448,192,192817,1,2,0:2:0:0:
320,192,192990,1,0,0:0:0:70:hat.wav
192,192,193164,128,2,193337:0:2:0:0:
448,192,193164,1,0,0:0:0:0:
64,192,193337,1,0,0:0:0:70:hat.wav
192,192,193510,1,2,0:2:0:0:
320,192,193510,128,8,193684:0:2:0:0:
448,192,193684,1,0,0:0:0:70:hat.wav
64,192,193857,1,2,0:2:0:0:
192,192,193857,128,0,194031:0:0:0:0:
320,192,194031,1,0,0:0:0:70:hat.wav
192,192,194204,1,8,0:2:0:0:
448,192,194204,128,2,194377:0:2:0:0:
64,192,194377,128,0,194551:0:0:0:70:hat.wav
192,192,194551,1,2,0:2:0:0:
448,192,194551,1,0,0:0:0:0:
320,192,194724,128,0,195071:0:0:0:70:hat.wav
64,192,194898,1,2,0:2:0:0:
192,192,194898,1,8,0:2:0:0:
448,192,195071,1,0,0:0:0:70:hat.wav
64,192,195244,128,2,195591:0:2:0:0:
320,192,195244,1,0,0:0:0:0:
192,192,195418,1,0,0:0:0:70:hat.wav
320,192,195591,128,8,195765:0:2:0:0:
448,192,195591,1,2,0:2:0:0:
192,192,195765,128,0,195938:0:0:0:70:hat.wav
64,192,195938,1,2,0:2:0:0:
448,192,195938,1,0,0:0:0:0:
448,192,196111,128,0,196285:0:0:0:70:hat.wav
64,192,196285,1,2,0:2:0:0:
320,192,196285,1,8,0:2:0:0:
192,192,196458,128,0,196632:0:0:0:70:hat.wav
64,192,196632,1,2,0:2:0:0:
320,192,196632,128,0,196805:0:0:0:0:
448,192,196805,128,0,196979:0:0:0:70:hat.wav
64,192,196979,1,8,0:2:0:0:
192,192,196979,1,2,0:2:0:0:
448,192,197152,128,0,197325:0:0:0:70:hat.wav
192,192,197325,1,2,0:2:0:0:
320,192,197325,1,0,0:0:0:0:
64,192,197499,1,8,0:2:0:0:
192,192,197499,1,0,0:0:0:70:hat.wav
320,192,197672,1,2,0:2:0:0:
448,192,197672,1,8,0:2:0:0:
64,192,197846,1,8,0:2:0:0:
192,192,197932,1,8,0:2:0:0:
64,192,198019,1,4,0:2:0:0:
320,192,198019,1,2,0:2:0:0:
448,192,198019,128,0,198192:0:0:0:0:
192,192,198192,1,0,0:0:0:70:hat.wav
320,192,198366,1,8,0:2:0:0:
448,192,198366,1,2,0:2:0:0:
192,192,198539,1,0,0:0:0:70:hat.wav
64,192,198713,128,2,198886:0:2:0:0:
448,192,198713,1,0,0:0:0:0:
192,192,198886,1,0,0:0:0:70:hat.wav
64,192,199059,1,2,0:2:0:0:
320,192,199059,128,8,199233:0:2:0:0:
448,192,199233,1,0,0:0:0:70:hat.wav
64,192,199406,128,2,199580:0:2:0:0:
192,192,199406,1,0,0:0:0:0:
320,192,199580,1,0,0:0:0:70:hat.wav
64,192,199753,1,8,0:2:0:0:
448,192,199753,1,2,0:2:0:0:
320,192,199927,1,0,0:0:0:70:hat.wav
64,192,200100,1,2,0:2:0:0:
192,192,200100,128,0,200273:0:0:0:0:
320,192,200273,1,0,0:0:0:70:hat.wav
64,192,200447,1,2,0:2:0:0:
448,192,200447,128,8,200620:0:2:0:0:
192,192,200620,1,0,0:0:0:70:hat.wav
64,192,200794,128,2,200967:0:2:0:0:
448,192,200794,1,0,0:0:0:0:
192,192,200967,1,0,0:0:0:70:hat.wav
320,192,201140,128,8,201314:0:2:0:0:
448,192,201140,1,2,0:2:0:0:
64,192,201314,1,0,0:0:0:70:hat.wav
320,192,201487,1,2,0:2:0:0:
448,192,201487,128,0,201661:0:0:0:0:
192,192,201661,1,0,0:0:0:70:hat.wav
64,192,201834,1,2,0:2:0:0:
320,192,201834,128,8,202007:0:2:0:0:
448,192,202007,1,0,0:0:0:70:hat.wav
64,192,202181,1,2,0:2:0:0:
192,192,202181,128,0,202354:0:0:0:0:
320,192,202354,1,0,0:0:0:70:hat.wav
64,192,202528,1,8,0:2:0:0:
448,192,202528,1,2,0:2:0:0:
192,192,202701,1,0,0:0:0:70:hat.wav
64,192,202874,1,2,0:2:0:0:
448,192,202874,1,0,0:0:0:0:
64,192,203048,1,8,0:2:0:0:
192,192,203048,1,0,0:0:0:70:hat.wav
320,192,203221,1,2,0:2:0:0:
448,192,203221,1,8,0:2:0:0:
64,192,203395,1,8,0:2:0:0:
192,192,203481,1,8,0:2:0:0:
320,192,203568,1,2,0:2:0:0:
448,192,203568,1,0,0:0:0:0:
192,192,203742,1,0,0:0:0:70:hat.wav
64,192,203915,1,8,0:2:0:0:
320,192,203915,1,2,0:2:0:0:
192,192,204088,1,0,0:0:0:70:hat.wav
320,192,204262,128,2,204435:0:2:0:0:
448,192,204262,1,0,0:0:0:0:
64,192,204435,1,0,0:0:0:70:hat.wav
192,192,204609,128,2,204782:0:2:0:0:
320,192,204609,1,8,0:2:0:0:
448,192,204782,128,0,204955:0:0:0:70:hat.wav
64,192,204955,1,2,0:2:0:0:
192,192,204955,1,0,0:0:0:0:
320,192,205129,1,0,0:0:0:70:hat.wav
192,192,205302,1,8,0:2:0:0:
448,192,205302,1,2,0:2:0:0:
320,192,205476,1,0,0:0:0:70:hat.wav
64,192,205649,1,2,0:2:0:0:
192,192,205649,128,0,205822:0:0:0:0:
448,192,205822,1,0,0:0:0:70:hat.wav
64,192,205996,1,2,0:2:0:0:
320,192,205996,1,8,0:2:0:0:
448,192,206169,128,0,206343:0:0:0:70:hat.wav
64,192,206343,1,2,0:2:0:0:
192,192,206343,1,0,0:0:0:0:
320,192,206516,1,0,0:0:0:70:hat.wav
64,192,206690,128,8,206863:0:2:0:0:
448,192,206690,1,2,0:2:0:0:
192,192,206863,1,0,0:0:0:70:hat.wav
64,192,207036,1,2,0:2:0:0:
448,192,207036,128,0,207210:0:0:0:0:
320,192,207210,128,0,207383:0:0:0:70:hat.wav
64,192,207383,128,2,207557:0:2:0:0:
448,192,207383,1,8,0:2:0:0:
192,192,207557,128,0,207730:0:0:0:70:hat.wav
320,192,207730,1,8,0:2:0:0:
448,192,207730,1,2,0:2:0:0:
64,192,207903,1,2,0:2:0:0:
192,192,207903,1,8,0:2:0:0:
320,192,208077,1,2,0:2:0:0:
448,192,208077,1,8,0:2:0:0:
64,192,208424,1,2,0:2:0:0:
320,192,208424,1,0,0:0:0:0:
192,192,208597,1,8,0:2:0:0:
448,192,208597,1,0,0:0:0:0:
64,192,208770,1,2,0:2:0:0:
320,192,208770,1,8,0:2:0:0:
192,192,208944,1,8,0:2:0:0:
320,192,209031,1,8,0:2:0:0:
64,192,209117,128,4,209291:0:2:0:0:
192,192,209117,1,2,0:2:0:0:
448,192,209117,1,0,0:0:0:0:
320,192,209291,1,0,0:0:0:70:hat.wav
64,192,209464,1,8,0:2:0:0:
448,192,209464,1,2,0:2:0:0:
192,192,209638,1,0,0:0:0:70:hat.wav
320,192,209811,1,2,0:2:0:0:
448,192,209811,128,0,209984:0:0:0:0:
192,192,209984,1,0,0:0:0:70:hat.wav
64,192,210158,128,8,210331:0:2:0:0:
448,192,210158,1,2,0:2:0:0:
320,192,210331,1,0,0:0:0:70:hat.wav
192,192,210505,1,2,0:2:0:0:
448,192,210505,128,0,210678:0:0:0:0:
64,192,210678,1,0,0:0:0:70:hat.wav
192,192,210851,128,2,211025:0:2:0:0:
448,192,210851,1,8,0:2:0:0:
320,192,211025,128,0,211198:0:0:0:70:hat.wav
64,192,211198,1,2,0:2:0:0:
192,192,211198,1,0,0:0:0:0:
448,192,211372,128,0,211718:0:0:0:70:hat.wav
64,192,211545,1,8,0:2:0:0:
320,192,211545,1,2,0:2:0:0:
192,192,211718,1,0,0:0:0:70:hat.wav
64,192,211892,128,2,212065:0:2:0:0:
448,192,211892,1,0,0:0:0:0:
320,192,212065,1,0,0:0:0:70:hat.wav
192,192,212239,1,2,0:2:0:0:
448,192,212239,128,8,212412:0:2:0:0:
64,192,212412,128,0,212585:0:0:0:70:hat.wav
192,192,212585,1,2,0:2:0:0:
448,192,212585,1,0,0:0:0:0:
320,192,212759,128,0,212932:0:0:0:70:hat.wav
64,192,212932,1,8,0:2:0:0:
448,192,212932,1,2,0:2:0:0:
64,192,213106,128,0,213279:0:0:0:70:hat.wav
192,192,213279,128,2,213453:0:2:0:0:
448,192,213279,1,0,0:0:0:0:
320,192,213453,128,0,213626:0:0:0:70:hat.wav
64,192,213626,1,2,0:2:0:0:
448,192,213626,1,8,0:2:0:0:
64,192,213799,128,0,213973:0:0:0:70:hat.wav
192,192,213973,1,2,0:2:0:0:
320,192,213973,1,0,0:0:0:0:
320,192,214146,1,8,0:2:0:0:
448,192,214146,128,0,214320:0:0:0:70:hat.wav
64,192,214320,1,8,0:2:0:0:
192,192,214320,1,2,0:2:0:0:
320,192,214493,1,0,0:0:0:70:hat.wav
64,192,214580,1,8,0:2:0:0:
192,192,214666,128,2,214840:0:2:0:0:
448,192,214666,1,0,0:0:0:0:
320,192,214840,1,0,0:0:0:70:hat.wav
64,192,215013,1,2,0:2:0:0:
448,192,215013,1,8,0:2:0:0:
192,192,215187,1,0,0:0:0:70:hat.wav
64,192,215360,1,2,0:2:0:0:
320,192,215360,128,0,215533:0:0:0:0:
448,192,215533,1,0,0:0:0:70:hat.wav
192,192,215707,128,8,215880:0:2:0:0:
320,192,215707,1,2,0:2:0:0:
64,192,215880,1,0,0:0:0:70:hat.wav
320,192,216054,128,2,216227:0:2:0:0:
448,192,216054,1,0,0:0:0:0:
192,192,216227,1,0,0:0:0:70:hat.wav
64,192,216401,128,2,216574:0:2:0:0:
320,192,216401,1,8,0:2:0:0:
448,192,216574,128,0,216747:0:0:0:70:hat.wav
64,192,216747,1,2,0:2:0:0:
320,192,216747,1,0,0:0:0:0:
192,192,216921,128,0,217268:0:0:0:70:hat.wav
320,192,217094,1,8,0:2:0:0:
448,192,217094,1,2,0:2:0:0:
64,192,217268,1,0,0:0:0:70:hat.wav
192,192,217441,1,2,0:2:0:0:
448,192,217441,128,0,217788:0:0:0:0:
320,192,217614,1,0,0:0:0:70:hat.wav
64,192,217788,1,2,0:2:0:0:
192,192,217788,128,8,217961:0:2:0:0:
320,192,217961,128,0,218135:0:0:0:70:hat.wav
64,192,218135,128,2,218308:0:2:0:0:
448,192,218135,1,0,0:0:0:0:
192,192,218308,128,0,218481:0:0:0:70:hat.wav
64,192,218481,1,8,0:2:0:0:
448,192,218481,1,2,0:2:0:0:
320,192,218655,128,0,218828:0:0:0:70:hat.wav
192,192,218828,128,2,219002:0:2:0:0:
448,192,218828,1,0,0:0:0:0:
64,192,219002,128,0,219175:0:0:0:70:hat.wav
320,192,219175,1,2,0:2:0:0:
448,192,219175,1,8,0:2:0:0:
64,192,219348,128,0,219522:0:0:0:70:hat.wav
192,192,219522,1,2,0:2:0:0:
320,192,219522,1,0,0:0:0:0:
320,192,219695,1,8,0:2:0:0:
448,192,219695,1,0,0:0:0:70:hat.wav
64,192,219869,1,8,0:2:0:0:
192,192,219869,1,2,0:2:0:0:
448,192,220042,1,8,0:2:0:0:
320,192,220129,1,8,0:2:0:0:
64,192,220216,128,2,220389:0:2:0:0:
192,192,220216,1,4,0:2:0:0:
448,192,220216,1,0,0:0:0:0:
320,192,220389,1,0,0:0:0:70:hat.wav
64,192,220562,1,2,0:2:0:0:
192,192,220562,1,8,0:2:0:0:
320,192,220736,1,0,0:0:0:70:hat.wav
64,192,220909,1,2,0:2:0:0:
448,192,220909,128,0,221083:0:0:0:0:
320,192,221083,1,0,0:0:0:70:hat.wav
192,192,221256,128,8,221429:0:2:0:0:
448,192,221256,1,2,0:2:0:0:
64,192,221429,1,0,0:0:0:70:hat.wav
320,192,221603,1,2,0:2:0:0:
448,192,221603,128,0,221776:0:0:0:0:
192,192,221776,1,0,0:0:0:70:hat.wav
64,192,221950,1,2,0:2:0:0:
448,192,221950,1,8,0:2:0:0:
192,192,222123,1,0,0:0:0:70:hat.wav
320,192,222296,128,2,222470:0:2:0:0:
448,192,222296,1,0,0:0:0:0:
192,192,222470,1,0,0:0:0:70:hat.wav
64,192,222643,128,8,222817:0:2:0:0:
448,192,222643,1,2,0:2:0:0:
320,192,222817,1,0,0:0:0:70:hat.wav
64,192,222990,1,2,0:2:0:0:
448,192,222990,128,0,223164:0:0:0:0:
320,192,223164,1,0,0:0:0:70:hat.wav
64,192,223337,1,2,0:2:0:0:
192,192,223337,128,8,223510:0:2:0:0:
448,192,223510,1,0,0:0:0:70:hat.wav
64,192,223684,128,2,223857:0:2:0:0:
192,192,223684,1,0,0:0:0:0:
320,192,223857,1,0,0:0:0:70:hat.wav
192,192,224031,128,8,224204:0:2:0:0:
448,192,224031,1,2,0:2:0:0:
64,192,224204,1,0,0:0:0:70:hat.wav
320,192,224377,128,2,224551:0:2:0:0:
448,192,224377,1,0,0:0:0:0:
192,192,224551,1,0,0:0:0:70:hat.wav
64,192,224724,1,2,0:2:0:0:
448,192,224724,1,8,0:2:0:0:
320,192,224898,1,0,0:0:0:70:hat.wav
64,192,225071,1,2,0:2:0:0:
448,192,225071,1,0,0:0:0:0:
320,192,225244,1,8,0:2:0:0:
448,192,225244,1,0,0:0:0:70:hat.wav
64,192,225418,1,8,0:2:0:0:
192,192,225418,1,2,0:2:0:0:
448,192,225591,1,8,0:2:0:0:
320,192,225678,1,8,0:2:0:0:
64,192,225765,1,2,0:2:0:0:
192,192,225765,1,0,0:0:0:0:
448,192,225938,1,0,0:0:0:70:hat.wav
64,192,226111,1,2,0:2:0:0:
320,192,226111,1,8,0:2:0:0:
192,192,226285,1,0,0:0:0:70:hat.wav
320,192,226372,1,8,0:2:0:0:
64,192,226458,1,2,0:2:0:0:
448,192,226458,1,0,0:0:0:0:
192,192,226632,1,0,0:0:0:70:hat.wav
320,192,226805,128,8,226979:0:2:0:0:
448,192,226805,1,2,0:2:0:0:
64,192,226979,1,0,0:0:0:70:hat.wav
192,192,227152,128,2,227325:0:2:0:0:
448,192,227152,1,0,0:0:0:0:
320,192,227325,1,0,0:0:0:70:hat.wav
64,192,227499,128,2,227672:0:2:0:0:
192,192,227499,1,8,0:2:0:0:
320,192,227672,1,0,0:0:0:70:hat.wav
192,192,227759,1,8,0:2:0:0:
64,192,227846,1,2,0:2:0:0:
448,192,227846,128,0,228019:0:0:0:0:
320,192,228019,1,0,0:0:0:70:hat.wav
64,192,228192,128,8,228366:0:2:0:0:
192,192,228192,1,2,0:2:0:0:
320,192,228366,128,0,228539:0:0:0:70:hat.wav
64,192,228539,128,2,228713:0:2:0:0:
448,192,228539,1,0,0:0:0:0:
192,192,228713,1,0,0:0:0:70:hat.wav
64,192,228886,128,2,229059:0:2:0:0:
320,192,228886,1,8,0:2:0:0:
192,192,229059,1,0,0:0:0:70:hat.wav
64,192,229233,1,2,0:2:0:0:
448,192,229233,128,0,229406:0:0:0:0:
320,192,229406,128,0,229580:0:0:0:70:hat.wav
64,192,229580,128,8,229753:0:2:0:0:
448,192,229580,1,2,0:2:0:0:
192,192,229753,128,0,229927:0:0:0:70:hat.wav
320,192,229927,1,2,0:2:0:0:
448,192,229927,1,0,0:0:0:0:
64,192,230100,1,0,0:0:0:70:hat.wav
192,192,230273,1,2,0:2:0:0:
448,192,230273,1,8,0:2:0:0:
320,192,230447,1,0,0:0:0:70:hat.wav
64,192,230620,128,2,230794:0:2:0:0:
448,192,230620,1,0,0:0:0:0:
320,192,230794,1,8,0:2:0:0:
448,192,230794,1,0,0:0:0:0:
64,192,230967,1,2,0:2:0:0:
192,192,230967,1,8,0:2:0:0:
320,192,231140,1,8,0:2:0:0:
192,192,231227,1,8,0:2:0:0:
64,192,231314,128,4,232007:0:2:0:0:
320,192,231314,1,2,0:2:0:0:
448,192,231314,128,0,232701:0:0:0:0:
192,192,232354,128,0,232701:0:0:0:0:
64,192,232701,1,2,0:2:0:0:
320,192,232701,1,0,0:0:0:0:
448,192,233742,1,0,0:0:0:0:
320,192,233828,1,0,0:0:0:0:
192,192,233915,1,0,0:0:0:0:
64,192,234002,1,0,0:0:0:0:
192,192,234088,1,2,0:2:0:0:
320,192,234088,1,4,0:2:0:0:
448,192,234088,1,0,0:0:0:0:
320,192,234435,1,8,0:2:0:0:
192,192,234551,1,8,0:2:0:0:
320,192,234666,1,8,0:2:0:0:
64,192,234782,1,8,0:2:0:0:
192,192,234782,1,0,0:0:0:0:
320,192,235013,1,8,0:2:0:0:
448,192,235013,1,0,0:0:0:0:
64,192,235244,1,8,0:2:0:0:
192,192,235244,1,0,0:0:0:0:
64,192,235476,1,8,0:2:0:0:
448,192,235476,1,0,0:0:0:0:
320,192,235822,1,8,0:2:0:0:
192,192,235938,1,8,0:2:0:0:
320,192,236169,1,8,0:2:0:0:
448,192,236169,1,0,0:0:0:0:
64,192,236401,1,8,0:2:0:0:
192,192,236401,1,0,0:0:0:0:
320,192,236632,1,8,0:2:0:0:
448,192,236632,1,0,0:0:0:0:
64,192,236863,1,8,0:2:0:0:
448,192,236863,1,0,0:0:0:0:
192,192,237210,1,8,0:2:0:0:
320,192,237325,1,8,0:2:0:0:
192,192,237441,1,8,0:2:0:0:
64,192,237557,1,8,0:2:0:0:
320,192,237557,1,0,0:0:0:0:
192,192,237788,1,8,0:2:0:0:
448,192,237788,1,0,0:0:0:0:
64,192,238019,1,8,0:2:0:0:
320,192,238019,1,0,0:0:0:0:
192,192,238250,1,8,0:2:0:0:
320,192,238250,1,0,0:0:0:0:
448,192,238366,1,8,0:2:0:0:
64,192,238597,1,8,0:2:0:0:
320,192,238597,1,0,0:0:0:0:
192,192,238713,1,8,0:2:0:0:
192,192,238944,1,8,0:2:0:0:
448,192,238944,1,0,0:0:0:0:
64,192,239175,1,8,0:2:0:0:
320,192,239175,1,0,0:0:0:0:
192,192,239406,1,8,0:2:0:0:
448,192,239406,1,0,0:0:0:0:
64,192,239638,128,4,241025:0:2:0:0:
448,192,239638,1,8,0:2:0:0:
192,192,239984,1,8,0:2:0:0:
320,192,240100,1,8,0:2:0:0:
320,192,240331,1,8,0:2:0:0:
448,192,240331,1,0,0:0:0:0:
320,192,240562,1,8,0:2:0:0:
192,192,240794,1,8,0:2:0:0:
448,192,240794,1,0,0:0:0:0:
320,192,241025,1,8,0:2:0:0:
448,192,241025,128,0,242412:0:0:0:0:
192,192,241140,1,8,0:2:0:0:
320,192,241372,1,8,0:2:0:0:
192,192,241487,1,8,0:2:0:0:
64,192,241718,1,8,0:2:0:0:
192,192,241718,1,0,0:0:0:0:
192,192,241950,1,8,0:2:0:0:
64,192,242181,1,8,0:2:0:0:
320,192,242181,1,0,0:0:0:0:
64,192,242412,1,8,0:2:0:0:
192,192,242412,128,0,243799:0:0:0:0:
448,192,242759,1,8,0:2:0:0:
64,192,242874,1,8,0:2:0:0:
320,192,243106,1,8,0:2:0:0:
448,192,243106,1,0,0:0:0:0:
320,192,243337,1,8,0:2:0:0:
64,192,243568,1,8,0:2:0:0:
448,192,243568,1,0,0:0:0:0:
320,192,243799,128,8,245187:0:2:0:0:
448,192,243799,1,0,0:0:0:0:
64,192,243915,1,8,0:2:0:0:
64,192,244146,1,8,0:2:0:0:
192,192,244146,1,0,0:0:0:0:
448,192,244262,1,8,0:2:0:0:
64,192,244493,1,8,0:2:0:0:
192,192,244493,1,0,0:0:0:0:
192,192,244724,1,8,0:2:0:0:
64,192,244955,1,8,0:2:0:0:
448,192,244955,1,0,0:0:0:0:
64,192,245187,128,12,245880:0:2:0:0:
192,192,245187,1,2,0:2:0:0:
448,192,245533,1,8,0:2:0:0:
192,192,245649,1,8,0:2:0:0:
320,192,245880,128,8,246574:0:2:0:0:
448,192,245880,1,2,0:2:0:0:
64,192,246111,1,8,0:2:0:0:
192,192,246111,1,0,0:0:0:0:
448,192,246343,1,8,0:2:0:0:
192,192,246574,128,8,247268:0:2:0:0:
448,192,246574,1,2,0:2:0:0:
320,192,246690,1,8,0:2:0:0:
64,192,246921,1,8,0:2:0:0:
320,192,247036,1,8,0:2:0:0:
64,192,247268,1,8,0:2:0:0:
448,192,247268,128,2,247961:0:2:0:0:
192,192,247499,1,8,0:2:0:0:
64,192,247730,1,8,0:2:0:0:
320,192,247730,1,0,0:0:0:0:
64,192,247961,128,8,248655:0:2:0:0:
192,192,247961,1,2,0:2:0:0:
448,192,248308,1,8,0:2:0:0:
192,192,248424,1,8,0:2:0:0:
320,192,248655,1,8,0:2:0:0:
448,192,248655,128,2,249348:0:2:0:0:
192,192,248886,1,8,0:2:0:0:
64,192,249117,1,8,0:2:0:0:
320,192,249117,1,0,0:0:0:0:
192,192,249348,128,8,250042:0:2:0:0:
320,192,249348,1,2,0:2:0:0:
448,192,249464,1,8,0:2:0:0:
64,192,249695,1,8,0:2:0:0:
448,192,249811,1,8,0:2:0:0:
320,192,250042,1,2,0:2:0:0:
448,192,250042,1,8,0:2:0:0:
192,192,250273,1,2,0:2:0:0:
320,192,250273,1,8,0:2:0:0:
320,192,250505,1,2,0:2:0:0:
448,192,250505,1,8,0:2:0:0:
64,192,250736,1,2,0:2:0:0:
192,192,250736,1,4,0:2:0:0:
448,192,250736,1,0,0:0:0:0:
320,192,250909,1,8,0:2:0:0:
64,192,251083,1,2,0:2:0:0:
448,192,251083,1,0,0:0:0:70:hat.wav
64,192,251256,1,8,0:2:0:0:
192,192,251256,1,0,0:0:0:0:
320,192,251429,1,2,0:2:0:0:
448,192,251429,1,0,0:0:0:70:hat.wav
64,192,251603,1,8,0:2:0:0:
448,192,251603,1,0,0:0:0:0:
192,192,251776,1,2,0:2:0:0:
320,192,251776,1,0,0:0:0:70:hat.wav
192,192,251950,1,8,0:2:0:0:
448,192,251950,1,0,0:0:0:0:
320,192,252123,1,2,0:2:0:0:
448,192,252123,1,0,0:0:0:70:hat.wav
64,192,252296,1,8,0:2:0:0:
320,192,252296,1,0,0:0:0:0:
64,192,252470,1,2,0:2:0:0:
192,192,252470,1,0,0:0:0:70:hat.wav
320,192,252643,1,8,0:2:0:0:
448,192,252643,1,0,0:0:0:0:
64,192,252817,1,2,0:2:0:0:
448,192,252817,1,0,0:0:0:70:hat.wav
64,192,252990,1,8,0:2:0:0:
192,192,252990,1,0,0:0:0:0:
192,192,253164,1,2,0:2:0:0:
320,192,253164,1,0,0:0:0:70:hat.wav
320,192,253337,1,8,0:2:0:0:
448,192,253337,1,0,0:0:0:0:
64,192,253510,1,2,0:2:0:0:
448,192,253510,1,4,0:2:0:0:
64,192,253684,1,8,0:2:0:0:
320,192,253684,1,0,0:0:0:0:
192,192,253857,1,2,0:2:0:0:
448,192,253857,1,0,0:0:0:70:hat.wav
320,192,254031,1,8,0:2:0:0:
448,192,254031,1,0,0:0:0:0:
64,192,254204,1,2,0:2:0:0:
192,192,254204,1,0,0:0:0:70:hat.wav
320,192,254377,1,8,0:2:0:0:
448,192,254377,1,0,0:0:0:0:
64,192,254551,1,2,0:2:0:0:
192,192,254551,1,0,0:0:0:70:hat.wav
320,192,254724,1,8,0:2:0:0:
448,192,254724,1,0,0:0:0:0:
192,192,254898,1,2,0:2:0:0:
448,192,254898,1,0,0:0:0:70:hat.wav
192,192,255071,1,8,0:2:0:0:
448,192,255071,1,2,0:2:0:0:
64,192,255244,1,2,0:2:0:0:
320,192,255244,1,0,0:0:0:70:hat.wav
64,192,255418,1,8,0:2:0:0:
320,192,255418,1,2,0:2:0:0:
192,192,255591,1,0,0:0:0:70:hat.wav
448,192,255591,1,2,0:2:0:0:
320,192,255678,1,8,0:2:0:0:
192,192,255765,1,8,0:2:0:0:
448,192,255765,1,0,0:0:0:0:
64,192,255938,1,0,0:0:0:70:hat.wav
320,192,255938,1,2,0:2:0:0:
64,192,256111,1,8,0:2:0:0:
320,192,256111,1,2,0:2:0:0:
192,192,256285,1,8,0:2:0:0:
448,192,256285,128,2,256979:0:2:0:0:
192,192,256805,128,0,256979:0:0:0:0:
64,192,256979,128,8,257672:0:2:0:0:
320,192,256979,1,2,0:2:0:0:
320,192,257499,128,0,257672:0:0:0:0:
192,192,257672,1,10,0:2:0:0:
448,192,257672,128,4,258886:0:2:0:0:
64,192,258019,1,8,0:2:0:0:
320,192,258019,1,0,0:0:0:0:
320,192,258279,1,8,0:2:0:0:
64,192,258366,1,8,0:2:0:0:
192,192,258366,1,0,0:0:0:0:
320,192,258539,1,8,0:2:0:0:
64,192,258713,1,8,0:2:0:0:
192,192,258713,1,0,0:0:0:0:
320,192,258886,1,8,0:2:0:0:
64,192,259059,1,2,0:2:0:0:
448,192,259059,1,0,0:0:0:0:
64,192,259233,1,8,0:2:0:0:
320,192,259233,1,0,0:0:0:0:
192,192,259406,1,8,0:2:0:0:
448,192,259406,1,0,0:0:0:0:
64,192,259580,1,8,0:2:0:0:
320,192,259580,1,0,0:0:0:0:
448,192,259753,128,0,259927:0:0:0:0:
192,192,259927,128,0,260100:0:0:0:0:
320,192,260100,128,0,260447:0:0:0:0:
64,192,260447,128,2,260620:0:2:0:0:
192,192,260447,1,4,0:2:0:0:
448,192,260447,1,0,0:0:0:0:
320,192,260620,1,0,0:0:0:70:hat.wav
64,192,260794,1,2,0:2:0:0:
448,192,260794,1,8,0:2:0:0:
192,192,260967,1,0,0:0:0:70:hat.wav
320,192,261140,1,2,0:2:0:0:
448,192,261140,128,0,261314:0:0:0:0:
192,192,261314,1,0,0:0:0:70:hat.wav
64,192,261487,128,2,261661:0:2:0:0:
448,192,261487,1,8,0:2:0:0:
320,192,261661,1,0,0:0:0:70:hat.wav
192,192,261834,1,2,0:2:0:0:
448,192,261834,128,0,262007:0:0:0:0:
64,192,262007,1,0,0:0:0:70:hat.wav
192,192,262181,128,8,262354:0:2:0:0:
448,192,262181,1,2,0:2:0:0:
320,192,262354,128,0,262528:0:0:0:70:hat.wav
64,192,262528,1,2,0:2:0:0:
192,192,262528,1,0,0:0:0:0:
448,192,262701,128,0,263048:0:0:0:70:hat.wav
64,192,262874,1,2,0:2:0:0:
320,192,262874,1,8,0:2:0:0:
192,192,263048,1,0,0:0:0:70:hat.wav
64,192,263221,128,2,263395:0:2:0:0:
448,192,263221,1,0,0:0:0:0:
320,192,263395,1,0,0:0:0:70:hat.wav
192,192,263568,1,8,0:2:0:0:
448,192,263568,128,2,263742:0:2:0:0:
64,192,263742,128,0,263915:0:0:0:70:hat.wav
192,192,263915,1,2,0:2:0:0:
448,192,263915,1,0,0:0:0:0:
320,192,264088,128,0,264262:0:0:0:70:hat.wav
64,192,264262,1,2,0:2:0:0:
448,192,264262,1,8,0:2:0:0:
64,192,264435,128,0,264609:0:0:0:70:hat.wav
192,192,264609,128,2,264782:0:2:0:0:
448,192,264609,1,0,0:0:0:0:
320,192,264782,128,0,264955:0:0:0:70:hat.wav
64,192,264955,1,8,0:2:0:0:
448,192,264955,1,2,0:2:0:0:
64,192,265129,128,0,265302:0:0:0:70:hat.wav
192,192,265302,1,2,0:2:0:0:
320,192,265302,1,0,0:0:0:0:
320,192,265476,1,8,0:2:0:0:
448,192,265476,128,0,265649:0:0:0:70:hat.wav
64,192,265649,1,2,0:2:0:0:
192,192,265649,1,8,0:2:0:0:
320,192,265822,1,0,0:0:0:70:hat.wav
64,192,265909,1,8,0:2:0:0:
192,192,265996,128,2,266169:0:2:0:0:
448,192,265996,1,0,0:0:0:0:
320,192,266169,1,0,0:0:0:70:hat.wav
64,192,266343,1,8,0:2:0:0:
448,192,266343,1,2,0:2:0:0:
192,192,266516,1,0,0:0:0:70:hat.wav
64,192,266690,1,2,0:2:0:0:
320,192,266690,128,0,266863:0:0:0:0:
448,192,266863,1,0,0:0:0:70:hat.wav
192,192,267036,128,2,267210:0:2:0:0:
320,192,267036,1,8,0:2:0:0:
64,192,267210,1,0,0:0:0:70:hat.wav
320,192,267383,128,2,267557:0:2:0:0:
448,192,267383,1,0,0:0:0:0:
192,192,267557,1,0,0:0:0:70:hat.wav
64,192,267730,128,8,267903:0:2:0:0:
320,192,267730,1,2,0:2:0:0:
448,192,267903,128,0,268077:0:0:0:70:hat.wav
64,192,268077,1,2,0:2:0:0:
320,192,268077,1,0,0:0:0:0:
192,192,268250,128,0,268597:0:0:0:70:hat.wav
320,192,268424,1,2,0:2:0:0:
448,192,268424,1,8,0:2:0:0:
64,192,268597,1,0,0:0:0:70:hat.wav
192,192,268770,1,2,0:2:0:0:
448,192,268770,128,0,269117:0:0:0:0:
320,192,268944,1,0,0:0:0:70:hat.wav
64,192,269117,1,8,0:2:0:0:
192,192,269117,128,2,269291:0:2:0:0:
320,192,269291,128,0,269464:0:0:0:70:hat.wav
64,192,269464,1,2,0:2:0:0:
448,192,269464,1,0,0:0:0:0:
64,192,269638,128,0,269811:0:0:0:70:hat.wav
192,192,269811,1,2,0:2:0:0:
448,192,269811,1,8,0:2:0:0:
320,192,269984,128,0,270158:0:0:0:70:hat.wav
192,192,270158,128,2,270331:0:2:0:0:
448,192,270158,1,0,0:0:0:0:
64,192,270331,128,0,270505:0:0:0:70:hat.wav
320,192,270505,1,8,0:2:0:0:
448,192,270505,1,2,0:2:0:0:
64,192,270678,128,0,270851:0:0:0:70:hat.wav
192,192,270851,1,2,0:2:0:0:
320,192,270851,1,0,0:0:0:0:
320,192,271025,1,8,0:2:0:0:
448,192,271025,1,0,0:0:0:70:hat.wav
64,192,271198,1,2,0:2:0:0:
192,192,271198,1,8,0:2:0:0:
448,192,271372,1,8,0:2:0:0:
320,192,271458,1,8,0:2:0:0:
64,192,271545,128,4,271718:0:2:0:0:
192,192,271545,1,2,0:2:0:0:
448,192,271545,1,0,0:0:0:0:
320,192,271718,1,0,0:0:0:70:hat.wav
64,192,271892,1,8,0:2:0:0:
192,192,271892,1,2,0:2:0:0:
320,192,272065,1,0,0:0:0:70:hat.wav
64,192,272239,1,2,0:2:0:0:
448,192,272239,128,0,272412:0:0:0:0:
320,192,272412,1,0,0:0:0:70:hat.wav
192,192,272585,128,2,272759:0:2:0:0:
448,192,272585,1,8,0:2:0:0:
64,192,272759,1,0,0:0:0:70:hat.wav
320,192,272932,1,2,0:2:0:0:
448,192,272932,128,0,273106:0:0:0:0:
192,192,273106,1,0,0:0:0:70:hat.wav
64,192,273279,1,8,0:2:0:0:
448,192,273279,1,2,0:2:0:0:
192,192,273453,1,0,0:0:0:70:hat.wav
320,192,273626,128,2,273799:0:2:0:0:
448,192,273626,1,0,0:0:0:0:
192,192,273799,1,0,0:0:0:70:hat.wav
64,192,273973,128,2,274146:0:2:0:0:
448,192,273973,1,8,0:2:0:0:
320,192,274146,1,0,0:0:0:70:hat.wav
64,192,274320,1,2,0:2:0:0:
448,192,274320,128,0,274493:0:0:0:0:
320,192,274493,1,0,0:0:0:70:hat.wav
64,192,274666,1,8,0:2:0:0:
192,192,274666,128,2,274840:0:2:0:0:
448,192,274840,1,0,0:0:0:70:hat.wav
64,192,275013,128,2,275187:0:2:0:0:
320,192,275187,1,0,0:0:0:70:hat.wav
192,192,275360,128,2,275533:0:2:0:0:
448,192,275360,1,8,0:2:0:0:
64,192,275533,1,0,0:0:0:70:hat.wav
320,192,275707,128,2,275880:0:2:0:0:
448,192,275707,1,0,0:0:0:0:
192,192,275880,1,0,0:0:0:70:hat.wav
64,192,276054,1,8,0:2:0:0:
448,192,276054,1,2,0:2:0:0:
320,192,276227,1,0,0:0:0:70:hat.wav
64,192,276401,1,2,0:2:0:0:
448,192,276401,1,0,0:0:0:0:
320,192,276574,1,8,0:2:0:0:
448,192,276574,1,0,0:0:0:70:hat.wav
64,192,276747,1,2,0:2:0:0:
192,192,276747,1,8,0:2:0:0:
448,192,276921,1,8,0:2:0:0:
320,192,277007,1,8,0:2:0:0:
64,192,277094,1,2,0:2:0:0:
192,192,277094,1,0,0:0:0:0:
320,192,277268,1,0,0:0:0:70:hat.wav
192,192,277441,1,8,0:2:0:0:
448,192,277441,1,2,0:2:0:0:
320,192,277614,1,0,0:0:0:70:hat.wav
64,192,277788,1,2,0:2:0:0:
192,192,277788,128,0,277961:0:0:0:0:
448,192,277961,1,0,0:0:0:70:hat.wav
192,192,278135,1,2,0:2:0:0:
320,192,278135,128,8,278308:0:2:0:0:
64,192,278308,128,0,278481:0:0:0:70:hat.wav
320,192,278481,1,2,0:2:0:0:
448,192,278481,1,0,0:0:0:0:
192,192,278655,1,0,0:0:0:70:hat.wav
64,192,278828,1,8,0:2:0:0:
320,192,278828,1,2,0:2:0:0:
192,192,279002,1,0,0:0:0:70:hat.wav
320,192,279175,128,2,279348:0:2:0:0:
448,192,279175,1,0,0:0:0:0:
64,192,279348,1,0,0:0:0:70:hat.wav
192,192,279522,1,2,0:2:0:0:
448,192,279522,1,8,0:2:0:0:
64,192,279695,128,0,279869:0:0:0:70:hat.wav
320,192,279869,1,2,0:2:0:0:
448,192,279869,1,0,0:0:0:0:
192,192,280042,1,0,0:0:0:70:hat.wav
64,192,280216,1,8,0:2:0:0:
448,192,280216,128,2,280389:0:2:0:0:
320,192,280389,1,0,0:0:0:70:hat.wav
64,192,280562,128,2,280736:0:2:0:0:
448,192,280562,1,0,0:0:0:0:
192,192,280736,128,0,280909:0:0:0:70:hat.wav
64,192,280909,1,2,0:2:0:0:
448,192,280909,128,8,281083:0:2:0:0:
320,192,281083,128,0,281256:0:0:0:70:hat.wav
64,192,281256,1,8,0:2:0:0:
192,192,281256,1,2,0:2:0:0:
320,192,281429,1,2,0:2:0:0:
448,192,281429,1,8,0:2:0:0:
64,192,281603,1,2,0:2:0:0:
192,192,281603,1,8,0:2:0:0:
192,192,281950,1,2,0:2:0:0:
448,192,281950,1,0,0:0:0:0:
64,192,282123,1,8,0:2:0:0:
320,192,282123,1,0,0:0:0:0:
192,192,282296,1,2,0:2:0:0:
448,192,282296,1,8,0:2:0:0:
320,192,282470,1,8,0:2:0:0:
192,192,282557,1,8,0:2:0:0:
64,192,282643,1,4,0:2:0:0:
320,192,282643,1,2,0:2:0:0:
448,192,282643,128,0,282817:0:0:0:0:
192,192,282817,1,0,0:0:0:70:hat.wav
64,192,282990,1,8,0:2:0:0:
448,192,282990,1,2,0:2:0:0:
320,192,283164,1,0,0:0:0:70:hat.wav
64,192,283337,128,2,283510:0:2:0:0:
192,192,283337,1,0,0:0:0:0:
320,192,283510,1,0,0:0:0:70:hat.wav
64,192,283684,1,8,0:2:0:0:
448,192,283684,128,2,283857:0:2:0:0:
192,192,283857,1,0,0:0:0:70:hat.wav
64,192,284031,128,2,284204:0:2:0:0:
320,192,284031,1,0,0:0:0:0:
448,192,284204,1,0,0:0:0:70:hat.wav
64,192,284377,1,2,0:2:0:0:
320,192,284377,128,8,284551:0:2:0:0:
192,192,284551,128,0,284724:0:0:0:70:hat.wav
320,192,284724,1,2,0:2:0:0:
448,192,284724,1,0,0:0:0:0:
64,192,284898,128,0,285244:0:0:0:70:hat.wav
192,192,285071,1,8,0:2:0:0:
448,192,285071,1,2,0:2:0:0:
320,192,285244,1,0,0:0:0:70:hat.wav
64,192,285418,1,2,0:2:0:0:
448,192,285418,128,0,285591:0:0:0:0:
192,192,285591,1,0,0:0:0:70:hat.wav
64,192,285765,128,2,285938:0:2:0:0:
320,192,285765,1,8,0:2:0:0:
448,192,285938,128,0,286111:0:0:0:70:hat.wav
64,192,286111,1,2,0:2:0:0:
320,192,286111,1,0,0:0:0:0:
192,192,286285,128,0,286458:0:0:0:70:hat.wav
64,192,286458,1,8,0:2:0:0:
448,192,286458,1,2,0:2:0:0:
448,192,286632,128,0,286805:0:0:0:70:hat.wav
64,192,286805,1,2,0:2:0:0:
320,192,286805,128,0,286979:0:0:0:0:
192,192,286979,128,0,287152:0:0:0:70:hat.wav
64,192,287152,1,2,0:2:0:0:
448,192,287152,1,8,0:2:0:0:
448,192,287325,128,0,287499:0:0:0:70:hat.wav
192,192,287499,1,2,0:2:0:0:
320,192,287499,1,0,0:0:0:0:
64,192,287672,128,8,287846:0:2:0:0:
192,192,287672,1,0,0:0:0:70:hat.wav
320,192,287846,1,8,0:2:0:0:
448,192,287846,1,2,0:2:0:0:
192,192,288019,1,0,0:0:0:70:hat.wav
448,192,288106,1,8,0:2:0:0:
64,192,288192,1,2,0:2:0:0:
320,192,288192,128,0,288366:0:0:0:0:
192,192,288366,1,0,0:0:0:70:hat.wav
64,192,288539,1,2,0:2:0:0:
448,192,288539,1,8,0:2:0:0:
320,192,288713,1,0,0:0:0:70:hat.wav
192,192,288886,128,2,289059:0:2:0:0:
448,192,288886,1,0,0:0:0:0:
64,192,289059,1,0,0:0:0:70:hat.wav
192,192,289233,1,8,0:2:0:0:
320,192,289233,128,2,289406:0:2:0:0:
448,192,289406,1,0,0:0:0:70:hat.wav
64,192,289580,1,2,0:2:0:0:
192,192,289580,128,0,289753:0:0:0:0:
320,192,289753,1,0,0:0:0:70:hat.wav
192,192,289927,1,2,0:2:0:0:
448,192,289927,128,8,290100:0:2:0:0:
64,192,290100,128,0,290273:0:0:0:70:hat.wav
192,192,290273,1,2,0:2:0:0:
448,192,290273,1,0,0:0:0:0:
320,192,290447,128,0,290794:0:0:0:70:hat.wav
64,192,290620,1,8,0:2:0:0:
192,192,290620,1,2,0:2:0:0:
448,192,290794,1,0,0:0:0:70:hat.wav
64,192,290967,128,2,291314:0:2:0:0:
320,192,290967,1,0,0:0:0:0:
192,192,291140,1,0,0:0:0:70:hat.wav
320,192,291314,128,2,291487:0:2:0:0:
448,192,291314,1,8,0:2:0:0:
192,192,291487,128,0,291661:0:0:0:70:hat.wav
64,192,291661,1,2,0:2:0:0:
448,192,291661,128,0,291834:0:0:0:0:
320,192,291834,128,0,292007:0:0:0:70:hat.wav
64,192,292007,1,8,0:2:0:0:
448,192,292007,1,2,0:2:0:0:
192,192,292181,128,0,292354:0:0:0:70:hat.wav
64,192,292354,1,2,0:2:0:0:
320,192,292354,128,0,292528:0:0:0:0:
448,192,292528,128,0,292701:0:0:0:70:hat.wav
64,192,292701,1,2,0:2:0:0:
192,192,292701,1,8,0:2:0:0:
448,192,292874,128,0,293048:0:0:0:70:hat.wav
192,192,293048,1,2,0:2:0:0:
320,192,293048,1,0,0:0:0:0:
64,192,293221,1,8,0:2:0:0:
192,192,293221,1,0,0:0:0:70:hat.wav
320,192,293395,1,8,0:2:0:0:
448,192,293395,1,2,0:2:0:0:
64,192,293568,1,8,0:2:0:0:
192,192,293655,1,8,0:2:0:0:
64,192,293742,1,2,0:2:0:0:
320,192,293742,1,4,0:2:0:0:
448,192,293742,128,0,293915:0:0:0:0:
192,192,293915,1,0,0:0:0:70:hat.wav
320,192,294088,1,2,0:2:0:0:
448,192,294088,1,8,0:2:0:0:
192,192,294262,1,0,0:0:0:70:hat.wav
64,192,294435,128,2,294609:0:2:0:0:
448,192,294435,1,0,0:0:0:0:
192,192,294609,1,0,0:0:0:70:hat.wav
64,192,294782,1,8,0:2:0:0:
320,192,294782,128,2,294955:0:2:0:0:
448,192,294955,1,0,0:0:0:70:hat.wav
64,192,295129,128,2,295302:0:2:0:0:
192,192,295129,1,0,0:0:0:0:
320,192,295302,1,0,0:0:0:70:hat.wav
64,192,295476,1,2,0:2:0:0:
448,192,295476,1,8,0:2:0:0:
320,192,295649,1,0,0:0:0:70:hat.wav
64,192,295822,1,2,0:2:0:0:
192,192,295822,128,0,295996:0:0:0:0:
320,192,295996,1,0,0:0:0:70:hat.wav
64,192,296169,1,8,0:2:0:0:
448,192,296169,128,2,296343:0:2:0:0:
192,192,296343,1,0,0:0:0:70:hat.wav
64,192,296516,128,2,296690:0:2:0:0:
448,192,296516,1,0,0:0:0:0:
192,192,296690,1,0,0:0:0:70:hat.wav
320,192,296863,128,2,297036:0:2:0:0:
448,192,296863,1,8,0:2:0:0:
64,192,297036,1,0,0:0:0:70:hat.wav
320,192,297210,1,2,0:2:0:0:
448,192,297210,128,0,297383:0:0:0:0:
192,192,297383,1,0,0:0:0:70:hat.wav
64,192,297557,1,8,0:2:0:0:
320,192,297557,128,2,297730:0:2:0:0:
448,192,297730,1,0,0:0:0:70:hat.wav
64,192,297903,1,2,0:2:0:0:
192,192,297903,128,0,298077:0:0:0:0:
320,192,298077,1,0,0:0:0:70:hat.wav
64,192,298250,1,2,0:2:0:0:
448,192,298250,1,8,0:2:0:0:
192,192,298424,1,0,0:0:0:70:hat.wav
64,192,298597,1,2,0:2:0:0:
448,192,298597,1,0,0:0:0:0:
64,192,298770,1,8,0:2:0:0:
192,192,298770,1,0,0:0:0:70:hat.wav
320,192,298944,1,8,0:2:0:0:
448,192,298944,1,2,0:2:0:0:
64,192,299117,1,8,0:2:0:0:
192,192,299204,1,8,0:2:0:0:
320,192,299291,1,2,0:2:0:0:
448,192,299291,1,0,0:0:0:0:
64,192,299464,1,0,0:0:0:70:hat.wav
192,192,299638,1,2,0:2:0:0:
448,192,299638,1,8,0:2:0:0:
320,192,299811,1,0,0:0:0:70:hat.wav
192,192,299898,1,8,0:2:0:0:
64,192,299984,1,2,0:2:0:0:
448,192,299984,1,0,0:0:0:0:
320,192,300158,1,0,0:0:0:70:hat.wav
64,192,300331,1,8,0:2:0:0:
192,192,300331,128,2,300505:0:2:0:0:
448,192,300505,1,0,0:0:0:70:hat.wav
64,192,300678,1,2,0:2:0:0:
320,192,300678,128,0,300851:0:0:0:0:
192,192,300851,1,0,0:0:0:70:hat.wav
320,192,301025,1,2,0:2:0:0:
448,192,301025,128,8,301198:0:2:0:0:
192,192,301198,1,0,0:0:0:70:hat.wav
320,192,301285,1,8,0:2:0:0:
64,192,301372,128,2,301545:0:2:0:0:
448,192,301372,1,0,0:0:0:0:
192,192,301545,1,0,0:0:0:70:hat.wav
320,192,301718,1,8,0:2:0:0:
448,192,301718,128,2,301892:0:2:0:0:
192,192,301892,128,0,302065:0:0:0:70:hat.wav
64,192,302065,1,2,0:2:0:0:
448,192,302065,128,0,302239:0:0:0:0:
320,192,302239,1,0,0:0:0:70:hat.wav
192,192,302412,1,2,0:2:0:0:
448,192,302412,128,8,302585:0:2:0:0:
320,192,302585,1,0,0:0:0:70:hat.wav
64,192,302759,128,2,302932:0:2:0:0:
448,192,302759,1,0,0:0:0:0:
192,192,302932,128,0,303106:0:0:0:70:hat.wav
64,192,303106,1,8,0:2:0:0:
448,192,303106,128,2,303279:0:2:0:0:
320,192,303279,128,0,303453:0:0:0:70:hat.wav
64,192,303453,1,2,0:2:0:0:
192,192,303453,1,0,0:0:0:0:
448,192,303626,1,0,0:0:0:70:hat.wav
64,192,303799,1,2,0:2:0:0:
320,192,303799,1,8,0:2:0:0:
192,192,303973,1,0,0:0:0:70:hat.wav
64,192,304146,1,2,0:2:0:0:
448,192,304146,128,0,304320:0:0:0:0:
64,192,304320,1,8,0:2:0:0:
192,192,304320,1,0,0:0:0:0:
320,192,304493,1,2,0:2:0:0:
448,192,304493,1,8,0:2:0:0:
192,192,304666,1,8,0:2:0:0:
320,192,304753,1,8,0:2:0:0:
64,192,304840,128,4,306227:0:2:0:0:
192,192,304840,1,2,0:2:0:0:
448,192,304840,128,0,305533:0:0:0:0:
320,192,305880,128,0,306227:0:0:0:0:
192,192,306227,1,2,0:2:0:0:
448,192,306227,1,0,0:0:0:0:
448,192,306921,1,2,0:2:0:0:
320,192,307007,1,8,0:2:0:0:
192,192,307094,1,2,0:2:0:0:
192,192,307268,1,8,0:2:0:0:
448,192,307268,1,0,0:0:0:0:
320,192,307441,1,8,0:2:0:0:
192,192,307528,1,8,0:2:0:0:
64,192,307614,1,4,0:2:0:0:
448,192,307614,1,2,0:2:0:0:
320,192,307788,1,0,0:0:0:70:hat.wav
192,192,307961,1,2,0:2:0:0:
448,192,307961,1,8,0:2:0:0:
320,192,308135,1,0,0:0:0:70:hat.wav
64,192,308308,1,2,0:2:0:0:
192,192,308308,1,0,0:0:0:0:
448,192,308481,1,0,0:0:0:70:hat.wav
64,192,308655,1,2,0:2:0:0:
320,192,308655,1,8,0:2:0:0:
448,192,308828,1,0,0:0:0:70:hat.wav
192,192,309002,1,2,0:2:0:0:
320,192,309002,1,0,0:0:0:0:
64,192,309175,1,0,0:0:0:70:hat.wav
192,192,309348,1,2,0:2:0:0:
448,192,309348,1,8,0:2:0:0:
64,192,309522,1,0,0:0:0:70:hat.wav
320,192,309695,1,2,0:2:0:0:
448,192,309695,1,0,0:0:0:0:
192,192,309869,1,0,0:0:0:70:hat.wav
64,192,310042,1,8,0:2:0:0:
320,192,310042,1,2,0:2:0:0:
192,192,310216,1,0,0:0:0:70:hat.wav
320,192,310389,1,2,0:2:0:0:
448,192,310389,1,0,0:0:0:0:
64,192,310562,1,0,0:0:0:70:hat.wav
192,192,310736,1,2,0:2:0:0:
320,192,310736,1,8,0:2:0:0:
448,192,310909,1,0,0:0:0:70:hat.wav
64,192,311083,1,2,0:2:0:0:
192,192,311083,1,0,0:0:0:0:
448,192,311256,1,0,0:0:0:70:hat.wav
192,192,311429,1,8,0:2:0:0:
320,192,311429,1,2,0:2:0:0:
64,192,311603,128,0,311776:0:0:0:70:hat.wav
192,192,311776,128,2,311950:0:2:0:0:
448,192,311776,1,0,0:0:0:0:
320,192,311950,128,0,312123:0:0:0:70:hat.wav
64,192,312123,1,2,0:2:0:0:
448,192,312123,1,8,0:2:0:0:
320,192,312296,128,0,312470:0:0:0:70:hat.wav
64,192,312470,1,2,0:2:0:0:
192,192,312470,1,0,0:0:0:0:
320,192,312643,1,8,0:2:0:0:
448,192,312643,128,0,312817:0:0:0:70:hat.wav
64,192,312817,1,8,0:2:0:0:
192,192,312817,1,2,0:2:0:0:
320,192,312990,1,8,0:2:0:0:
448,192,312990,1,0,0:0:0:70:hat.wav
192,192,313077,1,8,0:2:0:0:
64,192,313164,1,2,0:2:0:0:
448,192,313164,1,0,0:0:0:0:
192,192,313337,1,0,0:0:0:70:hat.wav
64,192,313510,1,8,0:2:0:0:
320,192,313510,1,2,0:2:0:0:
192,192,313684,1,0,0:0:0:70:hat.wav
320,192,313857,1,2,0:2:0:0:
448,192,313857,1,0,0:0:0:0:
64,192,314031,1,0,0:0:0:70:hat.wav
192,192,314204,1,2,0:2:0:0:
448,192,314204,1,8,0:2:0:0:
64,192,314377,1,0,0:0:0:70:hat.wav
192,192,314551,1,2,0:2:0:0:
320,192,314551,1,0,0:0:0:0:
448,192,314724,1,0,0:0:0:70:hat.wav
64,192,314898,1,8,0:2:0:0:
320,192,314898,1,2,0:2:0:0:
448,192,315071,1,0,0:0:0:70:hat.wav
64,192,315244,1,2,0:2:0:0:
192,192,315244,1,0,0:0:0:0:
320,192,315418,1,0,0:0:0:70:hat.wav
192,192,315591,1,2,0:2:0:0:
448,192,315591,1,8,0:2:0:0:
320,192,315765,1,0,0:0:0:70:hat.wav
64,192,315938,1,2,0:2:0:0:
192,192,315938,1,0,0:0:0:0:
448,192,316111,128,0,316285:0:0:0:70:hat.wav
64,192,316285,1,8,0:2:0:0:
320,192,316285,128,2,316458:0:2:0:0:
192,192,316458,128,0,316632:0:0:0:70:hat.wav
64,192,316632,128,2,316805:0:2:0:0:
448,192,316632,1,0,0:0:0:0:
320,192,316805,128,0,316979:0:0:0:70:hat.wav
64,192,316979,1,2,0:2:0:0:
192,192,316979,128,8,317152:0:2:0:0:
448,192,317152,128,0,317325:0:0:0:70:hat.wav
192,192,317325,1,2,0:2:0:0:
320,192,317325,128,0,317499:0:0:0:0:
192,192,317499,128,0,317672:0:0:0:70:hat.wav
64,192,317672,1,8,0:2:0:0:
448,192,317672,1,2,0:2:0:0:
192,192,317846,128,0,318019:0:0:0:70:hat.wav
320,192,318019,1,2,0:2:0:0:
448,192,318019,1,0,0:0:0:0:
64,192,318192,128,8,318366:0:2:0:0:
192,192,318192,1,0,0:0:0:70:hat.wav
320,192,318366,1,2,0:2:0:0:
448,192,318366,1,8,0:2:0:0:
64,192,318539,1,8,0:2:0:0:
192,192,318539,1,0,0:0:0:0:
320,192,318626,1,8,0:2:0:0:
64,192,318713,1,2,0:2:0:0:
448,192,318713,128,4,319059:0:2:0:0:
320,192,318886,1,0,0:0:0:70:hat.wav
64,192,319059,1,8,0:2:0:0:
192,192,319059,1,2,0:2:0:0:
448,192,319233,1,0,0:0:0:70:hat.wav
64,192,319406,1,2,0:2:0:0:
320,192,319406,1,0,0:0:0:0:
192,192,319580,1,0,0:0:0:70:hat.wav
320,192,319753,1,2,0:2:0:0:
448,192,319753,1,8,0:2:0:0:
64,192,319927,128,0,320273:0:0:0:70:hat.wav
192,192,320100,1,2,0:2:0:0:
448,192,320100,1,0,0:0:0:0:
320,192,320273,1,0,0:0:0:70:hat.wav
64,192,320447,1,8,0:2:0:0:
192,192,320447,1,2,0:2:0:0:
448,192,320620,1,0,0:0:0:70:hat.wav
64,192,320794,1,2,0:2:0:0:
320,192,320794,1,0,0:0:0:0:
448,192,320967,1,0,0:0:0:70:hat.wav
192,192,321140,1,2,0:2:0:0:
320,192,321140,1,8,0:2:0:0:
64,192,321314,1,0,0:0:0:70:hat.wav
320,192,321487,128,2,321834:0:2:0:0:
448,192,321487,1,0,0:0:0:0:
192,192,321661,1,0,0:0:0:70:hat.wav
64,192,321834,1,8,0:2:0:0:
448,192,321834,1,2,0:2:0:0:
320,192,322007,1,0,0:0:0:70:hat.wav
64,192,322181,1,2,0:2:0:0:
192,192,322181,1,0,0:0:0:0:
448,192,322354,1,0,0:0:0:70:hat.wav
192,192,322528,1,2,0:2:0:0:
320,192,322528,1,8,0:2:0:0:
64,192,322701,128,0,323048:0:0:0:70:hat.wav
192,192,322874,1,2,0:2:0:0:
448,192,322874,1,0,0:0:0:0:
320,192,323048,1,0,0:0:0:70:hat.wav
64,192,323221,1,8,0:2:0:0:
448,192,323221,1,2,0:2:0:0:
192,192,323395,1,0,0:0:0:70:hat.wav
320,192,323568,1,2,0:2:0:0:
448,192,323568,1,0,0:0:0:0:
64,192,323742,1,8,0:2:0:0:
192,192,323742,1,0,0:0:0:70:hat.wav
64,192,323915,1,8,0:2:0:0:
192,192,323915,1,0,0:0:0:0:
320,192,324088,1,8,0:2:0:0:
448,192,324088,1,0,0:0:0:0:
192,192,324175,1,8,0:2:0:0:
64,192,324262,1,2,0:2:0:0:
448,192,324262,1,0,0:0:0:70:hat.wav
320,192,324435,1,0,0:0:0:70:hat.wav
64,192,324609,1,2,0:2:0:0:
448,192,324609,1,8,0:2:0:0:
320,192,324782,1,0,0:0:0:70:hat.wav
64,192,324955,1,2,0:2:0:0:
192,192,324955,1,0,0:0:0:0:
448,192,325129,1,0,0:0:0:70:hat.wav
64,192,325302,1,8,0:2:0:0:
320,192,325302,1,2,0:2:0:0:
192,192,325476,1,0,0:0:0:70:hat.wav
64,192,325649,1,2,0:2:0:0:
448,192,325649,1,0,0:0:0:0:
192,192,325822,1,0,0:0:0:70:hat.wav
320,192,325996,1,2,0:2:0:0:
448,192,325996,1,8,0:2:0:0:
64,192,326169,1,0,0:0:0:70:hat.wav
320,192,326343,1,2,0:2:0:0:
448,192,326343,1,0,0:0:0:0:
192,192,326516,1,0,0:0:0:70:hat.wav
64,192,326690,1,8,0:2:0:0:
320,192,326690,1,2,0:2:0:0:
192,192,326863,1,0,0:0:0:70:hat.wav
320,192,327036,1,2,0:2:0:0:
448,192,327036,1,0,0:0:0:0:
64,192,327210,128,0,327383:0:0:0:70:hat.wav
192,192,327383,128,2,327557:0:2:0:0:
448,192,327383,1,8,0:2:0:0:
320,192,327557,128,0,327903:0:0:0:70:hat.wav
64,192,327730,1,2,0:2:0:0:
448,192,327730,1,0,0:0:0:0:
192,192,327903,1,0,0:0:0:70:hat.wav
64,192,328077,1,8,0:2:0:0:
320,192,328077,1,2,0:2:0:0:
448,192,328250,1,0,0:0:0:70:hat.wav
64,192,328424,1,2,0:2:0:0:
192,192,328424,1,0,0:0:0:0:
448,192,328597,128,0,328770:0:0:0:70:hat.wav
64,192,328770,1,2,0:2:0:0:
320,192,328770,128,8,328944:0:2:0:0:
192,192,328944,128,0,329291:0:0:0:70:hat.wav
64,192,329117,1,2,0:2:0:0:
448,192,329117,1,0,0:0:0:0:
320,192,329291,1,8,0:2:0:0:
448,192,329291,1,0,0:0:0:70:hat.wav
64,192,329464,1,8,0:2:0:0:
192,192,329464,1,2,0:2:0:0:
320,192,329638,1,8,0:2:0:0:
192,192,329724,1,8,0:2:0:0:
64,192,329811,128,2,330851:0:2:0:0:
320,192,329811,1,4,0:2:0:0:
448,192,329811,128,0,333626:0:0:0:0:
