osu file format v14

[General]
AudioFilename: audio.ogg
AudioLeadIn: 0
PreviewTime: 80794
Countdown: 0
SampleSet: Soft
StackLeniency: 0.7
Mode: 3
LetterboxInBreaks: 0
SpecialStyle: 0
WidescreenStoryboard: 1

[Editor]
Bookmarks: 1025,23221,45418,67614,81487,103684,128655,150851,173048,186921,209117,234088,250736,260447,282643,307614,329811
DistanceSpacing: 1
BeatDivisor: 4
GridSize: 32
TimelineZoom: 1.500001

[Metadata]
Title:Triangle Dreamer
TitleUnicode:トライアングル・ドリーマー
Artist:Niji no Conquistador
ArtistUnicode:虹のコンキスタドール
Creator:chocomilku-
Version:Easy
Source:
Tags:2zicon 虹コン nijicon 11th single female vocals vocalists king records 鶴見 萌 Tsurumi Moe 根本 凪 Nemoto Nagi 中村 朱里 Nakamura Akari 的場 華鈴 Matoba Karin 大和 明桜 Yamato Ao 清水 理子 Shimizu Riko 隈本 茉莉奈 Kumamoto Marina 山崎 夏菜 Yamasaki Nana 蛭田 愛梨 Hiruta Airi 岡田 彩夢 Okada Ayame 片岡 未優 Kataoka Miyu japanese pop j-pop jpop idols 村カワ基成 Motonari Murakawa full version DEARSTAGE ディアステージ
BeatmapID:4463747
BeatmapSetID:2095320

[Difficulty]
HPDrainRate:6.5
CircleSize:4
OverallDifficulty:6.5
ApproachRate:5
SliderMultiplier:1.4
SliderTickRate:1

[Events]
//Background and Video events
Video,-595,"MV.mp4"
0,0,"bg2.jpg",0,0
//Break Periods
//Storyboard Layer 0 (Background)
//Storyboard Layer 1 (Fail)
//Storyboard Layer 2 (Pass)
//Storyboard Layer 3 (Foreground)
//Storyboard Layer 4 (Overlay)
//Storyboard Sound Samples
Sample,10909,0,"hat.wav",70
Sample,68308,0,"Hihat.wav",70
Sample,69695,0,"Hihat.wav",70
Sample,70389,0,"Hihat.wav",70
Sample,71083,0,"Hihat.wav",70
Sample,72470,0,"Hihat.wav",70
Sample,73857,0,"Hihat.wav",70
Sample,75244,0,"Hihat.wav",70
Sample,75591,0,"Hihat.wav",70
Sample,97961,0,"hat.wav",70
Sample,138539,0,"hat.wav",70
Sample,153626,0,"hat.wav",70
Sample,156401,0,"hat.wav",70
Sample,159175,0,"hat.wav",70
Sample,164724,0,"hat.wav",70
Sample,167499,0,"hat.wav",70
Sample,170273,0,"hat.wav",70
Sample,173742,0,"Hihat.wav",70
Sample,175129,0,"Hihat.wav",70
Sample,175822,0,"Hihat.wav",70
Sample,176516,0,"Hihat.wav",70
Sample,177903,0,"Hihat.wav",70
Sample,179291,0,"Hihat.wav",70
Sample,180678,0,"Hihat.wav",70
Sample,181025,0,"Hihat.wav",70
Sample,203395,0,"hat.wav",70
Sample,251083,0,"hat.wav",70
Sample,251429,0,"hat.wav",70
Sample,251776,0,"hat.wav",70
Sample,252123,0,"hat.wav",70
Sample,252470,0,"hat.wav",70
Sample,252817,0,"hat.wav",70
Sample,253164,0,"hat.wav",70
Sample,253857,0,"hat.wav",70
Sample,254204,0,"hat.wav",70
Sample,254551,0,"hat.wav",70
Sample,254898,0,"hat.wav",70
Sample,255244,0,"hat.wav",70
Sample,255591,0,"soft-hitwhistle.wav",65
Sample,255591,0,"soft-hitclap.wav",65
Sample,255938,0,"soft-hitwhistle.wav",65
Sample,255938,0,"soft-hitclap.wav",65
Sample,276921,0,"hat.wav",70
Sample,312643,0,"hat.wav",70
Sample,312990,0,"hat.wav",70
Sample,318192,0,"hat.wav",70
Sample,323742,0,"hat.wav",70
Sample,324262,0,"hat.wav",70
Sample,329291,0,"hat.wav",70

[TimingPoints]
-362,346.820809248555,4,2,1,50,1,0
81487,-100,4,2,1,65,0,1
125880,-100,4,2,1,65,0,0
186921,-100,4,2,1,65,0,1
231314,-100,4,2,1,65,0,0
260447,-100,4,2,1,65,0,1
304840,-100,4,2,1,65,0,0

[HitObjects]
64,192,331,128,0,678:0:0:0:0:
448,192,678,128,0,1025:0:0:0:0:
64,192,1025,128,2,2065:0:2:0:0:
192,192,1025,1,4,0:2:0:0:
320,192,1372,1,10,0:2:0:0:
320,192,2065,1,10,0:2:0:0:
448,192,2412,128,2,2759:0:2:0:0:
192,192,2759,128,10,3106:0:2:0:0:
320,192,3106,128,2,3453:0:2:0:0:
64,192,3453,128,10,3799:0:2:0:0:
448,192,3799,128,2,4146:0:2:0:0:
192,192,4146,1,10,0:2:0:0:
320,192,4493,128,2,4840:0:2:0:0:
64,192,4840,1,10,0:2:0:0:
64,192,5187,128,2,5533:0:2:0:0:
192,192,5533,128,10,5880:0:2:0:0:
448,192,5880,128,2,6227:0:2:0:0:
64,192,6227,128,10,6574:0:2:0:0:
448,192,6574,128,2,7614:0:2:0:0:
192,192,6921,1,10,0:2:0:0:
192,192,7614,1,10,0:2:0:0:
64,192,7961,128,2,8308:0:2:0:0:
320,192,8308,128,10,8655:0:2:0:0:
192,192,8655,128,2,9002:0:2:0:0:
448,192,9002,128,10,9348:0:2:0:0:
64,192,9348,128,2,9695:0:2:0:0:
320,192,9695,1,10,0:2:0:0:
192,192,10042,128,2,10389:0:2:0:0:
448,192,10389,1,10,0:2:0:0:
320,192,10562,1,0,0:0:0:70:hat.wav
448,192,10909,1,8,0:2:0:0:
64,192,11083,1,8,0:2:0:0:
320,192,11429,128,10,11776:0:2:0:0:
192,192,11776,128,10,12123:0:2:0:0:
320,192,12123,128,2,13164:0:2:0:0:
448,192,12123,1,4,0:2:0:0:
64,192,12470,1,10,0:2:0:0:
64,192,13164,1,10,0:2:0:0:
192,192,13510,128,2,13857:0:2:0:0:
448,192,13857,128,10,14204:0:2:0:0:
64,192,14204,128,2,14551:0:2:0:0:
320,192,14551,128,10,14898:0:2:0:0:
192,192,14898,128,2,15244:0:2:0:0:
448,192,15244,1,10,0:2:0:0:
64,192,15591,128,2,15938:0:2:0:0:
320,192,15938,1,10,0:2:0:0:
320,192,16285,128,2,16632:0:2:0:0:
448,192,16632,128,10,16979:0:2:0:0:
192,192,16979,128,2,17325:0:2:0:0:
320,192,17325,128,10,17672:0:2:0:0:
192,192,17672,128,2,18713:0:2:0:0:
448,192,18019,1,10,0:2:0:0:
448,192,18713,1,10,0:2:0:0:
320,192,19059,128,2,19406:0:2:0:0:
64,192,19406,128,10,19753:0:2:0:0:
448,192,19753,128,2,20100:0:2:0:0:
192,192,20100,128,10,20447:0:2:0:0:
320,192,20447,128,2,20794:0:2:0:0:
64,192,20794,1,10,0:2:0:0:
448,192,21140,128,2,21487:0:2:0:0:
192,192,21487,1,10,0:2:0:0:
320,192,21661,1,10,0:2:0:0:
64,192,22007,1,8,0:2:0:0:
448,192,22181,1,10,0:2:0:0:
192,192,22354,1,0,0:0:0:70:hat.wav
320,192,22528,128,10,22874:0:2:0:0:
64,192,22874,128,8,23221:0:2:0:0:
320,192,23221,1,2,0:2:0:0:
448,192,23221,128,4,23568:0:2:0:0:
192,192,23568,1,8,0:2:0:0:
320,192,23915,128,2,24262:0:2:0:0:
64,192,24262,1,8,0:2:0:0:
192,192,24609,128,2,24955:0:2:0:0:
320,192,24955,1,8,0:2:0:0:
448,192,25302,1,2,0:2:0:0:
64,192,25649,1,8,0:2:0:0:
320,192,25996,1,2,0:2:0:0:
192,192,26343,1,8,0:2:0:0:
448,192,26516,1,0,0:0:0:0:
320,192,26863,1,0,0:0:0:0:
192,192,27210,1,0,0:0:0:0:
64,192,27557,1,0,0:0:0:0:
320,192,27903,1,0,0:0:0:0:
192,192,28250,1,0,0:0:0:0:
448,192,28424,1,8,0:2:0:0:
64,192,28770,128,2,29117:0:2:0:0:
320,192,29117,1,8,0:2:0:0:
192,192,29464,128,2,29811:0:2:0:0:
448,192,29811,1,8,0:2:0:0:
320,192,30158,128,2,30505:0:2:0:0:
192,192,30505,1,8,0:2:0:0:
64,192,30851,1,2,0:2:0:0:
448,192,31198,1,8,0:2:0:0:
192,192,31545,1,2,0:2:0:0:
320,192,31892,1,8,0:2:0:0:
64,192,32065,1,0,0:0:0:0:
192,192,32412,1,0,0:0:0:0:
320,192,32759,1,0,0:0:0:0:
448,192,33106,1,0,0:0:0:0:
192,192,33453,1,0,0:0:0:0:
320,192,33799,1,0,0:0:0:0:
64,192,33973,1,8,0:2:0:0:
448,192,34320,128,2,34666:0:2:0:0:
320,192,34666,1,8,0:2:0:0:
192,192,34840,1,0,0:0:0:0:
320,192,35187,1,0,0:0:0:0:
448,192,35533,1,0,0:0:0:0:
64,192,35880,1,0,0:0:0:0:
192,192,36054,1,8,0:2:0:0:
320,192,36227,1,0,0:0:0:0:
64,192,36401,128,2,36747:0:2:0:0:
448,192,36747,128,8,37094:0:2:0:0:
64,192,37094,128,2,37441:0:2:0:0:
192,192,37441,1,8,0:2:0:0:
320,192,37614,1,0,0:0:0:0:
192,192,37961,1,0,0:0:0:0:
64,192,38308,1,0,0:0:0:0:
448,192,38655,1,0,0:0:0:0:
320,192,38828,1,8,0:2:0:0:
192,192,39002,1,0,0:0:0:0:
448,192,39175,128,2,39522:0:2:0:0:
64,192,39522,128,8,39869:0:2:0:0:
448,192,39869,128,2,40562:0:2:0:0:
192,192,40216,1,8,0:2:0:0:
64,192,40909,128,8,41256:0:2:0:0:
320,192,41256,128,2,41603:0:2:0:0:
192,192,41603,128,8,41950:0:2:0:0:
448,192,41950,128,2,42296:0:2:0:0:
64,192,42296,1,8,0:2:0:0:
192,192,42470,1,0,0:0:0:0:
448,192,42643,128,2,42990:0:2:0:0:
320,192,42990,1,8,0:2:0:0:
64,192,43337,128,2,43684:0:2:0:0:
192,192,43684,1,8,0:2:0:0:
320,192,44031,1,2,0:2:0:0:
192,192,44204,1,0,0:0:0:0:
448,192,44551,1,0,0:0:0:0:
192,192,44898,1,8,0:2:0:0:
320,192,45071,1,10,0:2:0:0:
448,192,45244,1,8,0:2:0:0:
64,192,45418,128,2,45765:0:2:0:0:
192,192,45418,1,4,0:2:0:0:
320,192,45765,1,8,0:2:0:0:
192,192,46111,128,2,46458:0:2:0:0:
448,192,46458,1,8,0:2:0:0:
320,192,46805,128,2,47152:0:2:0:0:
192,192,47152,1,8,0:2:0:0:
64,192,47499,1,2,0:2:0:0:
448,192,47846,1,8,0:2:0:0:
192,192,48192,1,2,0:2:0:0:
320,192,48539,1,8,0:2:0:0:
64,192,48713,1,0,0:0:0:70:hat.wav
192,192,49059,1,0,0:0:0:70:hat.wav
320,192,49406,1,0,0:0:0:70:hat.wav
448,192,49753,1,0,0:0:0:70:hat.wav
192,192,50100,1,0,0:0:0:70:hat.wav
320,192,50447,1,0,0:0:0:70:hat.wav
64,192,50620,1,8,0:2:0:0:
448,192,50967,128,2,51314:0:2:0:0:
192,192,51314,1,8,0:2:0:0:
320,192,51661,128,2,52007:0:2:0:0:
64,192,52007,1,8,0:2:0:0:
192,192,52354,128,2,52701:0:2:0:0:
320,192,52701,1,8,0:2:0:0:
448,192,53048,1,2,0:2:0:0:
64,192,53395,1,8,0:2:0:0:
320,192,53742,1,2,0:2:0:0:
192,192,54088,1,8,0:2:0:0:
448,192,54262,1,0,0:0:0:70:hat.wav
320,192,54609,1,0,0:0:0:70:hat.wav
192,192,54955,1,0,0:0:0:70:hat.wav
64,192,55302,1,0,0:0:0:70:hat.wav
320,192,55649,1,0,0:0:0:70:hat.wav
192,192,55996,1,0,0:0:0:70:hat.wav
448,192,56169,1,8,0:2:0:0:
64,192,56516,128,2,56863:0:2:0:0:
192,192,56863,1,8,0:2:0:0:
320,192,57036,1,0,0:0:0:70:hat.wav
192,192,57383,1,0,0:0:0:70:hat.wav
64,192,57730,1,0,0:0:0:70:hat.wav
448,192,58077,1,0,0:0:0:70:hat.wav
320,192,58250,1,8,0:2:0:0:
192,192,58424,1,0,0:0:0:70:hat.wav
448,192,58597,128,2,58944:0:2:0:0:
64,192,58944,128,8,59291:0:2:0:0:
448,192,59291,128,2,59638:0:2:0:0:
320,192,59638,1,8,0:2:0:0:
192,192,59811,1,0,0:0:0:70:hat.wav
320,192,60158,1,0,0:0:0:70:hat.wav
448,192,60505,1,0,0:0:0:70:hat.wav
64,192,60851,1,0,0:0:0:70:hat.wav
192,192,61025,1,8,0:2:0:0:
320,192,61198,1,0,0:0:0:70:hat.wav
64,192,61372,128,2,61718:0:2:0:0:
448,192,61718,128,8,62065:0:2:0:0:
64,192,62065,128,2,62759:0:2:0:0:
320,192,62412,1,8,0:2:0:0:
448,192,63106,128,8,63453:0:2:0:0:
192,192,63453,128,2,63799:0:2:0:0:
320,192,63799,128,8,64146:0:2:0:0:
64,192,64146,128,2,64493:0:2:0:0:
448,192,64493,1,8,0:2:0:0:
320,192,64666,1,0,0:0:0:70:hat.wav
192,192,65013,1,0,0:0:0:70:hat.wav
192,192,65360,1,0,0:0:0:70:hat.wav
320,192,65533,1,2,0:2:0:0:
320,192,65880,1,8,0:2:0:0:
64,192,66054,1,0,0:0:0:70:hat.wav
320,192,66401,1,8,0:2:0:0:
192,192,66574,1,8,0:2:0:0:
64,192,66747,1,0,0:0:0:0:
448,192,66921,128,2,67268:0:2:0:0:
320,192,67268,128,10,67614:0:2:0:0:
64,192,67614,1,2,0:2:0:0:
192,192,67614,128,4,68135:0:2:0:0:
448,192,68135,1,2,0:2:0:0:
64,192,68308,1,8,0:2:0:0:
320,192,68655,1,2,0:2:0:0:
192,192,68828,1,2,0:2:0:0:
448,192,69175,1,2,0:2:0:0:
320,192,69522,1,2,0:2:0:0:
64,192,69695,128,8,70042:0:2:0:0:
192,192,70042,128,2,70389:0:2:0:0:
320,192,70389,128,2,70736:0:2:0:0:
64,192,70736,128,0,71083:0:0:0:0:
448,192,71083,128,8,71429:0:2:0:0:
320,192,71429,1,0,0:0:0:0:
192,192,71603,128,2,71950:0:2:0:0:
448,192,71950,1,8,0:2:0:0:
320,192,72123,1,2,0:2:0:0:
64,192,72470,128,2,72817:0:2:0:0:
192,192,72817,128,8,73164:0:2:0:0:
320,192,73164,128,2,73684:0:2:0:0:
448,192,73164,1,4,0:2:0:0:
64,192,73684,1,2,0:2:0:0:
448,192,73857,1,8,0:2:0:0:
192,192,74204,1,2,0:2:0:0:
320,192,74377,1,2,0:2:0:0:
64,192,74724,1,8,0:2:0:0:
448,192,75071,1,2,0:2:0:0:
320,192,75244,1,8,0:2:0:0:
192,192,75591,1,8,0:2:0:0:
320,192,75765,1,8,0:2:0:0:
64,192,75938,128,2,76632:0:2:0:0:
448,192,75938,1,4,0:2:0:0:
320,192,76285,1,8,0:2:0:0:
320,192,76632,128,2,77325:0:2:0:0:
192,192,76979,1,8,0:2:0:0:
192,192,77325,128,2,78019:0:2:0:0:
448,192,77672,1,8,0:2:0:0:
448,192,78019,128,2,78713:0:2:0:0:
64,192,78366,1,8,0:2:0:0:
64,192,78713,128,10,79406:0:2:0:0:
448,192,79406,128,10,80100:0:2:0:0:
192,192,80100,128,10,80447:0:2:0:0:
320,192,80447,128,10,80794:0:2:0:0:
64,192,80794,128,8,81140:0:2:0:0:
192,192,81140,128,8,81487:0:2:0:0:
320,192,81487,128,2,81834:0:2:0:0:
448,192,81487,1,4,0:2:0:0:
192,192,81834,1,10,0:2:0:0:
64,192,82181,128,2,82528:0:2:0:0:
192,192,82528,128,10,82874:0:2:0:0:
320,192,82874,128,2,83221:0:2:0:0:
64,192,83221,1,10,0:2:0:0:
192,192,83395,1,0,0:0:0:70:hat.wav
448,192,83742,128,0,84262:0:0:0:70:hat.wav
64,192,84262,128,2,84609:0:2:0:0:
448,192,84609,1,10,0:2:0:0:
320,192,84782,128,0,85129:0:0:0:70:hat.wav
192,192,85129,128,0,85476:0:0:0:70:hat.wav
448,192,85476,128,0,85996:0:0:0:70:hat.wav
64,192,85996,1,10,0:2:0:0:
448,192,86343,128,2,86690:0:2:0:0:
320,192,86690,128,10,87036:0:2:0:0:
192,192,87036,128,2,87383:0:2:0:0:
320,192,87383,1,10,0:2:0:0:
448,192,87730,128,2,88077:0:2:0:0:
320,192,88077,128,10,88424:0:2:0:0:
192,192,88424,128,2,88770:0:2:0:0:
448,192,88770,1,10,0:2:0:0:
320,192,88944,1,0,0:0:0:70:hat.wav
64,192,89291,128,0,89811:0:0:0:70:hat.wav
448,192,89811,128,2,90158:0:2:0:0:
64,192,90158,1,10,0:2:0:0:
192,192,90331,128,0,90678:0:0:0:70:hat.wav
320,192,90678,128,0,91025:0:0:0:70:hat.wav
64,192,91025,128,0,91545:0:0:0:70:hat.wav
448,192,91545,1,10,0:2:0:0:
448,192,91892,128,2,92239:0:2:0:0:
320,192,92239,128,10,92585:0:2:0:0:
64,192,92585,128,2,92932:0:2:0:0:
192,192,92585,1,4,0:2:0:0:
320,192,92932,1,10,0:2:0:0:
192,192,93279,128,2,93626:0:2:0:0:
320,192,93626,128,10,93973:0:2:0:0:
448,192,93973,128,2,94320:0:2:0:0:
192,192,94320,1,10,0:2:0:0:
320,192,94666,128,2,95013:0:2:0:0:
64,192,95013,128,10,95360:0:2:0:0:
448,192,95360,128,2,95707:0:2:0:0:
320,192,95707,128,10,96054:0:2:0:0:
64,192,96054,128,2,96401:0:2:0:0:
192,192,96401,128,10,96747:0:2:0:0:
320,192,96747,128,2,97094:0:2:0:0:
64,192,97094,1,10,0:2:0:0:
448,192,97441,128,2,97788:0:2:0:0:
64,192,97788,1,10,0:2:0:0:
192,192,97961,1,8,0:2:0:0:
192,192,98481,128,10,98828:0:2:0:0:
320,192,98828,128,2,99175:0:2:0:0:
448,192,99175,1,10,0:2:0:0:
64,192,99348,128,0,99695:0:0:0:70:hat.wav
448,192,99695,1,0,0:0:0:70:hat.wav
320,192,99869,1,10,0:2:0:0:
320,192,100216,128,2,100562:0:2:0:0:
64,192,100562,1,10,0:2:0:0:
192,192,100736,1,0,0:0:0:70:hat.wav
192,192,101083,1,0,0:0:0:70:hat.wav
320,192,101256,1,10,0:2:0:0:
320,192,101603,128,2,101950:0:2:0:0:
192,192,101950,1,10,0:2:0:0:
448,192,102296,1,10,0:2:0:0:
320,192,102470,1,10,0:2:0:0:
192,192,102643,1,10,0:2:0:0:
320,192,102990,128,2,103337:0:2:0:0:
448,192,103337,128,10,103684:0:2:0:0:
64,192,103684,1,2,0:2:0:0:
192,192,103684,128,4,104031:0:2:0:0:
320,192,104031,1,10,0:2:0:0:
320,192,104377,128,2,104724:0:2:0:0:
448,192,104724,128,10,105071:0:2:0:0:
192,192,105071,128,2,105418:0:2:0:0:
448,192,105418,1,10,0:2:0:0:
320,192,105591,1,0,0:0:0:70:hat.wav
64,192,105938,128,0,106458:0:0:0:70:hat.wav
448,192,106458,128,2,106805:0:2:0:0:
64,192,106805,1,10,0:2:0:0:
192,192,106979,128,0,107325:0:0:0:70:hat.wav
320,192,107325,128,0,107672:0:0:0:70:hat.wav
64,192,107672,128,0,108192:0:0:0:70:hat.wav
448,192,108192,1,10,0:2:0:0:
192,192,108539,128,2,108886:0:2:0:0:
64,192,108886,128,10,109233:0:2:0:0:
320,192,109233,128,2,109580:0:2:0:0:
192,192,109580,1,10,0:2:0:0:
192,192,109927,128,2,110273:0:2:0:0:
64,192,110273,128,10,110620:0:2:0:0:
320,192,110620,128,2,110967:0:2:0:0:
64,192,110967,1,10,0:2:0:0:
192,192,111140,1,0,0:0:0:70:hat.wav
448,192,111487,128,0,112007:0:0:0:70:hat.wav
64,192,112007,128,2,112354:0:2:0:0:
448,192,112354,1,10,0:2:0:0:
320,192,112701,1,2,0:2:0:0:
192,192,112874,128,0,113221:0:0:0:70:hat.wav
448,192,113221,128,0,113742:0:0:0:70:hat.wav
64,192,113742,1,10,0:2:0:0:
64,192,114088,128,2,114435:0:2:0:0:
192,192,114435,128,10,114782:0:2:0:0:
320,192,114782,1,4,0:2:0:0:
448,192,114782,128,2,115129:0:2:0:0:
192,192,115129,1,10,0:2:0:0:
320,192,115476,128,2,115822:0:2:0:0:
192,192,115822,128,10,116169:0:2:0:0:
64,192,116169,128,2,116516:0:2:0:0:
320,192,116516,1,10,0:2:0:0:
192,192,116863,128,2,117210:0:2:0:0:
448,192,117210,128,10,117557:0:2:0:0:
64,192,117557,128,2,117903:0:2:0:0:
320,192,117903,128,10,118250:0:2:0:0:
64,192,118250,128,2,118597:0:2:0:0:
192,192,118597,128,10,118944:0:2:0:0:
320,192,118944,128,2,119291:0:2:0:0:
448,192,119291,1,10,0:2:0:0:
64,192,119638,128,2,119984:0:2:0:0:
448,192,119984,128,10,120331:0:2:0:0:
192,192,120331,128,2,121025:0:2:0:0:
320,192,120678,1,10,0:2:0:0:
448,192,121372,128,10,121718:0:2:0:0:
320,192,121718,128,2,122065:0:2:0:0:
192,192,122065,128,10,122412:0:2:0:0:
64,192,122412,128,2,122759:0:2:0:0:
448,192,122759,128,10,123106:0:2:0:0:
192,192,123106,128,2,123453:0:2:0:0:
320,192,123453,128,10,123799:0:2:0:0:
64,192,123799,128,2,124146:0:2:0:0:
448,192,124146,1,10,0:2:0:0:
320,192,124320,128,0,125187:0:0:0:70:hat.wav
192,192,124840,1,10,0:2:0:0:
64,192,125187,128,2,125533:0:2:0:0:
192,192,125533,128,10,125880:0:2:0:0:
320,192,125880,1,2,0:2:0:0:
448,192,125880,128,4,126921:0:2:0:0:
64,192,126921,128,0,127268:0:0:0:0:
320,192,127268,1,2,0:2:0:0:
448,192,127961,128,8,128308:0:2:0:0:
64,192,128308,128,8,128655:0:2:0:0:
320,192,128655,1,2,0:2:0:0:
448,192,128655,128,4,129695:0:2:0:0:
192,192,129002,1,10,0:2:0:0:
192,192,129695,1,10,0:2:0:0:
64,192,130042,128,2,130389:0:2:0:0:
320,192,130389,128,10,130736:0:2:0:0:
192,192,130736,128,2,131083:0:2:0:0:
448,192,131083,128,10,131429:0:2:0:0:
64,192,131429,128,2,131776:0:2:0:0:
320,192,131776,1,10,0:2:0:0:
192,192,132123,128,2,132470:0:2:0:0:
448,192,132470,1,10,0:2:0:0:
448,192,132817,128,2,133164:0:2:0:0:
320,192,133164,128,10,133510:0:2:0:0:
64,192,133510,128,2,133857:0:2:0:0:
448,192,133857,128,10,134204:0:2:0:0:
64,192,134204,128,2,135244:0:2:0:0:
320,192,134551,1,10,0:2:0:0:
320,192,135244,1,10,0:2:0:0:
448,192,135591,128,2,135938:0:2:0:0:
192,192,135938,128,10,136285:0:2:0:0:
320,192,136285,128,2,136632:0:2:0:0:
64,192,136632,128,10,136979:0:2:0:0:
448,192,136979,128,2,137325:0:2:0:0:
192,192,137325,1,10,0:2:0:0:
320,192,137672,128,2,138019:0:2:0:0:
64,192,138019,1,10,0:2:0:0:
192,192,138192,1,0,0:0:0:70:hat.wav
64,192,138539,1,8,0:2:0:0:
448,192,138713,1,8,0:2:0:0:
192,192,139059,128,10,139406:0:2:0:0:
320,192,139406,128,10,139753:0:2:0:0:
64,192,139753,1,2,0:2:0:0:
192,192,139753,128,4,140794:0:2:0:0:
448,192,140100,1,10,0:2:0:0:
448,192,140794,1,10,0:2:0:0:
320,192,141140,128,2,141487:0:2:0:0:
64,192,141487,128,10,141834:0:2:0:0:
448,192,141834,128,2,142181:0:2:0:0:
192,192,142181,128,10,142528:0:2:0:0:
320,192,142528,128,2,142874:0:2:0:0:
64,192,142874,1,10,0:2:0:0:
448,192,143221,128,2,143568:0:2:0:0:
192,192,143568,1,10,0:2:0:0:
192,192,143915,128,2,144262:0:2:0:0:
64,192,144262,128,10,144609:0:2:0:0:
320,192,144609,128,2,144955:0:2:0:0:
192,192,144955,128,10,145302:0:2:0:0:
320,192,145302,128,2,146343:0:2:0:0:
64,192,145649,1,10,0:2:0:0:
64,192,146343,1,10,0:2:0:0:
192,192,146690,128,2,147036:0:2:0:0:
448,192,147036,128,10,147383:0:2:0:0:
64,192,147383,128,2,147730:0:2:0:0:
320,192,147730,128,10,148077:0:2:0:0:
192,192,148077,128,2,148424:0:2:0:0:
448,192,148424,1,10,0:2:0:0:
64,192,148770,128,2,149117:0:2:0:0:
320,192,149117,1,10,0:2:0:0:
192,192,149291,1,2,0:2:0:0:
448,192,149638,1,8,0:2:0:0:
64,192,149811,1,10,0:2:0:0:
320,192,149984,1,0,0:0:0:70:hat.wav
192,192,150158,128,10,150505:0:2:0:0:
448,192,150505,128,8,150851:0:2:0:0:
64,192,150851,1,2,0:2:0:0:
192,192,150851,1,4,0:2:0:0:
448,192,151198,1,8,0:2:0:0:
64,192,151545,1,2,0:2:0:0:
192,192,151718,1,2,0:2:0:0:
320,192,151892,1,8,0:2:0:0:
64,192,152065,1,2,0:2:0:0:
192,192,152412,1,2,0:2:0:0:
448,192,152585,1,8,0:2:0:0:
64,192,152932,1,2,0:2:0:0:
192,192,153106,1,2,0:2:0:0:
320,192,153279,1,8,0:2:0:0:
192,192,153626,1,2,0:2:0:0:
448,192,153973,1,8,0:2:0:0:
64,192,154320,1,2,0:2:0:0:
192,192,154493,1,2,0:2:0:0:
320,192,154666,1,8,0:2:0:0:
64,192,154840,1,2,0:2:0:0:
192,192,155187,1,2,0:2:0:0:
448,192,155360,1,8,0:2:0:0:
64,192,155707,1,2,0:2:0:0:
192,192,155880,1,2,0:2:0:0:
320,192,156054,1,8,0:2:0:0:
448,192,156401,1,2,0:2:0:0:
64,192,156747,1,8,0:2:0:0:
448,192,157094,1,2,0:2:0:0:
320,192,157268,1,2,0:2:0:0:
192,192,157441,1,8,0:2:0:0:
448,192,157614,1,2,0:2:0:0:
320,192,157961,1,2,0:2:0:0:
64,192,158135,1,8,0:2:0:0:
448,192,158481,1,2,0:2:0:0:
320,192,158655,1,2,0:2:0:0:
192,192,158828,1,8,0:2:0:0:
448,192,159175,1,2,0:2:0:0:
64,192,159522,1,8,0:2:0:0:
448,192,159869,1,2,0:2:0:0:
320,192,160042,1,2,0:2:0:0:
192,192,160216,1,8,0:2:0:0:
448,192,160389,1,2,0:2:0:0:
320,192,160736,1,2,0:2:0:0:
64,192,160909,1,8,0:2:0:0:
448,192,161256,1,2,0:2:0:0:
320,192,161429,1,2,0:2:0:0:
192,192,161603,1,8,0:2:0:0:
64,192,161950,1,2,0:2:0:0:
320,192,162296,1,8,0:2:0:0:
64,192,162643,1,2,0:2:0:0:
448,192,162817,1,2,0:2:0:0:
192,192,162990,1,8,0:2:0:0:
448,192,163164,1,2,0:2:0:0:
64,192,163510,1,2,0:2:0:0:
320,192,163684,1,8,0:2:0:0:
64,192,164031,1,2,0:2:0:0:
448,192,164204,1,2,0:2:0:0:
192,192,164377,1,8,0:2:0:0:
64,192,164724,1,2,0:2:0:0:
320,192,165071,1,8,0:2:0:0:
64,192,165418,1,2,0:2:0:0:
448,192,165591,1,2,0:2:0:0:
192,192,165765,1,8,0:2:0:0:
448,192,165938,1,2,0:2:0:0:
64,192,166285,1,2,0:2:0:0:
320,192,166458,1,8,0:2:0:0:
64,192,166805,1,2,0:2:0:0:
448,192,166979,1,2,0:2:0:0:
192,192,167152,1,8,0:2:0:0:
448,192,167499,1,2,0:2:0:0:
192,192,167846,1,8,0:2:0:0:
448,192,168192,1,2,0:2:0:0:
64,192,168366,1,2,0:2:0:0:
320,192,168539,1,8,0:2:0:0:
64,192,168713,1,2,0:2:0:0:
448,192,169059,1,2,0:2:0:0:
192,192,169233,1,8,0:2:0:0:
448,192,169580,1,2,0:2:0:0:
64,192,169753,1,2,0:2:0:0:
320,192,169927,1,8,0:2:0:0:
64,192,170273,1,2,0:2:0:0:
320,192,170447,1,0,0:0:0:0:
320,192,170794,1,0,0:0:0:0:
192,192,170967,1,2,0:2:0:0:
192,192,171314,1,8,0:2:0:0:
448,192,171487,1,2,0:2:0:0:
192,192,171834,1,10,0:2:0:0:
320,192,172007,1,8,0:2:0:0:
448,192,172181,1,0,0:0:0:0:
64,192,172354,128,2,172701:0:2:0:0:
192,192,172701,128,10,173048:0:2:0:0:
320,192,173048,128,2,173568:0:2:0:0:
448,192,173048,1,4,0:2:0:0:
64,192,173568,1,2,0:2:0:0:
448,192,173742,1,8,0:2:0:0:
192,192,174088,1,2,0:2:0:0:
320,192,174262,1,2,0:2:0:0:
64,192,174609,1,2,0:2:0:0:
448,192,175129,128,8,175476:0:2:0:0:
320,192,175476,128,2,175822:0:2:0:0:
192,192,175822,128,2,176169:0:2:0:0:
448,192,176169,128,0,176516:0:0:0:0:
64,192,176516,128,8,176863:0:2:0:0:
192,192,176863,1,0,0:0:0:0:
320,192,177036,128,2,177383:0:2:0:0:
64,192,177383,1,8,0:2:0:0:
192,192,177557,1,2,0:2:0:0:
448,192,177903,128,2,178250:0:2:0:0:
320,192,178250,128,8,178597:0:2:0:0:
64,192,178597,1,4,0:2:0:0:
192,192,178597,128,2,179117:0:2:0:0:
448,192,179117,1,2,0:2:0:0:
64,192,179291,1,8,0:2:0:0:
320,192,179638,1,2,0:2:0:0:
192,192,179811,1,2,0:2:0:0:
448,192,180158,1,8,0:2:0:0:
192,192,180678,1,8,0:2:0:0:
320,192,181025,1,8,0:2:0:0:
192,192,181198,1,8,0:2:0:0:
64,192,181372,1,4,0:2:0:0:
448,192,181372,128,2,182065:0:2:0:0:
192,192,181718,1,8,0:2:0:0:
192,192,182065,128,2,182759:0:2:0:0:
320,192,182412,1,8,0:2:0:0:
320,192,182759,128,2,183453:0:2:0:0:
64,192,183106,1,8,0:2:0:0:
64,192,183453,128,2,184146:0:2:0:0:
448,192,183799,1,8,0:2:0:0:
448,192,184146,128,10,184840:0:2:0:0:
64,192,184840,128,10,185533:0:2:0:0:
320,192,185533,128,10,185880:0:2:0:0:
192,192,185880,128,10,186227:0:2:0:0:
448,192,186227,128,8,186574:0:2:0:0:
320,192,186574,128,8,186921:0:2:0:0:
64,192,186921,1,4,0:2:0:0:
192,192,186921,128,2,187268:0:2:0:0:
320,192,187268,1,10,0:2:0:0:
448,192,187614,128,2,187961:0:2:0:0:
320,192,187961,128,10,188308:0:2:0:0:
192,192,188308,128,2,188655:0:2:0:0:
448,192,188655,1,10,0:2:0:0:
320,192,188828,1,0,0:0:0:70:hat.wav
64,192,189175,128,0,189695:0:0:0:70:hat.wav
448,192,189695,128,2,190042:0:2:0:0:
64,192,190042,1,10,0:2:0:0:
192,192,190216,128,0,190562:0:0:0:70:hat.wav
320,192,190562,128,0,190909:0:0:0:70:hat.wav
64,192,190909,128,0,191429:0:0:0:70:hat.wav
448,192,191429,1,10,0:2:0:0:
64,192,191776,128,2,192123:0:2:0:0:
192,192,192123,128,10,192470:0:2:0:0:
320,192,192470,128,2,192817:0:2:0:0:
192,192,192817,1,10,0:2:0:0:
64,192,193164,128,2,193510:0:2:0:0:
192,192,193510,128,10,193857:0:2:0:0:
320,192,193857,128,2,194204:0:2:0:0:
64,192,194204,1,10,0:2:0:0:
192,192,194377,1,0,0:0:0:70:hat.wav
448,192,194724,128,0,195244:0:0:0:70:hat.wav
64,192,195244,128,2,195591:0:2:0:0:
448,192,195591,1,10,0:2:0:0:
320,192,195765,128,0,196111:0:0:0:70:hat.wav
192,192,196111,128,0,196458:0:0:0:70:hat.wav
448,192,196458,128,0,196979:0:0:0:70:hat.wav
64,192,196979,1,10,0:2:0:0:
64,192,197325,128,2,197672:0:2:0:0:
192,192,197672,128,10,198019:0:2:0:0:
320,192,198019,1,4,0:2:0:0:
448,192,198019,128,2,198366:0:2:0:0:
192,192,198366,1,10,0:2:0:0:
320,192,198713,128,2,199059:0:2:0:0:
192,192,199059,128,10,199406:0:2:0:0:
64,192,199406,128,2,199753:0:2:0:0:
320,192,199753,1,10,0:2:0:0:
192,192,200100,128,2,200447:0:2:0:0:
448,192,200447,128,10,200794:0:2:0:0:
64,192,200794,128,2,201140:0:2:0:0:
192,192,201140,128,10,201487:0:2:0:0:
448,192,201487,128,2,201834:0:2:0:0:
320,192,201834,128,10,202181:0:2:0:0:
192,192,202181,128,2,202528:0:2:0:0:
448,192,202528,1,10,0:2:0:0:
64,192,202874,128,2,203221:0:2:0:0:
448,192,203221,1,10,0:2:0:0:
320,192,203395,1,8,0:2:0:0:
320,192,203915,128,10,204262:0:2:0:0:
192,192,204262,128,2,204609:0:2:0:0:
64,192,204609,1,10,0:2:0:0:
448,192,204782,128,0,205129:0:0:0:70:hat.wav
64,192,205129,1,0,0:0:0:70:hat.wav
192,192,205302,1,10,0:2:0:0:
192,192,205649,128,2,205996:0:2:0:0:
448,192,205996,1,10,0:2:0:0:
320,192,206169,1,0,0:0:0:70:hat.wav
320,192,206516,1,0,0:0:0:70:hat.wav
192,192,206690,1,10,0:2:0:0:
192,192,207036,128,2,207383:0:2:0:0:
320,192,207383,1,10,0:2:0:0:
64,192,207730,1,10,0:2:0:0:
192,192,207903,1,10,0:2:0:0:
320,192,208077,1,10,0:2:0:0:
192,192,208424,128,2,208770:0:2:0:0:
64,192,208770,128,10,209117:0:2:0:0:
320,192,209117,128,4,209464:0:2:0:0:
448,192,209117,1,2,0:2:0:0:
192,192,209464,1,10,0:2:0:0:
192,192,209811,128,2,210158:0:2:0:0:
64,192,210158,128,10,210505:0:2:0:0:
320,192,210505,128,2,210851:0:2:0:0:
64,192,210851,1,10,0:2:0:0:
192,192,211025,1,0,0:0:0:70:hat.wav
448,192,211372,128,0,211892:0:0:0:70:hat.wav
64,192,211892,128,2,212239:0:2:0:0:
448,192,212239,1,10,0:2:0:0:
320,192,212412,128,0,212759:0:0:0:70:hat.wav
192,192,212759,128,0,213106:0:0:0:70:hat.wav
448,192,213106,128,0,213626:0:0:0:70:hat.wav
64,192,213626,1,10,0:2:0:0:
320,192,213973,128,2,214320:0:2:0:0:
448,192,214320,128,10,214666:0:2:0:0:
192,192,214666,128,2,215013:0:2:0:0:
320,192,215013,1,10,0:2:0:0:
320,192,215360,128,2,215707:0:2:0:0:
448,192,215707,128,10,216054:0:2:0:0:
192,192,216054,128,2,216401:0:2:0:0:
448,192,216401,1,10,0:2:0:0:
320,192,216574,1,0,0:0:0:70:hat.wav
64,192,216921,128,0,217441:0:0:0:70:hat.wav
448,192,217441,128,2,217788:0:2:0:0:
64,192,217788,1,10,0:2:0:0:
192,192,218135,1,2,0:2:0:0:
320,192,218308,128,0,218655:0:0:0:70:hat.wav
64,192,218655,128,0,219175:0:0:0:70:hat.wav
448,192,219175,1,10,0:2:0:0:
320,192,219522,128,2,219869:0:2:0:0:
192,192,219869,128,10,220216:0:2:0:0:
64,192,220216,128,2,220562:0:2:0:0:
448,192,220216,1,4,0:2:0:0:
320,192,220562,1,10,0:2:0:0:
192,192,220909,128,2,221256:0:2:0:0:
320,192,221256,128,10,221603:0:2:0:0:
448,192,221603,128,2,221950:0:2:0:0:
192,192,221950,1,10,0:2:0:0:
320,192,222296,128,2,222643:0:2:0:0:
64,192,222643,128,10,222990:0:2:0:0:
448,192,222990,128,2,223337:0:2:0:0:
192,192,223337,128,10,223684:0:2:0:0:
448,192,223684,128,2,224031:0:2:0:0:
320,192,224031,128,10,224377:0:2:0:0:
192,192,224377,128,2,224724:0:2:0:0:
64,192,224724,1,10,0:2:0:0:
448,192,225071,128,2,225418:0:2:0:0:
64,192,225418,128,10,225765:0:2:0:0:
320,192,225765,128,2,226458:0:2:0:0:
192,192,226111,1,10,0:2:0:0:
64,192,226805,128,10,227152:0:2:0:0:
192,192,227152,128,2,227499:0:2:0:0:
320,192,227499,128,10,227846:0:2:0:0:
448,192,227846,128,2,228192:0:2:0:0:
64,192,228192,128,10,228539:0:2:0:0:
320,192,228539,128,2,228886:0:2:0:0:
192,192,228886,128,10,229233:0:2:0:0:
448,192,229233,128,2,229580:0:2:0:0:
64,192,229580,1,10,0:2:0:0:
192,192,229753,128,0,230620:0:0:0:70:hat.wav
320,192,230273,1,10,0:2:0:0:
448,192,230620,128,2,230967:0:2:0:0:
320,192,230967,128,10,231314:0:2:0:0:
64,192,231314,128,4,232354:0:2:0:0:
192,192,231314,1,2,0:2:0:0:
448,192,232354,128,0,232701:0:0:0:0:
192,192,232701,1,2,0:2:0:0:
320,192,233742,128,0,234088:0:0:0:0:
64,192,234088,128,2,234782:0:2:0:0:
448,192,234088,1,4,0:2:0:0:
192,192,234782,1,8,0:2:0:0:
320,192,235476,128,8,236169:0:2:0:0:
448,192,236169,1,8,0:2:0:0:
192,192,236863,128,8,237557:0:2:0:0:
64,192,237557,1,8,0:2:0:0:
320,192,238250,128,8,238944:0:2:0:0:
448,192,238944,1,8,0:2:0:0:
64,192,239638,128,4,241025:0:2:0:0:
448,192,239638,1,8,0:2:0:0:
192,192,240331,1,8,0:2:0:0:
320,192,241025,128,8,242412:0:2:0:0:
448,192,241718,1,8,0:2:0:0:
192,192,242412,128,8,243799:0:2:0:0:
64,192,243106,1,8,0:2:0:0:
320,192,243799,128,8,245187:0:2:0:0:
448,192,244493,1,8,0:2:0:0:
64,192,245187,128,12,245880:0:2:0:0:
192,192,245187,1,2,0:2:0:0:
320,192,245880,128,10,246574:0:2:0:0:
192,192,246574,128,10,247268:0:2:0:0:
448,192,247268,128,10,247961:0:2:0:0:
64,192,247961,128,10,248655:0:2:0:0:
320,192,248655,128,10,249348:0:2:0:0:
192,192,249348,128,10,250042:0:2:0:0:
448,192,250042,1,10,0:2:0:0:
320,192,250273,1,10,0:2:0:0:
192,192,250505,1,10,0:2:0:0:
64,192,250736,1,2,0:2:0:0:
448,192,250736,1,4,0:2:0:0:
320,192,251083,1,2,0:2:0:0:
192,192,251429,1,2,0:2:0:0:
448,192,251776,1,2,0:2:0:0:
64,192,252123,1,2,0:2:0:0:
320,192,252470,1,2,0:2:0:0:
192,192,252817,1,2,0:2:0:0:
448,192,253164,1,2,0:2:0:0:
64,192,253510,1,2,0:2:0:0:
192,192,253510,1,4,0:2:0:0:
448,192,253857,1,2,0:2:0:0:
192,192,254204,1,2,0:2:0:0:
320,192,254551,1,2,0:2:0:0:
64,192,254898,1,2,0:2:0:0:
64,192,255244,1,2,0:2:0:0:
448,192,255591,1,0,0:0:0:70:hat.wav
448,192,255938,1,0,0:0:0:70:hat.wav
192,192,256285,128,10,256979:0:2:0:0:
320,192,256979,128,10,257672:0:2:0:0:
64,192,257672,128,14,259059:0:2:0:0:
192,192,259059,1,2,0:2:0:0:
448,192,259233,1,8,0:2:0:0:
192,192,259406,1,8,0:2:0:0:
448,192,259580,1,8,0:2:0:0:
64,192,259753,128,0,260100:0:0:0:0:
192,192,260100,128,0,260447:0:0:0:0:
320,192,260447,128,2,260794:0:2:0:0:
448,192,260447,1,4,0:2:0:0:
192,192,260794,1,10,0:2:0:0:
64,192,261140,128,2,261487:0:2:0:0:
192,192,261487,128,10,261834:0:2:0:0:
320,192,261834,128,2,262181:0:2:0:0:
64,192,262181,1,10,0:2:0:0:
192,192,262354,1,0,0:0:0:70:hat.wav
448,192,262701,128,0,263221:0:0:0:70:hat.wav
64,192,263221,128,2,263568:0:2:0:0:
448,192,263568,1,10,0:2:0:0:
320,192,263742,128,0,264088:0:0:0:70:hat.wav
192,192,264088,128,0,264435:0:0:0:70:hat.wav
448,192,264435,128,0,264955:0:0:0:70:hat.wav
64,192,264955,1,10,0:2:0:0:
448,192,265302,128,2,265649:0:2:0:0:
320,192,265649,128,10,265996:0:2:0:0:
192,192,265996,128,2,266343:0:2:0:0:
320,192,266343,1,10,0:2:0:0:
448,192,266690,128,2,267036:0:2:0:0:
320,192,267036,128,10,267383:0:2:0:0:
192,192,267383,128,2,267730:0:2:0:0:
448,192,267730,1,10,0:2:0:0:
320,192,267903,1,0,0:0:0:70:hat.wav
64,192,268250,128,0,268770:0:0:0:70:hat.wav
448,192,268770,128,2,269117:0:2:0:0:
64,192,269117,1,10,0:2:0:0:
192,192,269291,128,0,269638:0:0:0:70:hat.wav
320,192,269638,128,0,269984:0:0:0:70:hat.wav
64,192,269984,128,0,270505:0:0:0:70:hat.wav
448,192,270505,1,10,0:2:0:0:
448,192,270851,128,2,271198:0:2:0:0:
320,192,271198,128,10,271545:0:2:0:0:
64,192,271545,128,4,271892:0:2:0:0:
192,192,271545,1,2,0:2:0:0:
320,192,271892,1,10,0:2:0:0:
192,192,272239,128,2,272585:0:2:0:0:
320,192,272585,128,10,272932:0:2:0:0:
448,192,272932,128,2,273279:0:2:0:0:
192,192,273279,1,10,0:2:0:0:
320,192,273626,128,2,273973:0:2:0:0:
64,192,273973,128,10,274320:0:2:0:0:
448,192,274320,128,2,274666:0:2:0:0:
320,192,274666,128,10,275013:0:2:0:0:
64,192,275013,128,2,275360:0:2:0:0:
192,192,275360,128,10,275707:0:2:0:0:
320,192,275707,128,2,276054:0:2:0:0:
64,192,276054,1,10,0:2:0:0:
448,192,276401,128,2,276747:0:2:0:0:
64,192,276747,1,10,0:2:0:0:
192,192,276921,1,8,0:2:0:0:
192,192,277441,128,10,277788:0:2:0:0:
320,192,277788,128,2,278135:0:2:0:0:
448,192,278135,1,10,0:2:0:0:
64,192,278308,128,0,278655:0:0:0:70:hat.wav
448,192,278655,1,0,0:0:0:70:hat.wav
320,192,278828,1,10,0:2:0:0:
320,192,279175,128,2,279522:0:2:0:0:
64,192,279522,1,10,0:2:0:0:
192,192,279695,1,0,0:0:0:70:hat.wav
192,192,280042,1,0,0:0:0:70:hat.wav
320,192,280216,1,10,0:2:0:0:
320,192,280562,128,2,280909:0:2:0:0:
192,192,280909,1,10,0:2:0:0:
448,192,281256,1,10,0:2:0:0:
320,192,281429,1,10,0:2:0:0:
192,192,281603,1,10,0:2:0:0:
320,192,281950,128,2,282296:0:2:0:0:
448,192,282296,128,10,282643:0:2:0:0:
64,192,282643,1,4,0:2:0:0:
192,192,282643,128,2,282990:0:2:0:0:
320,192,282990,1,10,0:2:0:0:
320,192,283337,128,2,283684:0:2:0:0:
448,192,283684,128,10,284031:0:2:0:0:
192,192,284031,128,2,284377:0:2:0:0:
448,192,284377,1,10,0:2:0:0:
320,192,284551,1,0,0:0:0:70:hat.wav
64,192,284898,128,0,285418:0:0:0:70:hat.wav
448,192,285418,128,2,285765:0:2:0:0:
64,192,285765,1,10,0:2:0:0:
192,192,285938,128,0,286285:0:0:0:70:hat.wav
320,192,286285,128,0,286632:0:0:0:70:hat.wav
64,192,286632,128,0,287152:0:0:0:70:hat.wav
448,192,287152,1,10,0:2:0:0:
192,192,287499,128,2,287846:0:2:0:0:
64,192,287846,128,10,288192:0:2:0:0:
320,192,288192,128,2,288539:0:2:0:0:
192,192,288539,1,10,0:2:0:0:
192,192,288886,128,2,289233:0:2:0:0:
64,192,289233,128,10,289580:0:2:0:0:
320,192,289580,128,2,289927:0:2:0:0:
64,192,289927,1,10,0:2:0:0:
192,192,290100,1,0,0:0:0:70:hat.wav
448,192,290447,128,0,290967:0:0:0:70:hat.wav
64,192,290967,128,2,291314:0:2:0:0:
448,192,291314,1,10,0:2:0:0:
320,192,291661,1,2,0:2:0:0:
192,192,291834,128,0,292181:0:0:0:70:hat.wav
448,192,292181,128,0,292701:0:0:0:70:hat.wav
64,192,292701,1,10,0:2:0:0:
64,192,293048,128,2,293395:0:2:0:0:
192,192,293395,128,10,293742:0:2:0:0:
320,192,293742,1,2,0:2:0:0:
448,192,293742,128,4,294088:0:2:0:0:
192,192,294088,1,10,0:2:0:0:
320,192,294435,128,2,294782:0:2:0:0:
192,192,294782,128,10,295129:0:2:0:0:
64,192,295129,128,2,295476:0:2:0:0:
320,192,295476,1,10,0:2:0:0:
192,192,295822,128,2,296169:0:2:0:0:
448,192,296169,128,10,296516:0:2:0:0:
64,192,296516,128,2,296863:0:2:0:0:
320,192,296863,128,10,297210:0:2:0:0:
64,192,297210,128,2,297557:0:2:0:0:
192,192,297557,128,10,297903:0:2:0:0:
320,192,297903,128,2,298250:0:2:0:0:
448,192,298250,1,10,0:2:0:0:
64,192,298597,128,2,298944:0:2:0:0:
448,192,298944,128,10,299291:0:2:0:0:
192,192,299291,128,2,299984:0:2:0:0:
320,192,299638,1,10,0:2:0:0:
448,192,300331,128,10,300678:0:2:0:0:
320,192,300678,128,2,301025:0:2:0:0:
192,192,301025,128,10,301372:0:2:0:0:
64,192,301372,128,2,301718:0:2:0:0:
448,192,301718,128,10,302065:0:2:0:0:
192,192,302065,128,2,302412:0:2:0:0:
320,192,302412,128,10,302759:0:2:0:0:
64,192,302759,128,2,303106:0:2:0:0:
448,192,303106,1,10,0:2:0:0:
320,192,303279,128,0,304146:0:0:0:70:hat.wav
192,192,303799,1,10,0:2:0:0:
64,192,304146,128,2,304493:0:2:0:0:
192,192,304493,128,10,304840:0:2:0:0:
320,192,304840,1,4,0:2:0:0:
448,192,304840,128,2,305880:0:2:0:0:
64,192,305880,128,0,306227:0:0:0:0:
320,192,306227,1,2,0:2:0:0:
448,192,306921,1,2,0:2:0:0:
320,192,307268,1,8,0:2:0:0:
64,192,307614,1,4,0:2:0:0:
192,192,307614,1,2,0:2:0:0:
448,192,307961,1,10,0:2:0:0:
64,192,308308,1,2,0:2:0:0:
320,192,308655,1,10,0:2:0:0:
448,192,309002,1,2,0:2:0:0:
64,192,309348,1,10,0:2:0:0:
320,192,309695,1,2,0:2:0:0:
192,192,310042,1,10,0:2:0:0:
64,192,310389,1,2,0:2:0:0:
448,192,310736,1,10,0:2:0:0:
192,192,311083,1,2,0:2:0:0:
320,192,311429,1,10,0:2:0:0:
448,192,311776,1,2,0:2:0:0:
64,192,312123,1,10,0:2:0:0:
320,192,312643,1,8,0:2:0:0:
192,192,312817,1,10,0:2:0:0:
320,192,312990,1,8,0:2:0:0:
64,192,313164,1,2,0:2:0:0:
320,192,313510,1,10,0:2:0:0:
192,192,313857,1,2,0:2:0:0:
448,192,314204,1,10,0:2:0:0:
320,192,314551,1,2,0:2:0:0:
64,192,314898,1,10,0:2:0:0:
448,192,315244,1,2,0:2:0:0:
192,192,315591,1,10,0:2:0:0:
448,192,315938,1,2,0:2:0:0:
64,192,316285,1,10,0:2:0:0:
320,192,316632,1,2,0:2:0:0:
192,192,316979,1,10,0:2:0:0:
64,192,317325,1,2,0:2:0:0:
448,192,317672,1,10,0:2:0:0:
192,192,318192,1,8,0:2:0:0:
320,192,318366,1,10,0:2:0:0:
192,192,318539,1,8,0:2:0:0:
320,192,318713,1,2,0:2:0:0:
448,192,318713,1,4,0:2:0:0:
64,192,319059,1,10,0:2:0:0:
448,192,319406,1,2,0:2:0:0:
192,192,319753,1,10,0:2:0:0:
64,192,320100,1,2,0:2:0:0:
448,192,320447,1,10,0:2:0:0:
192,192,320794,1,2,0:2:0:0:
320,192,321140,1,10,0:2:0:0:
448,192,321487,1,2,0:2:0:0:
64,192,321834,1,10,0:2:0:0:
320,192,322181,1,2,0:2:0:0:
192,192,322528,1,10,0:2:0:0:
64,192,322874,1,2,0:2:0:0:
448,192,323221,1,10,0:2:0:0:
192,192,323742,1,8,0:2:0:0:
320,192,323915,1,8,0:2:0:0:
448,192,324262,1,2,0:2:0:0:
192,192,324609,1,10,0:2:0:0:
320,192,324955,1,2,0:2:0:0:
64,192,325302,1,10,0:2:0:0:
192,192,325649,1,2,0:2:0:0:
448,192,325996,1,10,0:2:0:0:
64,192,326343,1,2,0:2:0:0:
320,192,326690,1,10,0:2:0:0:
64,192,327036,1,2,0:2:0:0:
448,192,327383,1,10,0:2:0:0:
192,192,327730,1,2,0:2:0:0:
320,192,328077,1,10,0:2:0:0:
448,192,328424,1,2,0:2:0:0:
64,192,328770,1,10,0:2:0:0:
320,192,329291,1,8,0:2:0:0:
192,192,329464,1,10,0:2:0:0:
320,192,329638,1,8,0:2:0:0:
64,192,329811,128,2,333626:0:2:0:0:
448,192,329811,1,4,0:2:0:0:
