osu file format v14

[General]
AudioFilename: audio.ogg
AudioLeadIn: 0
PreviewTime: 64366
Countdown: 0
SampleSet: Soft
StackLeniency: 0.7
Mode: 0
LetterboxInBreaks: 0
WidescreenStoryboard: 0

[Editor]
DistanceSpacing: 1.6
BeatDivisor: 4
GridSize: 4
TimelineZoom: 2.2

[Metadata]
Title:Etoile (TV Size)
TitleUnicode:Etoile (TV Size)
Artist:Niizuma Yae (CV: Naganawa Maria)
ArtistUnicode:新妻八恵 (CV: 長縄まりあ)
Creator:Niizuma Yae
Version:Moonlit Wish
Source:ワールドダイスター
Tags:eiri- ayyri annabel yayoi takatsuki world dai star idol anime j pop jpop j-pop japanese video game Ryu Miho Karasawa 唐沢美帆 シリウス sirius wds 夢のステラリウム Yume no Stellarium insert ep episode 12
BeatmapID:4444365
BeatmapSetID:2116342

[Difficulty]
HPDrainRate:6
CircleSize:4.4
OverallDifficulty:7
ApproachRate:8
SliderMultiplier:1.52
SliderTickRate:1

[Events]
//Background and Video events
0,0,"Yae_card_2.jpg",0,0
//Break Periods
2,84703,87635
//Storyboard Layer 0 (Background)
//Storyboard Layer 1 (Fail)
//Storyboard Layer 2 (Pass)
//Storyboard Layer 3 (Foreground)
//Storyboard Layer 4 (Overlay)
//Storyboard Sound Samples

[TimingPoints]
668,410.958904109589,6,2,1,30,1,0
10325,-100,6,2,1,5,0,0
10531,-100,6,2,1,30,0,0
10941,-125,6,2,1,30,0,0
19161,-166.666666666667,6,2,1,30,0,0
19263,-125,6,2,1,5,0,0
20394,-125,6,2,1,40,0,0
33955,-250,6,2,1,40,0,0
35188,-117.647058823529,6,2,1,50,0,0
45051,-117.647058823529,6,2,1,60,0,0
54914,-117.647058823529,6,2,1,65,0,0
62311,-333.333333333333,6,2,1,50,0,0
63544,-142.857142857143,6,2,1,60,0,0
64366,-117.647058823529,6,2,1,60,0,0
64777,-100,6,2,1,70,0,1
84503,-100,6,2,1,50,0,0
89435,-117.647058823529,6,2,1,40,0,0
99298,-117.647058823529,6,2,1,5,0,0

[Colours]
Combo1 : 221,23,249
Combo2 : 233,130,255

[HitObjects]
256,192,668,12,0,10325,0:2:0:0:
125,271,10531,5,2,0:2:0:0:
73,345,10941,5,2,0:2:0:0:
73,345,11147,2,0,P|102:350|157:364,1,60.8,2|0,0:2|0:2,0:2:0:0:
210,305,11558,1,2,0:2:0:0:
210,305,11763,2,0,B|242:271|242:271|221:354,2,121.6,2|2|2,0:2|0:2|0:2,0:2:0:0:
359,380,12996,6,0,P|390:329|368:267,1,121.6,2|2,0:2|0:2,0:2:0:0:
311,318,13613,1,0,0:2:0:0:
373,272,13818,1,2,0:2:0:0:
512,249,14229,6,0,B|452:233|411:251|411:251|372:212|384:168,1,182.4,2|0,0:2|0:2,0:2:0:0:
381,180,15051,1,2,0:2:0:0:
462,316,15462,5,2,0:2:0:0:
298,377,15873,5,2,0:2:0:0:
298,377,16079,2,0,P|304:348|310:318,1,60.8,2|0,0:2|0:2,0:2:0:0:
406,269,16490,1,2,0:2:0:0:
406,269,16695,2,0,B|375:242|349:247|349:247|371:260|387:304,2,121.6,2|2|2,0:2|0:2|0:2,0:2:0:0:
452,178,17928,6,0,P|411:126|343:129,1,121.6,2|2,0:2|0:2,0:2:0:0:
291,163,18545,5,0,0:2:0:0:
280,148,18750,1,2,0:2:0:0:
281,129,18955,1,0,0:2:0:0:
171,259,19161,6,0,B|72:228|131:182|8:146,1,182.399994433594,2|0,0:2|0:2,0:2:0:0:
28,152,20394,6,0,P|59:153|94:132,1,60.8,2|0,0:2|0:2,0:2:0:0:
63,19,20804,1,2,0:2:0:0:
63,19,21010,2,0,P|46:45|47:86,1,60.8,2|0,0:2|0:2,0:2:0:0:
130,68,21421,1,2,0:2:0:0:
130,68,21626,2,0,B|211:47|211:47|251:67,2,121.6,2|2|2,0:2|0:2|0:2,0:2:0:0:
293,132,22859,6,0,P|352:138|388:76,1,121.6,2|2,0:2|0:2,0:2:0:0:
387,92,23476,1,0,0:2:0:0:
387,92,23681,1,2,0:2:0:0:
487,278,24092,6,0,B|434:278|379:243|379:243|310:274,1,182.4,2|2,0:2|0:2,0:2:0:0:
378,333,25120,5,2,0:2:0:0:
233,194,25325,6,0,P|224:254|208:312,1,121.6,2|2,0:2|0:2,0:2:0:0:
90,370,25941,1,0,0:2:0:0:
90,370,26147,2,0,B|86:336|86:336|110:293,1,60.8,2|0,0:2|0:2,0:2:0:0:
127,179,26558,6,0,P|132:208|141:237,1,60.8,2|0,0:2|0:2,0:2:0:0:
22,173,26969,2,0,P|16:143|7:114,1,60.8,2|0,0:2|0:2,0:2:0:0:
140,178,27380,2,0,P|145:207|154:236,1,60.8,2|0,0:2|0:2,0:2:0:0:
318,327,27791,6,0,P|343:245|229:287,1,243.2,2|0,0:2|0:2,0:2:0:0:
229,258,28818,1,2,0:2:0:0:
260,384,29024,6,0,B|291:365|324:359|324:359|338:315|338:315|374:309|414:285,1,182.4,2|2,0:2|0:2,0:2:0:0:
410,381,30051,5,2,0:2:0:0:
457,220,30257,2,0,P|491:277|460:347,1,121.6,2|2,0:2|0:2,0:2:0:0:
478,327,30873,1,0,0:2:0:0:
345,338,31078,2,0,P|337:304|324:257,1,60.8,2|0,0:2|0:2,0:2:0:0:
303,182,31489,6,0,P|266:167|243:136,1,60.8,2|0,0:2|0:2,0:2:0:0:
395,158,31900,2,0,P|401:196|387:232,1,60.8,2|0,0:2|0:2,0:2:0:0:
328,91,32311,2,0,P|358:66|397:61,1,60.8,2|0,0:2|0:2,0:2:0:0:
245,73,32722,6,0,P|198:114|139:111,1,121.6,2|2,0:2|0:2,0:2:0:0:
28,228,33339,1,0,0:2:0:0:
106,193,33544,1,2,0:2:0:0:
49,88,33750,1,0,0:2:0:0:
216,186,33955,6,0,P|195:249|225:303,1,121.6,2|2,0:2|0:2,0:2:0:0:
392,246,35188,6,0,P|335:217|276:239,1,129.200002464294,10|0,0:2|0:2,0:2:0:0:
335,302,36010,5,0,0:2:0:0:
335,302,36215,1,0,3:2:0:0:
397,148,36421,2,0,B|435:135|465:112|465:112|495:115|516:132,1,129.200002464294,10|2,0:2|1:2,0:2:0:0:
471,196,37037,1,2,0:2:0:0:
396,66,37243,1,2,3:2:0:0:
279,233,37654,6,0,P|286:169|237:113,1,129.200002464294,10|0,0:2|0:2,0:2:0:0:
204,196,38476,5,0,0:2:0:0:
204,196,38681,1,0,3:2:0:0:
57,276,38887,2,0,B|137:246|137:246|155:260|183:270,1,129.200002464294,10|0,0:2|0:2,0:2:0:0:
264,360,39709,6,0,P|237:354|197:346,1,64.6000012321472,0|0,3:2|1:2,0:2:0:0:
332,286,40120,6,0,P|344:331|436:353,1,129.200002464294,10|0,0:2|0:2,0:2:0:0:
415,360,40942,5,0,0:2:0:0:
415,360,41147,1,0,3:2:0:0:
263,241,41353,2,0,P|200:262|136:268,1,129.200002464294,10|0,0:2|1:2,0:2:0:0:
81,347,41969,1,0,0:2:0:0:
2,326,42175,1,0,3:2:0:0:
83,205,42586,6,0,P|89:150|41:88,1,129.200002464294,10|0,0:2|0:2,0:2:0:0:
15,167,43408,5,0,0:2:0:0:
15,167,43613,1,0,3:2:0:0:
136,68,43819,2,0,B|185:83|185:83|205:109|205:109|249:122,1,129.200002464294,10|0,0:2|0:2,0:2:0:0:
271,192,44640,5,0,1:0:0:0:
248,121,44846,1,0,1:0:0:0:
342,28,45051,6,0,P|354:91|372:153,1,129.200002464294,2|2,3:2|0:2,0:2:0:0:
433,203,45667,1,0,0:2:0:0:
501,103,45873,2,0,P|467:94|435:83,1,64.6000012321472,2|0,0:2|3:2,0:2:0:0:
248,190,46284,6,0,P|312:168|378:151,2,129.200002464294,10|2|2,0:2|1:2|0:2,0:2:0:0:
163,248,47517,6,0,P|143:179|176:124,1,129.200002464294,2|2,3:2|0:2,0:2:0:0:
81,283,48133,2,0,P|49:274|12:270,1,64.6000012321472,2|0,0:2|0:2,0:2:0:0:
17,270,48544,1,0,3:2:0:0:
142,359,48750,6,0,B|157:324|184:293|184:293|170:275|159:235,2,129.200002464294,10|2|2,0:2|0:2|3:2,0:2:0:0:
226,367,49983,6,0,B|309:340|309:340|349:361,1,129.200002464294,2|2,1:2|0:2,0:2:0:0:
484,253,50599,2,0,P|473:292|467:330,1,64.6000012321472,2|0,0:2|0:2,0:2:0:0:
384,264,51010,1,2,3:2:0:0:
512,151,51215,6,0,P|450:140|402:76,2,129.200002464294,10|2|2,0:2|1:2|0:2,0:2:0:0:
342,26,52448,6,0,B|342:67|310:84|310:84|193:39|193:39|225:71|210:117,1,258.400004928589,2|0,3:2|0:2,0:2:0:0:
271,49,53476,1,2,3:2:0:0:
209,191,53681,6,0,B|189:230|190:267|190:267|122:85,1,258.400004928589,10|0,0:2|1:2,0:2:0:0:
127,99,54709,1,0,1:2:0:0:
0,272,54914,6,0,P|28:211|91:192,1,129.200002464294,2|2,3:2|0:2,0:2:0:0:
127,99,55531,2,0,P|96:90|66:79,2,64.6000012321472,2|2|2,0:2|0:2|0:2,0:2:0:0:
223,216,56147,6,0,B|199:172|199:172|212:141|228:88,2,129.200002464294,10|2|2,0:2|1:2|0:2,0:2:0:0:
70,277,57380,6,0,L|-14:259,1,64.6000012321472,2|0,3:2|0:2,0:2:0:0:
142,230,57791,2,0,P|153:307|119:347,1,129.200002464294,2|2,0:2|0:2,0:2:0:0:
72,194,58407,1,2,0:2:0:0:
180,290,58613,6,0,P|241:299|305:320,2,129.200002464294,10|2|2,0:2|0:2|0:2,0:2:0:0:
343,384,59846,6,0,P|381:372|397:271,1,129.200002464294,2|2,3:2|0:2,0:2:0:0:
472,250,60462,2,0,P|451:226|395:220,1,64.6000012321472,2|0,0:2|0:2,0:2:0:0:
299,244,60873,5,0,3:2:0:0:
299,244,60976,1,0,3:2:0:0:
299,244,61078,2,0,P|325:273|315:247,2,129.200002464294,10|2|2,0:2|1:2|0:2,0:2:0:0:
354,169,62311,6,0,B|370:151|370:151|367:128|367:128|346:144|346:144|347:166,1,91.199997216797,2|0,0:2|0:2,0:2:0:0:
265,99,63544,6,0,L|270:118,1,13.2999995941162,8|0,0:3|3:2,0:2:0:0:
244,28,63955,6,0,L|240:15,1,13.2999995941162,4|0,0:3|3:2,0:2:0:0:
69,215,64366,6,0,P|111:229|152:198,1,96.9000018482209,6|0,0:3|0:2,0:2:0:0:
163,120,64777,6,0,P|126:108|92:94,1,76,6|0,3:2|0:2,0:2:0:0:
209,257,65188,2,0,P|246:268|281:283,2,76,2|2|2,0:2|3:2|0:2,0:2:0:0:
209,257,65804,1,2,3:2:0:0:
451,278,66010,6,0,P|390:308|387:392,2,152,10|2|2,0:2|0:2|3:2,0:2:0:0:
455,354,67037,1,2,0:2:0:0:
296,384,67243,6,0,P|260:374|221:366,1,76,2|0,3:2|0:2,0:2:0:0:
376,260,67654,2,0,P|411:269|450:277,1,76,2|0,0:2|0:2,0:2:0:0:
314,314,68065,1,2,0:2:0:0:
369,371,68270,1,2,3:2:0:0:
281,143,68476,6,0,P|218:199|135:187,1,152,10|0,0:2|0:2,0:2:0:0:
102,252,69092,1,0,3:2:0:0:
0,137,69298,2,0,P|14:101|24:65,1,76,0|0,3:2|0:2,0:2:0:0:
166,12,69709,6,0,P|183:82|142:148,1,152,0|2,3:2|0:2,0:2:0:0:
143,146,70325,1,2,3:2:0:0:
10,237,70531,2,0,P|45:219|85:217,1,76,2|0,0:2|3:2,0:2:0:0:
154,384,70941,6,0,B|160:334|160:334|193:300|193:300|199:245,2,152,8|2|2,0:2|0:2|3:2,0:2:0:0:
234,377,71969,1,0,0:2:0:0:
81,216,72174,6,0,P|116:201|156:187,1,76,2|0,3:2|0:2,0:2:0:0:
96,51,72585,2,0,P|83:86|68:121,1,76,2|0,0:2|3:2,0:2:0:0:
205,249,72996,1,2,0:2:0:0:
136,305,73202,1,2,3:2:0:0:
194,120,73407,6,0,P|250:111|303:92,1,114,10|0,0:2|0:2,0:2:0:0:
321,82,73818,1,8,3:2:0:0:
427,150,74024,1,8,0:3:0:0:
398,216,74229,1,4,0:3:0:0:
373,233,74435,1,4,0:3:0:0:
275,384,74640,6,0,B|286:342|307:299|307:299|290:275|280:244,1,152,6|2,3:2|0:2,0:2:0:0:
361,372,75257,2,0,P|395:361|442:352,1,76,2|0,0:2|0:2,0:2:0:0:
434,353,75668,1,0,3:2:0:0:
212,304,75873,6,0,B|184:287|157:284|157:284|142:260|142:260|114:259|70:230,2,152,10|2|2,0:2|0:2|3:2,0:2:0:0:
88,328,76900,1,2,0:2:0:0:
10,170,77106,6,0,P|73:146|81:116,1,76,2|0,3:2|0:2,0:2:0:0:
189,62,77517,2,0,P|111:50|41:32,1,152,2|0,0:2|0:2,0:2:0:0:
76,70,78133,1,2,3:2:0:0:
217,193,78339,6,0,P|290:177|367:167,1,152,10|2,0:2|0:2,0:2:0:0:
413,67,78955,1,0,3:2:0:0:
498,191,79161,2,0,P|484:153|481:108,1,76,2|0,3:2|0:2,0:2:0:0:
304,314,79572,6,0,P|377:310|415:227,2,152,2|2|2,3:2|0:2|3:2,0:2:0:0:
392,384,80599,1,0,3:2:0:0:
197,221,80804,6,0,B|152:210|110:184|110:184|55:201,2,152,10|2|0,0:2|0:2|3:2,0:2:0:0:
100,267,81831,1,2,0:2:0:0:
273,14,82037,6,0,P|285:89|298:163,1,152,2|0,3:2|0:2,0:2:0:0:
200,299,82654,5,0,3:2:0:0:
278,358,82859,1,2,0:2:0:0:
388,199,83065,1,0,3:2:0:0:
291,260,83270,1,8,0:2:0:0:
434,351,83578,5,8,3:2:0:0:
434,351,83681,5,8,3:2:0:0:
488,281,83887,1,8,3:2:0:0:
388,199,84092,5,10,0:2:0:0:
350,115,84298,1,8,3:2:0:0:
346,320,84503,5,2,0:2:0:0:
51,203,89435,6,0,P|123:228|138:293,1,129.200002464294,2|0,0:0|0:0,0:0:0:0:
48,353,90051,2,0,P|54:323|62:277,1,64.6000012321472,2|0,0:0|0:0,0:0:0:0:
140,274,90462,1,2,0:0:0:0:
278,364,90668,6,0,B|269:339|250:320|250:320|265:242,1,129.200002464294,2|0,0:0|0:0,0:0:0:0:
334,215,91284,1,0,0:0:0:0:
235,56,91695,1,0,0:0:0:0:
235,56,91900,6,0,P|297:86|370:85,1,129.200002464294,2|0,0:0|0:0,0:0:0:0:
420,43,92517,2,0,P|450:54|471:79,1,64.6000012321472,2|0,0:0|0:0,0:0:0:0:
433,139,92928,1,2,0:0:0:0:
334,215,93133,6,0,P|346:151|355:87,1,129.200002464294,2|0,0:0|0:0,0:0:0:0:
314,14,93750,1,0,0:0:0:0:
231,139,94161,1,0,0:0:0:0:
231,139,94366,6,0,P|181:98|119:102,1,129.200002464294,2|0,0:0|0:0,0:0:0:0:
46,119,94983,2,0,P|44:85|60:55,1,64.6000012321472,2|0,0:0|0:0,0:0:0:0:
119,101,95393,1,2,0:0:0:0:
0,253,95599,6,0,B|25:242|49:240|49:240|76:213|76:213|101:212|138:201,1,129.200002464294,2|0,0:0|0:0,0:0:0:0:
170,258,96215,1,0,0:0:0:0:
285,360,96626,1,0,0:0:0:0:
285,360,96831,6,0,P|340:308|407:327,1,129.200002464294,2|0,0:0|0:0,0:0:0:0:
482,210,97448,2,0,P|470:247|464:276,1,64.6000012321472,2|0,0:0|0:0,0:0:0:0:
388,313,97859,1,2,0:0:0:0:
235,218,98064,6,0,B|179:211|124:223|93:280|209:328|31:449|-46:377|-14:285|61:275,1,387.600007392883,2|0,0:0|0:0,0:0:0:0:
