osu file format v14

[General]
AudioFilename: audio.mp3
AudioLeadIn: 0
PreviewTime: 191666
Countdown: 0
SampleSet: Normal
StackLeniency: 0.7
Mode: 2
LetterboxInBreaks: 0
WidescreenStoryboard: 0

[Editor]
DistanceSpacing: 2.6
BeatDivisor: 8
GridSize: 4
TimelineZoom: 3.399999

[Metadata]
Title:The Escapist
TitleUnicode:The Escapist
Artist:Nightwish
ArtistUnicode:Nightwish
Creator:IMkoley
Version:Farewell
Source:
Tags:Dark Passion Play symphonic metal anette olzon
BeatmapID:1527324
BeatmapSetID:723426

[Difficulty]
HPDrainRate:5.5
CircleSize:4.5
OverallDifficulty:9.5
ApproachRate:9.5
SliderMultiplier:2.1
SliderTickRate:1

[Events]
//Background and Video events
0,0,"3VrhZIN.jpg",0,0
//Break Periods
//Storyboard Layer 0 (Background)
//Storyboard Layer 1 (Fail)
//Storyboard Layer 2 (Pass)
//Storyboard Layer 3 (Foreground)
//Storyboard Sound Samples

[TimingPoints]
208,416.666666666667,4,1,0,100,1,0
5208,-100,4,1,0,20,0,0
8124,-100,4,1,0,25,0,0
11249,-100,4,1,0,55,0,0
13124,-100,4,1,0,55,0,0
13749,-100,4,1,0,55,0,0
14791,-100,4,1,0,60,0,0
17083,-100,4,1,0,55,0,0
18958,-66.6666666666667,4,1,0,55,0,0
19583,-100,4,1,0,55,0,0
19999,-100,4,1,0,50,0,0
22291,-100,4,1,0,55,0,0
22708,-80,4,1,0,70,0,0
24583,-74.0740740740741,4,1,0,70,0,0
24999,-80,4,1,0,70,0,0
25624,-100,4,1,0,50,0,0
27916,-100,4,1,0,55,0,0
28541,-100,4,1,0,50,0,0
32083,-90.9090909090909,4,1,0,65,0,0
34999,-62.5,4,1,0,70,0,0
35416,-133.333333333333,4,1,0,70,0,0
35624,-83.3333333333333,4,1,0,70,0,0
36249,-50,4,1,0,71,0,0
36874,-100,4,1,0,30,0,0
41458,-100,4,1,0,50,0,0
41875,416.666666666667,4,1,0,80,1,0
41875,-100,4,1,0,80,0,0
43958,-55.5555555555556,4,1,0,80,0,0
44166,-100,4,1,0,80,0,0
44791,-90.9090909090909,4,1,0,80,0,0
45205,-100,4,1,0,70,0,0
51458,-95.2380952380952,4,1,0,70,0,0
51666,-100,4,1,0,70,0,0
54791,-90.9090909090909,4,1,0,70,0,0
56875,-54.054054054054,4,1,0,70,0,0
57291,-90.9090909090909,4,1,0,70,0,0
60208,-90.9090909090909,4,1,0,70,0,0
60625,-90.9090909090909,4,1,0,70,0,0
63541,-100,4,1,0,70,0,0
64166,-90.9090909090909,4,1,0,70,0,0
65208,-90.9090909090909,4,1,0,70,0,0
66875,-50,4,1,0,70,0,0
67083,-90.9090909090909,4,1,0,70,0,0
68541,-100,4,1,0,65,0,0
73541,-100,4,1,0,65,0,0
73750,-100,4,1,0,65,0,0
80000,-100,4,1,0,65,0,0
81875,-100,4,1,0,90,0,0
83958,-66.6666666666667,4,1,0,90,0,0
84166,-100,4,1,0,90,0,0
90208,-90.9090909090909,4,1,0,90,0,0
90416,-100,4,1,0,90,0,0
92708,-83.3333333333333,4,1,0,80,0,0
93125,-100,4,1,0,78,0,0
95208,-100,4,1,0,60,0,0
102708,-100,4,1,0,60,0,0
104583,-66.6666666666667,4,1,0,60,0,0
104791,-100,4,1,0,60,0,0
108750,-100,4,1,0,60,0,0
112708,-86.9565217391304,4,1,0,60,0,0
113125,-100,4,1,0,60,0,0
118541,-100,4,1,0,60,0,0
120416,-100,4,1,0,60,0,0
121041,-100,4,1,0,65,0,0
121666,-100,4,1,0,60,0,0
121875,-83.3333333333333,4,1,0,80,0,1
122291,-90.9090909090909,4,1,0,81,0,1
122708,-66.6666666666667,4,1,0,81,0,1
123125,-90.9090909090909,4,1,0,81,0,1
128541,-66.6666666666667,4,1,0,85,0,1
129375,-90.9090909090909,4,1,0,87,0,1
136041,-66.6666666666667,4,1,0,90,0,1
136458,-90.9090909090909,4,1,0,90,0,1
138125,-86.9565217391304,4,1,0,91,0,1
138541,-90.9090909090909,4,1,0,93,0,1
142708,-83.3333333333333,4,1,0,93,0,1
142916,-90.9090909090909,4,1,0,93,0,1
146041,-83.3333333333333,4,1,0,96,0,1
146458,-90.9090909090909,4,1,0,99,0,1
148541,-50,4,1,0,68,0,0
150208,-58.8235294117647,4,1,0,70,0,0
151875,-90.9090909090909,4,1,0,65,0,0
152291,-74.0740740740741,4,1,0,65,0,0
152500,-90.9090909090909,4,1,0,65,0,0
154375,-80,4,1,0,65,0,0
154791,-90.9090909090909,4,1,0,65,0,0
157500,-90.9090909090909,4,1,0,70,0,0
158229,-90.9090909090909,4,1,0,70,0,0
161875,-90.9090909090909,4,1,0,70,0,0
163125,-76.9230769230769,4,1,0,70,0,0
163333,-90.9090909090909,4,1,0,70,0,0
163541,-90.9090909090909,4,1,0,70,0,0
163958,-90.9090909090909,4,1,0,70,0,0
164166,-83.3333333333333,4,1,0,70,0,0
164583,-90.9090909090909,4,1,0,70,0,0
166666,-58.8235294117647,4,1,0,70,0,0
167708,-90.9090909090909,4,1,0,70,0,0
171875,-90.9090909090909,4,1,0,70,0,0
175625,-100,4,1,0,70,0,0
175729,-83.3333333333333,4,1,0,70,0,0
175833,-90.9090909090909,4,1,0,70,0,0
176458,-90.9090909090909,4,1,0,70,0,0
177083,-90.9090909090909,4,1,0,70,0,0
177916,-90.9090909090909,4,1,0,70,0,0
178541,-90.9090909090909,4,1,0,80,0,0
181041,-100,4,1,0,75,0,0
181458,-90.9090909090909,4,1,0,75,0,0
187708,-90.9090909090909,4,1,0,75,0,0
188125,-90.9090909090909,4,1,0,75,0,0
191875,-90.9090909090909,4,1,0,75,0,0
193125,-90.9090909090909,4,1,0,75,0,0
193541,-90.9090909090909,4,1,0,75,0,0
196875,-83.3333333333333,4,1,0,75,0,0
197187,-90.9090909090909,4,1,0,75,0,0
201875,-83.3333333333333,4,1,0,75,0,0
202083,-90.9090909090909,4,1,0,80,0,0
203958,-66.6666666666667,4,1,0,75,0,0
204375,-90.9090909090909,4,1,0,75,0,0
205625,-90.9090909090909,4,1,0,50,0,0
217083,-90.9090909090909,4,1,0,68,0,0
218541,-50,4,1,0,87,0,1
218750,-90.9090909090909,4,1,0,87,0,1
218958,-90.9090909090909,4,1,0,87,0,1
219166,-90.9090909090909,4,1,0,80,0,1
219375,-66.6666666666667,4,1,0,84,0,1
219791,-90.9090909090909,4,1,0,85,0,1
221041,-90.9090909090909,4,1,0,87,0,1
221458,-90.9090909090909,4,1,0,87,0,1
221875,-74.0740740740741,4,1,0,81,0,1
222291,-90.9090909090909,4,1,0,93,0,1
227708,-86.9565217391304,4,1,0,88,0,1
228541,-90.9090909090909,4,1,0,88,0,0
231875,-90.9090909090909,4,1,0,90,0,1
236458,-83.3333333333333,4,1,0,90,0,1
236875,-90.9090909090909,4,1,0,90,0,1
239375,-90.9090909090909,4,1,0,56,0,1
241041,-90.9090909090909,4,1,0,85,0,1
243958,-55.5555555555556,4,1,0,85,0,1
244791,-90.9090909090909,4,1,0,85,0,1
245208,-80.6451612903226,4,1,0,90,0,1
245416,-90.9090909090909,4,1,0,90,0,1
245625,-90.9090909090909,4,1,0,38,0,1
246458,-90.9090909090909,4,1,0,90,0,1
247708,-58.8235294117647,4,1,0,90,0,1
247916,-90.9090909090909,4,1,0,90,0,1
256041,-90.9090909090909,4,1,0,88,0,0
257291,-66.6666666666667,4,1,0,90,0,0
257708,-90.9090909090909,4,1,0,93,0,0
258541,-90.9090909090909,4,1,0,95,0,1
258958,-66.6666666666667,4,1,0,95,0,1
259375,-90.9090909090909,4,1,0,95,0,1
265208,-68.9655172413793,4,1,0,98,0,1
267708,-86.9565217391304,4,1,0,99,0,1
268125,-86.9565217391304,4,1,0,98,0,1
272291,-86.9565217391304,4,1,0,80,0,0
276041,-50,4,1,0,85,0,0
278125,-86.9565217391304,4,1,0,90,0,0
279583,-81.3008130081301,4,1,0,90,0,0
279791,-86.9565217391304,4,1,0,90,0,0
280000,-80,4,1,0,92,0,0
280416,-86.9565217391304,4,1,0,90,0,0
281666,-86.9565217391304,4,1,0,100,0,0
282916,-50,4,1,0,99,0,0
284375,-86.9565217391304,4,1,0,90,0,0
284791,-86.9565217391304,4,1,0,20,0,0
286145,-86.9565217391304,4,1,0,5,0,0

[HitObjects]
256,192,5208,12,0,7916,0:0:0:0:
256,192,8124,12,0,10833,0:0:0:0:
144,232,11249,5,2,0:0:0:0:
56,176,11458,1,2,0:0:0:0:
120,96,11666,1,2,0:0:0:0:
400,104,11874,2,0,P|480:144|352:272,1,315,6|2,0:0|0:0,0:0:0:0:
168,304,12708,1,2,0:0:0:0:
376,296,12916,1,2,0:0:0:0:
160,296,13124,5,0,0:0:0:0:
136,250,13228,1,10,0:0:0:0:
148,200,13333,1,2,0:0:0:0:
190,171,13437,1,2,0:0:0:0:
376,304,13541,2,0,L|488:304,1,105,2|0,0:0|0:0,0:0:0:0:
368,80,13958,6,0,L|336:144,1,52.5
216,136,14166,2,0,L|168:184,1,52.5
56,128,14374,2,0,P|8:192|64:232,1,157.5
208,248,14791,1,2,0:0:0:0:
246,212,14895,1,0,0:0:0:0:
271,166,14999,1,2,0:0:0:0:
281,115,15103,1,0,0:0:0:0:
440,184,15208,5,2,0:0:0:0:
453,134,15312,1,0,0:0:0:0:
437,84,15416,1,2,0:0:0:0:
397,53,15520,1,0,0:0:0:0:
211,66,15624,5,2,0:0:0:0:
146,70,15728,1,0,0:0:0:0:
82,97,15833,1,2,0:0:0:0:
57,164,15937,1,0,0:0:0:0:
272,272,16041,5,2,0:0:0:0:
322,258,16145,1,0,0:0:0:0:
464,250,16249,1,2,0:0:0:0:
435,209,16353,1,0,0:0:0:0:
394,196,16458,1,2,0:0:0:0:
216,144,16666,1,2,0:0:0:0:
384,144,16874,1,6,0:0:0:0:
120,184,17083,6,0,P|54:151|0:152,2,105,6|0|6,0:0|0:0|0:0,0:0:0:0:
414,63,17708,2,0,P|448:144|352:208,1,210,8|0,0:0|0:0,0:0:0:0:
89,209,18333,1,2,0:0:0:0:
104,148,18385,1,0,0:0:0:0:
308,149,18541,1,0,0:0:0:0:
324,80,18593,1,0,0:0:0:0:
512,80,18749,1,2,0:0:0:0:
492,16,18801,1,0,0:0:0:0:
256,216,18958,2,0,P|216:0|-24:24,1,472.500018024445,14|0,0:0|0:0,0:0:0:0:
272,20,19791,5,6,0:0:0:0:
256,192,19999,12,0,21874,0:0:0:0:
344,272,22291,5,2,0:0:0:0:
408,240,22395,1,0,0:0:0:0:
448,168,22499,1,2,0:0:0:0:
416,104,22603,1,0,0:0:0:0:
229,127,22708,2,0,L|208:64,1,65.625,4|0,0:0|0:0,0:0:0:0:
315,111,22916,2,4,P|379:79|395:31,1,65.625
512,24,23124,2,0,B|416:48|448:208,1,196.875,4|0,0:0|0:0,0:0:0:0:
256,200,23541,6,0,P|184:200|72:104,1,196.875,12|0,0:0|0:0,0:0:0:0:
256,128,23958,1,0,0:0:0:0:
363,278,24166,2,0,B|485:222|507:166|475:94,1,196.875,12|0,0:0|0:0,0:0:0:0:
208,128,24583,2,0,P|352:96|481:135,1,283.500001081467,8|0,0:0|0:0,0:0:0:0:
146,213,25208,2,0,B|186:181|186:181|274:165,2,131.25
32,288,25833,2,0,L|48:192,1,52.5,12|0,0:0|0:0,0:0:0:0:
208,208,26041,2,0,P|261:113|215:90,1,157.5,4|0,0:0|0:0,0:0:0:0:
408,223,26458,6,0,P|472:143|400:95,1,210,12|0,0:0|0:0,0:0:0:0:
176,144,27083,2,0,P|80:136|40:240,2,210,8|0|8,0:0|0:0|0:0,0:0:0:0:
280,152,28020,1,2,0:0:0:0:
496,152,28124,1,6,0:0:0:0:
0,211,28541,1,0,0:0:0:0:
270,221,28749,5,2,0:0:0:0:
287,214,28801,1,0,0:0:0:0:
512,214,28958,1,2,0:0:0:0:
497,197,29010,1,0,0:0:0:0:
272,204,29166,1,8,0:0:0:0:
0,184,29374,2,0,P|0:131|208:80,1,315,2|0,0:0|0:0,0:0:0:0:
85,102,30208,5,6,0:0:0:0:
426,136,30416,1,2,0:0:0:0:
152,272,30624,2,0,B|216:152|295:106|295:106|176:96|96:48|96:48,1,420,6|0,0:0|0:0,0:0:0:0:
384,216,31666,1,8,0:0:0:0:
384,216,32083,2,0,L|510:202,2,115.50000352478
82,205,32708,1,2,0:0:0:0:
136,205,32742,1,0,0:0:0:0:
273,225,32916,1,2,0:0:0:0:
272,187,32942,1,0,0:0:0:0:
430,233,33124,5,2,0:0:0:0:
428,182,33159,1,0,0:0:0:0:
273,225,33333,1,2,0:0:0:0:
272,187,33359,1,0,0:0:0:0:
113,271,33541,1,2,0:0:0:0:
163,272,33576,1,0,0:0:0:0:
431,307,33749,1,2,0:0:0:0:
428,269,33775,1,0,0:0:0:0:
132,305,33958,1,2,0:0:0:0:
132,254,33993,1,0,0:0:0:0:
376,303,34166,1,2,0:0:0:0:
377,275,34192,1,0,0:0:0:0:
136,232,34374,1,2,0:0:0:0:
64,184,34478,1,0,0:0:0:0:
56,96,34583,1,2,0:0:0:0:
128,48,34687,1,0,0:0:0:0:
367,115,34791,1,2,0:0:0:0:
176,176,34999,6,0,L|0:152,1,168,4|2,0:0|0:0,0:0:0:0:
296,160,35416,2,0,L|316:118,1,39.3750015020371,4|0,0:0|0:0,0:0:0:0:
504,88,35624,2,0,B|401:159|401:159|449:298,1,251.999992309571,2|0,0:0|0:0,0:0:0:0:
176,312,36249,2,0,P|90:268|-28:237,2,210,2|0|2,0:0|0:0|0:0,0:0:0:0:
464,312,36874,5,14,0:0:0:0:
256,192,37291,12,0,39999,0:0:0:0:
256,184,40208,5,8,0:0:0:0:
256,192,40416,12,0,41458,0:0:0:0:
289,253,41874,6,0,L|400:192,1,105,8|0,0:0|0:0,0:0:0:0:
112,112,42291,1,2,0:0:0:0:
374,197,42500,1,0,0:0:0:0:
104,216,42708,6,0,P|44:132|130:72,1,210,2|0,0:0|0:0,0:0:0:0:
382,86,43333,1,0,0:0:0:0:
109,87,43541,2,0,L|5:87,1,105,10|0,0:0|0:0,0:0:0:0:
499,75,43958,2,0,L|326:153,1,188.999994232178
512,179,44375,1,2,0:0:0:0:
326,261,44583,1,0,0:0:0:0:
151,316,44791,6,0,P|81:216|157:190,1,231.000007049561,0|2,0:0|0:0,0:0:0:0:
416,192,45416,1,0,0:0:0:0:
145,187,45625,1,2,0:0:0:0:
416,192,45833,1,0,0:0:0:0:
131,187,46041,6,0,L|27:123,1,105,8|0,0:0|0:0,0:0:0:0:
410,115,46458,1,0,0:0:0:0:
512,208,46666,1,2,0:0:0:0:
240,224,46875,2,0,L|352:288,1,105,12|0,0:0|0:0,0:0:0:0:
0,272,47291,2,0,L|85:210,1,105,8|0,0:0|0:0,0:0:0:0:
411,152,47708,2,0,P|477:98|423:19,1,157.5,10|0,0:0|0:0,0:0:0:0:
244,171,48125,6,0,P|265:80|371:45,1,210,4|2,0:0|0:0,0:0:0:0:
493,65,48750,1,0,0:0:0:0:
443,167,48958,1,2,0:0:0:0:
333,165,49166,1,0,0:0:0:0:
44,29,49375,2,0,L|33:233,1,157.5,8|0,0:0|0:0,0:0:0:0:
208,205,49791,6,0,L|212:153,1,52.5
40,140,50000,1,2,0:0:0:0:
321,164,50208,2,0,L|424:87,1,105,8|0,0:0|0:0,0:0:0:0:
504,150,50625,2,0,L|370:71,1,105,8|0,0:0|0:0,0:0:0:0:
141,79,51041,1,2,0:0:0:0:
421,96,51458,2,0,L|297:89,1,110.249996635437,2|0,0:0|0:0,0:0:0:0:
413,157,51875,5,2,0:0:0:0:
496,244,52083,1,0,0:0:0:0:
160,200,52291,2,0,L|64:128,1,105,0|2,0:0|0:0,0:0:0:0:
352,128,52708,1,0,0:0:0:0:
255,156,52916,1,0,0:0:0:0:
346,222,53125,1,2,0:0:0:0:
74,246,53333,1,0,0:0:0:0:
344,264,53541,6,0,B|440:192|360:104|264:136,1,210,12|0,0:0|0:0,0:0:0:0:
152,136,54166,1,0,0:0:0:0:
31,180,54375,2,0,L|155:168,1,105
304,296,54791,2,0,L|168:296,1,115.50000352478,8|0,0:0|0:0,0:0:0:0:
496,242,55208,1,2,0:0:0:0:
232,240,55416,1,0,0:0:0:0:
416,232,55625,1,2,0:0:0:0:
128,152,55833,6,0,L|8:152,1,115.50000352478,8|6,0:0|0:0,0:0:0:0:
315,228,56250,1,0,0:0:0:0:
109,248,56458,1,0,0:0:0:0:
408,248,56666,1,2,0:0:0:0:
106,245,56875,2,0,L|492:161,1,388.49999851799,0|2,0:0|0:0,0:0:0:0:
0,160,57708,6,0,L|265:177,2,231.000007049561,4|2|4,0:0|0:0|0:0,0:0:0:0:
144,136,58750,1,0,0:0:0:0:
296,112,58958,1,2,0:0:0:0:
456,120,59166,1,0,0:0:0:0:
277,144,59375,2,0,L|360:224,1,115.50000352478,2|0,0:0|0:0,0:0:0:0:
56,128,59791,1,2,0:0:0:0:
8,208,60000,1,0,0:0:0:0:
328,246,60208,6,0,P|441:154|488:78,1,231.000007049561,8|0,0:0|0:0,0:0:0:0:
0,86,61041,1,4,0:0:0:0:
504,80,61458,2,0,P|400:130|287:152,1,231.000007049561,8|0,0:0|0:0,0:0:0:0:
96,160,62083,1,0,0:0:0:0:
256,128,62291,1,2,0:0:0:0:
104,64,62500,1,2,0:0:0:0:
392,152,62708,6,0,P|447:39|364:1,1,231.000007049561,10|0,0:0|0:0,0:0:0:0:
76,24,63333,1,8,0:0:0:0:
348,24,63541,2,0,B|244:62,1,105,10|0,0:0|0:0,0:0:0:0:
445,208,63958,2,0,L|515:118,1,105,10|0,0:0|0:0,0:0:0:0:
200,112,64375,2,0,L|54:118,1,115.50000352478,8|0,0:0|0:0,0:0:0:0:
347,88,64791,2,0,P|240:178|291:248,1,231.000007049561,10|0,0:0|0:0,0:0:0:0:
386,270,65416,5,0,0:0:0:0:
106,196,65625,2,0,L|45:294,1,115.50000352478,10|0,0:0|0:0,0:0:0:0:
344,304,66041,1,2,0:0:0:0:
512,232,66250,1,0,0:0:0:0:
216,168,66458,1,8,0:0:0:0:
352,112,66666,1,0,0:0:0:0:
0,120,66875,6,0,B|136:52|80:76|80:76|60:8|60:8|0:44|112:52|112:52,1,262.5,10|0,0:0|0:0,0:0:0:0:
288,104,67291,1,10,0:0:0:0:
104,128,67500,1,0,0:0:0:0:
399,131,67708,1,10,0:0:0:0:
505,186,67916,1,0,0:0:0:0:
64,137,68125,1,10,0:0:0:0:
203,151,68541,5,8,0:0:0:0:
112,104,68750,1,0,0:0:0:0:
385,142,68958,2,0,L|432:36,1,105,8|0,0:0|0:0,0:0:0:0:
132,56,69375,1,8,0:0:0:0:
316,72,69583,2,0,L|367:180,1,105,8|0,0:0|0:0,0:0:0:0:
511,188,70000,2,0,L|409:96,1,105,0|2,0:0|0:0,0:0:0:0:
160,116,70416,2,0,L|40:116,1,105,0|2,0:0|0:0,0:0:0:0:
328,116,70833,5,0,0:0:0:0:
448,144,71041,1,2,0:0:0:0:
512,252,71250,1,0,0:0:0:0:
251,184,71458,1,2,0:0:0:0:
120,273,71666,1,0,0:0:0:0:
414,232,71875,6,0,L|511:270,1,105,10|0,0:0|0:0,0:0:0:0:
99,120,72291,2,0,L|218:87,1,105,8|0,0:0|0:0,0:0:0:0:
476,93,72708,1,2,0:0:0:0:
201,56,72916,2,0,P|131:127|233:163,1,210,8|0,0:0|0:0,0:0:0:0:
506,89,73541,2,0,L|413:189,1,105,2|0,0:0|0:0,0:0:0:0:
230,376,73958,2,0,P|136:261|191:200,1,210,2|0,0:0|0:0,0:0:0:0:
436,200,74583,1,0,0:0:0:0:
504,248,74791,1,10,0:0:0:0:
127,238,75000,1,0,0:0:0:0:
40,240,75208,2,0,B|-5:137,1,105,2|0,0:0|0:0,0:0:0:0:
282,130,75625,2,0,L|394:130,1,105,8|0,0:0|0:0,0:0:0:0:
169,136,76041,1,10,0:0:0:0:
453,126,76250,6,0,P|525:190|437:254,1,210,8|0,0:0|0:0,0:0:0:0:
105,292,76875,2,0,L|101:148,1,105,10|0,0:0|0:0,0:0:0:0:
387,182,77291,2,0,L|196:89,1,210,10|2,0:0|0:0,0:0:0:0:
468,46,77916,2,0,L|359:57,1,105
88,52,78333,1,0,0:0:0:0:
428,68,78541,2,0,L|497:156,1,105,2|0,0:0|0:0,0:0:0:0:
162,134,78958,2,0,P|100:173|184:284,1,210,8|2,0:0|0:0,0:0:0:0:
349,287,79583,6,0,L|476:212,1,105,8|0,0:0|0:0,0:0:0:0:
163,287,80000,2,0,L|67:174,1,105,0|2,0:0|0:0,0:0:0:0:
367,204,80416,1,8,0:0:0:0:
437,97,80625,1,2,0:0:0:0:
324,43,80833,1,8,0:0:0:0:
7,109,81041,2,0,L|113:130,1,105
382,151,81458,5,0,0:0:0:0:
92,205,81666,1,8,0:0:0:0:
166,247,81770,1,0,0:0:0:0:
391,266,81875,1,8,0:0:0:0:
512,176,82083,1,0,0:0:0:0:
239,174,82291,1,8,0:0:0:0:
512,176,82500,1,0,0:0:0:0:
241,206,82708,6,0,P|91:141|65:78,1,210,8|0,0:0|0:0,0:0:0:0:
346,84,83333,1,0,0:0:0:0:
508,85,83541,2,0,L|416:137,1,105,8|0,0:0|0:0,0:0:0:0:
154,73,83958,2,0,L|364:76,1,157.500006008148,8|0,0:0|0:0,0:0:0:0:
11,103,84375,6,0,L|151:102,1,105,8|0,0:0|0:0,0:0:0:0:
378,97,84791,1,4,0:0:0:0:
128,176,85208,1,2,0:0:0:0:
0,192,85416,1,0,0:0:0:0:
128,178,85625,1,2,0:0:0:0:
0,319,85833,1,0,0:0:0:0:
400,192,86041,6,0,L|180:190,1,210,10|0,0:0|0:0,0:0:0:0:
489,180,86666,1,8,0:0:0:0:
226,184,86875,2,0,L|282:288,1,105,10|0,0:0|0:0,0:0:0:0:
1,108,87291,2,0,L|113:202,1,105,8|0,0:0|0:0,0:0:0:0:
238,240,87708,2,0,P|253:170|299:142,1,105,4|0,0:0|0:0,0:0:0:0:
496,128,88125,2,0,L|497:11,1,105,4|0,0:0|0:0,0:0:0:0:
234,31,88541,5,0,0:0:0:0:
144,80,88749,1,0,0:0:0:0:
40,104,88958,1,0,0:0:0:0:
397,131,89166,1,0,0:0:0:0:
112,136,89375,2,0,L|3:181,1,118.125,10|0,0:0|0:0,0:0:0:0:
338,225,89791,1,10,0:0:0:0:
67,224,90000,1,0,0:0:0:0:
338,142,90208,2,0,L|464:128,1,115.50000352478,10|0,0:0|0:0,0:0:0:0:
180,53,90625,2,0,L|280:97,1,105,10|0,0:0|0:0,0:0:0:0:
0,129,91041,5,4,0:0:0:0:
512,182,91458,2,0,L|386:109,1,105,8|0,0:0|0:0,0:0:0:0:
236,59,91875,2,0,L|109:150,1,105,8|0,0:0|0:0,0:0:0:0:
416,168,92291,1,2,0:0:0:0:
147,368,92500,1,2,0:0:0:0:
469,319,92708,2,0,P|517:207|421:191,1,251.999992309571,6|0,0:0|0:0,0:0:0:0:
150,191,93333,1,2,0:0:0:0:
424,190,93541,6,0,P|294:208|246:160,1,157.5,8|0,0:0|0:0,0:0:0:0:
464,176,93958,2,0,P|500:76|437:62,1,157.5,8|0,0:0|0:0,0:0:0:0:
317,105,94375,2,0,L|443:114,1,105,10|0,0:0|0:0,0:0:0:0:
160,137,94791,1,4,0:0:0:0:
423,141,95000,1,12,0:0:0:0:
160,72,95208,2,0,L|48:73,1,105,2|8,0:0|0:0,0:0:0:0:
408,56,95625,2,0,L|525:65,1,105,8|0,0:0|0:0,0:0:0:0:
42,153,96041,5,2,0:0:0:0:
315,169,96250,2,0,P|419:97|499:89,1,210
208,72,96875,6,0,B|272:75|320:88|320:88|275:149|275:149|99:229|99:229|366:183,2,630,2|0|2,0:0|0:0|0:0,0:0:0:0:
32,73,99583,2,0,P|-2:177|87:222,1,210
251,230,100208,2,0,P|226:159|250:98,1,105,2|0,0:0|0:0,0:0:0:0:
512,142,100625,2,0,L|403:138,1,105,10|0,0:0|0:0,0:0:0:0:
134,130,101041,6,0,L|80:144,1,52.5,2|0,0:0|0:0,0:0:0:0:
0,149,101250,2,0,L|133:181,2,105,8|0|8,0:0|0:0|0:0,0:0:0:0:
272,168,101875,2,0,L|148:187,1,105,2|0,0:0|0:0,0:0:0:0:
451,265,102291,2,0,L|396:172,1,105,10|0,0:0|0:0,0:0:0:0:
123,184,102708,1,2,0:0:0:0:
393,193,102916,2,0,B|182:324|182:324|401:326|401:326|445:170|176:217,1,735,2|0,0:0|0:0,0:0:0:0:
0,213,104583,2,0,L|181:213,1,157.500006008148
0,98,105000,1,8,0:0:0:0:
347,122,105208,5,0,0:0:0:0:
512,138,105416,1,8,0:0:0:0:
28,146,105625,2,0,P|16:256|48:304,1,157.5,8|0,0:0|0:0,0:0:0:0:
199,274,106041,2,0,P|266:193|272:128,1,157.5,2|0,0:0|0:0,0:0:0:0:
448,256,106458,2,0,L|312:256,1,105
72,248,106875,1,2,0:0:0:0:
0,152,107083,1,8,0:0:0:0:
96,112,107291,1,2,0:0:0:0:
368,124,107500,1,8,0:0:0:0:
512,164,107708,1,2,0:0:0:0:
240,160,107916,1,0,0:0:0:0:
96,112,108125,1,8,0:0:0:0:
244,198,108333,5,8,0:0:0:0:
305,181,108437,1,8,0:0:0:0:
472,176,108541,2,0,B|423:110|423:110|389:71,1,105
136,96,108958,2,0,B|32:112|32:112|176:144,1,210,2|0,0:0|0:0,0:0:0:0:
428,185,109583,2,0,P|367:72|264:70,1,210,8|0,0:0|0:0,0:0:0:0:
25,65,110208,2,0,L|94:187,1,105,2|0,0:0|0:0,0:0:0:0:
363,137,110625,6,0,L|224:192,1,105,2|0,0:0|0:0,0:0:0:0:
401,233,111041,1,2,0:0:0:0:
128,216,111250,2,0,L|244:179,1,105,0|2,0:0|0:0,0:0:0:0:
76,144,111666,1,0,0:0:0:0:
292,189,111875,2,0,L|418:186,1,105,2|0,0:0|0:0,0:0:0:0:
136,201,112291,2,0,L|8:152,1,105,8|0,0:0|0:0,0:0:0:0:
182,93,112708,6,0,L|55:87,2,120.750002303124,8|0|8,0:0|0:0|0:0,0:0:0:0:
456,79,113333,1,0,0:0:0:0:
300,268,113541,2,0,L|401:298,1,105,2|0,0:0|0:0,0:0:0:0:
126,294,113958,2,0,L|331:224,1,210
122,266,114583,2,0,L|53:178,1,105,2|0,0:0|0:0,0:0:0:0:
384,256,115000,1,0,0:0:0:0:
490,259,115208,2,0,L|364:256,1,105,2|0,0:0|0:0,0:0:0:0:
46,192,115625,2,0,L|76:90,1,105,6|0,0:0|0:0,0:0:0:0:
250,136,116041,6,0,L|391:137,1,105,8|0,0:0|0:0,0:0:0:0:
61,136,116458,1,0,0:0:0:0:
310,149,116875,1,2,0:0:0:0:
0,144,117291,1,0,0:0:0:0:
64,120,117395,1,0,0:0:0:0:
224,200,117500,2,0,L|276:168,1,52.5,2|0,0:0|0:0,0:0:0:0:
432,192,117708,6,0,L|328:152,1,105,0|2,0:0|0:0,0:0:0:0:
48,160,118125,1,0,0:0:0:0:
356,184,118541,1,2,0:0:0:0:
208,121,118750,1,2,0:0:0:0:
490,143,118958,1,8,0:0:0:0:
104,134,119166,2,8,L|0:148,1,105
296,179,119583,1,0,0:0:0:0:
103,212,119791,6,0,P|56:80|192:64,1,315,12|0,0:0|0:0,0:0:0:0:
512,80,120625,1,8,0:0:0:0:
228,78,120833,1,0,0:0:0:0:
512,80,121041,1,8,0:0:0:0:
192,91,121250,1,8,0:0:0:0:
453,102,121458,1,0,0:0:0:0:
191,83,121666,1,8,0:0:0:0:
490,218,121875,6,0,L|489:17,1,188.999994232178,6|0,0:0|0:0,0:0:0:0:
287,24,122291,2,0,P|152:26|74:52,1,173.250005287171
384,176,122708,2,0,B|180:157|115:17|202:35,1,315.000012016297,4|0,0:0|0:0,0:0:0:0:
364,159,123333,2,0,L|480:152,1,115.50000352478,4|0,0:0|0:0,0:0:0:0:
179,178,123750,2,0,L|299:114,1,115.50000352478,2|0,0:0|0:0,0:0:0:0:
8,96,124166,2,0,L|64:120,1,57.7500017623902,2|0,0:0|0:0,0:0:0:0:
224,128,124375,2,0,L|456:16,1,231.000007049561,2|2,0:0|0:0,0:0:0:0:
24,112,125208,6,0,L|256:80,1,231.000007049561,0|4,0:0|0:0,0:0:0:0:
480,64,125833,1,0,0:0:0:0:
184,120,126041,2,0,L|69:105,1,115.50000352478,0|6,0:0|0:0,0:0:0:0:
370,113,126458,1,0,0:0:0:0:
88,216,126875,1,0,0:0:0:0:
388,232,127083,1,0,0:0:0:0:
88,216,127291,2,0,L|-16:144,1,115.50000352478
272,280,127708,6,0,L|511:191,1,231.000007049561,4|0,0:0|0:0,0:0:0:0:
198,208,128333,1,0,0:0:0:0:
0,200,128541,2,0,B|112:216|328:104,2,315.000012016297,4|0|4,0:0|0:0|0:0,0:0:0:0:
304,168,129791,5,4,0:0:0:0:
40,192,130000,1,2,0:0:0:0:
304,176,130208,1,4,0:0:0:0:
512,180,130416,1,2,0:0:0:0:
192,176,130625,1,4,0:0:0:0:
491,190,130833,1,2,0:0:0:0:
192,208,131041,6,0,B|124:208|56:196|24:156,1,173.250005287171,2|0,0:0|0:0,0:0:0:0:
344,152,131458,2,0,L|200:200,1,115.50000352478
512,217,131875,2,0,P|469:85|392:57,1,231.000007049561,4|0,0:0|0:0,0:0:0:0:
120,72,132500,1,0,0:0:0:0:
8,176,132708,2,0,L|136:112,1,115.50000352478,2|0,0:0|0:0,0:0:0:0:
405,189,133125,2,0,P|309:120|300:89,1,115.50000352478,2|4,0:0|0:0,0:0:0:0:
486,120,133541,1,0,0:0:0:0:
184,111,133750,1,2,0:0:0:0:
512,98,133958,6,0,L|513:67,1,28.8750008811951,4|0,0:0|0:0,0:0:0:0:
298,102,134166,6,0,L|299:71,1,28.8750008811951,4|0,0:0|0:0,0:0:0:0:
85,63,134375,2,0,P|15:107|3:155,1,115.50000352478,0|8,0:0|0:0,0:0:0:0:
308,86,134791,1,0,0:0:0:0:
511,159,135000,1,0,0:0:0:0:
236,232,135208,2,4,L|-3:201,1,231.000007049561
512,92,136041,2,0,L|184:20,1,315.000012016297,4|2,0:0|0:0,0:0:0:0:
489,28,136666,5,4,0:0:0:0:
201,61,136875,1,2,0:0:0:0:
483,117,137083,1,4,0:0:0:0:
183,122,137291,1,0,0:0:0:0:
80,198,137500,1,0,0:0:0:0:
438,136,137708,2,0,L|301:247,1,173.250005287171
88,184,138125,2,0,P|160:160|224:80,1,181.125003454685,4|0,0:0|0:0,0:0:0:0:
387,184,138541,6,0,B|444:268|444:268|324:338,1,231.000007049561,0|4,0:0|0:0,0:0:0:0:
56,224,139166,1,0,0:0:0:0:
376,216,139375,1,0,0:0:0:0:
54,239,139791,2,0,L|312:235,1,231.000007049561,0|4,0:0|0:0,0:0:0:0:
0,231,140416,1,0,0:0:0:0:
224,88,140625,2,0,B|152:64|152:64|80:120|80:120|0:80,2,231.000007049561,2|0|2,0:0|0:0|0:0,0:0:0:0:
491,223,141666,6,0,L|501:135,1,57.7500017623902
327,114,141875,2,0,L|302:251,1,115.50000352478,4|0,0:0|0:0,0:0:0:0:
24,184,142291,2,0,L|162:187,1,115.50000352478,4|0,0:0|0:0,0:0:0:0:
467,196,142708,2,0,P|429:198|327:185,1,125.999996154785,4|0,0:0|0:0,0:0:0:0:
512,190,143125,1,0,0:0:0:0:
200,178,143333,1,0,0:0:0:0:
497,268,143541,1,0,0:0:0:0:
120,192,143750,6,0,L|8:144,1,115.50000352478
312,160,144166,1,0,0:0:0:0:
16,192,144375,2,0,L|157:154,1,115.50000352478
424,208,144791,2,0,L|512:112,1,115.50000352478,4|0,0:0|0:0,0:0:0:0:
124,89,145208,1,4,0:0:0:0:
396,168,145625,1,6,0:0:0:0:
119,211,146041,6,0,B|-1:163|-1:163|129:131,1,251.999992309571
420,112,146666,1,0,0:0:0:0:
120,92,146875,1,4,0:0:0:0:
0,156,147083,1,0,0:0:0:0:
455,137,147291,2,0,B|456:200|456:200|454:137,1,115.50000352478,4|4,0:0|0:0,0:0:0:0:
93,195,147708,1,8,0:0:0:0:
17,150,147916,1,0,0:0:0:0:
425,175,148124,1,8,0:0:0:0:
508,206,148333,1,0,0:0:0:0:
196,198,148541,2,0,B|4:144|12:112|12:80|36:48|164:32|236:24|260:40,1,420,8|0,0:0|0:0,0:0:0:0:
392,48,149166,1,8,0:0:0:0:
484,164,149375,1,8,0:0:0:0:
336,288,149583,1,0,0:0:0:0:
152,280,149791,2,0,P|32:192|88:80,1,210,8|8,0:0|0:0,0:0:0:0:
448,120,150208,2,0,B|456:192|184:176|184:176|392:96|344:288|480:176|480:176,1,535.500010213852,4|0,0:0|0:0,0:0:0:0:
0,384,151041,2,0,P|176:274|336:216,1,357.000006809235,4|8,0:0|0:0,0:0:0:0:
512,216,151666,1,12,0:0:0:0:
64,176,151875,5,2,0:0:0:0:
364,172,152083,1,0,0:0:0:0:
64,140,152291,2,0,P|126:132|256:44,1,212.6250008111,2|0,0:0|0:0,0:0:0:0:
436,141,152708,2,0,P|436:27|326:36,1,231.000007049561,2|0,0:0|0:0,0:0:0:0:
48,96,153333,2,0,P|8:208|112:264,1,231.000007049561,2|0,0:0|0:0,0:0:0:0:
404,254,153958,2,0,P|408:192|360:184,1,115.50000352478
78,88,154375,6,0,L|216:92,2,131.25,14|0|14,0:0|0:0|0:0,0:0:0:0:
394,290,155000,2,0,L|549:292,1,115.50000352478,0|2,0:0|0:0,0:0:0:0:
301,303,155416,1,8,0:0:0:0:
11,298,155625,1,2,0:0:0:0:
498,297,156041,2,0,L|226:263,1,231.000007049561,6|0,0:0|0:0,0:0:0:0:
454,154,156666,2,0,L|326:225,1,115.50000352478,6|0,0:0|0:0,0:0:0:0:
56,224,157083,1,10,0:0:0:0:
312,200,157500,5,2,0:0:0:0:
16,208,157708,1,2,0:0:0:0:
312,224,157916,1,2,0:0:0:0:
10,213,158125,2,0,L|155:194,1,115.50000352478
408,168,158541,1,10,0:0:0:0:
104,168,158750,1,0,0:0:0:0:
0,127,158958,5,8,0:0:0:0:
285,137,159166,1,8,0:0:0:0:
0,120,159375,1,10,0:0:0:0:
207,126,159583,1,0,0:0:0:0:
510,129,159791,1,8,0:0:0:0:
197,125,160000,5,8,0:0:0:0:
508,123,160208,1,10,0:0:0:0:
197,125,160416,1,0,0:0:0:0:
0,129,160625,1,8,0:0:0:0:
308,171,160833,1,8,0:0:0:0:
185,206,161041,5,10,0:0:0:0:
486,194,161250,1,0,0:0:0:0:
205,120,161458,1,8,0:0:0:0:
398,103,161666,1,8,0:0:0:0:
96,104,161875,1,14,0:0:0:0:
392,104,162083,6,0,L|456:104,1,57.7500017623902
157,226,162291,2,0,L|55:114,1,115.50000352478,6|0,0:0|0:0,0:0:0:0:
392,136,162708,2,0,L|517:157,1,115.50000352478,2|8,0:0|0:0,0:0:0:0:
156,276,163125,2,0,L|300:252,1,136.499993751526,2|0,0:0|0:0,0:0:0:0:
0,164,163541,2,0,L|136:166,2,115.50000352478,10|0|10,0:0|0:0|0:0,0:0:0:0:
301,162,164166,2,0,L|165:162,2,125.999996154785,10|0|10,0:0|0:0|0:0,0:0:0:0:
22,166,164791,5,0,0:0:0:0:
334,175,165000,1,0,0:0:0:0:
22,175,165208,1,4,0:0:0:0:
176,160,165416,1,0,0:0:0:0:
512,222,165625,2,0,P|451:166|357:115,1,173.250005287171,0|8,0:0|0:0,0:0:0:0:
150,75,166041,2,0,P|37:93|20:200,1,231.000007049561,4|0,0:0|0:0,0:0:0:0:
384,206,166666,2,0,B|286:193|286:193|93:181|93:181|348:151,1,535.500010213852,4|0,0:0|0:0,0:0:0:0:
512,139,167500,1,4,0:0:0:0:
408,75,167708,1,8,0:0:0:0:
127,151,167916,1,4,0:0:0:0:
9,93,168125,1,8,0:0:0:0:
320,78,168333,1,0,0:0:0:0:
478,306,168541,1,4,0:0:0:0:
338,316,168750,1,8,0:0:0:0:
136,312,168958,2,0,P|57:271|129:227,1,173.250005287171
288,128,169375,2,0,L|360:256,1,115.50000352478,4|0,0:0|0:0,0:0:0:0:
73,206,169791,5,0,0:0:0:0:
374,211,170000,2,0,L|475:140,1,115.50000352478,4|0,0:0|0:0,0:0:0:0:
0,184,170416,1,8,0:0:0:0:
398,196,170833,1,8,0:0:0:0:
98,189,171041,1,6,0:0:0:0:
398,148,171250,1,8,0:0:0:0:
102,140,171458,1,4,0:0:0:0:
0,96,171666,1,10,0:0:0:0:
290,175,171875,6,0,L|425:109,1,115.50000352478,2|0,0:0|0:0,0:0:0:0:
0,168,172291,1,2,0:0:0:0:
512,164,172500,1,8,0:0:0:0:
345,164,172708,2,0,L|461:163,1,115.50000352478,6|0,0:0|0:0,0:0:0:0:
80,180,173125,1,2,0:0:0:0:
421,174,173333,1,0,0:0:0:0:
80,180,173541,6,0,L|170:53,1,115.50000352478,6|0,0:0|0:0,0:0:0:0:
447,101,173958,1,0,0:0:0:0:
147,99,174166,2,2,L|117:84,1,28.8750008811951
346,111,174375,2,0,L|371:97,1,28.8750008811951,2|2,0:0|0:0,0:0:0:0:
147,117,174583,2,0,L|116:112,1,28.8750008811951
346,111,174791,1,8,0:0:0:0:
322,108,174843,1,2,0:0:0:0:
83,90,175000,1,4,0:0:0:0:
106,86,175053,1,2,0:0:0:0:
416,80,175208,5,4,0:0:0:0:
113,108,175416,1,8,0:0:0:0:
386,118,175625,2,0,L|491:118,1,105,0|4,0:0|0:0,0:0:0:0:
191,124,176041,1,0,0:0:0:0:
393,135,176250,1,4,0:0:0:0:
93,151,176458,1,8,0:0:0:0:
392,168,176666,6,0,L|507:164,1,115.50000352478,0|4,0:0|0:0,0:0:0:0:
61,161,177083,1,0,0:0:0:0:
347,133,177291,1,4,0:0:0:0:
187,49,177500,1,0,0:0:0:0:
475,56,177708,1,4,0:0:0:0:
187,49,177916,5,2,0:0:0:0:
265,102,178020,1,0,0:0:0:0:
512,206,178125,1,2,0:0:0:0:
450,240,178229,1,0,0:0:0:0:
183,227,178333,1,2,0:0:0:0:
247,249,178437,1,0,0:0:0:0:
442,240,178541,6,0,L|320:242,1,115.50000352478,6|0,0:0|0:0,0:0:0:0:
512,144,178958,2,0,L|404:128,1,57.7500017623902
296,96,179166,2,0,L|252:134,1,57.7500017623902,8|0,0:0|0:0,0:0:0:0:
23,120,179375,2,0,L|132:177,1,115.50000352478,6|0,0:0|0:0,0:0:0:0:
403,63,179791,2,0,L|280:133,1,115.50000352478,8|0,0:0|0:0,0:0:0:0:
1,123,180208,5,6,0:0:0:0:
512,144,180625,2,0,L|408:192,1,115.50000352478
123,208,181041,2,0,L|331:144,1,210,6|0,0:0|0:0,0:0:0:0:
24,54,181666,1,4,0:0:0:0:
336,47,181875,6,0,P|198:70|335:273,1,462.000014099122,6|0,0:0|0:0,0:0:0:0:
447,286,182916,1,8,0:0:0:0:
153,299,183125,1,8,0:0:0:0:
42,245,183333,1,0,0:0:0:0:
100,133,183541,1,6,0:0:0:0:
387,120,183750,5,0,0:0:0:0:
475,210,183958,1,6,0:0:0:0:
364,253,184166,1,0,0:0:0:0:
24,143,184375,1,6,0:0:0:0:
146,68,184583,1,0,0:0:0:0:
480,96,184791,1,2,0:0:0:0:
397,171,185000,1,0,0:0:0:0:
117,254,185208,6,0,P|24:128|80:100,1,231.000007049561,4|0,0:0|0:0,0:0:0:0:
332,80,185833,1,8,0:0:0:0:
512,152,186041,1,2,0:0:0:0:
368,184,186250,1,0,0:0:0:0:
68,164,186458,1,0,0:0:0:0:
0,84,186666,1,2,0:0:0:0:
344,88,186875,2,0,L|420:188,1,115.50000352478,4|0,0:0|0:0,0:0:0:0:
88,176,187291,1,2,0:0:0:0:
209,93,187500,1,0,0:0:0:0:
476,53,187708,2,0,L|233:176,1,231.000007049561,6|0,0:0|0:0,0:0:0:0:
0,151,188333,1,0,0:0:0:0:
271,23,188541,6,0,P|144:158|235:201,1,346.500010574341,6|0,0:0|0:0,0:0:0:0:
511,319,189375,1,0,0:0:0:0:
0,218,189791,1,0,0:0:0:0:
392,203,190208,1,4,0:0:0:0:
92,203,190416,1,0,0:0:0:0:
392,203,190625,1,10,0:0:0:0:
256,192,191041,12,0,191666,0:0:0:0:
8,184,191875,6,0,L|132:176,1,115.50000352478,4|0,0:0|0:0,0:0:0:0:
400,60,192291,2,0,L|525:90,1,115.50000352478,2|0,0:0|0:0,0:0:0:0:
199,203,192708,2,0,L|203:60,1,115.50000352478,4|0,0:0|0:0,0:0:0:0:
0,87,193125,2,0,L|129:93,2,115.50000352478,0|0|8,0:0|0:0|0:0,0:0:0:0:
299,118,193750,2,0,P|351:156|359:209,1,115.50000352478,0|8,0:0|0:0,0:0:0:0:
64,216,194166,5,0,0:0:0:0:
363,179,194375,1,8,0:0:0:0:
64,216,194583,1,0,0:0:0:0:
360,224,194791,1,4,0:0:0:0:
47,212,195000,1,0,0:0:0:0:
343,239,195208,6,0,B|506:188|506:188|448:112,2,231.000007049561,4|0|4,0:0|0:0|0:0,0:0:0:0:
81,228,196250,1,2,0:0:0:0:
343,239,196458,1,0,0:0:0:0:
470,177,196666,1,8,0:0:0:0:
46,231,196875,6,0,P|157:172|232:120,1,188.999994232178,4|2,0:0|0:0,0:0:0:0:
32,125,197291,2,0,L|28:279,1,115.50000352478,6|0,0:0|0:0,0:0:0:0:
328,252,197708,2,0,L|212:208,1,115.50000352478,10|0,0:0|0:0,0:0:0:0:
512,272,198125,2,0,L|384:161,1,115.50000352478
124,196,198541,2,0,B|537:155|537:155|496:24|360:60|360:60|552:56|480:116,1,808.500024673463,4|0,0:0|0:0,0:0:0:0:
0,141,200208,1,10,0:0:0:0:
512,139,200625,1,0,0:0:0:0:
0,115,201041,1,6,0:0:0:0:
256,128,201458,5,2,0:0:0:0:
256,75,201493,1,0,0:0:0:0:
0,126,201666,1,2,0:0:0:0:
48,105,201701,1,0,0:0:0:0:
331,125,201875,2,4,L|187:117,1,125.999996154785,4|6,0:0|0:0,0:0:0:0:
350,104,202291,1,0,0:0:0:0:
60,123,202500,1,2,0:0:0:0:
347,136,202708,2,0,L|461:117,1,115.50000352478,4|0,0:0|0:0,0:0:0:0:
0,193,203125,5,2,0:0:0:0:
357,168,203333,1,4,0:0:0:0:
45,164,203541,1,2,0:0:0:0:
311,190,203750,1,4,0:0:0:0:
32,296,203958,2,0,L|320:168,1,315.000012016297,8|4,0:0|0:0,0:0:0:0:
8,168,204583,1,8,0:0:0:0:
424,200,204791,1,2,0:0:0:0:
111,197,205000,1,0,0:0:0:0:
505,192,205208,5,2,0:0:0:0:
192,192,205416,1,2,0:0:0:0:
96,192,205625,1,2,0:0:0:0:
0,192,205833,1,6,0:0:0:0:
279,192,206041,2,0,L|535:192,1,231.000007049561
245,190,206666,1,6,0:0:0:0:
341,190,206875,1,2,0:0:0:0:
437,190,207083,1,2,0:0:0:0:
125,190,207291,2,0,P|240:128|344:128,1,231.000007049561,0|2,0:0|0:0,0:0:0:0:
192,192,208125,5,4,0:0:0:0:
399,189,208541,1,12,0:0:0:0:
256,192,208567,12,0,210598,0:0:0:0:
207,132,208958,5,10,0:0:0:0:
396,144,209791,1,8,0:0:0:0:
320,128,210625,5,10,0:0:0:0:
128,160,211041,5,2,0:0:0:0:
384,173,211458,1,8,0:0:0:0:
256,192,211875,12,0,214375,0:0:0:0:
256,160,214791,5,0,0:0:0:0:
256,192,215208,12,0,216458,0:0:0:0:
288,284,217083,5,4,0:0:0:0:
122,280,217291,1,0,0:0:0:0:
512,272,217500,1,0,0:0:0:0:
0,232,217708,1,4,0:0:0:0:
364,240,217916,1,0,0:0:0:0:
64,220,218125,1,8,0:0:0:0:
436,204,218333,1,10,0:0:0:0:
152,191,218541,6,0,P|266:200|259:32,1,315,6|0,0:0|0:0,0:0:0:0:
164,12,218958,2,0,L|36:48,1,115.50000352478,4|0,0:0|0:0,0:0:0:0:
480,192,219375,2,0,B|232:188|232:188|232:120,1,315.000012016297,4|2,0:0|0:0,0:0:0:0:
352,176,220000,1,0,0:0:0:0:
48,176,220208,1,2,0:0:0:0:
352,178,220416,1,0,0:0:0:0:
48,176,220625,5,2,0:0:0:0:
352,178,220833,1,0,0:0:0:0:
48,144,221041,2,0,B|-11:60|-11:60|128:104,1,231.000007049561,6|0,0:0|0:0,0:0:0:0:
462,151,221666,1,0,0:0:0:0:
82,211,221875,6,0,P|103:90|256:52,1,283.500001081467,4|0,0:0|0:0,0:0:0:0:
512,59,222500,1,0,0:0:0:0:
0,73,222708,2,0,L|115:72,1,115.50000352478,4|0,0:0|0:0,0:0:0:0:
480,128,223125,2,0,L|346:132,1,129.937503965378,4|0,0:0|0:0,0:0:0:0:
24,216,223541,6,0,L|72:172,1,57.7500017623902,4|0,0:0|0:0,0:0:0:0:
228,152,223750,2,0,L|268:80,1,57.7500017623902,4|0,0:0|0:0,0:0:0:0:
424,112,223958,2,0,L|532:47,1,115.50000352478,10|0,0:0|0:0,0:0:0:0:
221,59,224375,2,0,P|314:169|257:222,1,231.000007049561,6|0,0:0|0:0,0:0:0:0:
6,188,225000,1,12,0:0:0:0:
319,116,225208,6,0,P|418:77|477:165,1,231.000007049561,6|2,0:0|0:0,0:0:0:0:
0,111,226041,1,2,0:0:0:0:
200,120,226458,1,2,0:0:0:0:
336,160,226666,1,8,0:0:0:0:
23,174,226875,1,2,0:0:0:0:
336,112,227083,5,8,0:0:0:0:
512,144,227291,1,6,0:0:0:0:
210,150,227500,1,8,0:0:0:0:
512,141,227708,2,0,P|355:149|324:238,1,241.500004606247,4|2,0:0|0:0,0:0:0:0:
512,288,228333,1,2,0:0:0:0:
0,192,228541,1,6,0:0:0:0:
512,178,228958,1,2,0:0:0:0:
142,189,229375,2,0,L|294:189,1,115.50000352478,6|0,0:0|0:0,0:0:0:0:
65,147,229791,6,0,L|31:193,2,57.7500017623902,2|0|2,0:0|0:0|0:0,0:0:0:0:
417,136,230104,2,0,L|465:168,2,57.7500017623902,2|0|2,0:0|0:0|0:0,0:0:0:0:
273,143,230416,1,2,0:0:0:0:
128,176,230625,2,0,L|48:144,3,57.7500017623902,4|0|4|0,0:0|0:0|0:0|0:0,0:0:0:0:
236,176,231041,2,0,L|-4:176,1,231.000007049561,4|0,0:0|0:0,0:0:0:0:
304,192,231666,2,0,L|312:112,1,57.7500017623902,4|4,0:0|0:0,0:0:0:0:
55,184,231875,2,0,P|113:124|103:98,1,115.50000352478,4|0,0:0|0:0,0:0:0:0:
400,200,232291,2,0,L|176:200,1,173.250005287171,4|0,0:0|0:0,0:0:0:0:
32,208,232708,6,0,P|32:120|176:72,1,231.000007049561,4|4,0:0|0:0,0:0:0:0:
320,96,233333,1,0,0:0:0:0:
512,160,233541,1,4,0:0:0:0:
0,193,233749,1,0,0:0:0:0:
145,164,233958,1,6,0:0:0:0:
320,152,234166,1,0,0:0:0:0:
0,192,234375,6,0,L|0:64,1,115.50000352478,4|0,0:0|0:0,0:0:0:0:
265,172,234791,2,0,P|229:127|181:95,1,115.50000352478,6|0,0:0|0:0,0:0:0:0:
512,240,235208,2,0,L|512:84,1,115.50000352478,4|0,0:0|0:0,0:0:0:0:
192,144,235625,1,2,0:0:0:0:
112,184,235833,1,2,0:0:0:0:
469,195,236041,2,0,L|320:232,1,115.50000352478
44,229,236458,2,0,B|132:229|212:173|182:41,1,251.999992309571,4|0,0:0|0:0,0:0:0:0:
487,44,237083,1,2,0:0:0:0:
187,52,237291,1,4,0:0:0:0:
504,184,237708,5,2,0:0:0:0:
144,176,238125,1,8,0:0:0:0:
0,176,238333,1,2,0:0:0:0:
368,152,238541,1,6,0:0:0:0:
56,192,238958,2,0,L|200:192,1,115.50000352478,4|0,0:0|0:0,0:0:0:0:
472,136,239375,2,0,B|392:112|392:112|288:112|288:112|192:40|192:40|376:48,2,462.000014099122,6|0|6,0:0|0:0|0:0,0:0:0:0:
128,224,241458,5,2,0:0:0:0:
427,228,241666,1,2,0:0:0:0:
128,216,241875,2,0,P|200:177|264:112,1,173.250005287171,4|2,0:0|0:0,0:0:0:0:
504,224,242291,2,0,L|445:92,1,115.50000352478,2|0,0:0|0:0,0:0:0:0:
158,113,242708,2,0,L|215:221,1,115.50000352478,4|0,0:0|0:0,0:0:0:0:
512,224,243125,1,8,0:0:0:0:
211,215,243333,6,0,L|75:199,2,115.50000352478
512,224,243958,2,0,B|72:120|84:56|84:56|508:84|280:168|280:168,1,755.999976928712,2|0,0:0|0:0,0:0:0:0:
48,204,245000,1,10,0:0:0:0:
384,208,245208,2,0,B|504:120,1,130.199994834595,2|0,0:0|0:0,0:0:0:0:
31,104,245625,6,0,L|287:112,1,231.000007049561
262,111,246041,6,0,L|32:104,1,231.000007049561,0|2,0:0|0:0,0:0:0:0:
128,104,246666,1,2,0:0:0:0:
224,104,246875,1,0,0:0:0:0:
320,104,247083,1,2,0:0:0:0:
416,104,247291,1,0,0:0:0:0:
512,104,247500,1,2,0:0:0:0:
192,104,247708,6,0,P|257:210|444:230,1,312.37500595808,0|4,0:0|0:0,0:0:0:0:
95,202,248125,2,0,P|93:95|171:44,1,202.125006168366
436,112,248541,2,0,L|196:112,1,231.000007049561,0|4,0:0|0:0,0:0:0:0:
512,152,249166,1,2,0:0:0:0:
216,204,249375,2,0,L|56:204,1,115.50000352478
0,200,249791,6,0,B|144:152,1,115.50000352478,2|0,0:0|0:0,0:0:0:0:
412,176,250208,1,4,0:0:0:0:
109,163,250416,1,2,0:0:0:0:
412,176,250625,1,4,0:0:0:0:
512,236,250833,1,0,0:0:0:0:
216,188,251041,5,2,0:0:0:0:
512,196,251250,1,0,0:0:0:0:
216,156,251458,1,8,0:0:0:0:
512,120,251666,1,8,0:0:0:0:
219,190,251875,2,0,P|136:113|160:62,1,173.250005287171,4|0,0:0|0:0,0:0:0:0:
368,136,252291,2,0,L|176:136,1,173.250005287171,4|0,0:0|0:0,0:0:0:0:
36,144,252708,2,0,P|12:264|108:304,1,231.000007049561,4|0,0:0|0:0,0:0:0:0:
396,304,253333,5,4,0:0:0:0:
512,240,253541,1,0,0:0:0:0:
364,232,253750,1,4,0:0:0:0:
64,232,253958,1,0,0:0:0:0:
364,244,254166,1,4,0:0:0:0:
64,208,254375,6,0,L|-32:136,1,115.50000352478,2|0,0:0|0:0,0:0:0:0:
512,159,254791,1,2,0:0:0:0:
344,160,255000,1,0,0:0:0:0:
0,162,255208,1,2,0:0:0:0:
512,192,255625,5,12,0:0:0:0:
0,184,256041,2,0,B|228:184|228:184|-32:180,1,462.000014099122,4|4,0:0|0:0,0:0:0:0:
173,157,257083,1,2,0:0:0:0:
496,176,257291,2,0,L|164:180,1,315.000012016297,4|0,0:0|0:0,0:0:0:0:
482,187,257916,1,8,0:0:0:0:
180,184,258125,1,2,0:0:0:0:
482,187,258333,1,8,0:0:0:0:
180,184,258541,6,0,L|68:104,1,115.50000352478,4|8,0:0|0:0,0:0:0:0:
487,203,258958,2,0,P|399:47|279:131,1,315.000012016297,0|4,0:0|0:0,0:0:0:0:
0,152,259583,2,0,L|122:182,1,115.50000352478,8|2,0:0|0:0,0:0:0:0:
376,200,260000,2,0,L|512:160,1,115.50000352478,8|0,0:0|0:0,0:0:0:0:
184,152,260416,1,2,0:0:0:0:
486,167,260625,2,0,P|374:175|268:97,1,231.000007049561,4|2,0:0|0:0,0:0:0:0:
488,192,261250,6,0,L|328:192,1,115.50000352478,0|2,0:0|0:0,0:0:0:0:
48,208,261666,2,0,L|176:208,1,115.50000352478,0|4,0:0|0:0,0:0:0:0:
463,231,262083,2,0,L|391:231,1,57.7500017623902,2|0,0:0|0:0,0:0:0:0:
312,232,262291,2,0,P|216:176|272:80,1,231.000007049561,4|2,0:0|0:0,0:0:0:0:
432,104,262916,2,2,L|344:192,1,115.50000352478
38,276,263333,2,0,P|101:178|35:163,1,231.000007049561
336,104,263958,2,0,P|448:184|416:224,1,231.000007049561,6|0,0:0|0:0,0:0:0:0:
116,224,264583,5,2,0:0:0:0:
416,264,264791,1,0,0:0:0:0:
116,252,265000,1,2,0:0:0:0:
416,284,265208,2,0,B|560:96|328:48|328:48|135:46|-74:138|117:362|278:50|438:51|588:172|432:348|432:348|304:297|304:297|256:244|192:220|100:224|32:196|24:56|66:18|226:11,1,1827.00005575562,4|4,0:0|0:0,0:0:0:0:
512,80,267916,1,2,0:0:0:0:
208,200,268125,2,0,B|120:208|80:196|80:196|22:156|336:160|336:160|96:104|88:88|32:72|16:8|16:8|401:2|401:2|136:23|136:23|419:59,1,1690.50003224373,4|0,0:0|0:0,0:0:0:0:
76,152,271250,6,0,L|-8:260,1,120.750002303124,2|0,0:0|0:0,0:0:0:0:
304,172,271666,2,0,L|16:148,1,241.500004606247,2|0,0:0|0:0,0:0:0:0:
504,208,272291,1,14,0:0:0:0:
192,160,272708,1,4,0:0:0:0:
464,160,272916,1,2,0:0:0:0:
192,160,273125,1,0,0:0:0:0:
264,160,273333,6,0,L|376:160,1,60.3750011515618,2|0,0:0|0:0,0:0:0:0:
496,176,273541,2,0,L|352:72,1,120.750002303124,0|2,0:0|0:0,0:0:0:0:
80,96,273958,2,0,L|-72:272,1,181.125003454685,4|0,0:0|0:0,0:0:0:0:
128,256,274375,2,0,L|192:168,1,60.3750011515618,2|0,0:0|0:0,0:0:0:0:
328,296,274583,2,0,L|448:216,1,120.750002303124,2|0,0:0|0:0,0:0:0:0:
40,208,275000,1,4,0:0:0:0:
256,192,275208,12,0,275833,0:0:0:0:
192,200,276041,6,0,B|-4:106|-4:106|511:114|511:114|325:109|325:109|534:78|534:78|488:296|256:336|264:248,1,1470,4|0,0:0|0:0,0:0:0:0:
109,310,277708,2,0,L|-16:180,1,105,6|0,0:0|0:0,0:0:0:0:
293,125,277916,2,0,L|513:214,1,210,6|0,0:0|0:0,0:0:0:0:
160,215,278333,5,6,0:0:0:0:
256,192,278359,12,0,278958,0:0:0:0:
376,216,279375,5,8,0:0:0:0:
152,192,279583,6,0,L|284:164,1,129.150001970673,6|0,0:0|0:0,0:0:0:0:
0,176,280000,2,0,P|69:74|211:71,1,262.5,2|10,0:0|0:0,0:0:0:0:
432,32,280625,2,0,P|276:31|238:96,1,241.500004606247,6|2,0:0|0:0,0:0:0:0:
504,192,281250,2,0,L|435:94,1,120.750002303124,14|0,0:0|0:0,0:0:0:0:
120,104,281666,2,0,P|40:144|136:208,1,241.500004606247,6|2,0:0|0:0,0:0:0:0:
432,128,282291,2,0,P|512:176|408:224,1,241.500004606247,2|0,0:0|0:0,0:0:0:0:
169,80,282916,6,0,B|328:132|415:16,1,210,0|2,0:0|0:0,0:0:0:0:
168,224,283333,1,0,0:0:0:0:
448,232,283750,1,2,0:0:0:0:
64,248,283958,1,14,0:0:0:0:
0,209,284375,1,2,0:0:0:0:
320,185,284583,1,14,0:0:0:0:
256,192,284895,12,0,287291,0:0:0:0:
