osu file format v14

[General]
AudioFilename: 02. Storytime.mp3
AudioLeadIn: 0
PreviewTime: 126040
Countdown: 0
SampleSet: Soft
StackLeniency: 0.5
Mode: 0
LetterboxInBreaks: 0
WidescreenStoryboard: 0

[Editor]
DistanceSpacing: 1.5
BeatDivisor: 8
GridSize: 4
TimelineZoom: 1

[Metadata]
Title:Storytime
TitleUnicode:Storytime
Artist:Nightwish
ArtistUnicode:Nightwish
Creator:neonat
Version:Endless Tale
Source:
Tags:cdhsausageboy Jerry Imaginaerum
BeatmapID:822857
BeatmapSetID:375760

[Difficulty]
HPDrainRate:6
CircleSize:4
OverallDifficulty:8
ApproachRate:9
SliderMultiplier:1.8
SliderTickRate:1

[Events]
//Background and Video events
0,0,"BG.jpg",0,0
//Break Periods
2,7169,8678
2,12355,20986
2,87008,87747
//Storyboard Layer 0 (Background)
//Storyboard Layer 1 (Fail)
//Storyboard Layer 2 (Pass)
//Storyboard Layer 3 (Foreground)
//Storyboard Sound Samples

[TimingPoints]
47.6307872112002,384.615384615385,4,2,1,60,1,0
6970,-100,4,2,1,20,0,0
9278,-100,4,2,1,60,0,0
10047,-100,4,2,1,20,0,0
21586,-100,4,2,1,45,0,0
23316,-100,4,2,1,60,0,0
27018,-100,4,2,1,25,0,0
27163,-100,4,2,1,60,0,0
27211,-100,4,2,1,25,0,0
27355,-100,4,2,1,60,0,0
33172,-100,4,2,1,25,0,0
33316,-100,4,2,1,60,0,0
33364,-100,4,2,1,25,0,0
33509,-100,4,2,1,60,0,0
36970,-117.647058823529,4,2,1,50,0,0
49278,-100,4,2,1,60,0,0
51634,-100,4,2,1,25,0,0
51778,-100,4,2,1,60,0,0
51826,-100,4,2,1,25,0,0
51970,-100,4,2,1,60,0,0
57788,-100,4,2,1,25,0,0
57932,-100,4,2,1,60,0,0
57980,-100,4,2,1,25,0,0
58124,-100,4,2,1,60,0,0
61584,382.165605095541,4,2,1,70,1,1
61584,-83.3333333333333,4,2,1,70,0,1
86040,384.615384615385,4,2,1,60,1,0
86809,-100,4,2,1,30,0,0
92001,-100,4,2,1,60,0,0
92193,-250,4,2,1,45,0,0
92482,-250,4,2,1,15,0,0
92578,-100,4,2,1,60,0,0
94549,-100,4,2,1,25,0,0
94693,-100,4,2,1,60,0,0
94741,-100,4,2,1,25,0,0
94886,-100,4,2,1,60,0,0
100703,-100,4,2,1,25,0,0
100847,-100,4,2,1,60,0,0
100895,-100,4,2,1,25,0,0
101040,-100,4,2,1,60,0,0
106857,-100,4,2,1,25,0,0
107001,-100,4,2,1,60,0,0
107049,-100,4,2,1,25,0,0
107193,-100,4,2,1,60,0,0
119165,-100,4,2,1,25,0,0
119309,-100,4,2,1,60,0,0
119357,-100,4,2,1,25,0,0
119501,-100,4,2,1,60,0,0
125318,-100,4,2,1,25,0,0
125463,-100,4,2,1,60,0,0
125511,-100,4,2,1,25,0,0
125655,-100,4,2,1,60,0,0
129107,382.165605095541,4,2,1,70,1,1
129107,-83.3333333333333,4,2,1,70,0,1
165790,384.615384615385,4,2,1,60,1,0
166559,-100,4,2,0,25,0,0
178097,-133.333333333333,4,2,2,50,0,0
208866,-133.333333333333,4,2,2,55,0,0
231943,-133.333333333333,4,3,2,60,0,0
233482,-133.333333333333,4,3,2,65,0,0
235020,-133.333333333333,4,3,2,70,0,0
236559,-133.333333333333,4,3,2,75,0,0
238097,-133.333333333333,4,3,2,80,0,0
241174,-133.333333333333,4,2,2,55,0,0
244251,384.615384615385,4,2,2,55,1,0
244259,382.165605095541,4,2,0,60,1,0
244832,-83.3333333333333,4,2,1,70,0,1
293176,-100,4,2,1,60,0,0
318494,-100,4,2,1,30,0,0

[Colours]
Combo1 : 83,152,236
Combo2 : 233,208,150
Combo3 : 156,106,249
Combo4 : 206,108,146

[HitObjects]
320,144,6201,5,8,0:0:0:0:
320,144,6393,2,0,B|356:228|304:316|304:316|256:224,1,270,8|0,0:0|2:0,0:0:0:0:
192,144,9278,5,8,0:0:0:0:
192,144,9470,2,0,B|156:228|208:316|208:316|256:224,1,270,8|0,0:0|2:0,0:0:0:0:
256,192,21586,12,8,22739,0:0:0:0:
143,270,23316,5,8,0:0:0:0:
143,270,23509,2,0,L|155:73,1,180,8|0,0:0|0:0,0:0:0:0:
369,114,24085,1,8,0:0:0:0:
369,114,24278,2,0,L|358:268,1,135,8|0,0:0|0:0,0:0:0:0:
339,289,24663,6,0,P|283:280|230:299,1,90,4|0,3:2|0:0,0:0:0:0:
423,336,25047,1,8,0:0:0:0:
274,198,25239,1,0,0:0:0:0:
470,146,25432,2,0,P|479:96|462:46,1,90,0|0,3:0|0:0,0:0:0:0:
273,110,25816,2,0,P|264:160|281:210,1,90,8|0,0:0|0:0,0:0:0:0:
450,222,26201,5,0,3:0:0:0:
324,48,26393,1,0,0:0:0:0:
450,222,26586,2,0,L|427:313,1,90,8|0,0:0|0:0,0:0:0:0:
228,218,26970,2,0,L|234:245,1,22.5,0|0,3:0|0:0,0:0:0:0:
330,156,27163,2,0,L|325:193,1,22.5
191,134,27355,1,8,0:0:0:0:
336,61,27547,1,0,0:0:0:0:
112,88,27739,6,0,P|104:132|116:188,1,90,0|0,3:0|0:0,0:0:0:0:
296,248,28124,1,8,0:0:0:0:
256,84,28316,1,0,0:0:0:0:
128,256,28509,2,0,P|68:244|44:208,1,90,0|0,3:0|0:0,0:0:0:0:
34,56,28893,2,0,P|94:68|118:104,1,90,8|0,0:0|0:0,0:0:0:0:
128,256,29278,5,0,3:0:0:0:
176,40,29470,1,0,0:0:0:0:
128,256,29663,2,0,L|160:344,1,90,8|0,0:0|0:0,0:0:0:0:
417,275,30047,1,0,3:0:0:0:
417,275,30239,1,0,0:0:0:0:
319,64,30432,2,0,B|259:105|259:157|259:157|299:165,1,135,12|0,0:0|0:0,0:0:0:0:
322,168,30816,6,0,P|379:177|415:167,1,90,0|0,3:0|0:0,0:0:0:0:
237,227,31201,1,8,0:0:0:0:
390,99,31393,1,0,0:0:0:0:
191,64,31586,2,0,P|168:105|175:157,1,90,0|0,3:0|0:0,0:0:0:0:
306,289,31970,2,0,P|329:248|322:196,1,90,8|0,0:0|0:0,0:0:0:0:
145,242,32355,5,0,3:0:0:0:
294,81,32547,1,0,0:0:0:0:
145,242,32739,2,0,L|164:333,1,90,8|0,0:0|0:0,0:0:0:0:
319,188,33124,2,0,L|330:223,1,22.5,0|0,3:0|0:0,0:0:0:0:
207,152,33316,2,0,L|201:181,1,22.5
345,96,33509,1,8,0:0:0:0:
184,52,33701,1,0,0:0:0:0:
410,33,33893,6,0,P|433:72|429:130,1,90,0|0,3:0|0:0,0:0:0:0:
294,243,34278,1,8,0:0:0:0:
260,90,34470,1,0,0:0:0:0:
396,228,34663,2,0,P|404:274|383:315,1,90,0|0,3:0|0:0,0:0:0:0:
199,311,35047,2,0,P|180:270|188:227,1,90,12|0,0:0|0:0,0:0:0:0:
343,146,35432,5,0,3:0:0:0:
90,90,35624,1,8,0:0:0:0:
90,90,35816,2,0,L|85:274,1,180,8|0,0:0|3:0,0:0:0:0:
341,90,36393,1,8,0:0:0:0:
341,90,36586,2,0,L|346:241,1,135,8|0,0:0|0:0,0:0:0:0:
345,269,36970,5,4,0:0:0:0:
222,326,37163,1,2,0:0:0:0:
105,258,37355,2,0,P|85:209|92:177,1,76.5000014591217,10|2,0:0|0:0,0:0:0:0:
266,110,37739,1,2,3:2:0:0:
135,73,37932,1,2,0:0:0:0:
220,177,38124,2,0,P|292:186|346:117,1,153.000002918243,10|0,0:0|3:0,0:0:0:0:
277,19,38701,5,2,0:0:0:0:
220,177,38893,1,10,0:0:0:0:
392,136,39086,1,2,0:0:0:0:
277,19,39278,1,2,3:2:0:0:
316,200,39470,1,2,0:0:0:0:
136,152,39663,2,0,P|127:111|141:68,1,76.5000014591217,10|2,0:0|0:0,0:0:0:0:
348,95,40047,5,0,3:0:0:0:
348,95,40432,1,10,0:0:0:0:
300,220,40624,1,0,0:0:0:0:
150,95,40816,2,0,L|243:89,1,76.5000014591217,2|0,3:2|0:0,0:0:0:0:
392,22,41201,1,10,0:0:0:0:
344,147,41393,1,0,0:0:0:0:
487,257,41586,6,0,L|396:248,1,76.5000014591217,2|0,3:2|0:0,0:0:0:0:
253,157,41970,1,10,0:0:0:0:
298,284,42163,1,0,0:0:0:0:
435,151,42355,2,0,P|454:120|398:78,1,114.750002188683,2|0,3:2|0:0,0:0:0:0:
366,91,42739,2,0,B|325:93|325:93|282:72,1,76.5000014591217,10|0,0:0|0:0,0:0:0:0:
100,33,43124,5,0,3:0:0:0:
191,131,43316,1,2,0:0:0:0:
64,178,43509,2,0,L|48:268,1,76.5000014591217,10|2,0:0|0:0,0:0:0:0:
197,349,43893,1,2,3:2:0:0:
179,214,44086,1,2,0:0:0:0:
305,259,44278,2,0,P|375:285|445:258,1,153.000002918243,10|0,0:0|3:0,0:0:0:0:
473,112,44855,5,2,0:0:0:0:
283,77,45047,1,10,0:0:0:0:
362,186,45239,1,2,0:0:0:0:
423,45,45432,1,2,3:2:0:0:
288,155,45624,1,2,0:0:0:0:
491,128,45816,2,0,B|503:167|503:167|495:211,1,76.5000014591217,10|2,0:0|0:0,0:0:0:0:
358,101,46201,5,0,3:0:0:0:
358,101,46586,1,10,0:0:0:0:
298,241,46778,1,2,0:0:0:0:
145,249,46970,2,0,P|124:212|131:165,1,76.5000014591217,2|2,3:2|0:0,0:0:0:0:
247,73,47355,2,0,P|268:110|261:157,1,76.5000014591217,10|2,0:0|0:0,0:0:0:0:
102,89,47739,5,2,3:2:0:0:
291,53,47932,1,0,3:0:0:0:
50,37,48124,2,0,P|30:74|36:118,1,76.5000014591217,10|0,0:0|0:0,0:0:0:0:
266,157,48509,1,2,3:2:0:0:
92,192,48701,1,0,3:0:0:0:
316,209,48893,2,0,P|336:172|330:124,1,76.5000014591217,14|0,0:0|0:0,0:0:0:0:
128,26,49278,5,4,3:2:0:0:
203,137,49470,1,2,0:0:0:0:
122,246,49663,2,0,P|108:295|124:338,1,90,10|2,0:0|0:0,0:0:0:0:
319,280,50047,1,2,3:2:0:0:
184,290,50239,1,2,0:0:0:0:
356,351,50432,2,0,P|381:330|383:235,1,135,10|0,0:0|0:0,0:0:0:0:
356,198,50816,6,0,L|364:104,1,90,0|2,3:0|0:0,0:0:0:0:
490,36,51201,1,10,0:0:0:0:
306,63,51393,1,2,0:0:0:0:
453,135,51586,2,0,L|459:169,1,22.5,2|0,3:2|2:0,0:0:0:0:
279,162,51778,2,0,L|273:196,1,22.5,2|0,0:0|0:0,0:0:0:0:
395,65,51970,1,10,0:0:0:0:
374,216,52163,1,2,0:0:0:0:
248,78,52355,6,0,P|195:71|141:77,1,90,0|0,3:0|0:0,0:0:0:0:
277,177,52739,1,10,0:0:0:0:
327,51,52932,1,0,0:0:0:0:
106,157,53124,2,0,P|159:150|213:156,1,90,2|0,3:2|0:0,0:0:0:0:
72,255,53509,1,10,0:0:0:0:
23,129,53701,1,0,0:0:0:0:
165,262,53893,5,2,3:2:0:0:
178,69,54086,1,0,0:0:0:0:
165,262,54278,2,0,P|195:276|257:270,1,90,10|0,0:0|0:0,0:0:0:0:
347,122,54663,2,0,P|317:108|230:166,1,135,2|0,3:2|0:0,0:0:0:0:
263,187,55047,2,0,B|308:198|308:198|368:195,1,90,10|0,0:0|0:0,0:0:0:0:
470,67,55432,5,2,3:2:0:0:
347,122,55624,1,2,0:0:0:0:
432,226,55816,2,0,P|441:257|420:318,1,90,10|2,0:0|0:0,0:0:0:0:
259,258,56201,1,2,3:2:0:0:
142,325,56393,1,2,0:0:0:0:
169,192,56586,2,0,P|178:152|159:92,1,90,10|0,0:0|0:0,0:0:0:0:
33,44,56970,5,0,3:0:0:0:
77,171,57163,1,2,0:0:0:0:
160,65,57355,2,0,B|205:71|205:71|263:59,1,90,10|2,0:0|0:0,0:0:0:0:
432,28,57739,2,0,L|399:40,1,22.5,2|0,3:2|0:0,0:0:0:0:
257,142,57932,2,0,L|296:129,1,22.5,2|0,0:0|0:0,0:0:0:0:
432,115,58124,1,10,0:0:0:0:
323,32,58316,1,2,0:0:0:0:
370,198,58509,6,0,B|374:241|374:241|352:291,1,90,0|0,3:0|0:0,0:0:0:0:
197,231,58893,1,10,0:0:0:0:
288,331,59086,1,2,0:0:0:0:
239,156,59278,1,2,3:2:0:0:
370,198,59470,1,0,0:0:0:0:
122,168,59663,2,0,P|87:152|56:92,1,90,14|2,0:0|0:0,0:0:0:0:
228,38,60047,5,8,0:0:0:0:
265,53,60143,1,0,3:0:0:0:
305,59,60239,1,0,3:0:0:0:
344,50,60335,1,0,3:0:0:0:
379,30,60431,1,8,0:3:0:0:
383,71,60528,1,0,3:0:0:0:
386,111,60624,1,0,3:0:0:0:
389,151,60720,1,0,3:0:0:0:
393,192,60816,5,8,0:3:0:0:
426,216,60913,1,0,3:0:0:0:
458,194,61009,1,0,3:0:0:0:
458,155,61105,1,0,3:0:0:0:
425,133,61201,1,8,3:0:0:0:
390,152,61297,1,0,3:0:0:0:
353,170,61393,1,0,3:0:0:0:
317,188,61489,1,0,3:0:0:0:
279,211,61584,6,0,L|171:208,1,107.999996704102,4|0,3:2|0:0,0:0:0:0:
46,104,61966,1,8,0:0:0:0:
101,256,62157,1,0,0:0:0:0:
181,94,62348,2,0,L|295:97,1,107.999996704102,0|0,3:0|0:0,0:0:0:0:
414,201,62730,1,8,0:0:0:0:
359,49,62921,1,0,0:0:0:0:
286,193,63112,5,0,3:0:0:0:
494,131,63303,1,2,0:0:0:0:
458,288,63494,2,0,P|406:330|343:320,1,107.999996704102,10|2,0:0|0:0,0:0:0:0:
226,249,63876,1,2,3:2:0:0:
388,255,64068,1,2,0:0:0:0:
277,90,64259,2,0,L|289:208,1,107.999996704102,10|2,0:0|0:0,0:0:0:0:
154,347,64641,6,0,L|141:223,1,107.999996704102,2|0,3:2|0:0,0:0:0:0:
30,74,65023,2,0,L|18:181,1,107.999996704102,10|0,0:0|0:0,0:0:0:0:
235,235,65405,2,0,P|286:198|292:140,1,107.999996704102,2|0,3:2|0:0,0:0:0:0:
156,72,65787,1,8,0:0:0:0:
141,233,65978,1,0,0:0:0:0:
11,135,66169,5,0,3:0:0:0:
223,21,66361,1,2,0:0:0:0:
345,109,66552,2,0,P|355:167|320:233,1,107.999996704102,10|2,0:0|0:0,0:0:0:0:
129,146,66934,2,0,P|187:136|253:171,1,107.999996704102,2|2,3:2|0:0,0:0:0:0:
227,303,67316,1,10,0:0:0:0:
129,146,67507,1,2,0:0:0:0:
354,40,67698,6,0,L|240:78,1,107.999996704102,2|0,3:2|0:0,0:0:0:0:
25,88,68080,2,0,L|139:126,1,107.999996704102,10|0,0:0|0:0,0:0:0:0:
265,307,68462,2,0,L|227:193,1,107.999996704102,2|0,3:2|0:0,0:0:0:0:
167,54,68845,1,8,0:0:0:0:
114,207,69036,1,0,0:0:0:0:
267,136,69227,5,0,3:0:0:0:
15,130,69418,1,2,0:0:0:0:
167,54,69609,2,0,L|288:53,1,107.999996704102,10|2,0:0|0:0,0:0:0:0:
482,27,69991,1,2,3:2:0:0:
348,197,70182,1,2,3:2:0:0:
372,13,70373,1,10,0:0:0:0:
488,173,70564,1,2,0:0:0:0:
250,150,70755,6,0,P|219:202|223:262,1,107.999996704102,2|0,3:2|0:0,0:0:0:0:
456,271,71138,2,0,P|487:219|483:159,1,107.999996704102,10|0,0:2|0:0,0:0:0:0:
274,71,71520,2,0,B|328:77|328:77|400:66,1,107.999996704102,2|0,3:2|0:0,0:0:0:0:
336,224,71902,1,8,0:0:0:0:
274,71,72093,1,0,0:0:0:0:
112,59,72284,5,0,3:0:0:0:
180,222,72475,1,2,0:0:0:0:
42,140,72666,2,0,L|14:32,1,107.999996704102,10|2,0:0|0:0,0:0:0:0:
221,63,73048,1,2,3:2:0:0:
88,219,73240,1,6,3:2:0:0:
133,13,73431,1,10,0:0:0:0:
306,130,73622,1,2,3:2:0:0:
240,325,73813,6,0,P|216:267|232:197,1,107.999996704102,6|0,3:2|0:0,0:0:0:0:
409,10,74195,2,0,P|433:68|417:138,1,107.999996704102,10|0,0:0|0:0,0:0:0:0:
234,86,74577,2,0,L|366:78,1,107.999996704102,2|0,3:2|0:0,0:0:0:0:
176,30,74959,1,8,0:0:0:0:
266,164,75150,1,0,0:0:0:0:
104,173,75341,6,0,P|81:111|110:53,1,107.999996704102,0|0,3:0|0:0,0:0:0:0:
331,82,75724,1,10,0:0:0:0:
157,116,75915,1,2,0:0:0:0:
388,23,76106,2,0,P|411:85|382:143,1,107.999996704102,2|2,3:2|0:0,0:0:0:0:
246,69,76488,1,10,0:0:0:0:
268,229,76679,1,2,0:0:0:0:
465,195,76870,6,0,L|343:198,1,107.999996704102,2|0,3:2|0:0,0:0:0:0:
105,148,77252,2,0,L|227:151,1,107.999996704102,10|0,0:0|0:0,0:0:0:0:
445,78,77634,2,0,L|323:75,1,107.999996704102,2|0,3:2|0:0,0:0:0:0:
186,13,78017,1,8,0:0:0:0:
188,174,78208,1,0,0:0:0:0:
61,73,78399,5,0,3:0:0:0:
295,98,78590,1,2,0:0:0:0:
177,211,78781,2,0,P|178:306|182:344,1,107.999996704102,10|2,0:0|0:0,0:0:0:0:
325,243,79163,2,0,P|324:148|320:110,1,107.999996704102,2|2,3:2|0:0,0:0:0:0:
164,101,79545,1,10,0:0:0:0:
110,253,79736,1,2,0:0:0:0:
38,50,79927,6,0,P|96:22|145:32,1,107.999996704102,2|0,3:2|0:0,0:0:0:0:
322,135,80310,2,0,P|264:163|215:153,1,107.999996704102,10|0,0:0|0:0,0:0:0:0:
391,28,80692,2,0,P|430:55|443:117,1,107.999996704102,2|0,3:2|0:0,0:0:0:0:
260,76,81074,1,8,0:0:0:0:
404,180,81265,1,0,0:0:0:0:
242,152,81456,6,0,L|120:162,1,107.999996704102,0|0,3:0|0:0,0:0:0:0:
310,30,81838,1,10,0:0:0:0:
287,222,82029,1,2,0:0:0:0:
160,60,82220,1,2,3:2:0:0:
366,97,82412,1,2,3:2:0:0:
147,156,82603,1,10,0:0:0:0:
310,30,82794,1,2,0:0:0:0:
155,237,82985,6,0,P|87:212|70:150,1,107.999996704102,2|0,3:2|0:0,0:0:0:0:
310,30,83367,2,0,P|322:101|277:147,1,107.999996704102,10|0,0:0|0:0,0:0:0:0:
54,82,83749,2,0,L|176:78,1,107.999996704102,2|0,3:2|0:0,0:0:0:0:
346,235,84131,2,0,B|294:249|294:249|213:233,1,107.999996704102,8|0,0:0|0:0,0:0:0:0:
257,77,84513,1,0,3:0:0:0:
459,220,84705,5,12,0:0:0:0:
410,316,84896,1,0,0:0:0:0:
303,334,85087,1,0,3:0:0:0:
150,184,85278,5,12,0:0:0:0:
257,188,85469,1,0,3:0:0:0:
421,51,85660,5,12,0:0:0:0:
314,55,85851,1,0,0:0:0:0:
204,250,86040,5,8,0:0:0:0:
204,250,86232,2,0,B|216:293|216:293|208:318|208:318|210:351|258:370|306:353|308:318|308:318|310:295|310:295|283:245,1,270,8|0,0:0|0:0,0:0:0:0:
137,168,88347,6,0,P|187:109|232:175,1,180,2|0,0:0|0:0,0:0:0:0:
256,192,89116,12,0,91809,0:0:0:0:
162,192,92001,5,0,3:0:0:0:
174,196,92097,1,0,3:0:0:0:
185,202,92193,2,0,L|241:208,1,54,0|0,3:0|0:0,0:0:0:0:
283,214,92578,5,12,0:0:0:0:
250,26,92770,1,0,0:0:0:0:
364,258,92963,2,0,P|403:216|408:154,1,90,0|0,3:0|0:0,0:0:0:0:
400,12,93347,2,0,P|361:54|356:116,1,90,8|0,0:0|0:0,0:0:0:0:
492,220,93732,5,0,3:0:0:0:
290,133,93924,1,0,0:0:0:0:
492,220,94116,2,0,L|466:320,1,90,8|0,0:0|0:0,0:0:0:0:
360,175,94501,2,0,L|362:202,1,22.5,0|0,3:0|0:0,0:0:0:0:
472,82,94693,2,0,L|468:113,1,22.5
321,73,94886,1,8,0:0:0:0:
443,179,95078,1,0,0:0:0:0:
254,162,95270,6,0,P|236:131|250:67,1,90,0|0,3:0|0:0,0:0:0:0:
358,219,95655,1,8,0:0:0:0:
354,65,95847,1,0,0:0:0:0:
286,232,96040,2,0,P|201:230|184:220,1,90,0|0,3:0|0:0,0:0:0:0:
77,92,96424,2,0,P|162:94|179:104,1,90,8|0,0:0|0:0,0:0:0:0:
132,262,96809,5,0,3:0:0:0:
269,90,97001,1,0,0:0:0:0:
132,262,97193,2,0,L|170:365,1,90,8|0,0:0|0:0,0:0:0:0:
358,208,97578,1,0,3:0:0:0:
358,208,97770,1,0,0:0:0:0:
112,185,97963,2,0,P|81:175|46:86,1,135,12|0,0:0|0:0,0:0:0:0:
85,65,98347,6,0,L|190:65,1,90,0|0,3:0|0:0,0:0:0:0:
314,187,98732,1,8,0:0:0:0:
283,28,98924,1,0,0:0:0:0:
172,177,99116,2,0,B|161:220|161:220|165:276,1,90,0|0,3:0|0:0,0:0:0:0:
352,282,99501,2,0,B|363:239|363:239|359:183,1,90,8|0,0:0|0:0,0:0:0:0:
204,104,99886,5,0,3:0:0:0:
415,34,100078,1,0,0:0:0:0:
204,104,100270,2,0,B|160:108|160:108|100:94,1,90,8|0,0:0|0:0,0:0:0:0:
292,77,100655,2,0,L|297:106,1,22.5,0|0,3:0|0:0,0:0:0:0:
445,96,100847,2,0,L|433:135,1,22.5
292,181,101040,1,8,0:0:0:0:
373,24,101232,1,0,0:0:0:0:
431,200,101424,6,0,P|443:257|435:301,1,90,0|0,3:0|0:0,0:0:0:0:
251,268,101809,1,8,0:0:0:0:
367,152,102001,1,0,0:0:0:0:
179,229,102193,2,0,P|135:235|86:212,1,90,0|0,3:0|0:0,0:0:0:0:
219,85,102578,2,0,P|263:79|312:102,1,90,12|0,0:0|0:0,0:0:0:0:
357,266,102963,5,0,3:0:0:0:
88,194,103155,1,8,0:0:0:0:
88,194,103347,2,0,L|101:9,1,180,8|0,0:0|3:0,0:0:0:0:
367,84,103924,1,8,0:0:0:0:
367,84,104116,2,0,L|377:231,1,135,8|0,0:0|0:0,0:0:0:0:
382,263,104501,6,0,P|342:260|284:284,1,90,4|2,3:2|0:0,0:0:0:0:
173,335,104886,2,0,P|135:338|83:309,1,90,10|2,0:0|0:0,0:0:0:0:
27,196,105270,1,2,3:2:0:0:
148,255,105463,1,2,0:0:0:0:
243,159,105655,2,0,P|249:108|189:42,1,135,10|0,0:0|0:0,0:0:0:0:
154,55,106040,5,0,3:0:0:0:
104,180,106232,1,2,0:0:0:0:
228,230,106424,1,10,0:0:0:0:
278,105,106616,1,2,0:0:0:0:
81,102,106809,2,0,L|40:108,1,22.5,2|0,3:2|0:0,0:0:0:0:
208,147,107001,2,0,L|239:162,1,22.5,2|0,0:0|0:0,0:0:0:0:
106,235,107193,1,10,0:0:0:0:
81,102,107386,1,2,0:0:0:0:
261,70,107578,5,0,3:0:0:0:
65,22,107770,1,2,0:0:0:0:
4,143,107963,2,0,P|5:191|32:228,1,90,10|2,0:0|0:0,0:0:0:0:
179,169,108347,2,0,L|88:160,1,90,2|0,3:2|0:0,0:0:0:0:
201,83,108732,2,0,L|292:92,1,90,10|0,0:2|0:0,0:0:0:0:
365,203,109116,5,2,3:2:0:0:
344,30,109309,1,0,0:0:0:0:
365,203,109501,2,0,L|340:297,1,90,10|0,0:2|0:0,0:0:0:0:
179,169,109886,2,0,P|247:197|297:162,1,135,2|0,3:2|0:0,0:0:0:0:
297,121,110270,2,0,B|286:78|286:78|290:20,1,90,10|0,0:0|0:0,0:0:0:0:
450,22,110655,5,0,3:0:0:0:
393,144,110847,1,2,0:0:0:0:
469,255,111040,2,0,P|472:303|445:353,1,90,10|2,0:0|0:0,0:0:0:0:
299,313,111424,1,2,3:2:0:0:
256,298,111520,1,0,0:0:0:0:
211,306,111616,1,2,0:0:0:0:
168,321,111713,1,0,0:0:0:0:
123,312,111809,2,0,P|88:272|88:222,1,90,10|0,0:0|0:0,0:0:0:0:
174,98,112193,5,0,3:0:0:0:
164,239,112386,1,0,0:0:0:0:
65,97,112578,2,0,P|50:47|58:5,1,90,10|2,0:0|0:0,0:0:0:0:
256,73,112963,2,0,P|225:94|161:94,1,90,2|2,3:2|0:0,0:0:0:0:
379,26,113347,2,0,P|394:76|386:118,1,90,10|2,0:0|0:0,0:0:0:0:
230,175,113732,5,0,3:0:0:0:
362,197,113924,1,2,0:0:0:0:
247,84,114116,2,0,L|141:94,1,90,10|2,0:0|0:0,0:0:0:0:
225,209,114501,1,2,3:2:0:0:
330,100,114693,1,0,0:0:0:0:
158,168,114886,2,0,P|146:206|172:268,1,90,10|0,0:0|0:0,0:0:0:0:
374,285,115270,5,2,3:2:0:0:
248,145,115463,1,2,3:2:0:0:
400,287,115655,2,0,P|429:235|421:186,1,90,14|0,0:0|0:0,0:0:0:0:
220,145,116040,1,2,3:2:0:0:
346,285,116233,1,0,3:0:0:0:
194,143,116424,2,0,P|165:195|173:244,1,90,14|0,0:0|0:0,0:0:0:0:
415,180,116809,5,6,3:2:0:0:
280,167,117001,1,2,0:2:0:0:
390,89,117193,2,0,L|481:102,1,90,10|2,0:0|0:0,0:0:0:0:
362,13,117578,2,0,P|326:38|312:88,1,90,2|2,3:2|0:0,0:0:0:0:
421,159,117963,2,0,P|435:193|371:270,1,135,10|0,0:0|0:0,0:0:0:0:
340,264,118347,6,0,P|270:260|239:264,1,90,0|2,3:0|0:0,0:0:0:0:
136,336,118732,1,10,0:0:0:0:
8,292,118924,1,2,0:0:0:0:
173,221,119116,2,0,L|187:183,1,22.5,2|0,3:2|0:0,0:0:0:0:
94,110,119309,2,0,L|81:146,1,22.5,2|0,0:0|0:0,0:0:0:0:
228,99,119501,1,10,0:0:0:0:
309,206,119693,1,2,0:0:0:0:
227,313,119886,5,0,3:0:0:0:
92,305,120078,1,2,0:0:0:0:
200,183,120270,1,10,0:0:0:0:
227,313,120463,1,2,0:0:0:0:
102,187,120655,2,0,P|88:142|96:96,1,90,2|0,3:2|0:0,0:0:0:0:
257,31,121040,2,0,P|263:75|249:117,1,90,10|0,0:0|0:0,0:0:0:0:
154,245,121424,5,2,3:2:0:0:
186,69,121616,1,0,0:0:0:0:
154,245,121809,2,0,P|160:295|183:334,1,90,10|0,0:0|0:0,0:0:0:0:
367,179,122193,2,0,P|303:164|230:183,1,135,2|0,3:2|0:0,0:0:0:0:
192,181,122578,2,0,P|163:156|155:90,1,90,10|0,0:2|0:0,0:0:0:0:
330,34,122963,5,2,3:2:0:0:
426,128,123155,1,2,0:0:0:0:
324,216,123347,2,0,L|336:127,1,90,10|2,0:0|0:0,0:0:0:0:
483,67,123732,1,2,3:2:0:0:
330,34,123924,1,2,0:0:0:0:
422,157,124116,2,0,B|414:208|414:208|420:264,1,90,10|0,0:0|0:0,0:0:0:0:
508,361,124501,5,0,3:0:0:0:
338,301,124693,1,2,0:0:0:0:
495,274,124886,1,10,0:0:0:0:
375,371,125078,1,2,0:0:0:0:
330,218,125270,2,0,L|336:187,1,22.5,2|0,3:2|0:0,0:0:0:0:
212,282,125463,2,0,L|214:311,1,22.5,2|0,0:0|0:0,0:0:0:0:
268,142,125655,1,10,0:0:0:0:
296,295,125847,1,2,0:0:0:0:
123,239,126040,6,0,P|85:233|42:192,1,90,0|2,3:0|0:0,0:0:0:0:
88,72,126424,1,10,0:0:0:0:
123,239,126616,1,2,0:0:0:0:
203,96,126809,1,2,3:2:0:0:
282,257,127001,5,14,0:0:0:0:
365,289,127193,1,2,0:0:0:0:
455,291,127386,1,2,3:2:0:0:
321,65,127578,5,14,0:0:0:0:
363,144,127770,1,2,0:0:0:0:
410,66,127963,1,2,3:2:0:0:
183,204,128155,5,12,0:0:0:0:
95,183,128347,1,2,0:0:0:0:
54,102,128540,1,0,3:0:0:0:
319,123,128732,5,14,0:0:0:0:
95,183,128924,1,0,3:0:0:0:
326,40,129107,6,0,L|445:48,1,107.999996704102,6|0,3:2|0:0,0:0:0:0:
410,207,129489,1,8,0:0:0:0:
508,78,129680,1,0,0:0:0:0:
265,125,129871,2,0,L|384:133,1,107.999996704102,0|0,3:0|0:0,0:0:0:0:
473,5,130253,1,8,0:0:0:0:
455,165,130444,1,0,0:0:0:0:
343,47,130635,5,0,3:0:0:0:
172,162,130826,1,2,0:0:0:0:
329,201,131017,2,0,P|341:243|315:317,1,107.999996704102,10|2,0:0|0:0,0:0:0:0:
169,258,131399,1,2,3:2:0:0:
329,201,131591,1,2,0:0:0:0:
115,191,131782,2,0,P|94:173|83:92,1,107.999996704102,10|2,0:0|0:0,0:0:0:0:
285,121,132164,6,0,L|161:115,1,107.999996704102,2|0,3:2|0:0,0:0:0:0:
268,292,132546,2,0,L|392:298,1,107.999996704102,10|0,0:0|0:0,0:0:0:0:
356,88,132928,2,0,P|340:139|350:192,1,107.999996704102,2|0,3:2|0:0,0:0:0:0:
470,302,133310,1,8,0:0:0:0:
433,145,133501,1,0,0:0:0:0:
329,269,133692,5,0,3:0:0:0:
246,86,133884,1,2,0:0:0:0:
395,22,134075,2,0,P|429:61|425:119,1,107.999996704102,10|2,0:0|0:0,0:0:0:0:
277,178,134457,2,0,P|243:139|247:81,1,107.999996704102,2|2,3:2|0:0,0:0:0:0:
372,185,134839,1,10,0:0:0:0:
234,270,135030,1,2,0:0:0:0:
332,108,135221,6,0,P|334:55|299:15,1,107.999996704102,2|0,3:2|0:0,0:0:0:0:
201,177,135603,2,0,P|198:229|233:269,1,107.999996704102,10|0,0:0|0:0,0:0:0:0:
428,198,135985,2,0,P|380:180|312:192,1,107.999996704102,2|0,3:2|0:0,0:0:0:0:
279,342,136368,1,8,0:0:0:0:
427,277,136559,1,0,0:0:0:0:
266,255,136750,5,0,3:0:0:0:
479,138,136941,1,2,0:0:0:0:
232,152,137132,2,0,P|228:98|266:40,1,107.999996704102,10|2,0:0|0:0,0:0:0:0:
471,53,137514,1,2,3:2:0:0:
232,152,137705,1,2,3:2:0:0:
398,16,137896,1,10,0:0:0:0:
433,216,138087,1,2,0:0:0:0:
252,51,138278,6,0,P|227:98|232:152,1,107.999996704102,2|0,3:2|0:0,0:0:0:0:
412,316,138661,2,0,P|436:268|432:215,1,107.999996704102,10|0,0:0|0:0,0:0:0:0:
173,253,139043,2,0,P|247:253|296:230,1,107.999996704102,2|0,3:2|0:0,0:0:0:0:
426,53,139425,1,8,0:0:0:0:
285,134,139616,1,0,0:0:0:0:
432,215,139807,5,0,3:0:0:0:
185,96,139998,1,2,0:0:0:0:
321,123,140189,2,0,L|328:251,1,107.999996704102,10|2,0:0|0:0,0:0:0:0:
130,171,140571,1,2,3:2:0:0:
292,44,140763,1,6,3:2:0:0:
245,242,140954,1,10,0:0:0:0:
216,20,141145,1,2,3:2:0:0:
106,243,141336,6,0,P|112:280|172:344,1,107.999996704102,6|0,3:2|0:0,0:0:0:0:
372,240,141718,2,0,P|366:203|306:139,1,107.999996704102,10|0,0:0|0:0,0:0:0:0:
88,152,142100,2,0,L|212:144,1,107.999996704102,2|0,3:2|0:0,0:0:0:0:
317,37,142482,1,8,0:0:0:0:
342,196,142673,1,0,0:0:0:0:
244,66,142864,6,0,L|120:74,1,107.999996704102,0|0,3:0|0:0,0:0:0:0:
336,156,143247,1,10,0:0:0:0:
230,32,143438,1,2,0:0:0:0:
164,179,143629,2,0,P|150:218|168:286,1,107.999996704102,2|2,3:2|0:0,0:0:0:0:
352,202,144011,1,10,0:0:0:0:
215,114,144202,1,2,0:0:0:0:
427,162,144393,6,0,P|435:222|404:268,1,107.999996704102,2|0,3:2|0:0,0:0:0:0:
200,213,144775,2,0,P|192:153|223:107,1,107.999996704102,10|0,0:0|0:0,0:0:0:0:
326,305,145157,2,0,P|284:315|210:297,1,107.999996704102,2|0,3:2|0:0,0:0:0:0:
146,158,145540,1,8,0:0:0:0:
143,319,145731,1,0,0:0:0:0:
295,265,145922,5,0,3:0:0:0:
218,43,146113,1,2,0:0:0:0:
339,98,146304,2,0,P|345:153|343:220,1,107.999996704102,10|2,0:0|0:0,0:0:0:0:
188,273,146686,2,0,P|182:218|184:151,1,107.999996704102,2|2,3:2|0:0,0:0:0:0:
339,98,147068,1,10,0:0:0:0:
160,88,147259,1,2,0:0:0:0:
408,142,147450,6,0,P|425:92|388:30,1,107.999996704102,2|0,3:2|0:0,0:0:0:0:
214,159,147833,2,0,L|340:163,1,107.999996704102,10|0,0:0|0:0,0:0:0:0:
132,43,148215,2,0,P|111:91|128:141,1,107.999996704102,2|0,3:2|0:0,0:0:0:0:
246,30,148597,1,8,0:0:0:0:
339,162,148788,1,0,0:0:0:0:
195,236,148979,6,0,L|220:119,1,107.999996704102,0|0,3:0|0:0,0:0:0:0:
407,91,149361,1,10,0:0:0:0:
191,55,149552,1,2,0:0:0:0:
334,202,149743,1,2,3:2:0:0:
382,12,149935,1,2,3:2:0:0:
217,130,150126,1,10,0:0:0:0:
433,173,150317,1,2,3:2:0:0:
222,42,150508,6,0,P|160:38|98:53,1,107.999996704102,6|0,3:2|0:0,0:0:0:0:
263,235,150890,2,0,P|325:239|387:224,1,107.999996704102,10|0,0:0|0:0,0:0:0:0:
453,94,151272,1,2,3:2:0:0:
192,186,151463,2,0,P|178:225|207:300,1,107.999996704102,4|8,3:2|0:0,0:0:0:0:
335,344,151845,1,0,0:0:0:0:
456,124,152036,5,6,3:2:0:0:
277,75,152228,1,0,0:0:0:0:
374,230,152419,1,8,0:0:0:0:
369,35,152610,1,0,0:0:0:0:
290,224,152801,1,0,3:0:0:0:
290,224,152896,1,0,0:0:0:0:
290,224,152992,1,4,3:2:0:0:
441,45,153183,1,8,0:0:0:0:
391,233,153374,1,0,3:0:0:0:
230,63,153565,6,0,P|172:49|104:61,1,107.999996704102,4|0,3:2|0:0,0:0:0:0:
183,204,153947,2,0,P|234:217|288:212,1,107.999996704102,8|0,0:0|0:0,0:0:0:0:
357,42,154329,2,0,P|342:96|361:179,1,107.999996704102,0|0,3:0|0:0,0:0:0:0:
461,277,154712,2,0,P|476:223|457:140,1,107.999996704102,8|0,0:0|0:0,0:0:0:0:
357,42,155094,5,0,3:0:0:0:
328,272,155285,1,2,0:0:0:0:
253,152,155476,2,0,P|222:135|146:137,1,107.999996704102,10|2,0:0|0:0,0:0:0:0:
54,265,155858,1,6,3:2:0:0:
67,103,156049,1,2,0:0:0:0:
153,240,156240,2,0,L|268:235,1,107.999996704102,10|2,0:0|0:0,0:0:0:0:
436,115,156622,6,0,L|321:120,1,107.999996704102,6|0,3:2|0:0,0:0:0:0:
294,317,157005,2,0,P|325:297|344:220,1,107.999996704102,10|0,0:0|0:0,0:0:0:0:
234,114,157387,2,0,P|203:134|184:211,1,107.999996704102,2|0,3:2|0:0,0:0:0:0:
386,123,157769,1,8,0:0:0:0:
259,21,157960,1,0,0:0:0:0:
428,31,158151,5,0,3:0:0:0:
348,224,158342,1,2,0:0:0:0:
266,94,158533,2,0,B|212:100|212:100|139:86,1,107.999996704102,10|2,0:0|0:0,0:0:0:0:
348,78,158915,2,0,P|384:102|400:167,1,107.999996704102,2|2,3:2|0:0,0:0:0:0:
294,20,159298,1,10,0:0:0:0:
243,173,159489,1,2,0:0:0:0:
371,326,159680,6,0,B|381:272|381:272|359:212,1,107.999996704102,2|0,3:2|0:0,0:0:0:0:
154,289,160062,2,0,L|263:289,1,107.999996704102,10|0,0:0|0:0,0:0:0:0:
205,90,160444,2,0,B|195:144|195:144|217:204,1,107.999996704102,2|0,3:2|0:0,0:0:0:0:
369,152,160826,1,8,0:0:0:0:
205,90,161017,1,0,0:0:0:0:
373,53,161208,5,0,3:0:0:0:
373,53,161591,2,0,P|371:109|394:168,1,107.999996704102,10|2,0:0|0:0,0:0:0:0:
506,233,161973,1,2,3:2:0:0:
365,235,162164,1,2,3:2:0:0:
464,92,162355,1,14,0:0:0:0:
437,303,162546,1,2,3:2:0:0:
255,117,162737,5,10,0:0:0:0:
255,117,162928,1,8,0:0:0:0:
404,179,163119,1,2,3:2:0:0:
140,239,163310,5,8,0:0:0:0:
140,239,163501,1,10,0:0:0:0:
159,78,163692,1,0,3:0:0:0:
257,330,163884,5,8,0:3:0:0:
257,330,164075,1,8,0:3:0:0:
331,186,164266,1,0,3:0:0:0:
62,163,164457,5,8,0:3:0:0:
62,163,164648,1,8,0:3:0:0:
214,107,164839,1,0,3:0:0:0:
119,264,165030,5,4,0:3:0:0:
126,278,165126,1,0,3:0:0:0:
134,291,165221,1,0,3:0:0:0:
145,302,165317,1,0,3:0:0:0:
157,312,165412,1,4,0:3:0:0:
171,319,165508,1,0,3:0:0:0:
186,324,165603,1,0,3:0:0:0:
201,327,165699,1,0,3:0:0:0:
215,327,165790,6,0,B|306:309|386:347|386:347|361:300|394:255|394:255|340:255|324:196,1,360,4|0,0:0|0:0,0:0:0:0:
378,74,166943,1,0,0:0:0:0:
267,165,167328,6,0,B|200:206|148:144|96:184|96:184|176:222|174:342|40:371|-5:268|20:227|38:204|42:186|42:186|15:153,1,540,2|0,0:0|0:0,0:0:0:0:
123,39,168866,6,0,B|198:72|223:-4|297:50|297:50|262:99|293:149|293:149|336:199|336:199|382:153|382:153|415:85|369:37|369:37|405:52|440:39|440:39|475:66|461:134,1,720,2|0,0:0|0:0,0:0:0:0:
399,264,170790,5,0,0:0:0:0:
265,316,171174,2,0,P|156:288|203:129,1,315,2|0,0:0|0:0,0:0:0:0:
237,122,171943,6,0,B|275:140|319:117|319:117|290:202|290:202|350:276|350:276|412:202|412:202|387:111|387:111|435:131|478:100,1,540,2|0,0:0|0:0,0:0:0:0:
335,40,173482,6,0,B|282:60|236:29|236:29|215:47|215:47|170:35|170:35|130:48|130:48|106:27|106:27|52:68|6:39,1,360,2|0,0:0|0:0,0:0:0:0:
52,175,174636,1,0,0:0:0:0:
256,192,175020,12,0,177328,0:0:0:0:
259,266,178097,5,4,3:2:0:0:
259,266,178290,1,0,3:0:0:0:
346,130,178482,1,2,0:0:0:0:
346,130,178674,1,2,0:0:0:0:
184,124,178866,1,8,0:0:0:0:
184,124,179059,1,0,0:0:0:0:
97,260,179251,1,2,0:1:0:0:
97,260,179443,6,0,L|139:338,1,67.5000025749208,2|0,0:1|0:0,0:0:0:0:
291,206,179828,1,8,0:1:0:0:
291,206,180020,2,0,L|249:284,1,67.5000025749208,8|0,0:1|0:0,0:0:0:0:
61,188,180405,2,0,P|57:143|117:68,1,135.000005149842,8|2,0:0|0:0,0:0:0:0:
211,101,180982,1,0,0:0:0:0:
297,36,181174,6,0,L|381:44,1,67.5000025749208,8|0,0:1|0:0,0:0:0:0:
465,110,181559,2,0,L|377:121,1,67.5000025749208,8|0,0:1|0:0,0:0:0:0:
266,212,181943,1,8,0:0:0:0:
339,308,182136,1,0,0:0:0:0:
400,203,182328,1,8,0:1:0:0:
304,128,182520,6,0,B|263:131|218:125,1,67.5000025749208,8|0,0:1|0:0,0:0:0:0:
93,49,182905,1,8,0:1:0:0:
93,49,183097,2,0,B|134:46|179:52,1,67.5000025749208,8|0,0:1|0:0,0:0:0:0:
242,205,183482,1,8,0:0:0:0:
242,205,183674,1,8,0:0:0:0:
371,107,183866,1,2,0:0:0:0:
371,107,184059,1,2,0:0:0:0:
170,148,184251,5,4,3:2:0:0:
170,148,184443,1,0,3:0:0:0:
195,308,184636,1,2,0:0:0:0:
195,308,184828,1,2,0:0:0:0:
348,256,185020,1,8,0:0:0:0:
348,256,185213,1,0,0:0:0:0:
323,96,185405,1,2,0:1:0:0:
323,96,185597,6,0,L|247:106,1,67.5000025749208,2|0,0:1|0:0,0:0:0:0:
91,97,185982,1,8,0:1:0:0:
91,97,186174,2,0,L|167:107,1,67.5000025749208,8|0,0:1|0:0,0:0:0:0:
359,170,186559,2,0,P|376:216|326:301,1,135.000005149842,8|2,0:0|0:0,0:0:0:0:
215,312,187136,1,0,0:0:0:0:
108,241,187328,6,0,P|106:193|125:150,1,67.5000025749208,8|0,0:1|0:0,0:0:0:0:
208,91,187713,2,0,P|210:139|191:182,1,67.5000025749208,8|0,0:1|0:0,0:0:0:0:
48,113,188097,1,8,0:0:0:0:
138,31,188290,1,0,0:0:0:0:
259,31,188482,1,2,0:1:0:0:
343,118,188674,6,0,P|406:127|424:123,1,67.5000025749208,2|0,0:1|0:0,0:0:0:0:
306,193,189059,1,8,0:1:0:0:
306,193,189251,2,0,P|243:202|225:198,1,67.5000025749208,8|0,0:1|0:0,0:0:0:0:
148,67,189636,1,8,0:0:0:0:
148,67,189828,1,8,0:0:0:0:
129,245,190020,1,2,0:0:0:0:
129,245,190213,1,2,0:0:0:0:
253,94,190405,6,0,L|332:100,1,67.5000025749208,4|0,0:0|0:0,0:0:0:0:
414,176,190790,1,4,0:3:0:0:
414,176,190982,1,4,0:3:0:0:
238,244,191174,2,0,P|207:226|190:182,1,67.5000025749208,8|0,0:0|0:0,0:0:0:0:
173,85,191559,1,2,0:0:0:0:
329,191,191751,6,0,P|346:239|336:274,1,67.5000025749208,2|0,0:0|0:0,0:0:0:0:
255,328,192136,1,2,0:1:0:0:
115,220,192328,2,0,L|193:231,1,67.5000025749208,8|0,0:1|0:0,0:0:0:0:
304,109,192713,1,8,0:0:0:0:
304,109,192905,1,8,0:0:0:0:
116,130,193097,1,2,0:0:0:0:
116,130,193290,1,2,0:0:0:0:
283,215,193482,6,0,L|356:220,1,67.5000025749208,4|0,0:0|0:0,0:0:0:0:
449,162,193866,1,4,0:3:0:0:
449,162,194059,1,4,0:3:0:0:
309,34,194251,2,0,P|268:42|237:75,1,67.5000025749208,8|0,0:0|0:0,0:0:0:0:
196,160,194636,1,2,0:1:0:0:
292,321,194828,6,0,P|309:274|298:237,1,67.5000025749208,2|0,0:1|0:0,0:0:0:0:
279,145,195213,1,2,0:1:0:0:
121,246,195405,2,0,L|210:239,1,67.5000025749208,8|0,0:1|0:0,0:0:0:0:
256,63,195790,1,8,0:0:0:0:
256,63,195982,1,8,0:0:0:0:
395,190,196174,1,2,0:0:0:0:
395,190,196366,1,2,0:0:0:0:
186,127,196559,6,0,L|103:135,1,67.5000025749208,4|0,0:0|0:0,0:0:0:0:
14,47,196943,1,4,0:3:0:0:
107,212,197136,1,0,0:0:0:0:
168,26,197328,2,0,L|240:38,1,67.5000025749208,8|0,0:0|0:0,0:0:0:0:
302,154,197713,1,2,0:1:0:0:
302,154,197905,1,2,0:1:0:0:
159,278,198097,5,0,0:0:0:0:
348,292,198290,1,2,0:1:0:0:
195,180,198482,2,0,L|180:98,1,67.5000025749208,8|0,0:1|0:0,0:0:0:0:
278,15,198866,2,0,L|265:81,1,67.5000025749208,8|0,0:0|0:0,0:0:0:0:
81,127,199251,1,2,0:0:0:0:
267,152,199443,1,0,0:0:0:0:
113,40,199636,6,0,L|33:22,1,67.5000025749208
229,72,200020,1,8,0:1:0:0:
79,189,200213,1,0,0:0:0:0:
267,152,200405,2,0,L|347:170,1,67.5000025749208,8|0,0:0|0:0,0:0:0:0:
412,276,200790,1,2,0:1:0:0:
412,276,200982,1,2,0:1:0:0:
399,87,201174,5,0,0:0:0:0:
319,257,201366,1,8,0:1:0:0:
320,67,201559,1,8,0:1:0:0:
399,238,201751,1,0,0:0:0:0:
245,98,201943,2,0,P|209:129|199:160,1,67.5000025749208,8|0,0:0|0:0,0:0:0:0:
391,155,202328,1,2,0:0:0:0:
223,242,202520,1,0,0:0:0:0:
333,87,202713,6,0,L|342:14,1,67.5000025749208
152,31,203097,1,4,0:3:0:0:
333,87,203290,1,0,0:0:0:0:
186,206,203482,2,0,L|137:142,1,67.5000025749208,8|0,0:0|0:0,0:0:0:0:
327,104,203866,1,2,0:1:0:0:
152,31,204059,1,2,0:1:0:0:
273,175,204251,6,0,L|314:228,1,67.5000025749208,0|8,0:0|0:1,0:0:0:0:
448,213,204636,1,8,0:1:0:0:
448,213,204828,1,8,0:1:0:0:
362,45,205020,1,8,0:0:0:0:
314,228,205213,1,0,0:0:0:0:
180,94,205405,2,0,L|277:96,1,67.5000025749208,2|0,0:0|0:0,0:0:0:0:
368,157,205790,5,0,0:0:0:0:
368,157,205982,1,0,0:0:0:0:
242,16,206174,1,4,0:3:0:0:
290,199,206366,1,0,0:0:0:0:
424,65,206559,2,0,L|327:67,1,67.5000025749208,12|0,0:0|0:0,0:0:0:0:
207,181,206943,1,2,0:1:0:0:
173,184,207040,1,0,0:0:0:0:
140,174,207136,1,2,0:1:0:0:
115,150,207232,1,0,0:0:0:0:
103,118,207328,5,0,0:0:0:0:
273,37,207520,1,8,0:1:0:0:
407,170,207713,2,0,P|418:212|420:253,1,67.5000025749208,8|8,0:1|0:1,0:0:0:0:
359,57,208097,1,8,0:0:0:0:
359,57,208290,1,8,0:0:0:0:
282,229,208482,1,2,0:0:0:0:
282,229,208674,1,2,0:0:0:0:
112,159,208866,6,0,P|157:154|192:160,1,67.5000025749208,4|0,0:0|0:0,0:0:0:0:
274,320,209251,1,4,0:3:0:0:
371,158,209443,1,0,0:0:0:0:
274,320,209636,2,0,P|229:325|194:319,1,67.5000025749208,8|0,0:0|0:0,0:0:0:0:
89,256,210020,1,2,0:1:0:0:
89,256,210213,1,2,0:1:0:0:
149,77,210405,5,0,0:0:0:0:
223,250,210597,1,8,0:1:0:0:
149,77,210790,2,0,P|199:61|230:63,1,67.5000025749208,8|0,0:1|0:0,0:0:0:0:
347,79,211174,1,8,0:0:0:0:
392,205,211366,1,0,0:0:0:0:
426,18,211559,1,2,0:0:0:0:
309,166,211751,1,0,0:0:0:0:
426,18,211943,6,0,L|451:100,1,67.5000025749208
374,258,212328,1,4,0:3:0:0:
359,69,212520,1,0,0:0:0:0:
374,258,212713,2,0,L|349:176,1,67.5000025749208,8|0,0:0|0:0,0:0:0:0:
467,267,213097,1,2,0:1:0:0:
467,267,213290,1,2,0:1:0:0:
281,304,213482,6,0,P|236:293|207:270,1,67.5000025749208,0|8,0:0|0:1,0:0:0:0:
149,181,213866,1,8,0:1:0:0:
170,60,214059,1,0,0:0:0:0:
344,132,214251,2,0,P|358:184|352:210,1,67.5000025749208,8|0,0:0|0:0,0:0:0:0:
230,346,214636,2,0,P|216:294|222:268,1,67.5000025749208,2|0,0:0|0:0,0:0:0:0:
285,178,215020,5,0,0:0:0:0:
285,178,215213,1,0,0:0:0:0:
135,62,215405,1,4,0:3:0:0:
152,249,215597,1,0,0:0:0:0:
135,62,215790,2,0,L|209:51,1,67.5000025749208,8|0,0:0|0:0,0:0:0:0:
385,93,216174,1,2,0:1:0:0:
212,169,216366,1,2,0:1:0:0:
385,93,216559,6,0,L|461:107,1,67.5000025749208,0|8,0:0|0:1,0:0:0:0:
341,27,216943,1,8,0:1:0:0:
341,27,217136,1,0,0:0:0:0:
308,212,217328,1,8,0:0:0:0:
249,32,217520,1,0,0:0:0:0:
308,212,217713,2,0,L|232:226,1,67.5000025749208,2|0,0:0|0:0,0:0:0:0:
165,112,218097,6,0,L|241:126,1,67.5000025749208,4|0,0:3|0:0,0:0:0:0:
301,300,218482,1,4,0:3:0:0:
313,111,218674,1,0,0:0:0:0:
301,300,218866,2,0,L|225:314,1,67.5000025749208,8|0,0:0|0:0,0:0:0:0:
120,239,219251,1,2,0:1:0:0:
177,360,219443,1,2,0:1:0:0:
267,193,219636,6,0,P|273:143|263:110,1,67.5000025749208,0|8,0:0|0:1,0:0:0:0:
180,44,220020,1,8,0:1:0:0:
139,159,220213,1,0,0:0:0:0:
289,45,220405,1,8,0:0:0:0:
289,45,220597,1,8,0:0:0:0:
93,85,220790,1,2,0:0:0:0:
93,85,220982,1,2,0:0:0:0:
257,177,221174,6,0,L|248:267,1,67.5000025749208,4|0,0:0|0:0,0:0:0:0:
370,97,221559,1,4,0:3:0:0:
250,244,221751,1,0,0:0:0:0:
370,97,221943,2,0,L|364:16,1,67.5000025749208,8|0,0:0|0:0,0:0:0:0:
237,76,222328,1,2,0:1:0:0:
237,76,222520,1,2,0:1:0:0:
342,233,222713,5,0,0:0:0:0:
425,63,222905,1,8,0:1:0:0:
342,233,223097,2,0,L|350:306,1,67.5000025749208,8|0,0:1|0:0,0:0:0:0:
476,346,223482,1,8,0:0:0:0:
476,346,223674,1,0,0:0:0:0:
474,157,223866,1,2,0:0:0:0:
349,300,224059,1,0,0:0:0:0:
474,157,224251,6,0,L|480:83,1,67.5000025749208
293,50,224636,1,4,0:3:0:0:
384,215,224828,1,0,0:0:0:0:
293,50,225020,2,0,L|287:124,1,67.5000025749208,8|0,0:0|0:0,0:0:0:0:
384,215,225405,1,2,0:1:0:0:
252,187,225597,1,2,0:1:0:0:
438,153,225790,6,0,P|465:198|466:223,1,67.5000025749208,0|8,0:0|0:1,0:0:0:0:
415,321,226174,1,8,0:1:0:0:
294,337,226366,1,0,0:0:0:0:
149,214,226559,2,0,P|196:200|237:206,1,67.5000025749208,8|0,0:0|0:0,0:0:0:0:
94,346,226943,2,0,P|47:360|6:354,1,67.5000025749208,8|0,0:0|0:0,0:0:0:0:
6,225,227328,5,0,0:0:0:0:
6,225,227520,1,0,0:0:0:0:
61,43,227713,1,4,0:3:0:0:
138,215,227905,1,0,0:0:0:0:
61,43,228097,2,0,P|103:47|151:39,1,67.5000025749208,8|0,0:0|0:0,0:0:0:0:
316,27,228482,1,2,0:1:0:0:
239,199,228674,1,2,0:1:0:0:
316,27,228866,6,0,P|274:23|226:31,1,67.5000025749208,0|8,0:0|0:1,0:0:0:0:
156,124,229251,1,8,0:1:0:0:
156,124,229443,1,0,0:0:0:0:
239,294,229636,1,8,0:0:0:0:
274,108,229828,1,0,0:0:0:0:
239,294,230020,2,0,L|170:308,1,67.5000025749208,2|0,0:0|0:0,0:0:0:0:
261,204,230405,6,0,L|330:218,1,67.5000025749208,4|0,0:3|0:0,0:0:0:0:
141,179,230790,1,4,0:3:0:0:
323,130,230982,1,0,0:0:0:0:
141,179,231174,2,0,L|56:169,1,67.5000025749208,12|0,0:0|0:0,0:0:0:0:
200,121,231559,2,0,P|221:157|223:192,1,67.5000025749208
75,333,231943,6,0,L|45:248,1,67.5000025749208,4|0,0:2|0:0,0:0:0:0:
187,282,232328,2,0,L|178:189,1,67.5000025749208
313,241,232713,2,0,L|313:173,1,67.5000025749208
435,231,233098,2,0,L|451:165,1,67.5000025749208
336,109,233482,6,0,L|313:172,1,67.5000025749208
222,73,233866,2,0,L|215:140,1,67.5000025749208
114,50,234251,2,0,L|114:117,1,67.5000025749208
9,55,234635,2,0,L|25:120,1,67.5000025749208
314,32,235020,6,0,L|300:115,1,67.5000025749208,4|0,0:2|0:0,0:0:0:0:
198,32,235405,2,0,L|209:98,1,67.5000025749208
374,120,235790,2,0,L|332:193,1,67.5000025749208
138,120,236174,2,0,L|179:193,1,67.5000025749208
412,213,236559,6,0,L|347:267,1,67.5000025749208
100,213,236943,2,0,L|164:267,1,67.5000025749208
418,313,237328,2,0,L|339:342,1,67.5000025749208
94,313,237713,2,0,L|172:342,1,67.5000025749208,4|0,0:2|0:0,0:0:0:0:
321,155,238097,5,4,0:2:0:0:
321,319,238290,1,0,0:0:0:0:
224,186,238482,1,0,0:0:0:0:
380,237,238674,1,0,0:0:0:0:
224,287,238866,5,0,0:0:0:0:
189,71,239059,1,0,0:0:0:0:
344,225,239251,1,0,0:0:0:0:
128,191,239443,1,0,0:0:0:0:
323,92,239636,5,0,0:0:0:0:
166,309,239828,1,0,0:0:0:0:
165,40,240020,1,0,0:0:0:0:
323,257,240213,1,0,0:0:0:0:
68,175,240405,5,0,0:0:0:0:
209,316,240597,1,0,0:0:0:0:
252,55,240790,1,12,0:2:0:0:
168,234,240982,1,0,0:0:0:0:
329,106,241174,5,8,0:0:0:0:
355,109,241270,1,8,0:0:0:0:
382,112,241366,1,8,0:0:0:0:
409,115,241462,1,8,0:0:0:0:
436,118,241558,1,8,0:0:0:0:
178,143,241751,5,8,0:3:0:0:
151,144,241847,1,8,0:3:0:0:
124,146,241943,1,8,0:3:0:0:
97,147,242039,1,8,0:3:0:0:
70,149,242135,1,8,0:3:0:0:
43,150,242231,1,8,0:3:0:0:
16,154,242328,6,0,P|-3:211|33:275,1,135.000005149842,12|0,0:0|0:0,0:0:0:0:
343,225,242905,2,0,P|361:161|328:105,1,135.000005149842,12|0,0:0|0:0,0:0:0:0:
114,316,243482,1,8,0:0:0:0:
245,63,243674,1,4,0:0:0:0:
146,230,243866,2,0,L|68:201,1,67.5000025749208
337,75,244259,5,4,0:0:0:0:
56,131,244450,1,0,0:0:0:0:
307,268,244641,1,0,0:0:0:0:
105,38,244832,6,0,P|168:97|292:56,1,215.999993408203,4|0,3:2|0:0,0:0:0:0:
377,19,245309,1,0,0:0:0:0:
377,19,245405,2,0,P|397:79|377:141,1,107.999996704102,12|0,0:0|0:0,0:0:0:0:
295,204,245787,5,0,3:0:0:0:
199,14,245978,1,2,0:0:0:0:
94,137,246169,2,0,P|79:192|96:256,1,107.999996704102,10|2,0:0|0:0,0:0:0:0:
249,176,246551,1,2,3:2:0:0:
94,137,246743,1,2,0:0:0:0:
302,110,246934,2,0,L|432:104,1,107.999996704102,10|2,0:0|0:0,0:0:0:0:
200,27,247316,6,0,P|194:79|225:133,1,107.999996704102,2|0,3:2|0:0,0:0:0:0:
428,205,247698,2,0,P|434:153|403:99,1,107.999996704102,10|0,0:0|0:0,0:0:0:0:
177,218,248080,2,0,P|224:233|296:204,1,107.999996704102,2|0,3:2|0:0,0:0:0:0:
320,61,248462,1,8,0:0:0:0:
166,111,248653,1,0,0:0:0:0:
28,25,248844,5,0,3:0:0:0:
260,59,249036,1,2,0:0:0:0:
170,194,249227,2,0,P|168:234|213:306,1,107.999996704102,10|2,0:0|0:0,0:0:0:0:
360,208,249609,2,0,P|362:168|317:96,1,107.999996704102,2|2,3:2|0:0,0:0:0:0:
170,109,249991,1,10,0:0:0:0:
313,34,250182,1,2,0:0:0:0:
199,237,250373,6,0,P|157:247|77:242,1,107.999996704102,2|0,3:2|0:0,0:0:0:0:
286,161,250755,2,0,P|315:192|351:264,1,107.999996704102,10|0,0:0|0:0,0:0:0:0:
178,133,251137,2,0,P|190:91|234:24,1,107.999996704102,2|0,3:2|0:0,0:0:0:0:
380,81,251520,1,8,0:0:0:0:
233,148,251711,1,0,0:0:0:0:
331,19,251902,5,0,3:0:0:0:
219,236,252093,1,2,0:0:0:0:
418,145,252284,2,0,P|451:166|478:234,1,107.999996704102,10|2,0:0|0:0,0:0:0:0:
253,151,252666,1,2,3:2:0:0:
443,305,252857,1,2,3:2:0:0:
336,116,253048,1,10,0:0:0:0:
297,291,253239,1,2,0:0:0:0:
132,177,253430,6,0,L|121:61,1,107.999996704102,2|0,3:2|0:0,0:0:0:0:
312,28,253813,2,0,L|301:144,1,107.999996704102,10|0,0:0|0:0,0:0:0:0:
71,18,254195,2,0,B|129:17|129:17|201:28,1,107.999996704102,2|0,3:2|0:0,0:0:0:0:
230,176,254577,1,8,0:0:0:0:
77,229,254768,1,0,0:0:0:0:
20,84,254959,5,0,3:0:0:0:
230,176,255150,1,2,0:0:0:0:
77,229,255341,2,0,P|50:282|66:344,1,107.999996704102,10|2,0:0|0:0,0:0:0:0:
261,317,255723,1,2,3:2:0:0:
128,159,255915,1,6,3:2:0:0:
85,327,256106,1,10,0:0:0:0:
261,317,256297,1,2,3:2:0:0:
230,67,256488,6,0,P|207:133|223:193,1,107.999996704102,6|0,3:2|0:0,0:0:0:0:
407,152,256870,2,0,L|301:133,1,107.999996704102,10|0,0:0|0:0,0:0:0:0:
143,226,257252,2,0,P|197:255|263:238,1,107.999996704102,2|0,3:2|0:0,0:0:0:0:
230,67,257634,1,8,0:0:0:0:
307,209,257825,1,0,0:0:0:0:
154,155,258016,6,0,P|116:149|35:164,1,107.999996704102,0|0,3:0|0:0,0:0:0:0:
134,350,258399,1,10,0:0:0:0:
216,210,258590,1,2,0:0:0:0:
63,263,258781,2,0,B|114:271|114:271|174:273,1,107.999996704102,2|2,3:2|0:0,0:0:0:0:
274,138,259163,1,10,0:0:0:0:
356,278,259354,1,2,0:0:0:0:
194,116,259545,6,0,P|184:69|203:13,1,107.999996704102,2|0,3:2|0:0,0:0:0:0:
364,175,259927,2,0,P|374:222|355:278,1,107.999996704102,10|0,0:0|0:0,0:0:0:0:
126,285,260309,2,0,P|116:238|135:182,1,107.999996704102,2|0,3:2|0:0,0:0:0:0:
292,221,260692,1,8,0:0:0:0:
134,182,260883,1,0,0:0:0:0:
249,68,261074,5,0,3:0:0:0:
0,82,261265,1,2,0:0:0:0:
85,182,261456,2,0,L|203:170,1,107.999996704102,10|2,0:0|0:0,0:0:0:0:
386,52,261838,2,0,P|313:58|277:96,1,107.999996704102,2|2,3:2|0:0,0:0:0:0:
268,239,262220,1,10,0:0:0:0:
207,88,262411,1,2,0:0:0:0:
368,189,262602,6,0,B|428:188|428:188|488:153,1,107.999996704102,2|0,3:2|0:0,0:0:0:0:
308,62,262985,2,0,B|248:63|248:63|206:87,1,107.999996704102,10|0,0:0|0:0,0:0:0:0:
280,266,263367,2,0,B|279:206|279:206|244:146,1,107.999996704102,2|0,3:2|0:0,0:0:0:0:
93,182,263749,1,8,0:0:0:0:
206,87,263940,1,0,0:0:0:0:
121,262,264131,6,0,B|122:322|122:322|157:382,1,107.999996704102,0|0,3:0|0:0,0:0:0:0:
319,253,264513,1,10,0:0:0:0:
137,182,264704,1,2,0:0:0:0:
312,97,264895,1,2,3:2:0:0:
247,300,265087,1,2,3:2:0:0:
176,97,265278,1,10,0:0:0:0:
345,174,265469,1,2,3:2:0:0:
87,112,265660,6,0,B|35:131|35:131|6:178,1,107.999996704102,6|0,3:2|0:0,0:0:0:0:
167,363,266042,2,0,B|219:344|219:344|248:297,1,107.999996704102,10|0,0:0|0:0,0:0:0:0:
226,176,266424,1,2,3:2:0:0:
27,300,266615,2,0,B|86:299|86:299|147:272,1,107.999996704102,4|8,3:2|0:0,0:0:0:0:
226,176,266997,1,0,3:0:0:0:
33,58,267188,5,4,3:2:0:0:
150,200,267380,1,0,0:0:0:0:
215,28,267571,1,8,0:0:0:0:
63,150,267762,1,0,0:0:0:0:
235,138,267953,1,0,3:0:0:0:
50,25,268144,1,4,3:2:0:0:
115,230,268335,1,8,0:0:0:0:
229,46,268526,1,0,3:0:0:0:
13,210,268717,6,0,P|-1:257|17:327,1,107.999996704102,4|0,3:2|0:0,0:0:0:0:
231,241,269099,2,0,P|245:194|227:124,1,107.999996704102,8|0,0:0|0:0,0:0:0:0:
43,77,269481,2,0,P|75:104|155:108,1,107.999996704102,0|0,3:0|0:0,0:0:0:0:
324,81,269864,2,0,P|292:54|212:50,1,107.999996704102,8|0,0:0|0:0,0:0:0:0:
150,187,270246,5,0,3:0:0:0:
392,175,270437,1,2,0:0:0:0:
315,297,270628,2,0,P|263:304|201:263,1,107.999996704102,10|2,0:0|3:2,0:0:0:0:
196,73,271010,1,6,3:2:0:0:
278,212,271201,1,2,0:0:0:0:
390,95,271392,2,0,P|403:40|370:0,1,107.999996704102,10|2,0:0|3:2,0:0:0:0:
196,73,271774,6,0,B|252:83|252:83|316:79,1,107.999996704102,6|0,3:2|0:0,0:0:0:0:
121,28,272157,2,0,B|65:18|65:18|1:22,1,107.999996704102,10|0,0:0|0:0,0:0:0:0:
88,164,272539,1,2,3:2:0:0:
195,43,272730,1,0,0:0:0:0:
180,204,272921,2,0,L|211:315,1,107.999996704102,8|0,0:0|0:0,0:0:0:0:
283,162,273303,5,0,3:0:0:0:
58,189,273494,1,2,0:0:0:0:
188,87,273685,2,0,L|300:82,1,107.999996704102,10|2,0:0|0:0,0:0:0:0:
468,145,274067,2,0,L|343:139,1,107.999996704102,2|2,3:2|0:0,0:0:0:0:
229,18,274450,1,10,0:0:0:0:
283,162,274641,1,2,0:0:0:0:
107,259,274832,6,0,P|132:210|192:185,1,107.999996704102,2|0,3:2|0:0,0:0:0:0:
385,211,275214,2,0,P|338:240|274:232,1,107.999996704102,10|0,0:0|0:0,0:0:0:0:
254,30,275596,2,0,P|283:76|275:140,1,107.999996704102,2|0,3:2|0:0,0:0:0:0:
62,120,275978,1,8,0:0:0:0:
161,247,276169,1,0,0:0:0:0:
172,85,276360,5,0,3:0:0:0:
49,307,276551,1,2,0:0:0:0:
169,166,276743,2,0,L|300:172,1,107.999996704102,10|2,0:0|0:0,0:0:0:0:
416,34,277125,1,2,3:2:0:0:
385,214,277316,1,2,3:2:0:0:
298,52,277507,1,10,0:0:0:0:
465,169,277698,1,2,3:2:0:0:
255,195,277889,6,0,P|252:238|300:302,1,107.999996704102,2|0,3:2|0:0,0:0:0:0:
399,118,278271,2,0,L|287:122,1,107.999996704102,10|0,0:0|0:0,0:0:0:0:
148,44,278653,1,2,3:2:0:0:
176,203,278844,1,0,0:0:0:0:
233,50,279036,2,0,L|340:46,1,107.999996704102,8|0,0:0|0:0,0:0:0:0:
479,112,279418,5,0,3:0:0:0:
300,271,279609,1,2,0:0:0:0:
150,208,279800,2,0,P|148:162|191:104,1,107.999996704102,10|2,0:0|0:0,0:0:0:0:
374,248,280182,1,2,3:2:0:0:
246,60,280373,1,6,3:2:0:0:
254,221,280564,1,10,0:0:0:0:
370,79,280755,1,2,3:2:0:0:
488,242,280946,6,0,P|494:286|468:346,1,107.999996704102,6|0,3:2|0:0,0:0:0:0:
294,292,281329,2,0,L|427:281,1,107.999996704102,10|0,0:0|0:0,0:0:0:0:
480,128,281711,2,0,B|426:142|426:142|372:136,1,107.999996704102,2|0,3:2|0:0,0:0:0:0:
243,40,282093,1,8,0:0:0:0:
287,195,282284,1,0,0:0:0:0:
112,132,282475,6,0,L|220:141,1,107.999996704102,0|0,3:0|0:0,0:0:0:0:
385,45,282857,1,10,0:0:0:0:
407,205,283048,1,2,0:0:0:0:
254,149,283239,2,0,P|234:190|236:264,1,107.999996704102,2|2,3:2|0:0,0:0:0:0:
407,205,283622,1,10,0:0:0:0:
254,149,283813,1,2,0:0:0:0:
99,196,284004,6,0,P|52:184|23:113,1,107.999996704102,2|0,3:2|0:0,0:0:0:0:
193,72,284386,2,0,P|238:98|253:148,1,107.999996704102,10|0,0:0|0:0,0:0:0:0:
144,268,284768,1,2,3:2:0:0:
287,342,284959,1,0,0:0:0:0:
345,191,285150,2,0,L|341:82,1,107.999996704102,8|0,0:0|0:0,0:0:0:0:
497,42,285532,5,0,3:0:0:0:
258,26,285723,1,2,0:0:0:0:
134,107,285915,2,0,P|132:157|168:209,1,107.999996704102,10|2,0:0|0:0,0:0:0:0:
334,123,286297,2,0,P|276:115|221:133,1,107.999996704102,2|2,3:2|0:0,0:0:0:0:
211,289,286679,1,10,0:0:0:0:
334,123,286870,1,2,0:0:0:0:
132,238,287061,6,0,P|85:229|35:175,1,107.999996704102,2|0,3:2|0:0,0:0:0:0:
229,128,287443,2,0,P|281:138|346:115,1,107.999996704102,10|0,0:0|0:0,0:0:0:0:
156,41,287825,2,0,P|104:31|39:54,1,107.999996704102,2|0,3:2|0:0,0:0:0:0:
93,203,288208,1,8,0:0:0:0:
241,138,288399,1,0,0:0:0:0:
21,126,288590,6,0,P|-11:180|0:240,1,107.999996704102,0|0,3:0|0:0,0:0:0:0:
194,265,288972,1,10,0:0:0:0:
107,86,289163,1,2,0:0:0:0:
119,301,289354,1,2,3:2:0:0:
227,138,289545,1,2,3:2:0:0:
41,282,289736,1,10,0:0:0:0:
107,86,289927,1,2,3:2:0:0:
311,168,290118,6,0,P|360:176|422:150,1,107.999996704102,6|0,3:2|0:0,0:0:0:0:
249,335,290501,2,0,P|213:311|194:233,1,107.999996704102,10|0,0:0|0:0,0:0:0:0:
228,127,290883,1,2,3:2:0:0:
442,252,291074,2,0,P|426:302|384:334,1,107.999996704102,4|8,3:2|0:0,0:0:0:0:
249,335,291456,1,0,3:0:0:0:
305,113,291647,5,4,3:2:0:0:
180,289,291838,1,0,0:0:0:0:
136,88,292029,1,8,0:0:0:0:
256,240,292220,1,0,0:0:0:0:
256,44,292411,1,0,3:0:0:0:
44,152,292602,1,4,3:2:0:0:
232,212,292794,1,8,0:0:0:0:
152,36,292985,1,0,3:0:0:0:
65,233,293176,6,0,B|58:285|113:321,1,90,4|0,3:2|0:0,0:0:0:0:
197,218,293558,2,0,B|203:165|148:129,1,90,8|0,0:0|0:0,0:0:0:0:
41,51,293940,2,0,B|83:57|83:57|137:48,1,90,0|0,3:0|0:0,0:0:0:0:
310,70,294322,2,0,B|268:64|268:64|214:73,1,90,8|0,0:0|0:0,0:0:0:0:
304,261,294704,5,0,3:0:0:0:
190,158,294895,1,0,0:0:0:0:
327,68,295087,1,8,0:0:0:0:
327,68,295469,1,0,3:0:0:0:
218,176,295660,1,0,0:0:0:0:
231,23,295851,1,8,0:0:0:0:
367,140,296042,1,0,0:0:0:0:
150,64,296233,6,0,P|84:75|49:96,1,90,0|0,3:0|0:0,0:0:0:0:
56,238,296615,2,0,P|122:227|157:206,1,90,8|0,0:0|0:0,0:0:0:0:
64,85,296997,1,0,3:0:0:0:
64,85,297380,2,0,P|108:64|135:25,1,90,8|0,0:0|0:0,0:0:0:0:
264,194,297762,6,0,L|284:298,1,90,0|0,3:0|0:0,0:0:0:0:
296,108,298144,1,8,0:0:0:0:
296,108,298526,1,0,3:0:0:0:
192,244,298717,1,0,3:0:0:0:
132,84,298908,1,8,0:0:0:0:
285,210,299099,1,0,3:0:0:0:
462,122,299290,6,0,P|483:84|481:37,1,90,0|0,3:0|0:0,0:0:0:0:
248,45,299673,2,0,P|238:76|255:140,1,90,8|0,0:0|0:0,0:0:0:0:
415,196,300055,1,0,3:0:0:0:
415,196,300437,2,0,P|433:246|429:293,1,90,8|0,0:0|0:0,0:0:0:0:
236,190,300819,5,0,3:0:0:0:
353,255,301010,1,0,0:0:0:0:
285,117,301201,1,8,0:0:0:0:
187,263,301392,1,0,0:0:0:0:
199,88,301583,2,0,L|293:119,1,90,0|0,3:0|3:0,0:0:0:0:
392,247,301966,1,8,0:0:0:0:
374,288,302061,1,0,0:0:0:0:
338,317,302157,1,0,0:0:0:0:
295,331,302252,1,0,0:0:0:0:
249,322,302348,6,0,P|216:306|187:263,1,90,0|0,3:0|0:0,0:0:0:0:
364,102,302730,2,0,P|358:150|315:189,1,90,8|0,0:0|0:0,0:0:0:0:
132,117,303112,2,0,L|235:111,1,90,0|0,3:0|0:0,0:0:0:0:
98,255,303494,1,8,0:0:0:0:
64,78,303685,1,0,0:0:0:0:
26,284,303876,5,0,3:0:0:0:
139,59,304067,1,0,0:0:0:0:
252,284,304258,1,8,0:0:0:0:
81,223,304450,1,0,0:0:0:0:
214,78,304641,1,8,0:0:0:0:
177,303,304832,1,0,3:0:0:0:
139,59,305023,1,12,0:0:0:0:
102,322,305214,1,0,3:0:0:0:
276,122,305405,6,0,L|375:115,1,90,4|0,3:2|0:0,0:0:0:0:
481,215,305787,1,8,0:0:0:0:
443,66,305978,1,0,3:0:0:0:
353,198,306169,2,0,L|263:204,1,90,0|0,3:0|0:0,0:0:0:0:
115,164,306551,2,0,P|94:121|108:73,1,90,8|0,0:0|0:0,0:0:0:0:
263,39,306934,6,0,P|284:82|270:130,1,90,0|0,3:0|0:0,0:0:0:0:
214,242,307316,1,8,0:0:0:0:
179,29,307698,1,0,3:0:0:0:
179,29,307889,1,0,3:0:0:0:
61,196,308080,1,8,0:0:0:0:
101,47,308271,1,0,3:0:0:0:
305,61,308462,6,0,P|338:71|369:121,1,90,0|0,3:0|0:0,0:0:0:0:
250,212,308844,1,8,0:0:0:0:
387,281,309036,1,0,3:0:0:0:
296,135,309227,1,0,3:0:0:0:
296,135,309609,2,0,L|203:135,1,90,8|0,0:0|0:0,0:0:0:0:
81,36,309991,5,0,3:0:0:0:
34,219,310182,1,0,3:0:0:0:
206,135,310373,2,0,L|296:135,1,90,8|0,0:0|0:0,0:0:0:0:
143,78,310755,2,0,P|125:111|127:164,1,90,0|0,3:0|3:0,0:0:0:0:
359,78,311137,1,12,0:0:0:0:
264,229,311329,1,0,3:0:0:0:
209,33,311520,5,4,3:2:0:0:
264,229,311711,1,0,0:0:0:0:
301,33,311902,1,8,0:0:0:0:
178,124,312093,1,0,3:0:0:0:
350,200,312284,2,0,B|396:202|396:202|446:173,1,90,0|0,3:0|0:0,0:0:0:0:
305,96,312666,1,8,0:0:0:0:
282,247,312857,1,0,0:0:0:0:
392,94,313048,6,0,P|375:44|288:9,1,135,0|0,3:0|0:0,0:0:0:0:
264,28,313430,2,0,P|223:39|175:30,1,90,8|0,0:0|3:0,0:0:0:0:
44,195,313813,1,0,3:0:0:0:
102,24,314004,1,0,0:0:0:0:
120,221,314195,1,8,0:0:0:0:
26,36,314386,1,0,3:0:0:0:
197,228,314577,6,0,P|230:226|272:175,1,90,4|0,3:2|0:0,0:0:0:0:
330,37,314959,2,0,P|297:39|255:90,1,90,8|0,0:0|0:0,0:0:0:0:
401,152,315341,2,0,L|305:123,1,90,0|0,3:0|0:0,0:0:0:0:
111,152,315723,2,0,L|207:123,1,90,12|0,0:0|0:0,0:0:0:0:
303,249,316106,5,4,0:0:0:0:
334,90,316297,1,0,3:0:0:0:
209,249,316488,1,8,0:0:0:0:
178,90,316679,1,0,3:0:0:0:
396,231,316870,1,8,0:0:0:0:
296,22,317061,1,0,3:0:0:0:
116,231,317252,1,8,0:0:0:0:
216,22,317443,1,0,3:0:0:0:
256,192,317634,5,8,0:0:0:0:
256,192,317825,2,0,B|257:235|263:270|290:293|290:293|307:340|272:378|225:362|211:326|211:326|212:286|183:259,1,315,8|0,0:0|0:0,0:0:0:0:
