osu file format v14

[General]
AudioFilename: 02. Storytime.mp3
AudioLeadIn: 0
PreviewTime: 126040
Countdown: 0
SampleSet: Normal
StackLeniency: 0.5
Mode: 1
LetterboxInBreaks: 0
WidescreenStoryboard: 1

[Editor]
DistanceSpacing: 1.7
BeatDivisor: 4
GridSize: 4
TimelineZoom: 1.8

[Metadata]
Title:Storytime
TitleUnicode:Storytime
Artist:Nightwish
ArtistUnicode:Nightwish
Creator:neonat
Version:Endless Taiko
Source:
Tags:cdhsausageboy Jerry Imaginaerum
BeatmapID:1707269
BeatmapSetID:375760

[Difficulty]
HPDrainRate:5
CircleSize:2
OverallDifficulty:6
ApproachRate:4
SliderMultiplier:1.4
SliderTickRate:1

[Events]
//Background and Video events
0,0,"BG.jpg",0,80
//Break Periods
2,165990,176777
//Storyboard Layer 0 (Background)
//Storyboard Layer 1 (Fail)
//Storyboard Layer 2 (Pass)
//Storyboard Layer 3 (Foreground)
//Storyboard Sound Samples

[TimingPoints]
47,384.615384615385,4,1,1,40,1,0
47,-200,4,1,1,40,0,0
6200,-200,4,1,1,100,0,0
6585,-200,4,1,1,40,0,0
9277,-200,4,1,1,100,0,0
9662,-200,4,1,1,40,0,0
12354,-166.666666666667,4,1,1,45,0,0
15431,-142.857142857143,4,1,1,50,0,0
18508,-125,4,1,1,55,0,0
21585,-111.111111111111,4,1,1,60,0,0
23316,-105.263157894737,4,1,1,100,0,0
23700,-111.111111111111,4,1,1,60,0,0
24085,-105.263157894737,4,1,1,100,0,0
24662,-100,4,1,1,70,0,0
30047,-100,4,1,1,100,0,0
30431,-100,4,1,1,70,0,0
35623,-90.9090909090909,4,1,1,100,0,0
36008,-100,4,1,1,70,0,0
36393,-90.9090909090909,4,1,1,100,0,0
36970,-100,4,1,1,70,0,0
61584,382.165605095541,4,1,1,75,1,1
86040,384.615384615385,4,1,1,70,1,0
87578,-166.666666666667,4,1,1,70,0,0
92578,-100,4,1,1,70,0,0
129107,382.165605095541,4,1,1,75,1,1
162737,-90.0900900900901,4,1,1,75,0,1
163119,-100,4,1,1,75,0,1
163310,-90.0900900900901,4,1,1,75,0,1
163692,-100,4,1,1,75,0,1
163884,-90.0900900900901,4,1,1,75,0,1
164266,-95.2380952380952,4,1,1,75,0,1
164457,-90.0900900900901,4,1,1,75,0,1
164839,-100,4,1,1,75,0,1
165790,384.615384615385,4,1,1,70,1,0
165790,-99.009900990099,4,1,1,70,0,0
178097,-133.333333333333,4,1,1,60,0,0
190790,-50,4,1,1,70,0,0
196655,-100,4,1,0,70,0,0
209251,-80,4,1,0,70,0,0
209828,-100,4,1,0,70,0,0
210405,-90.9090909090909,4,1,0,70,0,0
211174,-100,4,1,0,70,0,0
211559,-90.9090909090909,4,1,0,70,0,0
213097,-100,4,1,0,70,0,0
214251,-80,4,1,0,70,0,0
215020,-100,4,1,0,70,0,0
215405,-90.9090909090909,4,1,0,70,0,0
216174,-80,4,1,0,70,0,0
216943,-100,4,1,0,70,0,0
217328,-90.9090909090909,4,1,0,70,0,0
218097,-100,4,1,0,70,0,0
218482,-80,4,1,0,70,0,0
219251,-100,4,1,0,70,0,0
221559,-80,4,1,0,70,0,0
222328,-100,4,1,0,70,0,0
222713,-80,4,1,0,70,0,0
223482,-100,4,1,0,70,0,0
223866,-80,4,1,0,70,0,0
224636,-80,4,1,0,70,0,0
225405,-100,4,1,0,70,0,0
226559,-80,4,1,0,70,0,0
227328,-100,4,1,0,70,0,0
227713,-90.9090909090909,4,1,0,70,0,0
228290,-100,4,1,0,70,0,0
228482,-90.9090909090909,4,1,0,70,0,0
229059,-100,4,1,0,70,0,0
229636,-90.9090909090909,4,1,0,70,0,0
230213,-100,4,1,0,70,0,0
230790,-90.9090909090909,4,1,0,70,0,0
231367,-100,4,1,0,70,0,0
233482,-95.2380952380952,4,1,0,70,0,0
235020,-90.9090909090909,4,1,0,70,0,0
236559,-86.9565217391304,4,1,0,70,0,0
238097,-83.3333333333333,4,1,0,70,0,0
241174,-80,4,1,0,70,0,0
244155,-100,4,1,0,70,0,0
244251,384.615384615385,4,1,0,70,1,8
244259,382.165605095541,4,1,0,75,1,1
293176,-100,4,1,0,75,0,0

[Colours]
Combo1 : 83,152,236
Combo2 : 233,208,150
Combo3 : 156,106,249
Combo4 : 206,108,146

[HitObjects]
256,192,47,5,8,0:0:0:0:
256,192,239,1,0,0:0:0:0:
256,192,432,1,8,0:0:0:0:
256,192,624,1,0,0:0:0:0:
256,192,1009,1,0,0:0:0:0:
256,192,1201,1,8,0:0:0:0:
256,192,1393,1,0,0:0:0:0:
256,192,1778,1,0,0:0:0:0:
256,192,1970,1,8,0:0:0:0:
256,192,2163,1,0,0:0:0:0:
256,192,2355,1,8,0:0:0:0:
256,192,2547,1,8,0:0:0:0:
256,192,2739,1,0,0:0:0:0:
256,192,2932,1,0,0:0:0:0:
256,192,3124,1,8,0:0:0:0:
256,192,3316,1,0,0:0:0:0:
256,192,3509,1,8,0:0:0:0:
256,192,3701,1,0,0:0:0:0:
256,192,4086,1,0,0:0:0:0:
256,192,4278,1,8,0:0:0:0:
256,192,4470,1,0,0:0:0:0:
256,192,4855,1,0,0:0:0:0:
256,192,5047,1,8,0:0:0:0:
256,192,5239,1,0,0:0:0:0:
256,192,5432,1,8,0:0:0:0:
256,192,5624,1,8,0:0:0:0:
256,192,5816,1,0,0:0:0:0:
256,192,6009,1,8,0:0:0:0:
256,192,6201,1,4,0:0:0:0:
256,192,6393,1,4,0:0:0:0:
256,192,6586,1,8,0:0:0:0:
256,192,6778,1,0,0:0:0:0:
256,192,7163,1,0,0:0:0:0:
256,192,7355,1,8,0:0:0:0:
256,192,7547,1,0,0:0:0:0:
256,192,7932,1,0,0:0:0:0:
256,192,8124,1,8,0:0:0:0:
256,192,8316,1,0,0:0:0:0:
256,192,8509,1,8,0:0:0:0:
256,192,8701,1,8,0:0:0:0:
256,192,8893,1,0,0:0:0:0:
256,192,9086,1,8,0:0:0:0:
256,192,9278,1,4,0:0:0:0:
256,192,9470,1,4,0:0:0:0:
256,192,9663,1,8,0:0:0:0:
256,192,9855,1,0,0:0:0:0:
256,192,10239,1,0,0:0:0:0:
256,192,10432,1,8,0:0:0:0:
256,192,10624,1,0,0:0:0:0:
256,192,11009,1,0,0:0:0:0:
256,192,11201,1,8,0:0:0:0:
256,192,11393,1,0,0:0:0:0:
256,192,11586,1,8,0:0:0:0:
256,192,11778,1,8,0:0:0:0:
256,192,11970,1,0,0:0:0:0:
256,192,12163,1,8,0:0:0:0:
256,192,12355,1,0,0:0:0:0:
256,192,12547,1,0,0:0:0:0:
256,192,12739,1,8,0:0:0:0:
256,192,12932,1,0,0:0:0:0:
256,192,13124,1,0,0:0:0:0:
256,192,13316,1,0,0:0:0:0:
256,192,13509,1,8,0:0:0:0:
256,192,13701,1,0,0:0:0:0:
256,192,13893,1,0,0:0:0:0:
256,192,14086,1,0,0:0:0:0:
256,192,14278,1,8,0:0:0:0:
256,192,14470,1,0,0:0:0:0:
256,192,14663,1,8,0:0:0:0:
256,192,14855,1,8,0:0:0:0:
256,192,15047,1,0,0:0:0:0:
256,192,15239,1,8,0:0:0:0:
256,192,15432,1,0,0:0:0:0:
256,192,15624,1,0,0:0:0:0:
256,192,15816,1,8,0:0:0:0:
256,192,16009,1,0,0:0:0:0:
256,192,16201,1,0,0:0:0:0:
256,192,16393,1,0,0:0:0:0:
256,192,16586,1,8,0:0:0:0:
256,192,16778,1,0,0:0:0:0:
256,192,16970,1,0,0:0:0:0:
256,192,17163,1,0,0:0:0:0:
256,192,17355,1,8,0:0:0:0:
256,192,17547,1,0,0:0:0:0:
256,192,17739,1,8,0:0:0:0:
256,192,17932,1,8,0:0:0:0:
256,192,18124,1,0,0:0:0:0:
256,192,18316,1,8,0:0:0:0:
256,192,18509,1,0,0:0:0:0:
256,192,18701,1,0,0:0:0:0:
256,192,18893,1,8,0:0:0:0:
256,192,19086,1,0,0:0:0:0:
256,192,19278,1,0,0:0:0:0:
256,192,19470,1,0,0:0:0:0:
256,192,19663,1,8,0:0:0:0:
256,192,19855,1,0,0:0:0:0:
256,192,20047,1,0,0:0:0:0:
256,192,20239,1,0,0:0:0:0:
256,192,20432,1,8,0:0:0:0:
256,192,20624,1,0,0:0:0:0:
256,192,20816,1,8,0:0:0:0:
256,192,21009,1,8,0:0:0:0:
256,192,21201,1,0,0:0:0:0:
256,192,21393,1,8,0:0:0:0:
256,192,21586,1,0,0:0:0:0:
256,192,21778,1,0,0:0:0:0:
256,192,21970,1,8,0:0:0:0:
256,192,22163,1,0,0:0:0:0:
256,192,22355,1,0,0:0:0:0:
256,192,22547,1,0,0:0:0:0:
256,192,22739,1,8,0:0:0:0:
256,192,22932,1,0,0:0:0:0:
256,192,23124,1,0,0:0:0:0:
256,192,23316,1,12,0:0:0:0:
256,192,23509,1,12,0:0:0:0:
256,192,23700,1,0,0:0:0:0:
256,192,23893,1,0,0:0:0:0:
256,192,24086,1,4,0:0:0:0:
256,192,24278,1,4,0:0:0:0:
256,192,24663,1,12,0:0:0:0:
256,192,25047,1,0,0:0:0:0:
256,192,25143,1,0,0:0:0:0:
256,192,25239,1,8,0:0:0:0:
256,192,25432,1,0,0:0:0:0:
256,192,25816,1,8,0:0:0:0:
256,192,25913,1,0,0:0:0:0:
256,192,26009,1,8,0:0:0:0:
256,192,26201,1,0,0:0:0:0:
256,192,26393,1,8,0:0:0:0:
256,192,26586,1,0,0:0:0:0:
256,192,26970,1,8,0:0:0:0:
256,192,27066,1,8,0:0:0:0:
256,192,27163,1,0,0:0:0:0:
256,192,27259,1,0,0:0:0:0:
256,192,27355,1,8,0:0:0:0:
256,192,27547,1,8,0:0:0:0:
256,192,27739,1,0,0:0:0:0:
256,192,28124,1,0,0:0:0:0:
256,192,28220,1,0,0:0:0:0:
256,192,28316,1,8,0:0:0:0:
256,192,28509,1,0,0:0:0:0:
256,192,28893,1,8,0:0:0:0:
256,192,28989,1,0,0:0:0:0:
256,192,29086,1,8,0:0:0:0:
256,192,29278,1,0,0:0:0:0:
256,192,29470,1,8,0:0:0:0:
256,192,29663,1,0,0:0:0:0:
256,192,30047,1,4,0:0:0:0:
256,192,30432,1,0,0:0:0:0:
256,192,30528,1,0,0:0:0:0:
256,192,30624,1,8,0:0:0:0:
256,192,30816,1,0,0:0:0:0:
256,192,31201,1,0,0:0:0:0:
256,192,31393,1,8,0:0:0:0:
256,192,31586,1,0,0:0:0:0:
256,192,31970,1,8,0:0:0:0:
256,192,32066,1,0,0:0:0:0:
256,192,32163,1,8,0:0:0:0:
256,192,32355,1,0,0:0:0:0:
256,192,32547,1,8,0:0:0:0:
256,192,32739,1,0,0:0:0:0:
256,192,33124,1,8,0:0:0:0:
256,192,33220,1,8,0:0:0:0:
256,192,33316,1,0,0:0:0:0:
256,192,33412,1,0,0:0:0:0:
256,192,33509,1,8,0:0:0:0:
256,192,33701,1,8,0:0:0:0:
256,192,33893,1,0,0:0:0:0:
256,192,34278,1,0,0:0:0:0:
256,192,34374,1,0,0:0:0:0:
256,192,34470,1,8,0:0:0:0:
256,192,34663,1,0,0:0:0:0:
256,192,34855,1,0,0:0:0:0:
256,192,35047,1,12,0:0:0:0:
256,192,35239,1,0,0:0:0:0:
256,192,35432,1,0,0:0:0:0:
256,192,35624,1,12,0:0:0:0:
256,192,35816,1,12,0:0:0:0:
256,192,36008,1,8,0:0:0:0:
256,192,36104,1,8,0:0:0:0:
256,192,36200,1,0,0:0:0:0:
256,192,36393,1,4,0:0:0:0:
256,192,36586,1,4,0:0:0:0:
256,192,36970,1,12,0:0:0:0:
256,192,37162,1,0,0:0:0:0:
256,192,37258,1,0,0:0:0:0:
256,192,37354,1,8,0:0:0:0:
256,192,37547,1,8,0:0:0:0:
256,192,37739,1,0,0:0:0:0:
256,192,37931,1,0,0:0:0:0:
256,192,38123,1,8,0:0:0:0:
256,192,38508,1,0,0:0:0:0:
256,192,38700,1,8,0:0:0:0:
256,192,38893,1,8,0:0:0:0:
256,192,39085,1,0,0:0:0:0:
256,192,39181,1,0,0:0:0:0:
256,192,39277,1,8,0:0:0:0:
256,192,39470,1,0,0:0:0:0:
256,192,39662,1,8,0:0:0:0:
256,192,39854,1,8,0:0:0:0:
256,192,40047,1,0,0:0:0:0:
256,192,40431,1,8,0:0:0:0:
256,192,40623,1,8,0:0:0:0:
256,192,40720,1,8,0:0:0:0:
256,192,40816,1,0,0:0:0:0:
256,192,41008,1,0,0:0:0:0:
256,192,41200,1,8,0:0:0:0:
256,192,41393,1,8,0:0:0:0:
256,192,41489,1,8,0:0:0:0:
256,192,41585,1,0,0:0:0:0:
256,192,41777,1,0,0:0:0:0:
256,192,41970,1,8,0:0:0:0:
256,192,42162,1,8,0:0:0:0:
256,192,42354,1,0,0:0:0:0:
256,192,42739,1,8,0:0:0:0:
256,192,43123,1,0,0:0:0:0:
256,192,43316,1,0,0:0:0:0:
256,192,43508,1,8,0:0:0:0:
256,192,43700,1,0,0:0:0:0:
256,192,43797,1,0,0:0:0:0:
256,192,43893,1,8,0:0:0:0:
256,192,44085,1,8,0:0:0:0:
256,192,44277,1,0,0:0:0:0:
256,192,44662,1,0,0:0:0:0:
256,192,44854,1,8,0:0:0:0:
256,192,45047,1,8,0:0:0:0:
256,192,45239,1,0,0:0:0:0:
256,192,45431,1,8,0:0:0:0:
256,192,45623,1,8,0:0:0:0:
256,192,45720,1,0,0:0:0:0:
256,192,45816,1,8,0:0:0:0:
256,192,46008,1,8,0:0:0:0:
256,192,46200,1,0,0:0:0:0:
256,192,46585,1,8,0:0:0:0:
256,192,46777,1,8,0:0:0:0:
256,192,46873,1,0,0:0:0:0:
256,192,46970,1,0,0:0:0:0:
256,192,47162,1,0,0:0:0:0:
256,192,47354,1,8,0:0:0:0:
256,192,47547,1,0,0:0:0:0:
256,192,47739,1,8,0:0:0:0:
256,192,47931,1,8,0:0:0:0:
256,192,48027,1,8,0:0:0:0:
256,192,48123,1,0,0:0:0:0:
256,192,48316,1,0,0:0:0:0:
256,192,48508,1,8,0:0:0:0:
256,192,48700,1,0,0:0:0:0:
256,192,48797,1,8,0:0:0:0:
256,192,48893,1,8,0:0:0:0:
256,192,49085,1,8,0:0:0:0:
256,192,49277,1,4,0:0:0:0:
256,192,49470,1,0,0:0:0:0:
256,192,49662,1,8,0:0:0:0:
256,192,49854,1,0,0:0:0:0:
256,192,49950,1,0,0:0:0:0:
256,192,50047,1,8,0:0:0:0:
256,192,50239,1,0,0:0:0:0:
256,192,50431,1,8,0:0:0:0:
256,192,50623,1,0,0:0:0:0:
256,192,50816,1,0,0:0:0:0:
256,192,51008,1,0,0:0:0:0:
256,192,51104,1,8,0:0:0:0:
256,192,51200,1,8,0:0:0:0:
256,192,51393,1,0,0:0:0:0:
256,192,51585,1,8,0:0:0:0:
256,192,51681,1,0,0:0:0:0:
256,192,51777,1,0,0:0:0:0:
256,192,51873,1,0,0:0:0:0:
256,192,51970,1,8,0:0:0:0:
256,192,52162,1,8,0:0:0:0:
256,192,52354,1,0,0:0:0:0:
256,192,52739,1,8,0:0:0:0:
256,192,52931,1,8,0:0:0:0:
256,192,53027,1,8,0:0:0:0:
256,192,53123,1,0,0:0:0:0:
256,192,53316,1,0,0:0:0:0:
256,192,53508,1,8,0:0:0:0:
256,192,53700,1,0,0:0:0:0:
256,192,53893,1,0,0:0:0:0:
256,192,53989,1,0,0:0:0:0:
256,192,54085,1,8,0:0:0:0:
256,192,54181,1,8,0:0:0:0:
256,192,54277,1,8,0:0:0:0:
256,192,54470,1,0,0:0:0:0:
256,192,54662,1,8,0:0:0:0:
256,192,54758,1,8,0:0:0:0:
256,192,54854,1,8,0:0:0:0:
256,192,54950,1,0,0:0:0:0:
256,192,55047,1,0,0:0:0:0:
256,192,55239,1,0,0:0:0:0:
256,192,55335,1,0,0:0:0:0:
256,192,55431,1,8,0:0:0:0:
256,192,55623,1,0,0:0:0:0:
256,192,55816,1,8,0:0:0:0:
256,192,56008,1,8,0:0:0:0:
256,192,56104,1,0,0:0:0:0:
256,192,56200,1,0,0:0:0:0:
256,192,56393,1,0,0:0:0:0:
256,192,56585,1,8,0:0:0:0:
256,192,56777,1,0,0:0:0:0:
250,190,56970,1,0,0:0:0:0:
250,188,57162,1,8,0:0:0:0:
248,192,57258,1,0,0:0:0:0:
250,188,57354,1,8,0:0:0:0:
250,188,57547,1,0,0:0:0:0:
250,190,57739,1,8,0:0:0:0:
250,190,57835,1,0,0:0:0:0:
250,190,57931,1,0,0:0:0:0:
250,188,58027,1,0,0:0:0:0:
250,188,58123,1,8,0:0:0:0:
250,188,58316,1,0,0:0:0:0:
250,188,58508,1,8,0:0:0:0:
250,190,58893,1,8,0:0:0:0:
250,188,59085,1,8,0:0:0:0:
250,188,59181,1,0,0:0:0:0:
250,188,59277,1,0,0:0:0:0:
250,188,59470,1,0,0:0:0:0:
250,190,59662,1,12,0:0:0:0:
250,190,59854,1,0,0:0:0:0:
250,188,60047,1,8,0:0:0:0:
250,188,60143,1,0,0:0:0:0:
250,188,60239,1,0,0:0:0:0:
250,188,60335,5,0,0:0:0:0:
250,188,60431,1,8,0:0:0:0:
250,190,60527,1,0,0:0:0:0:
250,190,60623,1,0,0:0:0:0:
250,190,60720,1,0,0:0:0:0:
250,190,60816,1,8,0:0:0:0:
250,188,60912,1,0,0:0:0:0:
250,188,61008,1,0,0:0:0:0:
250,188,61104,1,0,0:0:0:0:
250,188,61200,1,8,0:0:0:0:
250,188,61297,1,8,0:0:0:0:
250,188,61393,1,8,0:0:0:0:
250,190,61489,1,8,0:0:0:0:
256,192,61584,5,4,0:0:0:0:
222,156,61775,1,0,0:0:0:0:
222,156,61870,1,0,0:0:0:0:
367,258,61966,1,8,0:0:0:0:
319,237,62157,5,0,0:0:0:0:
147,169,62348,1,0,0:0:0:0:
331,214,62539,1,0,0:0:0:0:
325,256,62634,1,0,0:0:0:0:
324,255,62730,1,8,0:0:0:0:
314,222,62921,1,0,0:0:0:0:
368,256,63303,5,8,0:0:0:0:
368,256,63399,1,0,0:0:0:0:
368,256,63494,1,8,0:0:0:0:
221,303,63685,1,8,0:0:0:0:
319,238,63876,1,8,0:0:0:0:
319,238,63972,1,8,0:0:0:0:
362,240,64068,1,0,0:0:0:0:
357,248,64163,1,0,0:0:0:0:
387,213,64259,1,8,0:0:0:0:
342,210,64450,1,8,0:0:0:0:
357,228,64641,1,0,0:0:0:0:
268,198,64832,1,0,0:0:0:0:
268,198,64927,1,0,0:0:0:0:
357,214,65023,1,8,0:0:0:0:
357,214,65214,1,8,0:0:0:0:
272,233,65405,1,0,0:0:0:0:
272,233,65596,1,0,0:0:0:0:
222,250,65787,1,8,0:0:0:0:
371,175,65978,1,0,0:0:0:0:
236,188,66361,1,0,0:0:0:0:
242,186,66456,1,0,0:0:0:0:
406,219,66552,1,8,0:0:0:0:
397,180,66743,1,0,0:0:0:0:
325,198,66934,1,8,0:0:0:0:
398,216,67029,1,0,0:0:0:0:
398,216,67125,1,0,0:0:0:0:
398,216,67220,1,0,0:0:0:0:
397,180,67316,1,8,0:0:0:0:
398,209,67507,1,8,0:0:0:0:
329,208,67698,1,0,0:0:0:0:
349,184,67889,1,0,0:0:0:0:
349,184,67985,1,0,0:0:0:0:
299,218,68080,1,8,0:0:0:0:
433,196,68271,1,0,0:0:0:0:
289,229,68462,1,0,0:0:0:0:
289,229,68654,1,0,0:0:0:0:
422,192,68845,1,8,0:0:0:0:
189,226,69036,1,0,0:0:0:0:
397,188,69418,1,8,0:0:0:0:
396,188,69513,1,8,0:0:0:0:
396,188,69609,1,8,0:0:0:0:
397,188,69800,1,0,0:0:0:0:
284,193,69991,1,8,0:0:0:0:
404,190,70087,1,0,0:0:0:0:
414,204,70182,1,8,0:0:0:0:
414,204,70278,1,8,0:0:0:0:
409,185,70373,1,0,0:0:0:0:
493,179,70564,1,8,0:0:0:0:
382,188,70755,1,0,0:0:0:0:
304,209,70947,1,0,0:0:0:0:
304,209,71042,1,0,0:0:0:0:
377,220,71138,1,8,0:0:0:0:
377,220,71329,1,0,0:0:0:0:
377,220,71520,1,8,0:0:0:0:
333,186,71711,1,0,0:0:0:0:
333,186,71902,1,8,0:0:0:0:
366,168,72093,1,0,0:0:0:0:
400,221,72475,1,8,0:0:0:0:
400,221,72571,1,8,0:0:0:0:
306,201,72666,1,0,0:0:0:0:
306,201,72857,5,0,0:0:0:0:
317,207,73048,1,8,0:0:0:0:
346,208,73240,1,0,0:0:0:0:
344,208,73335,1,0,0:0:0:0:
276,201,73431,1,8,0:0:0:0:
276,201,73526,1,8,0:0:0:0:
238,206,73622,1,0,0:0:0:0:
256,192,73813,5,4,0:0:0:0:
222,156,74004,1,0,0:0:0:0:
222,156,74099,1,0,0:0:0:0:
367,258,74195,1,8,0:0:0:0:
319,237,74386,1,0,0:0:0:0:
211,109,74481,1,0,0:0:0:0:
211,109,74577,1,0,0:0:0:0:
331,214,74768,1,0,0:0:0:0:
324,255,74959,1,8,0:0:0:0:
314,222,75150,1,0,0:0:0:0:
368,256,75533,1,0,0:0:0:0:
368,256,75723,1,8,0:0:0:0:
221,303,75914,1,8,0:0:0:0:
319,238,76105,1,8,0:0:0:0:
319,238,76201,1,8,0:0:0:0:
362,240,76297,1,0,0:0:0:0:
357,248,76392,1,0,0:0:0:0:
387,213,76488,1,8,0:0:0:0:
412,234,76583,1,0,0:0:0:0:
342,210,76679,1,8,0:0:0:0:
342,210,76774,1,8,0:0:0:0:
357,228,76870,1,0,0:0:0:0:
268,198,77061,1,0,0:0:0:0:
268,198,77156,1,0,0:0:0:0:
357,214,77252,1,8,0:0:0:0:
357,214,77443,1,8,0:0:0:0:
375,213,77539,1,0,0:0:0:0:
272,233,77634,1,0,0:0:0:0:
272,233,77825,1,0,0:0:0:0:
222,250,78016,1,8,0:0:0:0:
371,175,78207,1,0,0:0:0:0:
236,188,78590,1,0,0:0:0:0:
242,186,78685,1,0,0:0:0:0:
406,219,78781,1,8,0:0:0:0:
397,180,78972,1,0,0:0:0:0:
325,198,79163,1,8,0:0:0:0:
398,216,79258,1,0,0:0:0:0:
398,216,79354,1,0,0:0:0:0:
398,216,79449,1,0,0:0:0:0:
397,180,79545,1,8,0:0:0:0:
350,236,79641,1,0,0:0:0:0:
398,209,79736,1,8,0:0:0:0:
329,208,79832,1,0,0:0:0:0:
329,208,79927,1,0,0:0:0:0:
349,184,80118,1,0,0:0:0:0:
349,184,80214,1,0,0:0:0:0:
299,218,80309,1,8,0:0:0:0:
433,196,80500,1,8,0:0:0:0:
433,196,80596,1,8,0:0:0:0:
289,229,80691,1,0,0:0:0:0:
289,229,80883,1,0,0:0:0:0:
422,192,81074,1,8,0:0:0:0:
189,226,81265,1,0,0:0:0:0:
164,124,81647,1,0,0:0:0:0:
396,188,81838,1,8,0:0:0:0:
397,188,82029,1,0,0:0:0:0:
284,193,82220,1,8,0:0:0:0:
404,190,82316,1,0,0:0:0:0:
414,204,82411,1,8,0:0:0:0:
414,204,82507,1,8,0:0:0:0:
409,185,82602,1,0,0:0:0:0:
493,179,82698,1,8,0:0:0:0:
493,179,82793,1,8,0:0:0:0:
411,212,82889,1,0,0:0:0:0:
382,188,82984,1,8,0:0:0:0:
304,209,83176,1,0,0:0:0:0:
304,209,83271,1,0,0:0:0:0:
377,220,83367,1,8,0:0:0:0:
377,220,83558,1,8,0:0:0:0:
377,220,83653,1,8,0:0:0:0:
377,220,83749,1,0,0:0:0:0:
333,186,83940,1,8,0:0:0:0:
333,186,84131,1,8,0:0:0:0:
252,226,84322,1,0,0:0:0:0:
252,226,84418,1,0,0:0:0:0:
252,226,84513,1,0,0:0:0:0:
284,188,84705,1,12,0:0:0:0:
360,236,84896,1,0,0:0:0:0:
480,225,85087,1,0,0:0:0:0:
286,166,85278,1,12,0:0:0:0:
245,225,85469,1,0,0:0:0:0:
259,193,85660,1,12,0:0:0:0:
236,188,86040,1,4,0:0:0:0:
259,193,86232,1,4,0:0:0:0:
254,192,88347,1,0,0:0:0:0:
256,192,89116,12,0,91809,0:0:0:0:
255,190,92001,5,0,0:0:0:0:
255,190,92097,1,0,0:0:0:0:
255,190,92193,1,0,0:0:0:0:
255,190,92578,1,4,0:0:0:0:
255,190,92770,1,8,0:0:0:0:
255,190,92963,1,0,0:0:0:0:
255,190,93155,1,0,0:0:0:0:
255,190,93251,1,0,0:0:0:0:
255,190,93347,1,8,0:0:0:0:
246,184,93540,1,0,0:0:0:0:
255,190,93732,1,0,0:0:0:0:
255,190,93924,1,8,0:0:0:0:
255,190,94116,1,0,0:0:0:0:
252,188,94501,1,0,0:0:0:0:
255,190,94597,1,0,0:0:0:0:
255,190,94693,1,8,0:0:0:0:
255,190,94790,1,8,0:0:0:0:
255,190,94886,1,0,0:0:0:0:
255,190,95078,1,8,0:0:0:0:
252,188,95270,1,8,0:0:0:0:
252,188,95463,1,0,0:0:0:0:
255,190,95559,1,0,0:0:0:0:
255,190,95655,1,8,0:0:0:0:
255,190,95847,1,0,0:0:0:0:
255,190,96040,1,8,0:0:0:0:
252,188,96232,1,0,0:0:0:0:
252,188,96424,1,8,0:0:0:0:
255,190,96809,1,0,0:0:0:0:
255,190,97001,1,8,0:0:0:0:
252,188,97193,1,0,0:0:0:0:
255,190,97578,1,8,0:0:0:0:
255,190,97674,1,8,0:0:0:0:
255,190,97770,1,8,0:0:0:0:
255,190,97866,1,8,0:0:0:0:
255,190,97963,1,0,0:0:0:0:
255,190,98347,1,12,0:0:0:0:
255,190,98732,1,8,0:0:0:0:
255,190,98924,1,8,0:0:0:0:
255,196,99020,1,8,0:0:0:0:
255,190,99116,1,0,0:0:0:0:
254,196,99309,1,0,0:0:0:0:
254,196,99501,1,8,0:0:0:0:
254,196,99886,1,0,0:0:0:0:
254,196,100078,1,8,0:0:0:0:
254,196,100270,1,0,0:0:0:0:
254,196,100655,1,0,0:0:0:0:
254,196,100751,1,0,0:0:0:0:
254,196,100847,1,8,0:0:0:0:
254,196,100943,1,8,0:0:0:0:
254,196,101040,1,0,0:0:0:0:
254,196,101232,1,0,0:0:0:0:
254,196,101424,1,8,0:0:0:0:
254,196,101809,1,0,0:0:0:0:
254,196,102001,1,8,0:0:0:0:
254,196,102097,1,8,0:0:0:0:
254,196,102193,1,0,0:0:0:0:
254,196,102386,1,0,0:0:0:0:
254,196,102578,1,12,0:0:0:0:
254,196,102963,1,0,0:0:0:0:
254,196,103155,1,12,0:0:0:0:
254,196,103347,1,12,0:0:0:0:
254,196,103732,1,0,0:0:0:0:
254,196,103924,1,4,0:0:0:0:
254,196,104116,1,4,0:0:0:0:
256,192,104501,5,4,0:0:0:0:
256,192,104693,1,0,0:0:0:0:
256,192,104886,1,8,0:0:0:0:
256,192,104982,1,8,0:0:0:0:
256,192,105078,1,0,0:0:0:0:
256,192,105174,1,8,0:0:0:0:
256,192,105270,1,0,0:0:0:0:
256,192,105463,1,0,0:0:0:0:
256,192,105655,1,8,0:0:0:0:
256,192,105847,1,0,0:0:0:0:
256,192,105943,1,8,0:0:0:0:
256,192,106040,1,0,0:0:0:0:
256,192,106232,1,0,0:0:0:0:
256,192,106424,1,8,0:0:0:0:
256,192,106616,1,0,0:0:0:0:
256,192,106809,1,0,0:0:0:0:
256,192,106905,1,8,0:0:0:0:
256,192,107001,1,0,0:0:0:0:
256,192,107097,1,0,0:0:0:0:
256,192,107193,1,8,0:0:0:0:
256,192,107386,1,8,0:0:0:0:
256,192,107482,1,8,0:0:0:0:
256,192,107578,1,0,0:0:0:0:
256,192,107963,1,8,0:0:0:0:
256,192,108155,1,0,0:0:0:0:
256,192,108251,1,8,0:0:0:0:
256,192,108347,1,0,0:0:0:0:
256,192,108540,1,0,0:0:0:0:
256,192,108732,1,8,0:0:0:0:
256,192,108924,1,0,0:0:0:0:
256,192,109116,1,0,0:0:0:0:
256,192,109309,1,0,0:0:0:0:
256,192,109405,1,0,0:0:0:0:
256,192,109501,1,8,0:0:0:0:
256,192,109693,1,8,0:0:0:0:
256,192,109790,1,8,0:0:0:0:
256,192,109886,1,0,0:0:0:0:
256,192,109982,1,8,0:0:0:0:
256,192,110078,1,0,0:0:0:0:
256,192,110174,1,0,0:0:0:0:
256,192,110270,1,8,0:0:0:0:
256,192,110463,1,8,0:0:0:0:
256,192,110559,1,8,0:0:0:0:
256,192,110655,1,0,0:0:0:0:
256,192,111040,1,8,0:0:0:0:
256,192,111232,1,0,0:0:0:0:
256,192,111328,1,8,0:0:0:0:
256,192,111424,1,0,0:0:0:0:
256,192,111616,1,0,0:0:0:0:
256,192,111809,1,8,0:0:0:0:
256,192,111905,1,8,0:0:0:0:
256,192,112001,1,0,0:0:0:0:
256,192,112097,1,8,0:0:0:0:
256,192,112193,1,0,0:0:0:0:
256,192,112386,1,0,0:0:0:0:
256,192,112578,1,8,0:0:0:0:
256,192,112770,1,0,0:0:0:0:
256,192,112866,1,8,0:0:0:0:
256,192,112963,1,0,0:0:0:0:
256,192,113155,1,0,0:0:0:0:
256,192,113347,1,8,0:0:0:0:
256,192,113540,1,8,0:0:0:0:
256,192,113732,1,0,0:0:0:0:
256,192,114116,1,8,0:0:0:0:
256,192,114309,1,8,0:0:0:0:
256,192,114501,1,0,0:0:0:0:
256,192,114693,1,8,0:0:0:0:
256,192,114886,1,8,0:0:0:0:
256,192,115078,1,0,0:0:0:0:
256,192,115270,1,8,0:0:0:0:
256,192,115366,1,0,0:0:0:0:
256,192,115463,1,0,0:0:0:0:
256,192,115559,1,0,0:0:0:0:
256,192,115655,1,8,0:0:0:0:
256,192,115751,1,0,0:0:0:0:
256,192,115847,1,0,0:0:0:0:
256,192,115943,1,0,0:0:0:0:
256,192,116040,1,8,0:0:0:0:
256,192,116136,1,8,0:0:0:0:
256,192,116232,1,8,0:0:0:0:
256,192,116328,1,0,0:0:0:0:
256,192,116424,1,8,0:0:0:0:
256,192,116520,1,8,0:0:0:0:
256,192,116616,1,0,0:0:0:0:
256,192,116713,1,8,0:0:0:0:
256,192,116809,1,0,0:0:0:0:
256,192,117001,1,0,0:0:0:0:
256,192,117193,1,8,0:0:0:0:
256,192,117386,1,8,0:0:0:0:
256,192,117578,1,0,0:0:0:0:
256,192,117674,1,8,0:0:0:0:
256,192,117770,1,0,0:0:0:0:
256,192,117963,1,8,0:0:0:0:
256,192,118155,1,0,0:0:0:0:
256,192,118347,1,8,0:0:0:0:
256,192,118443,1,8,0:0:0:0:
256,192,118540,1,0,0:0:0:0:
256,192,118636,1,0,0:0:0:0:
256,192,118732,1,8,0:0:0:0:
256,192,118924,1,8,0:0:0:0:
256,192,119116,1,0,0:0:0:0:
256,192,119213,1,8,0:0:0:0:
256,192,119309,1,0,0:0:0:0:
256,192,119405,1,0,0:0:0:0:
256,192,119501,1,8,0:0:0:0:
256,192,119693,1,8,0:0:0:0:
256,192,119886,1,0,0:0:0:0:
256,192,120270,1,8,0:0:0:0:
256,192,120463,1,0,0:0:0:0:
256,192,120655,1,8,0:0:0:0:
256,192,120751,1,8,0:0:0:0:
256,192,120847,1,0,0:0:0:0:
256,192,120943,1,0,0:0:0:0:
256,192,121040,1,8,0:0:0:0:
256,192,121232,1,8,0:0:0:0:
256,192,121424,1,8,0:0:0:0:
256,192,121520,1,0,0:0:0:0:
256,192,121616,1,0,0:0:0:0:
256,192,121713,1,0,0:0:0:0:
256,192,121809,1,8,0:0:0:0:
256,192,122001,1,8,0:0:0:0:
256,192,122193,1,0,0:0:0:0:
256,192,122290,1,8,0:0:0:0:
256,192,122386,1,0,0:0:0:0:
256,192,122482,1,0,0:0:0:0:
256,192,122578,1,8,0:0:0:0:
256,192,122674,1,8,0:0:0:0:
256,192,122770,1,0,0:0:0:0:
256,192,122866,1,8,0:0:0:0:
256,192,122963,1,0,0:0:0:0:
256,192,123347,1,8,0:0:0:0:
256,192,123540,1,0,0:0:0:0:
256,192,123636,1,8,0:0:0:0:
256,192,123732,1,0,0:0:0:0:
256,192,123924,1,0,0:0:0:0:
256,192,124116,1,8,0:0:0:0:
256,192,124309,1,0,0:0:0:0:
256,192,124501,1,0,0:0:0:0:
256,192,124597,1,0,0:0:0:0:
256,192,124693,1,0,0:0:0:0:
256,192,124886,1,8,0:0:0:0:
256,192,125078,1,0,0:0:0:0:
256,192,125270,1,0,0:0:0:0:
256,192,125366,1,8,0:0:0:0:
256,192,125463,1,0,0:0:0:0:
256,192,125559,1,0,0:0:0:0:
256,192,125655,1,8,0:0:0:0:
256,192,125847,1,8,0:0:0:0:
256,192,126040,1,0,0:0:0:0:
256,192,126232,1,0,0:0:0:0:
256,192,126424,1,8,0:0:0:0:
256,192,126616,1,8,0:0:0:0:
256,192,126809,1,0,0:0:0:0:
256,192,126905,1,8,0:0:0:0:
256,192,127001,1,0,0:0:0:0:
256,192,127193,1,8,0:0:0:0:
256,192,127386,1,0,0:0:0:0:
256,192,127578,1,8,0:0:0:0:
256,192,127674,1,8,0:0:0:0:
256,192,127770,1,0,0:0:0:0:
256,192,127866,1,0,0:0:0:0:
256,192,127963,1,8,0:0:0:0:
256,192,128059,1,8,0:0:0:0:
256,192,128155,1,0,0:0:0:0:
256,192,128251,1,0,0:0:0:0:
256,192,128347,1,8,0:0:0:0:
256,192,128443,1,0,0:0:0:0:
256,192,128540,1,8,0:0:0:0:
256,192,128636,1,0,0:0:0:0:
256,192,128732,1,8,0:0:0:0:
256,192,128828,1,8,0:0:0:0:
256,192,128924,1,0,0:0:0:0:
256,192,129020,1,8,0:0:0:0:
256,192,129107,1,4,0:0:0:0:
256,192,129298,1,0,0:0:0:0:
256,192,129393,1,0,0:0:0:0:
251,196,129489,1,8,0:0:0:0:
251,196,129680,1,0,0:0:0:0:
251,196,129871,1,0,0:0:0:0:
252,198,129966,1,0,0:0:0:0:
251,196,130062,1,0,0:0:0:0:
248,196,130157,1,0,0:0:0:0:
251,196,130253,1,8,0:0:0:0:
251,196,130444,1,0,0:0:0:0:
251,196,130826,1,8,0:0:0:0:
251,196,130922,1,0,0:0:0:0:
251,196,131017,1,8,0:0:0:0:
251,196,131208,1,0,0:0:0:0:
251,196,131399,1,8,0:0:0:0:
251,196,131591,1,0,0:0:0:0:
251,196,131686,1,0,0:0:0:0:
251,196,131782,1,8,0:0:0:0:
251,196,131973,1,0,0:0:0:0:
251,196,132164,1,8,0:0:0:0:
251,196,132259,1,0,0:0:0:0:
251,196,132355,1,0,0:0:0:0:
251,196,132450,1,0,0:0:0:0:
251,196,132546,1,8,0:0:0:0:
251,196,132737,1,8,0:0:0:0:
251,196,132928,1,0,0:0:0:0:
251,196,133119,1,0,0:0:0:0:
251,196,133215,1,0,0:0:0:0:
251,196,133310,1,8,0:0:0:0:
251,196,133501,1,0,0:0:0:0:
251,196,133884,1,0,0:0:0:0:
251,196,133979,1,0,0:0:0:0:
251,196,134075,1,8,0:0:0:0:
251,196,134266,1,0,0:0:0:0:
251,196,134457,1,8,0:0:0:0:
251,196,134648,1,8,0:0:0:0:
251,196,134743,1,0,0:0:0:0:
251,196,134839,1,0,0:0:0:0:
251,196,135030,1,0,0:0:0:0:
251,196,135221,1,8,0:0:0:0:
251,196,135317,1,8,0:0:0:0:
251,196,135412,1,0,0:0:0:0:
251,196,135508,1,0,0:0:0:0:
251,196,135603,1,8,0:0:0:0:
251,196,135794,1,0,0:0:0:0:
251,196,135985,1,8,0:0:0:0:
251,196,136081,1,0,0:0:0:0:
251,196,136177,1,0,0:0:0:0:
251,196,136272,1,0,0:0:0:0:
251,196,136368,1,8,0:0:0:0:
251,196,136559,1,0,0:0:0:0:
251,196,136941,1,8,0:0:0:0:
251,196,137036,1,8,0:0:0:0:
251,196,137132,1,8,0:0:0:0:
251,196,137323,1,8,0:0:0:0:
251,196,137419,1,8,0:0:0:0:
251,196,137514,1,0,0:0:0:0:
251,196,137705,1,0,0:0:0:0:
251,196,137896,1,8,0:0:0:0:
251,196,137992,1,0,0:0:0:0:
251,196,138087,1,0,0:0:0:0:
251,196,138183,1,8,0:0:0:0:
251,196,138278,1,8,0:0:0:0:
251,196,138470,1,0,0:0:0:0:
251,196,138661,1,8,0:0:0:0:
251,196,138852,1,0,0:0:0:0:
251,196,138947,1,0,0:0:0:0:
251,196,139043,1,8,0:0:0:0:
251,196,139234,1,0,0:0:0:0:
251,196,139425,1,8,0:0:0:0:
251,196,139616,1,0,0:0:0:0:
251,196,139998,1,8,0:0:0:0:
251,196,140094,1,8,0:0:0:0:
251,196,140189,1,0,0:0:0:0:
251,196,140380,1,0,0:0:0:0:
251,196,140571,1,8,0:0:0:0:
251,196,140763,1,12,0:0:0:0:
251,196,140954,1,0,0:0:0:0:
251,196,141145,1,0,0:0:0:0:
251,196,141336,1,12,0:0:0:0:
251,196,141527,1,0,0:0:0:0:
251,196,141622,1,0,0:0:0:0:
251,196,141718,1,8,0:0:0:0:
251,196,141909,1,0,0:0:0:0:
251,196,142100,1,8,0:0:0:0:
249,202,142196,1,0,0:0:0:0:
251,196,142291,1,0,0:0:0:0:
249,202,142387,1,0,0:0:0:0:
251,196,142482,1,8,0:0:0:0:
251,196,142673,1,0,0:0:0:0:
251,196,143056,1,0,0:0:0:0:
251,196,143247,1,8,0:0:0:0:
251,196,143438,1,8,0:0:0:0:
249,202,143533,1,0,0:0:0:0:
251,196,143629,1,0,0:0:0:0:
251,196,143820,1,0,0:0:0:0:
251,196,144011,1,8,0:0:0:0:
249,202,144107,1,0,0:0:0:0:
251,196,144202,1,0,0:0:0:0:
251,196,144298,1,0,0:0:0:0:
251,196,144393,1,8,0:0:0:0:
251,196,144584,1,0,0:0:0:0:
251,196,144775,1,8,0:0:0:0:
251,196,144966,1,8,0:0:0:0:
255,198,145062,1,0,0:0:0:0:
251,196,145157,1,0,0:0:0:0:
251,196,145349,1,0,0:0:0:0:
251,196,145540,1,8,0:0:0:0:
251,196,145731,1,0,0:0:0:0:
251,196,146113,1,8,0:0:0:0:
251,196,146304,1,8,0:0:0:0:
251,196,146495,1,0,0:0:0:0:
251,196,146591,1,0,0:0:0:0:
251,196,146686,1,8,0:0:0:0:
251,196,146877,1,0,0:0:0:0:
251,196,147068,1,8,0:0:0:0:
251,196,147259,1,0,0:0:0:0:
251,196,147450,1,8,0:0:0:0:
251,196,147546,1,8,0:0:0:0:
251,196,147642,1,0,0:0:0:0:
251,196,147737,1,0,0:0:0:0:
251,196,147833,1,8,0:0:0:0:
251,196,148024,1,0,0:0:0:0:
251,196,148119,1,0,0:0:0:0:
251,196,148215,1,0,0:0:0:0:
251,196,148406,1,0,0:0:0:0:
251,196,148597,1,8,0:0:0:0:
251,196,148788,1,0,0:0:0:0:
251,196,149170,1,0,0:0:0:0:
251,196,149361,1,8,0:0:0:0:
251,196,149552,1,8,0:0:0:0:
251,196,149648,1,8,0:0:0:0:
251,196,149743,1,0,0:0:0:0:
251,196,149935,1,0,0:0:0:0:
251,196,150030,1,0,0:0:0:0:
251,196,150126,1,8,0:0:0:0:
251,196,150317,1,0,0:0:0:0:
251,196,150508,1,12,0:0:0:0:
251,196,150699,1,0,0:0:0:0:
251,196,150890,1,8,0:0:0:0:
251,196,151081,1,0,0:0:0:0:
251,196,151272,1,0,0:0:0:0:
251,196,151463,1,12,0:0:0:0:
251,196,151654,1,0,0:0:0:0:
251,196,151845,1,0,0:0:0:0:
251,196,152036,1,12,0:0:0:0:
251,196,152228,1,0,0:0:0:0:
251,196,152419,1,8,0:0:0:0:
251,196,152610,1,8,0:0:0:0:
251,196,152801,1,0,0:0:0:0:
251,196,152896,1,0,0:0:0:0:
251,196,152992,1,8,0:0:0:0:
251,196,153087,1,8,0:0:0:0:
251,196,153183,1,8,0:0:0:0:
251,196,153278,1,0,0:0:0:0:
251,196,153374,1,8,0:0:0:0:
251,196,153565,1,4,0:0:0:0:
251,196,153947,1,0,0:0:0:0:
251,196,154138,1,0,0:0:0:0:
251,196,154234,1,0,0:0:0:0:
251,196,154329,1,8,0:0:0:0:
251,196,154521,1,0,0:0:0:0:
251,196,154712,1,8,0:0:0:0:
251,196,154903,1,8,0:0:0:0:
251,196,154998,1,0,0:0:0:0:
251,196,155094,1,0,0:0:0:0:
251,196,155285,1,0,0:0:0:0:
251,196,155476,1,8,0:0:0:0:
251,196,155667,1,8,0:0:0:0:
251,196,155858,1,4,0:0:0:0:
251,196,156049,1,0,0:0:0:0:
251,196,156240,1,8,0:0:0:0:
251,196,156431,1,0,0:0:0:0:
251,196,156622,1,12,0:0:0:0:
251,196,157005,1,8,0:0:0:0:
251,196,157196,1,0,0:0:0:0:
251,196,157387,1,8,0:0:0:0:
251,196,157578,1,0,0:0:0:0:
251,196,157673,1,0,0:0:0:0:
251,196,157769,1,8,0:0:0:0:
251,196,157960,1,0,0:0:0:0:
251,196,158342,1,8,0:0:0:0:
251,196,158438,1,0,0:0:0:0:
251,196,158533,1,8,0:0:0:0:
251,196,158724,1,8,0:0:0:0:
251,196,158820,1,0,0:0:0:0:
251,196,158915,1,0,0:0:0:0:
251,196,159106,1,0,0:0:0:0:
251,196,159202,1,0,0:0:0:0:
251,196,159298,1,8,0:0:0:0:
251,196,159393,1,0,0:0:0:0:
251,196,159489,1,0,0:0:0:0:
251,196,159680,1,8,0:0:0:0:
251,196,159871,1,0,0:0:0:0:
251,196,159966,1,0,0:0:0:0:
251,196,160062,1,8,0:0:0:0:
251,196,160253,1,8,0:0:0:0:
251,196,160349,1,8,0:0:0:0:
251,196,160444,1,0,0:0:0:0:
251,196,160635,1,0,0:0:0:0:
251,196,160826,1,8,0:0:0:0:
251,196,161017,1,0,0:0:0:0:
251,196,161399,1,0,0:0:0:0:
251,196,161591,1,8,0:0:0:0:
251,196,161782,1,8,0:0:0:0:
251,196,161973,1,0,0:0:0:0:
251,196,162164,1,0,0:0:0:0:
251,196,162355,1,12,0:0:0:0:
251,196,162546,1,0,0:0:0:0:
251,196,162737,1,12,0:0:0:0:
251,196,162928,1,12,0:0:0:0:
251,196,163310,1,4,0:0:0:0:
251,196,163501,1,12,0:0:0:0:
251,196,163884,1,12,0:0:0:0:
251,196,164075,1,4,0:0:0:0:
251,196,164457,1,4,0:0:0:0:
251,196,164648,1,4,0:0:0:0:
251,196,165030,1,8,0:0:0:0:
251,196,165126,1,0,0:0:0:0:
251,196,165221,1,0,0:0:0:0:
251,196,165317,1,0,0:0:0:0:
251,196,165412,1,8,0:0:0:0:
251,196,165508,1,0,0:0:0:0:
251,196,165603,1,0,0:0:0:0:
251,196,165699,1,0,0:0:0:0:
251,196,165790,1,8,0:0:0:0:
256,192,178097,5,4,0:0:0:0:
256,192,178290,1,0,0:0:0:0:
256,192,178482,1,8,0:0:0:0:
256,192,178674,1,0,0:0:0:0:
256,192,178866,1,8,0:0:0:0:
256,192,179059,1,8,0:0:0:0:
256,192,179251,1,0,0:0:0:0:
256,192,179443,1,8,0:0:0:0:
256,192,179636,1,0,0:0:0:0:
256,192,179732,1,0,0:0:0:0:
256,192,179828,1,0,0:0:0:0:
256,192,180020,1,8,0:0:0:0:
256,192,180213,1,0,0:0:0:0:
256,192,180405,1,8,0:0:0:0:
256,192,180501,1,0,0:0:0:0:
256,192,180597,1,8,0:0:0:0:
256,192,180790,1,8,0:0:0:0:
256,192,180982,1,0,0:0:0:0:
256,192,181174,1,0,0:0:0:0:
256,192,181366,1,0,0:0:0:0:
256,192,181559,1,8,0:0:0:0:
256,192,181751,1,0,0:0:0:0:
256,192,181943,1,8,0:0:0:0:
256,192,182136,1,8,0:0:0:0:
256,192,182328,1,0,0:0:0:0:
256,192,182520,1,8,0:0:0:0:
256,192,182713,1,0,0:0:0:0:
256,192,182809,1,0,0:0:0:0:
256,192,182905,1,0,0:0:0:0:
256,192,183001,1,0,0:0:0:0:
256,192,183097,1,8,0:0:0:0:
256,192,183290,1,0,0:0:0:0:
256,192,183482,1,8,0:0:0:0:
256,192,183578,1,0,0:0:0:0:
256,192,183674,1,8,0:0:0:0:
256,192,183770,1,8,0:0:0:0:
256,192,183866,1,0,0:0:0:0:
256,192,184059,1,8,0:0:0:0:
256,192,184251,1,4,0:0:0:0:
256,192,184636,1,8,0:0:0:0:
256,192,184828,1,0,0:0:0:0:
256,192,185020,1,8,0:0:0:0:
256,192,185213,1,8,0:0:0:0:
256,192,185405,1,0,0:0:0:0:
256,192,185597,1,8,0:0:0:0:
256,192,185790,1,0,0:0:0:0:
256,192,185886,1,0,0:0:0:0:
256,192,185982,1,0,0:0:0:0:
256,192,186174,1,8,0:0:0:0:
256,192,186366,1,0,0:0:0:0:
256,192,186559,1,8,0:0:0:0:
256,192,186655,1,0,0:0:0:0:
256,192,186751,1,8,0:0:0:0:
256,192,186943,1,8,0:0:0:0:
256,192,187136,1,0,0:0:0:0:
256,192,187328,1,0,0:0:0:0:
256,192,187520,1,8,0:0:0:0:
256,192,187713,1,8,0:0:0:0:
256,192,187905,1,0,0:0:0:0:
256,192,188097,1,8,0:0:0:0:
256,192,188290,1,0,0:0:0:0:
256,192,188482,1,8,0:0:0:0:
256,192,188674,1,0,0:0:0:0:
256,192,188866,1,0,0:0:0:0:
256,192,188963,1,0,0:0:0:0:
256,192,189059,1,0,0:0:0:0:
256,192,189251,1,8,0:0:0:0:
256,192,189443,1,0,0:0:0:0:
256,192,189540,1,0,0:0:0:0:
256,192,189636,1,8,0:0:0:0:
256,192,189828,1,8,0:0:0:0:
256,192,190020,1,8,0:0:0:0:
256,192,190116,1,0,0:0:0:0:
256,192,190213,1,8,0:0:0:0:
256,192,190309,1,8,0:0:0:0:
256,192,190405,1,0,0:0:0:0:
256,192,190790,1,12,0:0:0:0:
256,192,190982,1,4,0:0:0:0:
256,192,191174,1,12,0:0:0:0:
256,192,191559,1,4,0:0:0:0:
256,192,191751,1,4,0:0:0:0:
256,192,192136,1,4,0:0:0:0:
256,192,192328,1,12,0:0:0:0:
256,192,192713,1,12,0:0:0:0:
256,192,192905,1,12,0:0:0:0:
256,192,193097,1,4,0:0:0:0:
256,192,193290,1,4,0:0:0:0:
256,192,193482,1,4,0:0:0:0:
256,192,193866,1,4,0:0:0:0:
256,192,194059,1,12,0:0:0:0:
256,192,194251,1,12,0:0:0:0:
256,192,194636,1,4,0:0:0:0:
256,192,194828,1,12,0:0:0:0:
256,192,195213,1,4,0:0:0:0:
256,192,195405,1,12,0:0:0:0:
256,192,195790,1,12,0:0:0:0:
256,192,195982,1,4,0:0:0:0:
256,192,196174,1,12,0:0:0:0:
256,192,196366,1,4,0:0:0:0:
256,192,196559,1,4,0:0:0:0:
256,192,196943,1,8,0:0:0:0:
256,192,197136,1,0,0:0:0:0:
256,192,197328,1,8,0:0:0:0:
256,192,197713,1,0,0:0:0:0:
256,192,197905,1,0,0:0:0:0:
256,192,198097,1,8,0:0:0:0:
256,192,198290,1,0,0:0:0:0:
256,192,198482,1,8,0:0:0:0:
256,192,198866,1,0,0:0:0:0:
256,192,199251,1,8,0:0:0:0:
256,192,199443,1,0,0:0:0:0:
256,192,199636,1,8,0:0:0:0:
256,192,200020,1,8,0:0:0:0:
256,192,200213,1,0,0:0:0:0:
256,192,200405,1,8,0:0:0:0:
256,192,200790,1,0,0:0:0:0:
256,192,200982,1,0,0:0:0:0:
256,192,201174,1,8,0:0:0:0:
256,192,201366,1,0,0:0:0:0:
256,192,201559,1,8,0:0:0:0:
256,192,201943,1,8,0:0:0:0:
256,192,202136,1,0,0:0:0:0:
256,192,202328,1,8,0:0:0:0:
256,192,202520,1,8,0:0:0:0:
256,192,202713,1,0,0:0:0:0:
256,192,203097,1,8,0:0:0:0:
256,192,203290,1,0,0:0:0:0:
256,192,203482,1,8,0:0:0:0:
256,192,203866,1,8,0:0:0:0:
256,192,204059,1,0,0:0:0:0:
256,192,204251,1,8,0:0:0:0:
256,192,204443,1,0,0:0:0:0:
256,192,204636,1,0,0:0:0:0:
256,192,205020,1,8,0:0:0:0:
256,192,205213,1,0,0:0:0:0:
256,192,205405,1,8,0:0:0:0:
256,192,205790,1,0,0:0:0:0:
256,192,206174,1,8,0:0:0:0:
256,192,206366,1,0,0:0:0:0:
256,192,206559,1,8,0:0:0:0:
256,192,206943,1,8,0:0:0:0:
256,192,207040,1,0,0:0:0:0:
256,192,207136,1,0,0:0:0:0:
256,192,207232,1,0,0:0:0:0:
256,192,207328,1,8,0:0:0:0:
256,192,207520,1,0,0:0:0:0:
256,192,207713,1,8,0:0:0:0:
256,192,207905,1,0,0:0:0:0:
256,192,208097,1,8,0:0:0:0:
256,192,208290,1,8,0:0:0:0:
256,192,208482,1,0,0:0:0:0:
256,192,208674,1,0,0:0:0:0:
256,192,208866,1,4,0:0:0:0:
256,192,209251,1,12,0:0:0:0:
256,192,209443,1,4,0:0:0:0:
256,192,209636,1,12,0:0:0:0:
256,192,210020,1,0,0:0:0:0:
256,192,210213,1,0,0:0:0:0:
256,192,210405,1,12,0:0:0:0:
256,192,210597,1,12,0:0:0:0:
256,192,210790,1,12,0:0:0:0:
256,192,211174,1,0,0:0:0:0:
256,192,211366,1,0,0:0:0:0:
256,192,211559,1,12,0:0:0:0:
256,192,211751,1,4,0:0:0:0:
256,192,211943,1,12,0:0:0:0:
256,192,212328,1,12,0:0:0:0:
256,192,212520,1,4,0:0:0:0:
256,192,212713,1,4,0:0:0:0:
256,192,213097,1,0,0:0:0:0:
256,192,213290,1,0,0:0:0:0:
256,192,213482,1,8,0:0:0:0:
256,192,213674,1,0,0:0:0:0:
256,192,213866,1,0,0:0:0:0:
256,192,214059,1,0,0:0:0:0:
256,192,214251,1,12,0:0:0:0:
252,186,214636,1,4,0:0:0:0:
252,186,215020,1,0,0:0:0:0:
252,186,215213,1,0,0:0:0:0:
254,184,215405,1,12,0:0:0:0:
252,186,215597,1,4,0:0:0:0:
252,186,215790,1,12,0:0:0:0:
252,186,216174,1,12,0:0:0:0:
250,188,216366,1,12,0:0:0:0:
252,186,216559,1,4,0:0:0:0:
252,186,216943,1,0,0:0:0:0:
252,186,217136,1,0,0:0:0:0:
250,188,217328,1,12,0:0:0:0:
252,186,217520,1,4,0:0:0:0:
252,186,217713,1,12,0:0:0:0:
252,186,218097,1,0,0:0:0:0:
252,186,218482,1,4,0:0:0:0:
252,186,218674,1,12,0:0:0:0:
252,186,218866,1,12,0:0:0:0:
252,186,219251,1,0,0:0:0:0:
252,186,219347,1,0,0:0:0:0:
252,186,219443,1,0,0:0:0:0:
252,186,219540,1,0,0:0:0:0:
252,186,219636,1,8,0:0:0:0:
252,186,219828,1,8,0:0:0:0:
252,186,220020,1,0,0:0:0:0:
252,186,220213,1,0,0:0:0:0:
252,186,220405,1,8,0:0:0:0:
252,186,220597,1,0,0:0:0:0:
252,186,220790,1,8,0:0:0:0:
265,186,220982,1,8,0:0:0:0:
395,186,221174,5,4,0:0:0:0:
271,187,221366,1,0,0:0:0:0:
488,169,221559,1,12,0:0:0:0:
467,200,221751,1,4,0:0:0:0:
467,200,221943,1,4,0:0:0:0:
381,209,222328,1,0,0:0:0:0:
488,169,222713,1,12,0:0:0:0:
467,200,222905,1,4,0:0:0:0:
467,200,223097,1,12,0:0:0:0:
383,223,223482,1,8,0:0:0:0:
343,190,223866,1,4,0:0:0:0:
323,223,224059,1,12,0:0:0:0:
182,213,224251,1,4,0:0:0:0:
389,145,224636,1,12,0:0:0:0:
442,164,224828,1,12,0:0:0:0:
385,184,225020,1,4,0:0:0:0:
393,192,225405,1,0,0:0:0:0:
393,192,225597,1,0,0:0:0:0:
422,187,225790,1,8,0:0:0:0:
318,193,225982,1,0,0:0:0:0:
271,221,226174,1,8,0:0:0:0:
270,166,226366,1,0,0:0:0:0:
267,187,226559,1,12,0:0:0:0:
267,187,226943,1,12,0:0:0:0:
395,186,227328,5,0,0:0:0:0:
271,187,227520,1,0,0:0:0:0:
488,169,227713,1,12,0:0:0:0:
467,200,227905,1,4,0:0:0:0:
467,200,228097,1,4,0:0:0:0:
134,147,228290,1,0,0:0:0:0:
488,169,228482,1,12,0:0:0:0:
467,200,228674,1,4,0:0:0:0:
467,200,228866,1,12,0:0:0:0:
202,148,229059,1,0,0:0:0:0:
221,173,229251,1,0,0:0:0:0:
402,171,229444,1,0,0:0:0:0:
326,194,229636,1,12,0:0:0:0:
343,190,229827,1,4,0:0:0:0:
323,223,230020,1,12,0:0:0:0:
349,200,230213,1,0,0:0:0:0:
360,213,230405,1,8,0:0:0:0:
360,213,230597,1,8,0:0:0:0:
405,232,230790,1,12,0:0:0:0:
405,232,230982,1,12,0:0:0:0:
405,232,231174,1,12,0:0:0:0:
338,254,231559,1,0,0:0:0:0:
338,254,231751,1,0,0:0:0:0:
315,225,231943,5,12,0:0:0:0:
320,211,232328,1,8,0:0:0:0:
471,191,232520,1,0,0:0:0:0:
320,211,232713,1,8,0:0:0:0:
471,191,232905,1,0,0:0:0:0:
320,211,233097,1,8,0:0:0:0:
471,191,233289,1,0,0:0:0:0:
344,164,233482,1,8,0:0:0:0:
447,183,233578,1,0,0:0:0:0:
238,171,233674,1,0,0:0:0:0:
320,211,233866,1,8,0:0:0:0:
471,191,234058,1,0,0:0:0:0:
320,211,234251,1,8,0:0:0:0:
471,191,234443,1,0,0:0:0:0:
320,211,234636,1,8,0:0:0:0:
471,191,234828,1,0,0:0:0:0:
304,225,235020,1,12,0:0:0:0:
427,190,235213,1,0,0:0:0:0:
387,210,235405,1,8,0:0:0:0:
387,210,235501,1,8,0:0:0:0:
443,228,235597,1,0,0:0:0:0:
286,212,235790,1,8,0:0:0:0:
362,245,235982,1,0,0:0:0:0:
478,196,236174,1,8,0:0:0:0:
372,196,236366,1,0,0:0:0:0:
153,159,236559,1,8,0:0:0:0:
427,190,236751,1,0,0:0:0:0:
387,210,236943,1,8,0:0:0:0:
387,210,237039,1,8,0:0:0:0:
443,228,237135,1,0,0:0:0:0:
286,212,237328,1,8,0:0:0:0:
362,245,237520,1,0,0:0:0:0:
478,196,237712,1,8,0:0:0:0:
194,204,238097,1,12,0:0:0:0:
370,164,238290,1,0,0:0:0:0:
370,164,238386,1,0,0:0:0:0:
341,185,238482,1,8,0:0:0:0:
320,166,238674,1,0,0:0:0:0:
288,179,238866,1,8,0:0:0:0:
370,164,239059,1,0,0:0:0:0:
370,164,239155,1,0,0:0:0:0:
341,185,239251,1,8,0:0:0:0:
320,166,239443,1,0,0:0:0:0:
288,179,239635,1,8,0:0:0:0:
387,183,239828,1,0,0:0:0:0:
387,183,239924,1,0,0:0:0:0:
471,200,240020,1,8,0:0:0:0:
471,200,240116,1,8,0:0:0:0:
305,179,240213,1,0,0:0:0:0:
288,179,240405,1,8,0:0:0:0:
387,183,240598,1,0,0:0:0:0:
387,183,240694,1,0,0:0:0:0:
471,200,240790,1,8,0:0:0:0:
471,200,240886,1,8,0:0:0:0:
305,179,240983,1,0,0:0:0:0:
362,171,241174,1,8,0:0:0:0:
362,170,241270,1,8,0:0:0:0:
362,170,241366,1,8,0:0:0:0:
362,170,241463,1,8,0:0:0:0:
364,169,241559,1,8,0:0:0:0:
343,143,241751,1,0,0:0:0:0:
343,143,241847,1,0,0:0:0:0:
343,143,241943,1,0,0:0:0:0:
343,143,242040,1,0,0:0:0:0:
343,143,242136,1,0,0:0:0:0:
404,236,242328,1,8,0:0:0:0:
427,198,242713,1,0,0:0:0:0:
394,196,242905,1,8,0:0:0:0:
394,196,243001,5,8,0:0:0:0:
320,209,243097,1,0,0:0:0:0:
320,209,243290,1,0,0:0:0:0:
406,184,243482,1,8,0:0:0:0:
349,165,243578,1,0,0:0:0:0:
204,217,243674,1,8,0:0:0:0:
350,231,243866,1,8,0:0:0:0:
256,192,244259,5,12,0:0:0:0:
256,192,244450,1,4,0:0:0:0:
256,192,244641,1,4,0:0:0:0:
256,192,244832,1,12,0:0:0:0:
256,192,245214,1,0,0:0:0:0:
256,192,245278,1,0,0:0:0:0:
256,192,245341,1,0,0:0:0:0:
256,192,245405,1,8,0:0:0:0:
256,192,245596,1,0,0:0:0:0:
256,192,245787,1,8,0:0:0:0:
256,192,245978,1,0,0:0:0:0:
256,192,246074,1,0,0:0:0:0:
256,192,246169,1,8,0:0:0:0:
256,192,246360,1,0,0:0:0:0:
256,192,246551,1,8,0:0:0:0:
256,192,246743,1,8,0:0:0:0:
256,192,246838,1,0,0:0:0:0:
256,192,246934,1,8,0:0:0:0:
256,192,247125,1,0,0:0:0:0:
256,192,247316,1,8,0:0:0:0:
256,192,247411,1,0,0:0:0:0:
256,192,247507,1,0,0:0:0:0:
256,192,247602,1,0,0:0:0:0:
256,192,247698,1,8,0:0:0:0:
256,192,247889,1,8,0:0:0:0:
256,192,248080,1,0,0:0:0:0:
256,192,248176,1,8,0:0:0:0:
256,192,248271,1,0,0:0:0:0:
256,192,248367,1,0,0:0:0:0:
256,192,248462,1,8,0:0:0:0:
256,192,248653,1,0,0:0:0:0:
256,192,248844,1,0,0:0:0:0:
256,192,249036,1,0,0:0:0:0:
256,192,249131,1,0,0:0:0:0:
256,192,249227,1,8,0:0:0:0:
256,192,249418,1,0,0:0:0:0:
256,192,249513,1,8,0:0:0:0:
256,192,249609,1,0,0:0:0:0:
256,192,249800,1,0,0:0:0:0:
256,192,249991,1,8,0:0:0:0:
256,192,250182,1,0,0:0:0:0:
256,192,250373,1,0,0:0:0:0:
256,192,250469,1,8,0:0:0:0:
256,192,250564,1,0,0:0:0:0:
256,192,250660,1,0,0:0:0:0:
256,192,250755,1,8,0:0:0:0:
256,192,250946,1,8,0:0:0:0:
256,192,251137,1,0,0:0:0:0:
256,192,251233,1,8,0:0:0:0:
256,192,251329,1,0,0:0:0:0:
256,192,251424,1,8,0:0:0:0:
256,192,251520,1,8,0:0:0:0:
256,192,251711,1,0,0:0:0:0:
256,192,251902,1,0,0:0:0:0:
256,192,252093,1,8,0:0:0:0:
256,192,252188,1,0,0:0:0:0:
256,192,252284,1,8,0:0:0:0:
256,192,252475,1,0,0:0:0:0:
256,192,252571,1,0,0:0:0:0:
256,192,252666,1,8,0:0:0:0:
256,192,252857,1,0,0:0:0:0:
256,192,253048,1,8,0:0:0:0:
256,192,253239,1,8,0:0:0:0:
256,192,253430,1,0,0:0:0:0:
256,192,253526,1,0,0:0:0:0:
256,192,253622,1,0,0:0:0:0:
256,192,253813,1,8,0:0:0:0:
256,192,254004,1,0,0:0:0:0:
256,192,254195,1,8,0:0:0:0:
256,192,254290,1,8,0:0:0:0:
256,192,254386,1,0,0:0:0:0:
256,192,254481,1,0,0:0:0:0:
256,192,254577,1,8,0:0:0:0:
256,192,254768,1,0,0:0:0:0:
256,192,254959,1,0,0:0:0:0:
256,192,255150,1,0,0:0:0:0:
256,192,255246,1,0,0:0:0:0:
256,192,255341,1,8,0:0:0:0:
256,192,255532,1,0,0:0:0:0:
256,192,255723,1,8,0:0:0:0:
256,192,255819,1,0,0:0:0:0:
256,192,255915,1,8,0:0:0:0:
256,192,256106,1,8,0:0:0:0:
256,192,256297,1,0,0:0:0:0:
256,192,256488,1,4,0:0:0:0:
256,192,256774,1,0,0:0:0:0:
256,192,256870,1,8,0:0:0:0:
256,192,257061,1,0,0:0:0:0:
256,192,257157,1,0,0:0:0:0:
256,192,257252,1,0,0:0:0:0:
256,192,257348,1,8,0:0:0:0:
256,192,257443,1,0,0:0:0:0:
256,192,257539,1,0,0:0:0:0:
256,192,257634,1,8,0:0:0:0:
256,192,257825,1,0,0:0:0:0:
256,192,258016,1,0,0:0:0:0:
256,192,258208,1,8,0:0:0:0:
256,192,258303,1,0,0:0:0:0:
256,192,258399,1,8,0:0:0:0:
256,192,258590,1,0,0:0:0:0:
256,192,258781,1,8,0:0:0:0:
256,192,258876,1,8,0:0:0:0:
256,192,258972,1,0,0:0:0:0:
256,192,259067,1,0,0:0:0:0:
256,192,259163,1,8,0:0:0:0:
256,192,259354,1,8,0:0:0:0:
256,192,259545,1,0,0:0:0:0:
256,192,259832,1,0,0:0:0:0:
256,192,259927,1,8,0:0:0:0:
256,192,260118,1,0,0:0:0:0:
256,192,260309,1,8,0:0:0:0:
256,192,260405,1,8,0:0:0:0:
256,192,260501,1,0,0:0:0:0:
256,192,260596,1,0,0:0:0:0:
256,192,260692,1,8,0:0:0:0:
256,192,260883,1,0,0:0:0:0:
256,192,261074,1,0,0:0:0:0:
256,192,261265,1,0,0:0:0:0:
256,192,261360,1,0,0:0:0:0:
256,192,261456,1,8,0:0:0:0:
256,192,261647,1,0,0:0:0:0:
256,192,261838,1,8,0:0:0:0:
256,192,261934,1,0,0:0:0:0:
256,192,262029,1,0,0:0:0:0:
256,192,262125,1,0,0:0:0:0:
256,192,262220,1,8,0:0:0:0:
256,192,262411,1,8,0:0:0:0:
256,192,262602,1,0,0:0:0:0:
256,192,262889,1,0,0:0:0:0:
256,192,262985,1,8,0:0:0:0:
256,192,263176,1,0,0:0:0:0:
256,192,263367,1,0,0:0:0:0:
256,192,263462,1,8,0:0:0:0:
256,192,263558,1,0,0:0:0:0:
256,192,263653,1,0,0:0:0:0:
256,192,263749,1,8,0:0:0:0:
256,192,263940,1,0,0:0:0:0:
256,192,264131,1,0,0:0:0:0:
256,192,264513,1,8,0:0:0:0:
256,192,264609,1,8,0:0:0:0:
256,192,264704,1,0,0:0:0:0:
256,192,264895,1,8,0:0:0:0:
256,192,264991,1,0,0:0:0:0:
256,192,265087,1,8,0:0:0:0:
256,192,265278,1,8,0:0:0:0:
256,192,265469,1,8,0:0:0:0:
256,192,265660,1,4,0:0:0:0:
256,192,265946,1,0,0:0:0:0:
256,192,266042,1,8,0:0:0:0:
256,192,266233,1,0,0:0:0:0:
256,192,266329,1,0,0:0:0:0:
256,192,266424,1,8,0:0:0:0:
256,192,266520,1,0,0:0:0:0:
256,192,266615,1,8,0:0:0:0:
256,192,266806,1,8,0:0:0:0:
256,192,266997,1,0,0:0:0:0:
256,192,267188,1,4,0:0:0:0:
256,192,267380,1,0,0:0:0:0:
256,192,267475,1,0,0:0:0:0:
256,192,267571,1,8,0:0:0:0:
256,192,267762,1,0,0:0:0:0:
256,192,267953,1,4,0:0:0:0:
256,192,268144,1,8,0:0:0:0:
256,192,268335,1,4,0:0:0:0:
256,192,268526,1,8,0:0:0:0:
256,192,268717,1,4,0:0:0:0:
278,124,268908,1,0,0:0:0:0:
305,130,269004,1,0,0:0:0:0:
361,216,269099,1,8,0:0:0:0:
317,206,269290,1,0,0:0:0:0:
274,190,269481,1,8,0:0:0:0:
274,190,269577,1,8,0:0:0:0:
402,183,269673,1,0,0:0:0:0:
346,171,269768,1,0,0:0:0:0:
346,171,269864,1,8,0:0:0:0:
281,203,270055,1,8,0:0:0:0:
319,196,270246,1,0,0:0:0:0:
284,203,270437,1,0,0:0:0:0:
287,201,270532,1,0,0:0:0:0:
326,181,270628,1,8,0:0:0:0:
210,194,270819,1,0,0:0:0:0:
264,202,271010,1,12,0:0:0:0:
261,204,271201,1,0,0:0:0:0:
323,203,271297,1,0,0:0:0:0:
297,195,271392,1,8,0:0:0:0:
347,180,271488,1,0,0:0:0:0:
356,186,271583,1,8,0:0:0:0:
357,228,271774,1,4,0:0:0:0:
268,198,271965,1,0,0:0:0:0:
268,198,272060,1,0,0:0:0:0:
357,214,272156,1,8,0:0:0:0:
357,214,272347,1,8,0:0:0:0:
272,233,272538,1,0,0:0:0:0:
269,156,272634,1,0,0:0:0:0:
272,233,272729,1,0,0:0:0:0:
364,127,272825,1,0,0:0:0:0:
222,250,272920,1,8,0:0:0:0:
371,175,273112,1,8,0:0:0:0:
396,188,273303,1,0,0:0:0:0:
236,188,273494,1,0,0:0:0:0:
242,186,273589,1,0,0:0:0:0:
406,219,273685,1,8,0:0:0:0:
397,180,273876,1,0,0:0:0:0:
325,198,274067,1,8,0:0:0:0:
398,216,274162,1,0,0:0:0:0:
398,216,274258,1,0,0:0:0:0:
398,216,274353,1,0,0:0:0:0:
397,180,274449,1,8,0:0:0:0:
398,209,274640,1,8,0:0:0:0:
329,208,274831,1,0,0:0:0:0:
349,184,275022,1,0,0:0:0:0:
349,184,275118,1,0,0:0:0:0:
299,218,275213,1,8,0:0:0:0:
433,196,275404,1,0,0:0:0:0:
289,229,275595,1,0,0:0:0:0:
373,178,275692,1,0,0:0:0:0:
289,229,275787,1,8,0:0:0:0:
346,137,275883,1,0,0:0:0:0:
256,120,275978,1,0,0:0:0:0:
189,226,276169,1,8,0:0:0:0:
267,170,276360,1,0,0:0:0:0:
397,188,276551,1,8,0:0:0:0:
396,188,276646,1,8,0:0:0:0:
396,188,276742,1,8,0:0:0:0:
397,188,276933,1,0,0:0:0:0:
284,193,277124,1,8,0:0:0:0:
404,190,277220,1,0,0:0:0:0:
414,204,277315,1,8,0:0:0:0:
414,204,277411,1,8,0:0:0:0:
409,185,277506,1,0,0:0:0:0:
493,179,277697,1,8,0:0:0:0:
382,188,277888,1,0,0:0:0:0:
304,209,278080,1,0,0:0:0:0:
304,209,278175,1,0,0:0:0:0:
377,220,278271,1,8,0:0:0:0:
377,220,278462,1,8,0:0:0:0:
280,143,278653,1,0,0:0:0:0:
280,143,278749,1,0,0:0:0:0:
333,186,278844,1,0,0:0:0:0:
158,80,278940,1,8,0:0:0:0:
366,168,279035,1,0,0:0:0:0:
333,186,279226,1,8,0:0:0:0:
209,139,279418,1,0,0:0:0:0:
400,221,279608,1,8,0:0:0:0:
400,221,279704,1,8,0:0:0:0:
306,201,279799,1,0,0:0:0:0:
306,201,279990,5,0,0:0:0:0:
317,207,280181,1,8,0:0:0:0:
346,208,280373,1,0,0:0:0:0:
344,208,280468,1,0,0:0:0:0:
276,201,280564,1,8,0:0:0:0:
276,201,280659,1,8,0:0:0:0:
238,206,280755,1,0,0:0:0:0:
256,192,280946,5,4,0:0:0:0:
222,156,281137,1,0,0:0:0:0:
222,156,281232,1,0,0:0:0:0:
367,258,281328,1,8,0:0:0:0:
319,237,281519,1,0,0:0:0:0:
211,109,281614,1,0,0:0:0:0:
211,109,281710,1,0,0:0:0:0:
331,214,281901,1,0,0:0:0:0:
324,255,282092,1,8,0:0:0:0:
314,222,282283,1,0,0:0:0:0:
368,256,282474,1,0,0:0:0:0:
174,149,282762,1,0,0:0:0:0:
368,256,282856,1,8,0:0:0:0:
221,303,283047,1,8,0:0:0:0:
319,238,283238,1,8,0:0:0:0:
319,238,283334,1,8,0:0:0:0:
362,240,283430,1,0,0:0:0:0:
357,248,283525,1,0,0:0:0:0:
387,213,283621,1,8,0:0:0:0:
412,234,283716,1,0,0:0:0:0:
342,210,283812,1,8,0:0:0:0:
342,210,283907,1,8,0:0:0:0:
357,228,284003,1,0,0:0:0:0:
268,198,284194,1,0,0:0:0:0:
268,198,284289,1,0,0:0:0:0:
357,214,284385,1,8,0:0:0:0:
357,214,284576,1,8,0:0:0:0:
375,213,284672,1,0,0:0:0:0:
272,233,284767,1,0,0:0:0:0:
272,233,284958,1,0,0:0:0:0:
222,250,285149,1,8,0:0:0:0:
371,175,285340,1,0,0:0:0:0:
185,152,285437,1,0,0:0:0:0:
185,152,285532,1,0,0:0:0:0:
242,186,285818,1,0,0:0:0:0:
406,219,285914,1,8,0:0:0:0:
397,180,286105,1,0,0:0:0:0:
325,198,286296,1,8,0:0:0:0:
398,216,286391,1,0,0:0:0:0:
398,216,286487,1,0,0:0:0:0:
398,216,286582,1,0,0:0:0:0:
397,180,286678,1,8,0:0:0:0:
350,236,286774,1,0,0:0:0:0:
398,209,286869,1,8,0:0:0:0:
329,208,286965,1,0,0:0:0:0:
329,208,287060,1,0,0:0:0:0:
349,184,287251,1,0,0:0:0:0:
349,184,287347,1,0,0:0:0:0:
299,218,287442,1,8,0:0:0:0:
433,196,287633,1,8,0:0:0:0:
433,196,287729,1,8,0:0:0:0:
289,229,287824,1,0,0:0:0:0:
289,229,288016,1,0,0:0:0:0:
422,192,288207,1,8,0:0:0:0:
189,226,288398,1,0,0:0:0:0:
164,124,288494,1,0,0:0:0:0:
165,138,288589,1,0,0:0:0:0:
213,227,288876,1,8,0:0:0:0:
257,127,288972,1,0,0:0:0:0:
397,188,289162,1,8,0:0:0:0:
284,193,289353,1,8,0:0:0:0:
404,190,289449,1,0,0:0:0:0:
414,204,289544,1,8,0:0:0:0:
414,204,289640,1,8,0:0:0:0:
409,185,289735,1,0,0:0:0:0:
493,179,289831,1,8,0:0:0:0:
493,179,289926,1,8,0:0:0:0:
411,212,290022,1,0,0:0:0:0:
382,188,290117,1,12,0:0:0:0:
304,209,290309,1,0,0:0:0:0:
304,209,290404,1,0,0:0:0:0:
377,220,290500,1,8,0:0:0:0:
377,220,290691,1,8,0:0:0:0:
377,220,290786,1,8,0:0:0:0:
377,220,290882,1,0,0:0:0:0:
333,186,291074,1,12,0:0:0:0:
252,226,291265,1,0,0:0:0:0:
252,226,291361,1,0,0:0:0:0:
252,226,291456,1,0,0:0:0:0:
284,188,291647,1,12,0:0:0:0:
276,125,291838,1,0,0:0:0:0:
252,226,291934,1,0,0:0:0:0:
360,236,292029,5,8,0:0:0:0:
480,225,292220,1,0,0:0:0:0:
286,166,292411,1,0,0:0:0:0:
259,193,292602,1,12,0:0:0:0:
245,225,292794,1,0,0:0:0:0:
236,188,293176,1,4,0:0:0:0:
384,231,293367,1,0,0:0:0:0:
384,231,293462,1,0,0:0:0:0:
400,205,293558,1,8,0:0:0:0:
303,236,293749,1,0,0:0:0:0:
286,244,293940,1,0,0:0:0:0:
355,201,294131,1,8,0:0:0:0:
355,201,294227,1,0,0:0:0:0:
355,201,294322,1,8,0:0:0:0:
355,201,294513,1,8,0:0:0:0:
275,211,294704,1,0,0:0:0:0:
322,171,295087,1,8,0:0:0:0:
256,184,295278,1,0,0:0:0:0:
189,172,295373,1,8,0:0:0:0:
355,229,295469,1,0,0:0:0:0:
336,215,295660,1,0,0:0:0:0:
436,211,295851,1,8,0:0:0:0:
235,187,296042,1,0,0:0:0:0:
223,191,296233,1,0,0:0:0:0:
363,206,296424,1,0,0:0:0:0:
363,206,296520,1,0,0:0:0:0:
345,164,296615,1,8,0:0:0:0:
303,236,296806,1,0,0:0:0:0:
286,244,296997,1,0,0:0:0:0:
355,201,297379,1,8,0:0:0:0:
275,211,297571,1,0,0:0:0:0:
231,147,297762,1,0,0:0:0:0:
252,128,297857,1,0,0:0:0:0:
252,128,297953,1,0,0:0:0:0:
257,124,298048,1,0,0:0:0:0:
322,171,298144,1,8,0:0:0:0:
256,184,298335,1,0,0:0:0:0:
355,229,298526,1,0,0:0:0:0:
211,138,298622,1,0,0:0:0:0:
336,215,298717,1,0,0:0:0:0:
211,138,298813,1,0,0:0:0:0:
436,211,298908,1,8,0:0:0:0:
235,187,299099,1,8,0:0:0:0:
352,199,299290,1,0,0:0:0:0:
352,199,299481,1,0,0:0:0:0:
352,199,299577,1,0,0:0:0:0:
283,177,299673,1,8,0:0:0:0:
278,190,299864,1,8,0:0:0:0:
278,190,300055,1,0,0:0:0:0:
222,80,300150,1,0,0:0:0:0:
226,212,300246,1,0,0:0:0:0:
347,191,300437,1,8,0:0:0:0:
297,221,300819,1,0,0:0:0:0:
273,158,301010,1,0,0:0:0:0:
273,158,301106,1,0,0:0:0:0:
316,228,301201,1,8,0:0:0:0:
352,206,301392,1,0,0:0:0:0:
321,217,301583,1,8,0:0:0:0:
313,215,301774,1,8,0:0:0:0:
282,212,301870,1,0,0:0:0:0:
342,214,301966,1,8,0:0:0:0:
282,212,302157,1,0,0:0:0:0:
350,213,302348,1,0,0:0:0:0:
333,205,302539,1,0,0:0:0:0:
330,202,302634,1,0,0:0:0:0:
282,212,302730,1,8,0:0:0:0:
273,234,302921,1,0,0:0:0:0:
343,213,303112,1,8,0:0:0:0:
343,213,303208,1,8,0:0:0:0:
343,216,303303,1,0,0:0:0:0:
410,230,303399,1,0,0:0:0:0:
363,224,303494,1,8,0:0:0:0:
420,195,303876,1,8,0:0:0:0:
309,162,304067,1,0,0:0:0:0:
309,162,304163,1,0,0:0:0:0:
282,208,304258,1,8,0:0:0:0:
223,187,304450,1,0,0:0:0:0:
347,200,304641,1,0,0:0:0:0:
451,195,304736,1,8,0:0:0:0:
451,188,304832,1,0,0:0:0:0:
450,188,304927,1,0,0:0:0:0:
471,171,305023,1,8,0:0:0:0:
459,204,305118,1,0,0:0:0:0:
386,208,305214,1,8,0:0:0:0:
367,192,305309,1,0,0:0:0:0:
367,193,305405,1,0,0:0:0:0:
384,231,305596,1,0,0:0:0:0:
384,231,305691,1,0,0:0:0:0:
400,205,305787,1,8,0:0:0:0:
303,236,305978,1,0,0:0:0:0:
286,244,306169,1,0,0:0:0:0:
355,201,306360,1,8,0:0:0:0:
355,201,306456,1,0,0:0:0:0:
355,201,306551,1,8,0:0:0:0:
355,201,306742,1,8,0:0:0:0:
275,211,306933,1,0,0:0:0:0:
322,171,307316,1,8,0:0:0:0:
256,184,307507,1,0,0:0:0:0:
404,196,307698,1,8,0:0:0:0:
336,215,307889,1,0,0:0:0:0:
189,172,307985,1,0,0:0:0:0:
436,211,308080,1,8,0:0:0:0:
235,187,308271,1,0,0:0:0:0:
288,127,308367,1,0,0:0:0:0:
223,191,308462,1,0,0:0:0:0:
363,206,308653,1,0,0:0:0:0:
345,164,308844,1,8,0:0:0:0:
303,236,309035,1,0,0:0:0:0:
286,244,309226,1,0,0:0:0:0:
355,201,309608,1,8,0:0:0:0:
275,211,309800,1,0,0:0:0:0:
231,147,309991,1,0,0:0:0:0:
252,128,310086,1,0,0:0:0:0:
252,128,310182,1,0,0:0:0:0:
257,124,310277,1,0,0:0:0:0:
322,171,310373,1,8,0:0:0:0:
256,184,310564,1,0,0:0:0:0:
355,229,310755,1,0,0:0:0:0:
211,138,310851,1,0,0:0:0:0:
336,215,310946,1,0,0:0:0:0:
211,138,311042,1,0,0:0:0:0:
436,211,311137,1,8,0:0:0:0:
235,187,311329,1,8,0:0:0:0:
352,199,311519,1,4,0:0:0:0:
352,199,311710,1,0,0:0:0:0:
352,199,311806,1,0,0:0:0:0:
283,177,311902,1,8,0:0:0:0:
278,190,312093,1,8,0:0:0:0:
278,190,312284,1,0,0:0:0:0:
222,80,312379,1,0,0:0:0:0:
226,212,312475,1,0,0:0:0:0:
347,191,312666,1,8,0:0:0:0:
297,221,313048,1,0,0:0:0:0:
273,158,313239,1,0,0:0:0:0:
273,158,313335,1,0,0:0:0:0:
316,228,313430,1,8,0:0:0:0:
352,206,313621,1,0,0:0:0:0:
321,217,313812,1,8,0:0:0:0:
313,215,314003,1,8,0:0:0:0:
282,212,314099,1,0,0:0:0:0:
342,214,314195,1,8,0:0:0:0:
282,220,314386,1,0,0:0:0:0:
350,213,314577,1,4,0:0:0:0:
333,205,314768,1,0,0:0:0:0:
330,202,314863,1,0,0:0:0:0:
282,212,314959,1,8,0:0:0:0:
273,234,315150,1,0,0:0:0:0:
343,213,315341,1,8,0:0:0:0:
343,213,315437,1,8,0:0:0:0:
343,216,315532,1,0,0:0:0:0:
410,230,315628,1,0,0:0:0:0:
363,224,315723,1,8,0:0:0:0:
414,170,316106,1,8,0:0:0:0:
414,170,316201,1,8,0:0:0:0:
374,169,316297,1,0,0:0:0:0:
374,169,316392,1,0,0:0:0:0:
327,158,316488,1,8,0:0:0:0:
242,184,316679,1,0,0:0:0:0:
242,184,316774,1,0,0:0:0:0:
347,167,316870,1,8,0:0:0:0:
331,191,316966,1,0,0:0:0:0:
327,185,317061,1,0,0:0:0:0:
326,186,317157,1,0,0:0:0:0:
314,230,317252,1,8,0:0:0:0:
314,230,317348,1,8,0:0:0:0:
309,238,317443,1,0,0:0:0:0:
367,193,317634,1,4,0:0:0:0:
308,217,317825,1,4,0:0:0:0:
