osu file format v14

[General]
AudioFilename: audio.mp3
AudioLeadIn: 0
PreviewTime: 246768
Countdown: 0
SampleSet: Soft
StackLeniency: 0.7
Mode: 0
LetterboxInBreaks: 0
WidescreenStoryboard: 1

[Editor]
DistanceSpacing: 2.6
BeatDivisor: 4
GridSize: 16
TimelineZoom: 1.02

[Metadata]
Title:Songs Compilation
TitleUnicode:Songs Compilation
Artist:Nightwish
ArtistUnicode:Nightwish
Creator:EncoreW
Version:We Were Here
Source:
Tags:NW Tarja Turunen Anette Olzon Floor Jansen Marco Hietala Edema Ruh I Want My Tears Back Planet Hell Alpenglow Ever Dream Bye Bye Beautiful She Is My Sin Endless Forms Most Beautiful The Greatest Show On Earth Last Ride of the Day Imaginaerum Wishmaster Bestwishes Once Power Metal English Symphonic Rock tm1209 T-Mac Speechless 384059043 pw384
BeatmapID:1103965
BeatmapSetID:519682

[Difficulty]
HPDrainRate:5.2
CircleSize:4.6
OverallDifficulty:8.4
ApproachRate:8.8
SliderMultiplier:1.6
SliderTickRate:1

[Events]
//Background and Video events
0,0,"1383704509961.jpg",0,0
//Break Periods
2,66236,76450
2,147150,150292
2,211313,217782
2,273928,281399
2,335128,343675
2,415227,425456
2,496230,506274
2,564920,572019
//Storyboard Layer 0 (Background)
//Storyboard Layer 1 (Fail)
//Storyboard Layer 2 (Pass)
//Storyboard Layer 3 (Foreground)
//Storyboard Sound Samples

[TimingPoints]
6474,437.956204379562,4,2,0,40,1,0
6583,-100,4,2,0,10,0,0
9977,-166.666666666667,4,2,0,40,0,0
33627,-166.666666666667,4,2,0,45,0,0
34503,-125,4,2,0,50,0,0
35379,-111.111111111111,4,2,0,50,0,0
37130,-100,4,2,0,60,0,0
38006,-100,4,2,0,70,0,1
38116,-100,4,2,0,70,0,0
52021,-100,4,2,0,70,0,1
52130,-100,4,2,0,70,0,0
66036,-100,4,2,0,60,0,1
66145,-100,4,2,0,60,0,0
73022,428.571428571429,4,2,0,65,1,0
78164,-95.2380952380952,4,2,0,65,0,0
91879,-90.9090909090909,4,2,0,75,0,1
91986,-90.9090909090909,4,2,0,75,0,0
105593,-90.9090909090909,4,2,0,75,0,1
105700,-90.9090909090909,4,2,0,75,0,0
119307,-90.9090909090909,4,2,0,75,0,1
119414,-90.9090909090909,4,2,0,75,0,0
133022,-95.2380952380951,4,2,0,75,0,1
133129,-95.2380952380951,4,2,0,75,0,0
139022,-79.9999999999999,4,2,0,75,0,0
139879,-95.2380952380952,4,2,0,75,0,1
139986,-95.2380952380952,4,2,0,75,0,0
146736,-95.2380952380952,4,2,0,75,0,1
146843,-95.2380952380952,4,2,0,75,0,0
150292,410.958904109589,4,3,5,70,1,0
155223,-100,4,3,5,70,0,0
160155,-83.3333333333333,4,3,5,70,0,0
161798,-100,4,3,5,70,0,0
166730,-83.3333333333333,4,3,5,70,0,0
168374,-100,4,3,5,70,0,0
173305,-83.3333333333333,4,3,5,70,0,0
174949,-100,4,3,5,70,0,0
178237,-100,4,3,5,70,0,0
179881,-83.3333333333333,4,3,5,70,0,0
181524,-100,4,3,5,60,0,0
183168,-83.3333333333333,4,3,5,80,0,1
183271,-83.3333333333333,4,3,5,80,0,0
189744,-90.9090909090909,4,3,5,70,0,0
196319,-83.3333333333333,4,3,5,80,0,1
196422,-83.3333333333333,4,3,5,80,0,0
202894,-90.9090909090909,4,3,5,70,0,0
215350,405.405405405405,4,2,0,55,1,0
219404,-83.3333333333333,4,2,0,55,0,0
220214,-83.3333333333333,4,2,1,55,0,0
221025,-95.2380952380952,4,2,1,55,0,0
231768,-95.2380952380952,4,2,0,55,0,0
231971,-95.2380952380952,4,2,1,55,0,0
232174,-95.2380952380952,4,2,0,55,0,0
232782,-95.2380952380952,4,2,1,55,0,0
232985,-95.2380952380952,4,2,0,55,0,0
233593,-79.3650793650794,4,2,1,55,0,0
235417,-95.2380952380952,4,2,1,55,0,0
236025,-79.3650793650794,4,2,1,55,0,0
237241,-95.2380952380952,4,2,1,55,0,0
237647,-79.3650793650794,4,2,1,55,0,0
238052,-95.2380952380952,4,2,1,55,0,0
238458,-79.3650793650794,4,2,1,55,0,0
238863,-95.2380952380952,4,2,1,55,0,0
239268,-95.2380952380952,4,2,1,55,0,0
243525,-95.2380952380952,4,2,0,55,0,0
243728,-95.2380952380952,4,2,1,55,0,0
244437,-95.2380952380952,4,2,0,20,0,0
246768,-95.2380952380952,4,2,0,10,0,0
246971,-62.5,4,2,0,65,0,1
247072,-62.5,4,2,0,65,0,0
247377,-71.4285714285714,4,2,0,65,0,1
247478,-71.4285714285714,4,2,0,65,0,0
247782,-83.3333333333333,4,2,0,65,0,1
247883,-83.3333333333333,4,2,0,65,0,0
259944,-62.5,4,2,0,65,0,1
260045,-62.5,4,2,0,65,0,0
260349,-71.4285714285714,4,2,0,65,0,1
260451,-71.4285714285714,4,2,0,65,0,0
260755,-83.3333333333333,4,2,0,65,0,1
260856,-83.3333333333333,4,2,0,65,0,0
270485,-78.125,4,2,0,65,0,0
270890,-83.3333333333333,4,2,0,65,0,0
271093,-78.125,4,2,0,65,0,0
271498,-83.3333333333333,4,2,0,65,0,0
273728,-83.3333333333333,4,2,0,65,0,1
273829,-83.3333333333333,4,2,0,65,0,0
279777,405.7343792264,4,3,4,50,1,0
283022,-100,4,3,4,50,0,0
283530,-100,4,3,4,10,0,0
283631,-100,4,3,4,50,0,0
284138,-100,4,3,4,10,0,0
284240,-100,4,3,4,50,0,0
284544,-100,4,3,4,10,0,0
284645,-100,4,3,4,50,0,0
284950,-100,4,3,4,10,0,0
285051,-100,4,3,4,50,0,0
290427,-100,4,3,4,10,0,0
290528,-100,4,3,4,50,0,0
291036,-100,4,3,4,10,0,0
291137,-100,4,3,4,50,0,0
292253,-100,4,3,4,10,0,0
292354,-100,4,3,4,50,0,0
292760,-100,4,3,4,50,0,0
292963,-100,4,3,4,53,0,0
293166,-100,4,3,4,56,0,0
293369,-100,4,3,4,59,0,0
293571,-100,4,3,4,62,0,0
293774,-100,4,3,4,65,0,0
293977,-100,4,3,4,70,0,0
294383,-100,4,3,0,65,0,0
295194,-100,4,3,4,65,0,0
296006,-83.3333333333333,4,3,4,75,0,1
296107,-83.3333333333333,4,3,4,75,0,0
305744,-100,4,3,4,75,0,0
307366,-83.3333333333333,4,3,4,75,0,0
308989,-83.3333333333333,4,3,4,75,0,1
309091,-83.3333333333333,4,3,4,75,0,0
321161,-83.3333333333333,4,3,0,45,0,0
321973,-100,4,3,4,75,0,1
322074,-100,4,3,4,75,0,0
324813,404.585300067431,4,3,4,75,1,0
325217,404.312668463612,4,3,4,75,1,0
326025,404.040404040404,4,3,4,75,1,0
326833,404.312668463612,4,3,4,75,1,0
327641,404.040404040404,4,3,4,75,1,0
328449,405.7343792264,4,3,4,75,1,0
331694,404.312668463612,4,3,4,75,1,0
334928,-100,4,3,4,75,0,1
335029,-100,4,3,4,75,0,0
342054,405.405405405405,4,2,1,70,1,0
346513,-83.3333333333333,4,2,1,70,0,0
346918,-111.111111111111,4,2,3,60,0,0
359891,-111.111111111111,4,2,3,60,0,0
372864,-111.111111111111,4,2,1,50,0,0
373472,-83.3333333333333,4,2,1,50,0,0
374081,-66.6666666666667,4,2,1,50,0,0
374891,-111.111111111111,4,2,1,50,0,0
375094,-111.111111111111,4,3,0,50,0,0
376108,-83.3333333333333,4,2,0,70,0,1
376209,-83.3333333333333,4,2,0,70,0,0
402053,-83.3333333333333,4,2,0,70,0,1
402155,-83.3333333333333,4,2,0,70,0,0
404486,-83.3333333333333,4,3,0,70,0,0
405297,-83.3333333333333,4,2,0,70,0,0
415026,-83.3333333333333,4,2,0,70,0,0
423888,392.079984316801,4,2,1,50,1,0
427024,-100,4,2,1,50,0,0
427220,-100,4,2,1,10,0,0
427318,-66.6666666666667,4,2,1,70,0,0
427808,-100,4,2,1,70,0,0
428004,-100,4,2,1,10,0,0
428102,-66.6666666666667,4,2,1,70,0,0
428592,-100,4,2,1,70,0,0
428788,-100,4,2,1,10,0,0
428887,-66.6666666666667,4,2,1,70,0,0
429377,-100,4,2,1,70,0,0
429573,-100,4,2,1,10,0,0
429671,-66.6666666666667,4,2,1,70,0,0
430161,-100,4,2,1,70,0,0
430357,-100,4,2,1,10,0,0
430455,-66.6666666666667,4,2,1,70,0,0
430945,-100,4,2,1,70,0,0
431141,-100,4,2,1,10,0,0
431239,-66.6666666666667,4,2,1,70,0,0
431729,-100,4,2,1,70,0,0
431925,-100,4,2,1,10,0,0
432023,-66.6666666666667,4,2,1,70,0,0
432513,-100,4,2,1,70,0,0
436434,-100,4,2,1,70,0,0
436630,-100,4,2,1,10,0,0
436728,-66.6666666666667,4,2,1,70,0,0
437218,-100,4,2,1,70,0,0
437414,-100,4,2,1,10,0,0
437512,-66.6666666666667,4,2,1,70,0,0
438002,-100,4,2,1,70,0,0
438198,-100,4,2,1,10,0,0
438296,-66.6666666666667,4,2,1,70,0,0
438787,-100,4,2,1,70,0,0
438983,-100,4,2,1,10,0,0
439081,-66.6666666666667,4,2,1,70,0,0
439571,-100,4,2,1,70,0,0
439767,-100,4,2,1,10,0,0
439865,-66.6666666666667,4,2,1,70,0,0
440355,-100,4,2,1,70,0,0
440551,-100,4,2,1,10,0,0
440649,-66.6666666666667,4,2,1,70,0,0
441139,-100,4,2,1,70,0,0
441335,-100,4,2,1,10,0,0
441433,-66.6666666666667,4,2,1,70,0,0
441923,-100,4,2,1,70,0,0
443688,-90.9090909090909,4,2,1,70,0,0
445060,-76.9230769230769,4,2,1,70,0,0
445844,-111.111111111111,4,2,2,70,0,0
458391,-90.9090909090909,4,2,0,75,0,1
458489,-90.9090909090909,4,2,0,75,0,0
470937,-90.9090909090909,4,2,0,75,0,1
471035,-90.9090909090909,4,2,0,75,0,0
481915,-90.9090909090909,4,3,1,75,0,0
482307,-90.9090909090909,4,3,0,75,0,0
482699,-90.9090909090909,4,3,1,75,0,0
483092,-90.9090909090909,4,2,0,75,0,0
483484,-111.111111111111,4,2,0,70,0,0
484660,-111.111111111111,4,2,1,70,0,0
484856,-111.111111111111,4,2,0,70,0,0
485444,-111.111111111111,4,2,1,70,0,0
485542,-111.111111111111,4,2,0,70,0,0
486228,-111.111111111111,4,2,1,70,0,0
486326,-111.111111111111,4,2,0,70,0,0
488581,-111.111111111111,4,2,1,70,0,0
488679,-111.111111111111,4,2,0,70,0,0
489953,-100,4,2,0,70,0,0
490247,-111.111111111111,4,2,0,70,0,0
490541,-100,4,2,0,70,0,0
490835,-111.111111111111,4,2,0,70,0,0
490933,-111.111111111111,4,2,1,70,0,0
491031,-111.111111111111,4,2,0,70,0,0
493090,-111.111111111111,4,2,0,55,0,0
493678,-83.3333333333333,4,2,0,70,0,0
493972,-83.3333333333333,4,2,0,70,0,0
494462,-111.111111111111,4,2,0,70,0,0
495246,-111.111111111111,4,3,1,70,0,0
495638,-111.111111111111,4,2,2,70,0,0
496030,-111.111111111111,4,2,0,70,0,1
496128,-111.111111111111,4,2,0,70,0,0
502378,389.640751227368,4,2,0,50,1,0
507832,-83.3333333333333,4,2,0,80,0,0
508027,-83.3333333333333,4,2,0,20,0,0
508222,-83.3333333333333,4,2,0,80,0,0
508417,-83.3333333333333,4,2,0,20,0,0
508612,-100,4,2,1,70,0,0
519522,-100,4,2,0,70,0,0
521080,-90.9090909090909,4,2,1,70,0,0
531990,-90.9090909090909,4,2,0,70,0,0
533549,-83.3333333333333,4,2,0,80,0,1
533646,-83.3333333333333,4,2,0,80,0,0
544848,-83.3333333333333,4,3,1,80,0,0
546017,-83.3333333333333,4,2,0,80,0,1
546115,-83.3333333333333,4,2,0,80,0,0
556927,-100,4,2,0,80,0,0
558486,-100,4,2,0,80,0,0
558681,-100,4,2,0,20,0,0
564720,-100,4,2,0,5,0,0
571279,370.37037037037,4,2,0,50,1,0
573501,-90.9090909090909,4,2,0,50,0,0
574241,-83.3333333333333,4,2,0,70,0,0
578686,-71.4285714285714,4,3,1,70,0,1
584519,-71.4285714285714,4,3,1,70,0,0
584612,-83.3333333333333,4,2,1,70,0,1
584704,-83.3333333333333,4,2,1,70,0,0
591279,-83.3333333333333,4,3,1,70,0,1
591371,-83.3333333333333,4,3,1,70,0,0
593130,-111.111111111111,4,3,1,70,0,0
593316,-111.111111111111,4,3,1,20,0,0
593501,-111.111111111111,4,3,1,70,0,0
594056,-111.111111111111,4,3,1,20,0,0
594241,-83.3333333333333,4,3,1,70,0,1
594334,-83.3333333333333,4,3,1,70,0,0
595353,-111.111111111111,4,3,1,70,0,0
595723,-111.111111111111,4,3,1,20,0,0
595908,-111.111111111111,4,3,1,70,0,0
596279,-111.111111111111,4,3,1,20,0,0
596464,-111.111111111111,4,3,1,70,0,0
596741,-111.111111111111,4,3,1,20,0,0
596834,-111.111111111111,4,3,1,70,0,0
597112,-111.111111111111,4,3,1,20,0,0
597204,-83.3333333333333,4,3,1,70,0,1
597297,-83.3333333333333,4,3,1,70,0,0
599612,-100,4,3,1,70,0,0
600167,-83.3333333333333,4,3,1,70,0,1
600260,-83.3333333333333,4,3,1,70,0,0
602575,-100,4,3,1,70,0,0
603126,370.37037037037,4,3,1,80,1,1
603126,-76.9230769230769,4,3,1,80,0,1
614607,-76.9230769230769,4,3,1,80,0,0
614977,-76.9230769230769,4,3,1,80,0,1
626459,-76.9230769230769,4,3,1,80,0,0
626829,-76.9230769230769,4,3,1,85,0,1
638311,-76.9230769230769,4,3,1,85,0,0
638681,-76.9230769230769,4,3,1,85,0,1
650163,-76.9230769230769,4,3,1,85,0,0
650533,-76.9230769230769,4,3,1,85,0,1
659051,-76.9230769230769,4,3,1,85,0,0
659422,-76.9230769230769,4,3,1,85,0,1
666088,-76.9230769230769,4,3,1,85,0,0
666459,-62.5,4,3,1,85,0,1
666551,-62.5,4,3,1,85,0,0
666829,-62.5,4,3,1,85,0,1
666922,-62.5,4,3,1,85,0,0
667200,-62.5,4,3,1,85,0,1
667292,-62.5,4,3,1,85,0,0
667570,-55.5555555555556,4,3,1,85,0,1
667663,-55.5555555555556,4,3,1,85,0,0
667940,-55.5555555555556,4,3,1,85,0,1
668033,-55.5555555555556,4,3,1,85,0,0

[Colours]
Combo1 : 64,128,128
Combo2 : 192,192,192
Combo3 : 137,131,175

[HitObjects]
106,310,6474,5,4,0:0:0:0:
256,192,6583,12,0,9758,0:0:0:0:
106,310,9978,6,0,P|153:323|203:327,1,95.9999970703126,0|0,0:0|0:0,0:0:0:0:
291,295,10635,1,0,0:0:0:0:
291,295,10854,1,2,0:0:0:0:
364,357,11073,2,0,L|411:354,1,47.9999985351563,0|0,0:0|0:0,0:0:0:0:
473,279,11510,1,0,0:0:0:0:
473,279,11729,6,0,B|430:259|430:259|382:262,1,95.9999970703126,0|0,0:0|0:0,0:0:0:0:
291,295,12386,1,0,0:0:0:0:
291,295,12605,2,0,L|244:292,1,47.9999985351563,2|0,0:0|0:0,0:0:0:0:
180,218,13043,2,0,L|133:221,1,47.9999985351563,0|0,0:0|0:0,0:0:0:0:
53,275,13481,6,0,P|36:231|43:184,1,95.9999970703126,0|0,0:0|0:0,0:0:0:0:
26,89,14138,1,0,0:0:0:0:
26,89,14357,2,0,L|73:92,1,47.9999985351563,2|0,0:0|0:0,0:0:0:0:
162,130,14795,1,0,0:0:0:0:
162,130,15014,1,0,0:0:0:0:
234,67,15233,6,0,L|231:20,1,47.9999985351563,0|0,0:0|0:0,0:0:0:0:
329,50,15671,2,0,L|326:97,1,47.9999985351563,0|0,0:0|0:0,0:0:0:0:
253,161,16109,1,2,0:0:0:0:
253,161,16328,1,0,0:0:0:0:
272,255,16547,1,0,0:0:0:0:
272,255,16766,1,0,0:0:0:0:
362,285,16985,6,0,P|409:272|459:268,1,95.9999970703126,0|0,0:0|0:0,0:0:0:0:
510,188,17642,1,0,0:0:0:0:
510,188,17861,1,2,0:0:0:0:
460,105,18080,2,0,L|413:102,1,47.9999985351563,0|0,0:0|0:0,0:0:0:0:
325,143,18518,1,0,0:0:0:0:
325,143,18737,6,0,P|278:130|228:126,1,95.9999970703126,0|0,0:0|0:0,0:0:0:0:
160,62,19394,1,0,0:0:0:0:
160,62,19613,2,0,L|163:15,1,47.9999985351563,2|0,0:0|0:0,0:0:0:0:
65,44,20051,2,0,L|68:91,1,47.9999985351563,0|0,0:0|0:0,0:0:0:0:
140,156,20489,6,0,P|127:203|123:253,1,95.9999970703126,0|0,0:0|0:0,0:0:0:0:
61,323,21146,1,0,0:0:0:0:
61,323,21364,2,0,L|64:370,1,47.9999985351563,2|0,0:0|0:0,0:0:0:0:
156,340,21802,1,0,0:0:0:0:
156,340,22021,1,0,0:0:0:0:
243,379,22240,6,0,L|290:376,1,47.9999985351563
360,308,22678,2,0,L|407:311,1,47.9999985351563
498,345,23116,1,2,0:0:0:0:
498,345,23335,1,0,0:0:0:0:
483,250,23554,1,0,0:0:0:0:
483,250,23773,1,0,0:0:0:0:
377,184,23992,6,0,L|330:187,2,47.9999985351563,0|0|0,3:0|0:0|0:0,0:0:0:0:
469,155,24649,1,0,0:0:0:0:
469,155,24868,1,2,0:0:0:0:
452,60,25087,2,0,L|499:63,2,47.9999985351563
340,5,25744,6,0,P|293:18|243:22,1,95.9999970703126,0|0,3:0|0:0,0:0:0:0:
181,93,26401,1,0,0:0:0:0:
181,93,26620,2,0,L|134:90,1,47.9999985351563,2|0,0:0|0:0,0:0:0:0:
49,41,27058,2,0,L|2:44,1,47.9999985351563
35,165,27495,6,0,P|30:212|17:258,1,95.9999970703126,0|0,3:0|0:0,0:0:0:0:
109,290,28153,1,0,0:0:0:0:
109,290,28372,2,0,L|156:287,1,47.9999985351563,2|0,0:0|0:0,0:0:0:0:
250,260,28810,1,0,0:0:0:0:
250,260,29028,1,0,0:0:0:0:
352,333,29248,6,0,L|349:380,1,47.9999985351563,0|0,3:0|0:0,0:0:0:0:
446,352,29686,2,0,L|443:305,1,47.9999985351563
416,213,30123,1,2,0:0:0:0:
416,213,30342,1,0,0:0:0:0:
321,195,30561,1,0,0:0:0:0:
321,195,30781,1,0,0:0:0:0:
198,178,30999,6,0,L|151:181,2,47.9999985351563,0|0|0,3:0|0:0|0:0,0:0:0:0:
250,260,31656,1,0,0:0:0:0:
250,260,31875,1,2,0:0:0:0:
165,306,32094,2,0,L|118:303,2,47.9999985351563
282,351,32751,6,0,P|329:338|379:334,1,95.9999970703126,0|0,3:0|0:0,0:0:0:0:
468,363,33408,1,0,0:0:0:0:
468,363,33627,2,0,L|471:316,1,47.9999985351563,2|0,0:0|0:0,0:0:0:0:
407,243,34065,2,0,L|404:196,1,47.9999985351563,0|0,0:0|0:0,0:0:0:0:
444,107,34503,6,0,P|414:99|382:101,1,64,0|0,3:0|0:0,0:0:0:0:
312,168,34941,2,0,P|280:170|249:162,1,64,0|0,3:0|0:0,0:0:0:0:
182,93,35379,6,0,L|111:99,1,71.9999978027344,2|0,0:0|0:0,0:0:0:0:
84,192,35817,2,0,L|155:186,1,71.9999978027344,0|0,3:0|0:0,0:0:0:0:
17,123,36255,5,8,3:0:0:0:
17,123,36474,1,8,3:0:0:0:
58,285,36692,1,0,3:0:0:0:
58,285,36911,1,0,3:0:0:0:
236,238,37131,6,0,P|250:201|249:162,1,80,4|0,0:0|0:0,0:0:0:0:
150,41,37568,2,0,P|148:80|162:117,1,80,4|0,0:0|0:0,0:0:0:0:
312,88,38006,6,0,B|366:81|366:81|401:85|434:103|451:142,1,160,4|0,0:0|1:0,0:0:0:0:
409,262,38663,2,0,P|338:242|365:176,1,160,0|0,3:0|3:0,0:0:0:0:
499,229,39321,2,0,L|493:308,1,80,0|0,1:0|0:0,0:0:0:0:
313,261,39759,6,0,B|270:253|237:279|237:279|226:320|186:342,1,160,0|0,0:0|1:0,0:0:0:0:
47,251,40416,2,0,P|22:315|93:336,1,160,0|0,3:0|3:0,0:0:0:0:
80,161,41073,2,0,L|1:167,1,80,0|0,1:0|0:0,0:0:0:0:
144,255,41510,5,4,0:0:0:0:
176,259,41729,1,2,0:0:0:0:
208,263,41948,1,0,1:0:0:0:
240,267,42167,1,2,0:0:0:0:
399,208,42386,5,0,0:0:0:0:
349,317,42605,1,2,0:0:0:0:
290,158,42824,2,0,L|296:79,1,80,0|2,1:0|0:0,0:0:0:0:
52,133,43262,5,0,0:0:0:0:
137,178,43481,1,2,0:0:0:0:
70,39,43700,1,0,1:0:0:0:
52,133,43919,1,2,0:0:0:0:
206,112,44138,5,0,0:0:0:0:
70,39,44357,1,2,0:0:0:0:
137,178,44576,1,0,1:0:0:0:
165,25,44795,1,2,0:0:0:0:
52,133,45014,6,0,B|33:172|47:212|47:212|30:246|30:246|35:287,1,160,4|0,0:0|1:0,0:0:0:0:
187,308,45671,2,0,P|167:379|101:352,1,160,0|0,3:0|3:0,0:0:0:0:
154,218,46328,2,0,L|233:224,1,80,0|0,1:0|0:0,0:0:0:0:
332,292,46766,6,0,L|411:286,1,80,0|0,0:0|0:0,0:0:0:0:
277,112,47204,1,0,1:0:0:0:
234,224,47423,1,0,3:0:0:0:
382,170,47642,2,0,L|461:176,1,80,0|0,0:0|3:0,0:0:0:0:
332,292,48080,1,0,1:0:0:0:
277,112,48299,1,0,0:0:0:0:
462,176,48518,5,4,0:0:0:0:
462,176,48737,1,2,0:0:0:0:
234,224,48956,1,0,1:0:0:0:
234,224,49175,1,2,0:0:0:0:
391,52,49394,5,0,0:0:0:0:
367,282,49613,1,2,0:0:0:0:
250,79,49832,2,0,L|256:0,1,80,0|2,1:0|0:0,0:0:0:0:
88,117,50270,5,4,0:0:0:0:
180,145,50489,1,2,0:0:0:0:
250,79,50708,1,0,1:0:0:0:
158,51,50927,1,2,0:0:0:0:
202,239,51146,5,4,3:3:0:0:
272,173,51364,1,4,3:3:0:0:
342,107,51583,1,0,1:0:0:0:
180,145,51802,1,4,3:3:0:0:
364,201,52021,6,0,B|405:190|426:154|426:154|468:148|502:174,1,160,4|0,0:0|1:0,0:0:0:0:
431,351,52678,2,0,L|352:345,1,80,0|0,3:0|0:0,0:0:0:0:
214,273,53116,1,0,3:0:0:0:
214,273,53335,2,0,L|293:267,1,80,0|0,1:0|0:0,0:0:0:0:
170,359,53773,6,0,P|90:347|11:341,1,160,0|0,0:0|1:0,0:0:0:0:
54,194,54430,2,0,P|133:182|212:176,1,160,0|0,3:0|3:0,0:0:0:0:
384,217,55087,2,0,L|378:138,1,80,0|0,1:0|0:0,0:0:0:0:
251,34,55525,5,4,0:0:0:0:
227,31,55744,1,2,0:0:0:0:
203,28,55963,1,0,1:0:0:0:
179,25,56182,1,2,0:0:0:0:
213,176,56401,5,0,0:0:0:0:
347,46,56620,1,2,0:0:0:0:
155,22,56839,2,0,L|76:28,1,80,0|2,1:0|0:0,0:0:0:0:
104,257,57277,5,0,0:0:0:0:
199,271,57496,1,2,0:0:0:0:
213,176,57715,1,0,1:0:0:0:
118,162,57934,1,2,0:0:0:0:
199,271,58153,5,0,0:0:0:0:
308,190,58372,1,2,0:0:0:0:
227,81,58591,1,0,1:0:0:0:
118,162,58810,1,2,0:0:0:0:
308,190,59029,6,0,B|348:182|348:182|383:199|383:199|416:170|459:174,1,160,4|0,0:0|1:0,0:0:0:0:
371,328,59686,2,0,P|291:331|213:309,1,160,0|0,3:0|3:0,0:0:0:0:
448,270,60343,2,0,P|464:305|465:345,1,80,0|0,1:0|0:0,0:0:0:0:
308,190,60781,6,0,B|303:137|303:137|331:91|331:91|326:38,1,160,0|0,0:0|1:0,0:0:0:0:
64,36,61437,2,0,P|31:99|96:126,1,160,0|0,3:0|3:0,0:0:0:0:
235,69,62094,2,0,P|200:53|160:52,1,80,0|0,1:0|0:0,0:0:0:0:
213,205,62532,5,4,0:0:0:0:
308,190,62751,1,2,0:0:0:0:
403,175,62970,1,0,1:0:0:0:
498,160,63189,1,2,0:0:0:0:
333,355,63408,5,0,0:0:0:0:
213,205,63627,1,2,0:0:0:0:
368,265,63846,1,0,1:0:0:0:
178,295,64065,1,2,0:0:0:0:
150,292,64175,1,0,3:0:0:0:
122,289,64284,5,0,3:0:0:0:
79,156,64503,1,4,3:0:0:0:
107,153,64613,1,4,3:0:0:0:
135,150,64722,1,4,3:0:0:0:
38,243,64941,1,0,3:0:0:0:
1,101,65160,5,4,3:0:0:0:
213,205,65379,1,4,3:0:0:0:
38,243,65598,1,0,3:0:0:0:
176,63,65817,1,0,3:0:0:0:
250,347,66036,5,4,0:0:0:0:
67,100,78165,5,4,0:0:0:0:
67,100,78593,2,0,P|63:141|55:183,1,83.9999974365235,0|0,1:1|0:0,0:0:0:0:
183,310,79022,2,0,P|176:270|172:227,1,83.9999974365235,0|0,3:3|2:2,0:0:0:0:
5,270,79450,2,0,P|44:283|87:279,1,83.9999974365235,0|0,1:1|2:2,0:0:0:0:
172,227,79879,5,0,3:3:0:0:
268,255,80093,1,0,2:2:0:0:
354,203,80307,2,0,P|394:196|437:192,1,83.9999974365235,0|0,1:1|0:0,0:0:0:0:
377,67,80736,2,0,P|336:63|294:55,1,83.9999974365235,0|0,3:3|0:0,0:0:0:0:
464,16,81165,2,0,P|477:55|473:98,1,83.9999974365235,0|0,1:1|2:2,0:0:0:0:
437,192,81593,5,0,3:3:0:0:
511,261,81807,1,0,2:2:0:0:
475,355,82022,2,0,P|434:359|392:367,1,83.9999974365235,0|0,1:1|0:0,0:0:0:0:
264,264,82450,2,0,P|305:268|347:276,1,83.9999974365235,0|0,3:3|2:2,0:0:0:0:
218,354,82879,2,0,P|177:358|135:366,1,83.9999974365235,0|0,1:1|2:2,0:0:0:0:
79,212,83307,5,0,3:3:0:0:
163,269,83522,1,0,2:2:0:0:
135,366,83736,1,0,1:1:0:0:
1,275,83950,5,0,3:3:0:0:
79,212,84165,1,0,2:2:0:0:
163,269,84379,1,0,3:3:0:0:
35,370,84593,5,0,1:1:0:0:
1,275,84807,1,0,3:3:0:0:
79,212,85022,6,0,P|86:172|90:129,1,83.9999974365235,4|0,3:2|2:2,0:0:0:0:
61,33,85450,2,0,P|101:40|144:44,1,83.9999974365235,0|0,1:1|0:0,0:0:0:0:
240,15,85879,2,0,P|233:55|229:98,1,83.9999974365235,0|0,3:3|2:2,0:0:0:0:
258,194,86307,2,0,P|218:187|175:183,1,83.9999974365235,0|0,1:1|2:2,0:0:0:0:
327,121,86736,5,0,3:3:0:0:
287,290,86950,1,0,2:2:0:0:
90,237,87165,2,0,P|83:197|79:154,1,83.9999974365235,0|0,1:1|2:2,0:0:0:0:
240,15,87593,2,0,P|236:56|228:98,1,83.9999974365235,0|0,3:3|2:2,0:0:0:0:
141,324,88022,2,0,P|102:337|59:333,1,83.9999974365235,0|0,1:1|2:2,0:0:0:0:
132,68,88450,5,0,3:3:0:0:
258,194,88665,1,0,2:2:0:0:
90,237,88879,2,0,P|83:197|79:154,1,83.9999974365235,0|0,1:1|2:2,0:0:0:0:
219,17,89307,2,0,P|232:57|229:98,1,83.9999974365235,0|0,3:3|2:2,0:0:0:0:
49,57,89736,2,0,P|89:64|132:68,1,83.9999974365235,0|0,1:1|2:2,0:0:0:0:
219,17,90165,5,0,3:3:0:0:
315,47,90379,1,0,1:1:0:0:
390,115,90593,1,0,3:3:0:0:
486,85,90807,1,0,3:3:0:0:
411,17,91022,5,0,1:1:0:0:
411,17,91129,1,0,1:1:0:0:
411,17,91236,1,4,2:2:0:0:
465,183,91450,1,0,1:1:0:0:
294,145,91665,1,0,1:1:0:0:
294,145,91772,1,0,1:1:0:0:
294,145,91879,6,0,P|252:152|207:155,1,88.000002685547,4|0,1:1|0:0,0:0:0:0:
103,249,92307,1,0,1:1:0:0:
140,253,92415,1,0,0:0:0:0:
177,257,92522,1,0,0:0:0:0:
58,154,92736,1,0,3:0:0:0:
58,154,92950,1,0,3:3:0:0:
3,283,93165,2,0,P|5:329|10:372,1,88.000002685547,0|0,1:1|2:2,0:0:0:0:
280,276,93593,6,0,P|290:210|294:144,1,132.00000402832,4|0,1:1|2:2,0:0:0:0:
260,44,94022,2,0,P|302:51|347:54,1,88.000002685547,0|0,1:1|0:0,0:0:0:0:
474,149,94450,1,0,3:3:0:0:
474,149,94665,1,0,3:3:0:0:
367,266,94879,2,0,P|325:273|280:276,1,88.000002685547,0|0,1:1|2:2,0:0:0:0:
94,186,95307,6,0,B|182:176|182:176|225:186,1,132.00000402832,4|0,1:1|2:2,0:0:0:0:
280,276,95736,2,0,P|287:318|290:363,1,88.000002685547,0|0,1:1|2:2,0:0:0:0:
175,280,96165,1,0,3:3:0:0:
175,280,96379,1,0,3:3:0:0:
330,182,96593,2,0,P|340:116|344:50,1,132.00000402832,0|0,1:1|2:2,0:0:0:0:
242,20,97022,6,0,P|200:27|155:30,1,88.000002685547,4|0,1:1|3:3,0:0:0:0:
14,110,97450,2,0,P|57:112|101:120,1,88.000002685547,0|0,1:1|0:0,0:0:0:0:
175,280,97879,1,0,3:3:0:0:
175,280,98093,1,0,3:3:0:0:
47,210,98307,1,0,1:1:0:0:
47,210,98522,1,0,3:3:0:0:
225,186,98736,6,0,P|267:193|312:196,1,88.000002685547,4|0,1:1|0:0,0:0:0:0:
415,287,99165,1,0,1:1:0:0:
380,292,99272,1,0,3:3:0:0:
345,297,99379,1,0,3:3:0:0:
279,95,99593,1,0,3:3:0:0:
279,95,99807,1,0,3:3:0:0:
417,180,100022,1,0,1:1:0:0:
310,302,100236,1,0,3:3:0:0:
172,217,100450,6,0,P|106:227|40:231,1,132.00000402832,4|0,1:1|2:2,0:0:0:0:
98,142,100879,2,0,P|105:100|108:55,1,88.000002685547,0|0,1:1|2:2,0:0:0:0:
265,167,101307,1,0,3:3:0:0:
265,167,101522,1,0,3:3:0:0:
41,231,101736,1,0,1:1:0:0:
108,54,101950,1,0,3:3:0:0:
265,167,102165,6,0,P|307:174|352:177,1,88.000002685547,4|0,1:1|3:0,0:0:0:0:
460,116,102593,1,0,1:1:0:0:
460,116,102807,1,0,3:3:0:0:
365,72,103022,5,4,1:1:0:0:
352,177,103236,1,4,3:3:0:0:
447,221,103450,1,4,3:3:0:0:
434,326,103665,1,4,3:3:0:0:
280,254,103879,5,4,1:1:0:0:
447,221,104093,1,0,3:0:0:0:
331,346,104307,1,0,3:3:0:0:
352,177,104522,1,0,1:1:0:0:
434,326,104736,5,4,1:1:0:0:
280,254,104950,1,0,3:3:0:0:
237,247,105057,1,0,3:3:0:0:
195,260,105165,1,0,1:1:0:0:
162,289,105272,1,0,1:1:0:0:
118,298,105379,1,0,1:1:0:0:
75,292,105486,1,0,1:1:0:0:
39,266,105593,6,0,P|32:224|29:179,1,88.000002685547,4|0,1:1|2:2,0:0:0:0:
196,67,106022,1,0,1:1:0:0:
193,110,106129,1,0,3:3:0:0:
185,154,106236,1,0,3:3:0:0:
111,4,106450,1,0,3:3:0:0:
111,4,106665,1,0,3:3:0:0:
300,50,106879,2,0,P|343:48|387:40,1,88.000002685547,0|0,1:1|2:2,0:0:0:0:
387,240,107307,6,0,P|317:238|268:198,1,132.00000402832,4|0,1:1|2:2,0:0:0:0:
355,140,107736,2,0,P|398:142|442:150,1,88.000002685547,0|0,1:1|3:3,0:0:0:0:
493,322,108165,1,0,3:3:0:0:
493,322,108379,1,0,3:3:0:0:
321,373,108593,1,0,1:1:0:0:
321,373,108807,1,0,3:3:0:0:
270,201,109022,6,0,P|226:193|182:190,1,88.000002685547,4|0,1:1|2:2,0:0:0:0:
11,242,109450,1,0,1:1:0:0:
39,32,109665,1,0,3:3:0:0:
39,32,109772,1,0,3:3:0:0:
39,32,109879,2,0,P|81:25|126:22,1,88.000002685547,0|0,3:3|3:3,2:2:0:0:
244,99,110307,2,0,P|310:109|376:113,1,132.00000402832,0|0,1:1|2:2,0:0:0:0:
472,70,110736,6,0,P|478:134|446:191,1,132.00000402832,4|0,1:1|0:0,0:0:0:0:
368,262,111165,2,0,P|361:304|358:349,1,88.000002685547,0|0,1:0|2:2,0:0:0:0:
495,379,111593,1,0,3:3:0:0:
495,379,111700,1,0,3:2:0:0:
495,379,111807,1,0,3:3:0:0:
446,191,112022,1,0,1:1:0:0:
446,191,112236,1,0,3:3:0:0:
263,253,112450,6,0,P|220:251|176:243,1,88.000002685547,4|0,1:1|2:2,3:3:0:0:
64,126,112879,2,0,P|106:119|151:116,1,88.000002685547,0|0,1:1|2:2,0:0:0:0:
4,213,113307,1,0,3:0:0:0:
4,213,113522,1,0,3:3:0:0:
40,23,113736,1,0,1:1:0:0:
40,23,113950,1,0,3:3:0:0:
253,147,114165,6,0,P|319:157|385:161,1,132.00000402832,4|0,1:1|2:2,0:0:0:0:
475,107,114593,2,0,P|477:150|485:194,1,88.000002685547,0|0,1:1|2:2,0:0:0:0:
383,332,115022,1,0,3:3:0:0:
383,332,115236,1,0,3:3:0:0:
384,161,115450,1,0,1:1:0:0:
484,300,115665,1,0,3:3:0:0:
321,246,115879,6,0,P|278:254|234:257,1,88.000002685547,4|0,1:1|2:2,0:0:0:0:
116,348,116307,2,0,P|159:350|203:358,1,88.000002685547,0|0,1:1|2:2,0:0:0:0:
265,156,116736,1,4,1:1:0:0:
265,156,116950,1,4,3:3:0:0:
377,336,117165,1,4,3:3:0:0:
129,243,117379,1,4,3:3:0:0:
265,156,117593,6,0,P|308:148|352:145,1,88.000002685547,4|0,3:1|2:2,0:0:0:0:
203,358,118022,2,8,P|160:356|116:348,1,88.000002685547,0|0,1:1|2:2,0:0:0:0:
31,200,118450,1,0,3:3:0:0:
31,200,118665,1,0,3:3:0:0:
265,156,118879,2,0,P|263:199|255:243,1,88.000002685547,0|0,1:1|1:1,0:0:0:0:
171,108,119307,6,0,P|163:65|160:21,1,88.000002685547,4|0,1:1|0:0,0:0:0:0:
382,141,119736,1,0,1:1:0:0:
343,146,119843,1,0,3:3:0:0:
304,151,119950,1,0,3:3:0:0:
434,49,120165,1,0,3:3:0:0:
434,49,120379,1,0,3:3:0:0:
467,204,120593,2,0,P|465:247|457:291,1,88.000002685547,0|0,1:1|3:2,0:0:0:0:
209,325,121022,6,0,P|176:268|182:203,1,132.00000402832,4|0,1:1|2:2,0:0:0:0:
279,246,121450,2,0,P|322:244|366:236,1,88.000002685547,0|0,1:1|3:3,0:0:0:0:
301,376,121879,1,0,3:3:0:0:
301,376,122093,1,0,3:3:0:0:
182,204,122307,1,0,1:1:0:0:
366,236,122522,1,0,3:3:0:0:
117,344,122736,6,0,P|74:342|30:334,1,88.000002685547,4|0,1:1|0:0,0:0:0:0:
0,188,123165,1,0,1:1:0:0:
128,113,123379,1,0,3:3:0:0:
128,113,123486,1,0,3:3:0:0:
128,113,123593,2,0,P|170:106|215:103,1,88.000002685547,0|0,3:3|2:2,0:0:0:0:
348,175,124022,2,0,P|338:241|334:307,1,132.00000402832,0|0,1:1|2:2,0:0:0:0:
232,336,124450,6,0,P|242:270|246:204,1,132.00000402832,4|0,1:1|0:0,0:0:0:0:
348,175,124879,2,0,P|390:182|435:185,1,88.000002685547,0|0,1:1|2:2,3:3:0:0:
318,73,125307,1,0,3:3:0:0:
318,73,125415,1,0,3:2:0:0:
318,73,125522,1,0,3:3:0:0:
246,205,125736,1,0,1:1:0:0:
246,205,125950,1,0,3:3:0:0:
129,93,126165,6,0,P|172:95|216:103,1,88.000002685547,4|0,1:1|0:0,0:0:0:0:
276,307,126593,2,0,P|319:305|363:297,1,88.000002685547,0|0,1:1|2:2,0:0:0:0:
435,185,127022,1,0,3:1:0:0:
435,185,127236,1,0,3:0:0:0:
216,103,127450,1,0,1:3:0:0:
216,103,127665,1,0,3:3:0:0:
43,267,127879,6,0,P|109:277|175:281,1,132.00000402832,4|0,1:1|3:3,0:0:0:0:
276,307,128307,2,0,P|318:300|363:297,1,88.000002685547,0|0,1:1|2:2,0:0:0:0:
203,383,128736,1,0,3:3:0:0:
203,383,128950,1,0,3:0:0:0:
246,205,129165,1,0,1:1:0:0:
363,297,129379,1,0,3:3:0:0:
203,383,129593,6,0,P|160:381|116:373,1,88.000002685547,4|0,1:1|2:2,0:0:0:0:
8,191,130022,2,0,P|50:184|95:181,1,88.000002685547,0|0,1:1|2:2,0:0:0:0:
246,205,130450,1,4,1:1:0:0:
246,205,130665,1,4,3:3:0:0:
63,281,130879,1,4,3:3:0:0:
127,81,131093,1,4,3:3:0:0:
246,205,131307,6,0,P|253:247|256:292,1,88.000002685547,4|0,1:1|2:2,0:0:0:0:
13,188,131736,2,0,P|15:145|23:101,1,88.000002685547,0|0,1:1|3:2,3:3:0:0:
231,61,132165,1,0,3:3:0:0:
231,61,132379,1,0,3:3:0:0:
391,199,132593,2,0,P|433:206|478:209,1,88.000002685547,0|0,1:1|3:3,0:0:0:0:
511,60,133022,5,4,1:1:0:0:
411,95,133236,1,0,3:3:0:0:
311,130,133450,1,2,1:2:0:0:
211,165,133665,2,0,P|204:205|200:248,1,83.9999974365235
366,364,134093,5,0,3:3:0:0:
406,376,134200,1,0,3:3:0:0:
445,360,134307,1,2,1:2:0:0:
463,321,134415,1,0,3:3:0:0:
452,280,134522,1,0,3:3:0:0:
416,257,134629,1,0,3:3:0:0:
374,263,134736,5,0,3:3:0:0:
283,306,134950,1,0,0:0:0:0:
200,248,135165,1,2,1:2:0:0:
109,291,135379,2,0,P|68:287|26:279,1,83.9999974365235,0|0,0:0|0:0,0:0:0:0:
74,168,135807,1,0,2:2:0:0:
74,168,136022,2,0,P|114:161|157:157,1,83.9999974365235,6|0,1:2|2:2,2:2:0:0:
291,205,136450,5,4,1:2:0:0:
200,248,136665,1,0,0:0:0:0:
157,157,136879,1,0,1:2:0:0:
248,114,137093,2,0,P|255:74|259:31,1,83.9999974365235,0|0,3:0|0:0,0:0:0:0:
76,2,137522,5,0,3:3:0:0:
84,43,137629,1,0,3:3:0:0:
87,85,137736,1,2,1:2:0:0:
63,120,137843,1,0,3:3:0:0:
56,161,137950,1,0,3:3:0:0:
66,202,138057,1,0,3:3:0:0:
93,235,138164,6,0,P|100:275|104:318,1,83.9999974365235,4|0,3:2|0:0,0:0:0:0:
368,245,138593,2,0,P|371:203|379:161,1,83.9999974365235,4|0,1:2|0:0,0:0:0:0:
429,325,139022,6,0,P|384:344|333:339,1,100,4|0,3:2|0:0,0:0:0:0:
188,206,139450,2,0,P|233:187|284:192,1,100,4|0,1:2|2:2,0:0:0:0:
160,303,139879,5,4,1:1:0:0:
188,206,140093,1,0,0:0:0:0:
91,178,140307,1,2,1:2:0:0:
63,275,140522,2,0,P|67:317|75:359,1,83.9999974365235,0|0,3:0|0:0,0:0:0:0:
257,331,140950,5,0,3:3:0:0:
299,330,141057,1,0,3:3:0:0:
340,342,141165,1,2,1:2:0:0:
376,364,141272,1,0,3:3:0:0:
418,370,141379,1,0,3:3:0:0:
458,358,141486,1,0,3:3:0:0:
490,331,141593,5,0,3:3:0:0:
508,232,141807,1,0,0:0:0:0:
465,140,142022,1,2,1:2:0:0:
378,89,142236,2,0,P|338:96|295:100,1,83.9999974365235,0|0,3:3|0:0,0:0:0:0:
193,188,142665,1,0,0:0:0:0:
193,188,142879,2,0,P|235:191|277:199,1,83.9999974365235,4|0,1:0|0:0,0:0:0:0:
341,353,143307,5,4,1:1:0:0:
360,254,143522,1,0,3:3:0:0:
276,199,143736,1,0,1:1:0:0:
295,100,143950,2,0,P|292:58|284:16,1,83.9999974365235,0|0,3:3|0:0,0:0:0:0:
101,148,144379,5,0,0:0:0:0:
98,181,144486,1,0,0:0:0:0:
95,214,144593,1,2,1:2:0:0:
113,241,144700,1,0,3:3:0:0:
132,268,144807,1,0,3:3:0:0:
129,301,144915,1,0,3:3:0:0:
126,334,145022,5,4,1:2:0:0:
193,188,145236,1,0,3:3:0:0:
226,348,145450,5,4,1:2:0:0:
235,185,145665,1,0,3:3:0:0:
326,362,145879,5,4,1:2:0:0:
277,182,146093,1,0,3:3:0:0:
126,334,146307,5,4,1:2:0:0:
193,188,146522,1,0,1:1:0:0:
383,250,146736,5,4,1:1:0:0:
126,334,146950,1,4,1:1:0:0:
256,192,151935,12,0,154812,0:0:0:0:
503,138,155224,6,0,P|463:136|424:130,1,80,4|0,1:0|0:0,0:0:0:0:
354,63,155532,1,0,0:0:0:0:
354,63,155635,2,0,P|314:65|275:71,1,80,0|0,1:0|0:0,0:0:0:0:
206,139,155943,1,0,0:0:0:0:
206,139,156046,2,0,P|166:137|127:131,1,80,0|0,0:0|0:0,0:0:0:0:
275,71,156457,1,0,1:0:0:0:
243,228,156662,1,0,0:0:0:0:
47,139,156868,5,4,1:0:0:0:
67,137,156970,1,0,0:0:0:0:
87,135,157073,1,0,0:0:0:0:
107,133,157176,1,0,0:0:0:0:
127,131,157279,1,0,1:0:0:0:
243,228,157484,1,0,0:0:0:0:
243,228,157587,1,0,0:0:0:0:
243,228,157690,2,0,P|249:267|251:307,1,80,0|0,0:0|0:0,0:0:0:0:
110,364,158100,1,0,1:0:0:0:
147,129,158306,1,0,0:0:0:0:
415,200,158511,5,4,1:0:0:0:
415,240,158614,1,0,0:0:0:0:
398,276,158717,1,0,0:0:0:0:
368,302,158820,1,0,0:0:0:0:
331,315,158922,2,0,P|292:309|252:307,1,80,0|0,1:0|0:0,0:0:0:0:
166,263,159231,1,0,0:0:0:0:
166,263,159333,2,0,P|127:269|87:271,1,80,0|0,0:0|0:0,0:0:0:0:
167,127,159744,1,0,1:0:0:0:
252,307,159950,1,0,0:0:0:0:
1,227,160155,6,0,L|8:131,1,95.9999970703126,4|0,1:2|0:0,0:0:0:0:
160,31,160566,2,0,L|167:127,1,95.9999970703126,4|0,1:2|0:0,0:0:0:0:
315,234,160977,2,0,L|322:138,1,95.9999970703126,4|0,1:2|0:0,0:0:0:0:
474,38,161388,2,0,L|481:134,1,95.9999970703126,4|0,1:2|0:0,0:0:0:0:
439,308,161799,5,4,1:0:0:0:
417,317,161902,1,0,0:0:0:0:
394,323,162005,1,0,0:0:0:0:
370,325,162107,1,0,0:0:0:0:
346,325,162210,1,0,1:0:0:0:
221,216,162416,1,0,0:0:0:0:
221,216,162518,1,0,0:0:0:0:
221,216,162621,2,0,P|182:210|142:208,1,80,0|0,0:0|0:0,0:0:0:0:
25,261,163032,1,0,1:0:0:0:
66,106,163237,1,0,0:0:0:0:
301,162,163443,5,4,1:0:0:0:
315,192,163546,1,0,0:0:0:0:
318,224,163648,1,0,0:0:0:0:
310,255,163751,1,0,0:0:0:0:
292,282,163854,2,0,P|331:276|371:274,1,80,0|0,1:0|0:0,0:0:0:0:
418,358,164162,1,0,0:0:0:0:
418,358,164265,2,0,P|457:364|497:366,1,80,4|0,1:2|0:0,0:0:0:0:
511,206,164676,2,0,P|472:200|432:198,1,80,4|0,1:2|0:0,0:0:0:0:
292,282,165087,5,4,1:0:0:0:
253,292,165190,1,0,0:0:0:0:
214,285,165292,1,0,0:0:0:0:
180,263,165395,1,0,0:0:0:0:
159,229,165498,2,0,P|161:189|167:150,1,80,0|0,1:0|0:0,0:0:0:0:
233,79,165806,1,0,0:0:0:0:
233,79,165909,2,0,P|231:39|225:0,1,80,0|0,0:0|0:0,0:0:0:0:
97,83,166320,1,0,1:0:0:0:
303,145,166525,1,0,0:0:0:0:
97,83,166731,5,4,1:2:0:0:
225,0,166936,1,0,0:0:0:0:
303,145,167142,2,0,P|300:192|294:240,1,95.9999970703126,4|0,1:2|0:0,0:0:0:0:
179,384,167553,2,0,P|173:336|169:288,1,95.9999970703126,4|0,1:2|0:0,0:0:0:0:
350,319,167963,2,0,P|305:334|257:329,1,95.9999970703126,4|0,1:2|0:0,0:0:0:0:
139,198,168374,5,4,1:2:0:0:
134,167,168477,1,2,0:0:0:0:
140,135,168580,1,2,0:0:0:0:
156,107,168683,1,2,0:0:0:0:
180,86,168785,2,0,P|219:92|259:94,1,80,2|0,1:2|0:0,0:0:0:0:
332,157,169094,1,0,0:0:0:0:
332,157,169196,2,0,P|371:151|411:149,1,80,0|0,0:0|0:0,0:0:0:0:
318,18,169607,1,2,1:2:0:0:
274,233,169813,1,0,0:0:0:0:
481,216,170018,5,4,1:2:0:0:
502,182,170121,1,2,0:0:0:0:
508,142,170224,1,2,0:0:0:0:
497,103,170326,1,2,0:0:0:0:
470,73,170429,1,2,1:2:0:0:
318,18,170635,1,0,0:0:0:0:
318,18,170737,1,0,0:0:0:0:
318,18,170840,2,0,P|278:20|239:26,1,80,0|0,0:0|0:0,0:0:0:0:
198,139,171251,1,2,1:2:0:0:
274,233,171457,1,0,0:0:0:0:
233,345,171662,5,4,1:2:0:0:
199,358,171765,1,2,0:0:0:0:
163,357,171868,1,2,0:0:0:0:
130,342,171970,1,2,0:0:0:0:
104,318,172073,2,0,P|98:279|96:239,1,80,2|0,1:2|0:0,0:0:0:0:
29,168,172381,1,0,0:0:0:0:
29,168,172484,2,0,P|35:129|37:89,1,80,0|0,0:0|0:0,0:0:0:0:
198,139,172895,1,2,1:2:0:0:
198,139,172998,1,0,0:0:0:0:
198,139,173100,1,0,0:0:0:0:
314,18,173306,6,0,L|410:25,1,95.9999970703126,4|0,1:2|0:0,0:0:0:0:
360,323,173716,2,0,L|264:316,1,95.9999970703126,4|0,1:2|0:0,0:0:0:0:
198,139,174128,2,0,L|294:132,1,95.9999970703126,4|0,1:2|0:0,0:0:0:0:
476,202,174539,2,0,L|380:209,1,95.9999970703126,4|0,1:2|0:0,0:0:0:0:
410,25,174950,5,4,1:2:0:0:
433,18,175053,1,2,0:0:0:0:
457,18,175155,1,2,0:0:0:0:
480,22,175258,1,2,0:0:0:0:
502,32,175361,2,0,P|508:71|510:111,1,80,2|0,1:2|0:0,0:0:0:0:
476,202,175669,1,0,0:0:0:0:
476,202,175772,2,0,P|470:241|468:281,1,80,0|0,0:0|0:0,0:0:0:0:
286,227,176183,1,2,1:2:0:0:
510,111,176388,1,0,0:0:0:0:
433,373,176594,5,4,1:2:0:0:
394,382,176696,1,2,0:0:0:0:
354,380,176799,1,2,0:0:0:0:
316,367,176902,1,2,0:0:0:0:
283,345,177005,2,0,P|277:306|275:266,1,80,2|0,1:2|0:0,0:0:0:0:
279,246,177313,1,0,0:0:0:0:
286,227,177416,1,0,0:0:0:0:
363,136,177621,1,0,0:0:0:0:
440,45,177826,1,2,1:2:0:0:
476,202,178032,1,0,0:0:0:0:
250,70,178237,5,4,1:2:0:0:
219,65,178340,1,2,0:0:0:0:
187,71,178443,1,2,0:0:0:0:
159,87,178546,1,2,0:0:0:0:
138,111,178648,2,0,P|144:150|146:190,1,80,2|0,1:2|0:0,0:0:0:0:
65,242,178957,1,0,0:0:0:0:
65,242,179059,2,0,P|59:281|57:321,1,80,0|0,0:0|0:0,0:0:0:0:
169,357,179470,1,2,1:2:0:0:
274,307,179676,1,0,0:0:0:0:
316,199,179881,6,0,L|412:192,1,95.9999970703126,4|0,1:2|0:0,0:0:0:0:
234,118,180292,2,0,L|138:111,1,95.9999970703126,4|0,1:2|0:0,0:0:0:0:
274,307,180703,2,0,L|370:300,1,95.9999970703126,4|0,1:2|0:0,0:0:0:0:
289,17,181114,2,0,L|193:10,1,95.9999970703126,4|0,1:2|0:0,0:0:0:0:
316,199,181525,5,0,1:0:0:0:
340,197,181628,1,0,1:0:0:0:
364,195,181731,1,0,1:0:0:0:
388,193,181833,1,0,1:0:0:0:
412,191,181936,1,2,0:0:0:0:
234,118,182142,5,0,1:0:0:0:
210,116,182244,1,0,1:0:0:0:
186,114,182347,1,0,1:0:0:0:
162,112,182450,1,0,1:0:0:0:
138,110,182553,1,2,0:0:0:0:
289,17,182758,5,0,1:0:0:0:
316,199,182963,1,0,1:0:0:0:
52,153,183169,5,4,1:2:0:0:
44,130,183272,1,0,0:0:0:0:
43,106,183374,1,2,0:0:0:0:
46,82,183477,1,0,0:0:0:0:
56,60,183580,1,0,1:0:0:0:
289,17,183785,1,2,0:0:0:0:
289,17,183888,1,0,0:0:0:0:
289,17,183991,2,0,L|385:24,1,95.9999970703126,0|2,1:0|0:0,0:0:0:0:
316,199,184402,2,0,L|220:206,1,95.9999970703126,0|2,1:0|0:0,0:0:0:0:
52,153,184813,5,0,1:0:0:0:
52,153,185018,1,2,0:0:0:0:
219,97,185224,1,0,1:0:0:0:
219,97,185429,1,2,0:0:0:0:
116,241,185635,1,0,1:0:0:0:
115,63,185840,1,2,0:0:0:0:
220,206,186046,2,0,P|217:252|208:302,1,95.9999970703126,0|2,1:0|0:0,0:0:0:0:
24,372,186456,5,4,1:2:0:0:
21,348,186559,1,0,0:0:0:0:
18,324,186662,1,2,0:0:0:0:
15,300,186765,1,0,0:0:0:0:
12,276,186868,1,0,1:0:0:0:
220,206,187073,1,2,0:0:0:0:
220,206,187176,1,0,0:0:0:0:
220,206,187279,2,0,L|316:213,1,95.9999970703126,0|2,1:0|0:0,0:0:0:0:
393,368,187690,2,0,L|297:375,1,95.9999970703126,0|2,1:0|0:0,0:0:0:0:
116,241,188100,6,0,P|119:195|128:145,1,95.9999970703126,0|2,1:0|0:0,0:0:0:0:
162,56,188409,1,0,0:0:0:0:
162,56,188511,2,0,P|116:51|70:69,1,95.9999970703126,0|2,1:0|0:0,0:0:0:0:
223,131,188922,6,0,L|319:124,1,95.9999970703126,0|2,1:0|0:0,0:0:0:0:
385,55,189231,1,0,0:0:0:0:
385,55,189333,2,0,L|481:62,1,95.9999970703126,0|2,1:0|0:0,0:0:0:0:
415,226,189744,5,4,0:2:0:0:
413,253,189847,1,8,0:0:0:0:
418,280,189950,1,8,0:0:0:0:
430,305,190053,1,8,0:0:0:0:
448,326,190155,2,0,P|404:319|360:316,1,88.000002685547,2|0,1:2|0:0,0:0:0:0:
260,283,190463,1,0,0:0:0:0:
260,283,190566,2,0,P|216:290|172:293,1,88.000002685547,0|0,0:0|0:0,0:0:0:0:
293,182,190977,1,2,1:2:0:0:
227,384,191183,1,0,0:0:0:0:
73,328,191388,5,4,0:2:0:0:
75,306,191491,1,8,0:0:0:0:
77,284,191594,1,8,0:0:0:0:
79,262,191696,1,8,0:0:0:0:
81,240,191799,2,0,P|77:196|71:152,1,88.000002685547,2|0,1:2|0:0,0:0:0:0:
158,91,192107,1,0,0:0:0:0:
158,91,192210,2,0,P|161:47|167:3,1,88.000002685547,0|0,0:0|0:0,0:0:0:0:
10,65,192621,1,2,1:2:0:0:
219,178,192826,1,0,0:0:0:0:
437,86,193032,5,4,0:2:0:0:
416,79,193135,1,8,0:0:0:0:
394,76,193237,1,8,0:0:0:0:
373,73,193340,1,8,0:0:0:0:
351,73,193443,2,0,P|307:76|263:82,1,88.000002685547,2|0,1:2|0:0,0:0:0:0:
219,178,193751,1,0,0:0:0:0:
219,178,193854,2,0,P|175:175|131:169,1,88.000002685547,0|0,0:0|0:0,0:0:0:0:
244,281,194265,2,0,P|287:275|331:272,1,88.000002685547,2|0,1:2|0:0,0:0:0:0:
482,191,194676,5,0,3:0:0:0:
408,344,194881,1,4,0:2:0:0:
378,176,195087,1,2,1:2:0:0:
502,295,195292,1,4,0:2:0:0:
331,272,195498,2,0,P|287:275|243:282,1,88.000002685547,0|0,0:0|0:0,0:0:0:0:
111,369,195909,2,0,P|155:375|199:377,1,88.000002685547,2|0,1:2|0:0,0:0:0:0:
176,102,196320,5,4,1:2:0:0:
152,102,196422,1,0,0:0:0:0:
128,105,196525,1,2,0:0:0:0:
104,108,196628,1,0,0:0:0:0:
80,113,196731,1,0,1:0:0:0:
5,258,196936,1,2,0:0:0:0:
5,258,197039,1,0,0:0:0:0:
5,258,197142,2,0,P|8:304|17:354,1,95.9999970703126,0|2,1:0|0:0,0:0:0:0:
244,282,197553,2,0,P|252:234|255:186,1,95.9999970703126,0|2,1:0|0:0,0:0:0:0:
233,1,197963,5,0,1:0:0:0:
360,138,198169,1,2,0:0:0:0:
176,102,198374,1,0,1:0:0:0:
347,22,198580,1,2,0:0:0:0:
255,187,198785,1,0,1:0:0:0:
233,1,198991,1,2,0:0:0:0:
360,138,199196,2,0,P|408:146|456:149,1,95.9999970703126,0|2,1:0|0:0,0:0:0:0:
315,286,199607,5,4,1:2:0:0:
291,290,199710,1,0,0:0:0:0:
267,293,199813,1,2,0:0:0:0:
243,296,199916,1,0,0:0:0:0:
219,296,200018,1,0,1:0:0:0:
56,241,200224,1,2,0:0:0:0:
56,241,200326,1,0,0:0:0:0:
56,241,200429,2,0,L|49:337,1,95.9999970703126,0|2,1:0|0:0,0:0:0:0:
226,182,200840,2,0,L|219:86,1,95.9999970703126,0|2,1:0|0:0,0:0:0:0:
23,131,201251,6,0,P|71:139|119:142,1,95.9999970703126,0|2,1:0|0:0,0:0:0:0:
226,182,201559,1,0,0:0:0:0:
226,182,201662,2,0,P|274:174|322:171,1,95.9999970703126,0|2,1:0|0:0,0:0:0:0:
412,12,202073,6,0,L|419:108,1,95.9999970703126,0|2,1:0|0:0,0:0:0:0:
507,184,202381,1,0,0:0:0:0:
507,184,202484,2,0,L|500:280,1,95.9999970703126,0|2,1:0|0:0,0:0:0:0:
360,303,202895,5,4,0:2:0:0:
347,301,202998,1,8,0:0:0:0:
334,299,203100,1,8,0:0:0:0:
321,297,203203,1,8,0:0:0:0:
308,295,203306,2,0,P|264:302|220:305,1,88.000002685547,2|0,1:2|0:0,0:0:0:0:
143,377,203614,1,0,0:0:0:0:
143,377,203717,2,0,P|99:373|55:367,1,88.000002685547,0|0,0:0|0:0,0:0:0:0:
104,244,204128,1,2,1:2:0:0:
1,161,204333,1,0,0:0:0:0:
50,38,204539,5,0,0:0:0:0:
63,40,204642,1,8,0:0:0:0:
76,42,204744,1,8,0:0:0:0:
89,44,204847,1,8,0:0:0:0:
102,46,204950,2,0,P|146:39|190:36,1,88.000002685547,2|0,1:2|0:0,0:0:0:0:
275,98,205258,1,0,0:0:0:0:
275,98,205361,2,0,P|319:105|363:108,1,88.000002685547,0|0,0:0|0:0,0:0:0:0:
486,63,205772,1,2,1:2:0:0:
463,193,205977,1,0,0:0:0:0:
440,323,206183,6,0,P|396:330|352:333,1,88.000002685547,0|4,0:0|0:2,0:0:0:0:
251,301,206594,1,2,1:2:0:0:
190,215,206799,2,0,B|132:209|132:209|77:231|77:231|19:225,1,176.000005371094,4|0,0:2|0:0,0:0:0:0:
228,117,207416,1,2,1:2:0:0:
228,117,207621,1,0,0:0:0:0:
251,301,207826,5,4,0:2:0:0:
19,225,208032,1,0,0:0:0:0:
19,225,208135,1,0,0:0:0:0:
19,225,208237,1,2,1:2:0:0:
51,70,208443,2,0,P|95:63|139:60,1,88.000002685547,4|0,0:2|0:0,0:0:0:0:
228,117,208854,1,0,0:0:0:0:
323,71,209059,1,2,1:2:0:0:
324,58,209162,1,8,0:0:0:0:
325,45,209265,1,8,0:0:0:0:
326,32,209368,1,8,0:0:0:0:
327,19,209470,5,0,0:0:0:0:
138,60,209676,1,2,0:0:0:0:
138,60,209778,1,2,0:0:0:0:
138,60,209881,1,2,2:2:0:0:
228,117,210087,1,0,0:0:0:0:
274,212,210292,2,0,P|281:256|284:300,1,88.000002685547,0|0,0:0|0:0,0:0:0:0:
155,270,210702,1,2,0:2:0:0:
393,154,210908,5,0,1:0:0:0:
353,379,211113,1,0,1:0:0:0:
422,238,219404,6,0,P|429:285|431:333,1,95.9999970703126,4|0,0:0|0:0,0:0:0:0:
310,209,219809,2,0,P|312:161|319:113,1,95.9999970703126,4|0,0:0|0:0,0:0:0:0:
492,57,220215,6,0,P|499:104|501:152,1,95.9999970703126,4|0,0:0|0:0,0:0:0:0:
422,238,220620,1,8,0:0:0:0:
422,238,220822,1,0,0:0:0:0:
384,18,221026,5,2,0:0:0:0:
501,153,221228,1,0,0:0:0:0:
310,209,221431,2,0,P|247:206|185:198,1,125.999996154785,8|0,0:0|0:0,0:0:0:0:
91,160,221836,2,0,P|49:162|6:167,1,83.9999974365235,0|0,0:0|0:0,0:0:0:0:
105,260,222242,1,8,0:0:0:0:
105,260,222444,1,0,0:0:0:0:
170,98,222647,2,0,P|174:56|176:14,1,83.9999974365235,2|0,0:0|0:0,0:0:0:0:
1,83,223053,2,0,P|3:125|8:168,1,83.9999974365235,8|0,0:0|0:0,0:0:0:0:
105,260,223458,5,0,0:0:0:0:
232,217,223661,1,0,0:0:0:0:
232,217,223863,2,0,P|274:219|317:224,1,83.9999974365235,8|0,0:0|0:0,0:0:0:0:
440,310,224269,6,0,P|398:315|356:317,1,83.9999974365235,2|0,0:0|0:0,0:0:0:0:
385,150,224674,1,8,0:0:0:0:
385,150,224877,2,0,P|427:152|470:157,1,83.9999974365235,0|0,0:0|0:0,0:0:0:0:
316,224,225282,5,0,0:0:0:0:
258,30,225485,1,8,0:0:0:0:
258,30,225688,1,0,0:0:0:0:
385,150,225890,5,2,0:0:0:0:
287,127,226093,1,0,0:0:0:0:
189,104,226296,2,0,P|147:106|105:110,1,83.9999974365235,8|0,0:0|0:0,0:0:0:0:
80,280,226701,6,0,P|162:292|246:297,1,167.999994873047,4|8,0:0|0:0,0:0:0:0:
316,224,227309,1,0,0:0:0:0:
385,150,227512,1,2,0:0:0:0:
189,104,227715,1,0,0:0:0:0:
247,297,227917,1,8,0:0:0:0:
247,297,228120,1,0,0:0:0:0:
385,150,228323,6,0,P|383:108|378:66,1,83.9999974365235,0|0,0:0|0:0,0:0:0:0:
153,198,228728,2,0,P|148:240|147:282,1,83.9999974365235,8|0,0:0|0:0,0:0:0:0:
304,381,229134,2,0,P|345:379|387:374,1,83.9999974365235,2|0,0:0|0:0,0:0:0:0:
511,162,229539,2,0,P|448:153|385:150,1,125.999996154785,8|0,0:0|0:0,0:0:0:0:
316,224,229944,5,0,0:0:0:0:
153,198,230147,1,0,0:0:0:0:
153,198,230350,2,0,L|146:114,1,83.9999974365235,8|0,0:0|0:0,0:0:0:0:
294,44,230755,6,0,L|287:127,1,83.9999974365235,2|0,0:0|0:0,0:0:0:0:
225,269,231161,1,8,0:0:0:0:
225,269,231363,2,0,L|232:352,1,83.9999974365235,0|0,0:0|0:0,0:0:0:0:
512,256,231769,5,8,3:0:0:0:
414,240,231971,1,8,0:0:0:0:
316,224,232174,1,0,3:0:0:0:
448,334,232377,5,4,3:0:0:0:
414,240,232580,1,4,3:0:0:0:
380,146,232782,1,8,0:0:0:0:
346,52,232985,1,0,3:0:0:0:
316,224,233187,5,4,0:0:0:0:
478,162,233390,1,0,0:0:0:0:
346,52,233593,2,0,P|276:65|194:70,1,151.199995385742,8|0,0:0|0:0,0:0:0:0:
150,159,233998,2,0,P|99:152|49:150,1,100.799996923828,2|0,0:0|0:0,0:0:0:0:
22,11,234404,2,0,P|72:8|122:1,1,100.799996923828,8|0,0:0|0:0,0:0:0:0:
346,52,234809,5,2,0:0:0:0:
346,52,235012,1,0,0:0:0:0:
316,224,235215,1,8,0:0:0:0:
150,159,235417,2,0,B|250:147|250:147|224:170|217:206,1,167.999994873047
241,345,236026,5,8,0:0:0:0:
241,345,236228,1,0,0:0:0:0:
415,243,236431,2,0,P|422:192|424:142,1,100.799996923828,4|0,0:0|0:0,0:0:0:0:
141,59,236836,2,0,P|143:109|150:159,1,100.799996923828,8|0,0:0|0:0,0:0:0:0:
240,345,237242,6,0,P|303:349|363:329,1,125.999996154785,2|0,0:0|0:0,0:0:0:0:
415,243,237647,2,0,P|481:264|464:331,1,151.199995385742,8|0,0:0|0:0,0:0:0:0:
415,243,238053,6,0,P|400:184|395:120,1,125.999996154785,2|0,0:0|0:0,0:0:0:0:
446,31,238458,2,0,P|512:52|495:119,1,151.199995385742,8|0,0:0|0:0,0:0:0:0:
395,119,238863,6,0,P|333:128|270:131,1,125.999996154785,2|0,0:0|0:0,0:0:0:0:
170,119,239269,1,8,0:0:0:0:
282,31,239471,1,0,0:0:0:0:
258,231,239674,5,4,0:0:0:0:
82,7,239877,1,0,3:0:0:0:
282,31,240080,1,8,0:0:0:0:
58,207,240282,1,0,3:0:0:0:
256,214,240485,5,2,0:0:0:0:
84,24,240688,1,0,3:0:0:0:
265,33,240890,1,8,0:0:0:0:
75,205,241093,1,0,3:0:0:0:
254,197,241296,5,2,0:0:0:0:
86,41,241498,1,0,3:0:0:0:
248,35,241701,1,8,0:0:0:0:
92,203,241904,1,0,3:0:0:0:
252,180,242107,5,2,0:0:0:0:
88,58,242309,1,0,3:0:0:0:
231,37,242512,1,8,0:0:0:0:
109,201,242715,1,0,3:0:0:0:
250,163,242917,5,4,0:0:0:0:
90,75,243120,1,0,3:0:0:0:
214,39,243323,1,8,0:0:0:0:
126,199,243526,1,0,3:0:0:0:
126,199,243627,1,0,3:0:0:0:
126,199,243728,5,2,0:0:0:0:
219,287,243931,1,4,0:3:0:0:
333,320,244134,1,8,0:0:0:0:
441,299,244336,1,4,0:0:0:0:
256,192,244438,12,0,246769,0:0:0:0:
441,299,246971,6,0,P|439:235|430:171,1,128,4|0,0:0|0:0,0:0:0:0:
326,35,247377,6,0,P|317:90|339:140,1,111.999996582031,4|0,0:0|0:0,0:0:0:0:
507,87,247782,6,0,P|460:80|412:78,1,95.9999970703126,4|0,0:0|0:0,0:0:0:0:
266,204,248188,1,0,1:0:0:0:
266,204,248390,2,0,P|260:273|293:337,1,143.999995605469,0|0,3:0|0:0,0:0:0:0:
385,359,248796,1,0,3:0:0:0:
430,172,248998,1,0,1:0:0:0:
430,172,249201,1,0,0:0:0:0:
266,204,249404,6,0,P|197:199|124:186,1,143.999995605469,2|0,0:0|0:0,0:0:0:0:
36,146,249809,2,0,P|28:98|27:50,1,95.9999970703126,0|0,1:0|0:0,0:0:0:0:
174,3,250215,2,0,P|173:50|165:98,1,95.9999970703126,2|0,0:0|0:0,0:0:0:0:
19,146,250620,2,0,P|19:98|27:50,1,95.9999970703126,0|0,1:0|0:0,0:0:0:0:
157,3,251026,6,0,P|164:50|165:98,1,95.9999970703126,4|0,0:0|0:0,0:0:0:0:
81,274,251431,1,0,1:0:0:0:
81,274,251634,2,0,B|77:322|77:322|111:356|111:356|159:352,1,143.999995605469,0|0,3:0|0:0,0:0:0:0:
237,295,252039,1,0,3:0:0:0:
380,371,252242,2,0,P|333:378|285:379,1,95.9999970703126,0|0,1:0|0:0,0:0:0:0:
266,204,252647,6,0,P|335:209|408:222,1,143.999995605469,2|0,0:0|0:0,0:0:0:0:
480,158,253053,2,0,P|480:110|488:62,1,95.9999970703126,0|0,1:0|0:0,0:0:0:0:
299,21,253458,2,0,P|306:68|307:116,1,95.9999970703126,2|0,0:0|0:0,0:0:0:0:
497,158,253863,2,0,P|489:110|488:62,1,95.9999970703126,0|0,1:0|0:0,0:0:0:0:
316,21,254269,6,0,P|315:68|307:116,1,95.9999970703126,4|0,0:0|0:0,0:0:0:0:
172,225,254674,1,0,1:0:0:0:
172,225,254877,2,0,B|159:271|159:271|186:311|186:311|234:316,1,143.999995605469,0|0,3:0|0:0,0:0:0:0:
323,281,255282,1,0,3:0:0:0:
213,138,255485,2,0,B|165:133|165:133|117:145,1,95.9999970703126,0|0,1:0|0:0,0:0:0:0:
96,344,255890,5,2,0:0:0:0:
96,344,256093,1,0,0:0:0:0:
323,281,256296,2,0,P|370:282|418:289,1,95.9999970703126,0|0,1:0|0:0,0:0:0:0:
391,33,256701,2,0,P|344:32|296:25,1,95.9999970703126,2|0,0:0|0:0,0:0:0:0:
378,201,257107,2,0,P|425:193|473:192,1,95.9999970703126,0|0,1:0|0:0,0:0:0:0:
336,113,257512,6,0,P|288:120|240:121,1,95.9999970703126,4|0,0:0|0:0,0:0:0:0:
117,195,257917,1,0,1:0:0:0:
117,195,258120,2,0,L|122:291,1,95.9999970703126,0|0,3:0|0:0,0:0:0:0:
301,360,258526,1,0,3:0:0:0:
301,360,258728,2,0,L|306:264,1,95.9999970703126,0|0,1:0|0:0,0:0:0:0:
241,121,259134,5,0,3:0:0:0:
241,121,259235,1,8,3:0:0:0:
122,291,259438,1,0,3:0:0:0:
122,291,259539,1,8,3:0:0:0:
306,264,259742,1,0,3:0:0:0:
39,214,259944,6,0,B|25:298|25:298|38:339,1,128,4|0,0:0|0:0,0:0:0:0:
324,170,260350,6,0,P|338:114|321:64,1,111.999996582031,4|0,0:0|0:0,0:0:0:0:
156,8,260755,6,0,P|149:55|147:103,1,95.9999970703126,4|0,0:0|0:0,0:0:0:0:
255,345,261161,1,0,1:0:0:0:
255,345,261363,2,0,P|326:358|382:320,1,143.999995605469,0|0,3:0|0:0,0:0:0:0:
402,227,261769,1,0,3:0:0:0:
203,265,261971,2,0,P|155:263|107:256,1,95.9999970703126,0|0,1:0|0:0,0:0:0:0:
5,122,262377,6,0,P|75:109|147:103,1,143.999995605469,2|0,0:0|0:0,0:0:0:0:
229,53,262782,2,0,L|324:61,1,95.9999970703126,0|0,1:0|0:0,0:0:0:0:
481,173,263188,2,0,P|487:221|489:269,1,95.9999970703126,2|0,0:0|0:0,0:0:0:0:
195,360,263593,2,0,P|196:312|203:264,1,95.9999970703126,0|0,1:0|0:0,0:0:0:0:
403,117,263998,5,4,0:0:0:0:
383,319,264201,1,0,1:0:0:0:
383,319,264303,1,0,1:0:0:0:
383,319,264404,1,0,1:0:0:0:
203,265,264607,6,0,P|189:194|183:122,1,143.999995605469,4|0,0:0|0:0,0:0:0:0:
219,33,265012,1,0,3:0:0:0:
403,117,265215,1,0,1:0:0:0:
403,117,265417,1,0,0:0:0:0:
383,319,265620,6,0,B|347:352|297:359|297:359|274:356|250:347,1,143.999995605469,2|0,0:0|0:0,0:0:0:0:
203,265,266026,2,0,P|155:259|107:257,1,95.9999970703126,0|0,1:0|0:0,0:0:0:0:
69,265,266330,1,0,0:0:0:0:
40,290,266431,2,0,B|30:337|30:337|48:381,1,95.9999970703126,2|0,0:0|0:0,0:0:0:0:
203,265,266836,1,0,1:0:0:0:
151,79,267039,1,8,3:0:0:0:
151,79,267140,1,8,3:0:0:0:
151,79,267242,6,0,P|80:66|24:104,1,143.999995605469,4|0,0:0|0:0,0:0:0:0:
5,200,267647,1,0,1:0:0:0:
203,265,267850,2,0,P|250:263|298:257,1,95.9999970703126,0|0,3:0|0:0,0:0:0:0:
474,129,268255,1,0,3:0:0:0:
450,281,268458,1,0,1:0:0:0:
323,105,268661,1,0,0:0:0:0:
299,257,268863,5,2,0:0:0:0:
474,129,269066,1,0,3:0:0:0:
474,129,269167,1,0,3:0:0:0:
474,129,269268,2,0,B|481:82|481:82|467:36,1,95.9999970703126,0|0,1:0|0:0,0:0:0:0:
243,53,269674,2,0,B|229:99|229:99|236:146,1,95.9999970703126,2|0,0:0|0:0,0:0:0:0:
450,281,270080,1,0,1:0:0:0:
450,281,270282,1,0,0:0:0:0:
474,129,270485,6,0,P|402:111|323:105,1,153.6,4|0,0:0|0:0,0:0:0:0:
236,146,270890,1,0,1:0:0:0:
262,317,271093,6,0,B|287:313|310:299|310:299|334:249|315:199,1,153.6,4|0,0:0|0:0,0:0:0:0:
236,146,271498,1,0,3:0:0:0:
166,325,271701,1,0,1:0:0:0:
450,281,271904,1,0,1:0:0:0:
450,281,272005,1,0,1:0:0:0:
450,281,272107,5,0,1:0:0:0:
323,105,272309,1,0,1:0:0:0:
319,380,272512,5,8,3:0:0:0:
236,146,272715,1,8,3:0:0:0:
166,325,272917,5,0,3:0:0:0:
140,158,273120,1,0,3:0:0:0:
450,278,273323,5,4,3:0:0:0:
323,105,273526,1,4,3:0:0:0:
166,325,273728,5,4,0:0:0:0:
363,344,283023,5,4,0:1:0:0:
363,344,283226,2,0,B|344:308|352:266|352:266|366:252|384:243,1,120,2|0,0:0|2:0,0:0:0:0:
476,217,283631,1,2,0:0:0:0:
476,217,283834,2,0,B|495:181|487:139|487:139|473:125|454:116,1,120,2|0,0:0|2:0,0:0:0:0:
362,89,284240,2,0,P|303:93|242:102,1,120,8|0,0:0|2:0,0:0:0:0:
182,176,284646,6,0,P|123:172|62:162,1,120,2|0,0:0|2:0,0:0:0:0:
4,86,285051,1,8,0:0:0:0:
235,22,285254,1,2,0:0:0:0:
235,22,285457,2,0,P|241:61|243:101,1,80,2|0,0:0|0:0,0:0:0:0:
215,266,285863,1,8,0:0:0:0:
215,266,286066,1,0,0:0:0:0:
354,344,286269,6,0,P|393:350|433:352,1,80,4|4,0:0|0:0,0:0:0:0:
356,184,286674,2,0,P|316:185|276:191,1,80,8|0,0:0|0:0,0:0:0:0:
125,302,287080,2,0,P|181:356|259:352,1,160,2|8,0:0|0:0,0:0:0:0:
277,191,287689,1,0,0:0:0:0:
277,191,287892,6,0,P|275:151|269:111,1,80,0|0,0:0|0:0,0:0:0:0:
101,49,288297,1,8,0:0:0:0:
101,49,288500,2,0,P|95:88|93:128,1,80,2|0,0:0|0:0,0:0:0:0:
125,302,288906,1,2,0:0:0:0:
125,302,289109,1,8,0:0:0:0:
185,160,289312,1,2,0:0:0:0:
24,196,289515,2,0,P|26:236|32:276,1,80,4|2,0:0|0:0,0:0:0:0:
218,328,289920,5,8,0:0:0:0:
218,328,290123,2,0,P|277:324|333:303,1,120,2|0,0:0|2:0,0:0:0:0:
397,231,290529,1,2,0:0:0:0:
397,231,290732,2,0,P|452:252|512:256,1,120,8|0,0:0|2:0,0:0:0:0:
491,350,291137,6,0,P|452:358|412:360,1,80,2|0,0:0|0:0,0:0:0:0:
218,328,291543,1,8,0:0:0:0:
218,328,291746,1,2,0:0:0:0:
259,129,291949,2,0,P|318:120|378:115,1,120,2|0,0:0|2:0,0:0:0:0:
463,161,292355,1,8,0:0:0:0:
413,26,292558,1,0,0:0:0:0:
259,129,292760,5,4,0:0:0:0:
255,149,292963,1,4,0:0:0:0:
249,179,293166,1,8,0:0:0:0:
241,219,293369,1,4,0:0:0:0:
231,269,293572,1,4,0:0:0:0:
218,328,293774,1,4,0:0:0:0:
425,360,293978,2,0,P|423:320|418:280,1,80,8|4,0:0|0:0,0:0:0:0:
259,129,294383,5,0,1:0:0:0:
259,129,294586,1,0,1:0:0:0:
218,328,294789,1,4,3:0:0:0:
218,328,294992,1,4,3:0:0:0:
418,280,295195,5,0,0:0:0:0:
435,258,295296,1,0,0:0:0:0:
444,232,295398,1,0,0:0:0:0:
446,205,295499,1,0,0:0:0:0:
440,177,295601,1,8,0:0:0:0:
426,153,295702,1,2,0:0:0:0:
406,134,295803,1,2,0:0:0:0:
381,122,295905,1,2,0:0:0:0:
354,118,296006,6,0,P|306:121|258:129,1,95.9999970703126,4|0,0:2|0:0,0:0:0:0:
134,235,296412,1,0,1:0:0:0:
152,6,296615,1,0,0:0:0:0:
259,129,296818,2,0,P|256:177|248:225,1,95.9999970703126,0|0,0:0|0:0,0:0:0:0:
58,149,297224,2,0,P|50:101|47:53,1,95.9999970703126,0|0,1:0|0:0,0:0:0:0:
267,15,297629,6,0,P|314:22|362:25,1,95.9999970703126,0|0,0:0|0:0,0:0:0:0:
506,180,298035,1,0,1:0:0:0:
506,180,298238,2,0,P|458:187|410:190,1,95.9999970703126,0|0,0:0|0:0,0:0:0:0:
259,129,298644,1,0,0:0:0:0:
469,71,298846,1,0,1:0:0:0:
469,71,299049,1,0,0:0:0:0:
448,300,299252,6,0,P|400:292|352:289,1,95.9999970703126,4|0,0:2|0:0,0:0:0:0:
259,129,299658,1,0,1:0:0:0:
259,129,299861,2,0,P|211:132|163:139,1,95.9999970703126,0|0,0:0|0:0,0:0:0:0:
31,216,300267,1,0,0:0:0:0:
105,40,300469,1,0,1:0:0:0:
105,40,300672,1,0,0:0:0:0:
223,238,300875,6,0,P|221:284|212:333,1,95.9999970703126,4|0,0:1|0:0,0:0:0:0:
31,216,301281,1,0,1:0:0:0:
31,216,301484,2,0,P|22:168|19:120,1,95.9999970703126,0|0,0:0|0:0,0:0:0:0:
210,36,301889,1,0,0:0:0:0:
99,309,302092,1,4,1:0:0:0:
99,309,302295,1,0,0:0:0:0:
19,121,302498,6,0,P|66:114|114:111,1,95.9999970703126,4|0,0:2|0:0,0:0:0:0:
223,238,302904,1,0,1:0:0:0:
223,238,303107,2,0,P|270:245|318:248,1,95.9999970703126,0|0,0:0|0:0,0:0:0:0:
488,169,303512,1,0,0:0:0:0:
488,169,303715,2,0,P|486:123|477:74,1,95.9999970703126,0|0,1:0|0:0,0:0:0:0:
235,143,304121,6,0,P|226:191|223:239,1,95.9999970703126,0|0,0:0|0:0,0:0:0:0:
348,359,304527,2,0,P|395:355|443:347,1,95.9999970703126,0|0,1:0|0:0,0:0:0:0:
488,169,304932,2,0,P|441:162|393:159,1,95.9999970703126,0|0,0:0|0:0,0:0:0:0:
223,238,305338,2,0,P|176:245|128:248,1,95.9999970703126,0|0,1:0|0:0,0:0:0:0:
17,153,305744,6,0,P|4:77|51:15,1,160,4|0,0:2|1:0,0:0:0:0:
242,79,306353,1,0,0:0:0:0:
242,79,306555,2,0,P|236:156|223:237,1,160,4|0,0:2|1:0,0:0:0:0:
65,345,307164,1,0,0:0:0:0:
17,153,307367,5,4,0:2:0:0:
131,169,307570,1,0,0:0:0:0:
223,238,307773,2,0,P|270:235|318:227,1,95.9999970703126,0|0,1:0|0:0,0:0:0:0:
417,167,308178,1,0,0:0:0:0:
382,57,308381,1,4,0:2:0:0:
269,33,308584,2,0,P|261:80|257:128,1,95.9999970703126,0|2,1:0|0:0,0:0:0:0:
417,167,308990,6,0,P|425:214|429:262,1,95.9999970703126,4|0,1:1|0:0,0:0:0:0:
350,347,309396,1,0,1:0:0:0:
350,347,309598,1,0,0:0:0:0:
223,238,309801,2,0,P|176:230|128:226,1,95.9999970703126,0|0,0:0|0:0,0:0:0:0:
6,350,310207,2,0,P|53:346|101:337,1,95.9999970703126,0|0,1:0|0:0,0:0:0:0:
22,137,310613,6,0,P|14:184|10:232,1,95.9999970703126
236,333,311018,1,0,1:0:0:0:
236,333,311221,2,0,P|232:285|223:237,1,95.9999970703126,0|0,0:0|0:0,0:0:0:0:
84,64,311627,1,0,0:0:0:0:
84,64,311830,2,0,P|17:74|23:138,1,143.999995605469,0|0,1:0|0:0,0:0:0:0:
119,154,312236,6,0,P|166:150|213:141,1,95.9999970703126,4|0,0:2|0:0,0:0:0:0:
342,24,312641,1,0,1:0:0:0:
342,24,312844,2,0,P|389:28|436:37,1,95.9999970703126,0|0,0:0|0:0,0:0:0:0:
401,272,313250,1,0,0:0:0:0:
401,272,313453,2,0,P|353:281|306:285,1,95.9999970703126,0|0,1:0|0:0,0:0:0:0:
214,141,313859,6,0,P|218:94|227:47,1,95.9999970703126,4|0,0:1|0:0,0:0:0:0:
496,135,314264,1,0,1:0:0:0:
496,135,314467,2,0,P|505:183|509:230,1,95.9999970703126,0|0,0:0|0:0,0:0:0:0:
198,327,314873,1,0,0:0:0:0:
325,108,315076,1,4,1:0:0:0:
325,108,315279,1,0,0:0:0:0:
401,272,315482,6,0,P|397:319|388:366,1,95.9999970703126,4|0,0:2|0:0,0:0:0:0:
113,249,315887,1,0,1:0:0:0:
113,249,316090,2,0,P|103:201|99:154,1,95.9999970703126,0|0,0:0|0:0,0:0:0:0:
325,108,316496,1,0,0:0:0:0:
287,254,316699,1,0,1:0:0:0:
287,254,316902,1,0,0:0:0:0:
174,347,317104,6,0,P|126:356|79:360,1,95.9999970703126,0|0,0:0|0:0,0:0:0:0:
4,141,317510,1,0,1:0:0:0:
4,141,317713,2,0,P|51:145|98:154,1,95.9999970703126,0|0,0:0|0:0,0:0:0:0:
287,254,318119,1,0,0:0:0:0:
440,106,318322,1,0,1:0:0:0:
440,106,318525,1,0,0:0:0:0:
251,6,318727,5,4,0:1:0:0:
269,130,318930,1,0,0:0:0:0:
287,254,319133,2,0,P|283:301|274:348,1,95.9999970703126,0|0,1:0|0:0,0:0:0:0:
151,375,319539,5,0,0:0:0:0:
47,326,319742,1,0,0:0:0:0:
87,218,319945,2,0,P|135:209|182:205,1,95.9999970703126,0|0,1:0|0:0,0:0:0:0:
287,254,320350,5,0,0:0:0:0:
394,267,320553,1,0,0:0:0:0:
491,226,320756,2,0,P|500:178|504:131,1,95.9999970703126,0|0,1:0|0:0,0:0:0:0:
414,18,321162,5,8,0:0:0:0:
377,5,321263,1,8,0:0:0:0:
337,9,321365,1,8,0:0:0:0:
302,28,321466,1,8,0:0:0:0:
279,60,321568,5,8,0:0:0:0:
256,92,321669,1,8,0:0:0:0:
221,111,321770,1,8,0:0:0:0:
181,115,321872,1,8,0:0:0:0:
144,102,321973,6,0,P|122:34|192:19,1,160,4|0,0:2|1:0,0:0:0:0:
319,164,322582,2,0,B|343:211|343:211|331:317,1,160,0|0,0:0|0:0,0:0:0:0:
222,371,323191,2,0,P|181:379|142:381,1,80,0|0,1:0|0:0,0:0:0:0:
70,286,323596,5,0,0:0:0:0:
70,286,323799,1,0,0:0:0:0:
169,218,324002,2,0,P|208:220|248:228,1,80,0|0,1:0|0:0,0:0:0:0:
331,317,324408,2,0,P|370:314|410:306,1,80,0|0,0:0|0:0,0:0:0:0:
434,187,324813,1,4,1:1:0:0:
434,187,325015,1,0,0:0:0:0:
224,109,325217,5,4,0:2:0:0:
248,228,325419,1,0,0:0:0:0:
256,229,325621,1,0,1:0:0:0:
264,230,325823,1,0,0:0:0:0:
315,78,326025,5,0,0:0:0:0:
133,140,326227,1,0,0:0:0:0:
315,78,326429,1,0,1:0:0:0:
133,140,326631,1,0,0:0:0:0:
272,231,326832,5,4,0:2:0:0:
313,62,327035,1,0,0:0:0:0:
311,46,327237,1,0,1:0:0:0:
309,30,327439,1,0,0:0:0:0:
137,52,327641,5,0,0:0:0:0:
133,140,327843,1,0,0:0:0:0:
186,211,328045,1,0,1:0:0:0:
272,231,328247,1,0,0:0:0:0:
350,190,328449,6,0,B|381:180|420:186|450:210|450:210|445:239|434:264,1,160,4|0,0:2|1:0,0:0:0:0:
269,360,329057,2,0,B|241:357|218:347|218:347|189:350|166:360|166:360|137:357|114:347,1,160,0|0,0:0|0:0,0:0:0:0:
54,151,329666,2,0,P|94:143|134:140,1,80,0|0,1:0|0:0,0:0:0:0:
272,231,330072,5,0,0:0:0:0:
373,184,330275,1,0,0:0:0:0:
434,91,330478,2,0,P|442:52|446:13,1,80,0|0,1:0|0:0,0:0:0:0:
268,41,330883,2,0,P|272:80|280:119,1,80,0|0,0:0|0:0,0:0:0:0:
466,248,331289,2,0,P|462:287|454:326,1,80,4|0,1:0|0:0,0:0:0:0:
315,368,331694,5,4,0:2:0:0:
235,363,331896,1,2,0:0:0:0:
156,345,332098,1,0,1:0:0:0:
81,315,332300,1,2,0:0:0:0:
34,94,332502,5,4,0:0:0:0:
109,64,332704,1,2,0:0:0:0:
188,46,332907,1,0,1:0:0:0:
268,41,333109,1,2,0:0:0:0:
353,136,333311,5,4,0:2:0:0:
324,260,333513,1,2,0:0:0:0:
385,132,333715,5,0,1:0:0:0:
403,270,333917,1,2,0:0:0:0:
417,128,334119,5,4,0:0:0:0:
482,280,334322,1,4,0:0:0:0:
245,250,334524,5,0,1:0:0:0:
508,178,334726,1,4,0:0:0:0:
456,382,334928,5,4,0:1:0:0:
177,339,345297,5,0,1:0:0:0:
383,309,345702,1,8,0:0:0:0:
177,339,346108,5,0,1:0:0:0:
268,250,346311,1,0,1:0:0:0:
383,309,346513,2,0,P|431:316|478:318,1,95.9999970703126,8|0,0:0|0:0,0:0:0:0:
500,139,346919,6,0,P|429:144|356:156,1,143.999995605469,4|8,0:0|0:0,0:0:0:0:
268,250,347527,1,0,0:0:0:0:
268,250,347730,2,0,P|197:245|124:233,1,143.999995605469,2|8,0:0|0:0,0:0:0:0:
62,119,348338,1,0,0:0:0:0:
157,32,348540,6,0,P|210:20|263:16,1,107.999996704102,0|0,0:0|0:0,0:0:0:0:
299,23,348946,1,8,0:0:0:0:
379,107,349148,1,0,0:0:0:0:
379,107,349351,2,0,L|374:179,1,71.9999978027344,2|0,0:0|0:0,0:0:0:0:
280,247,349757,2,0,L|285:319,1,71.9999978027344,8|0,0:0|0:0,0:0:0:0:
452,353,350162,6,0,P|490:293|481:224,1,143.999995605469,4|8,0:0|0:0,0:0:0:0:
374,179,350770,1,0,0:0:0:0:
267,133,350972,2,0,P|196:138|123:150,1,143.999995605469,2|8,0:0|0:0,0:0:0:0:
15,190,351581,1,0,0:0:0:0:
23,304,351783,6,0,P|62:360|131:356,1,143.999995605469,0|8,0:0|0:0,0:0:0:0:
238,312,352392,1,0,0:0:0:0:
340,364,352594,2,0,L|412:369,1,71.9999978027344,4|0,0:0|0:0,0:0:0:0:
455,252,353000,2,0,L|383:257,1,71.9999978027344,12|0,0:0|0:0,0:0:0:0:
280,204,353405,6,0,B|252:165|252:165|260:69,1,143.999995605469,4|8,0:0|0:0,0:0:0:0:
372,41,354013,1,0,0:0:0:0:
484,13,354216,2,0,B|512:52|512:52|504:148,1,143.999995605469,2|8,0:0|0:0,0:0:0:0:
455,252,354824,1,0,0:0:0:0:
369,328,355027,6,0,P|333:335|297:337,1,71.9999978027344,0|0,0:0|0:0,0:0:0:0:
263,325,355331,1,0,0:0:0:0:
231,308,355432,2,0,P|195:300|159:298,1,71.9999978027344,8|0,0:0|0:0,0:0:0:0:
48,326,355837,2,0,L|53:254,1,71.9999978027344,2|0,0:0|0:0,0:0:0:0:
132,170,356243,2,0,L|127:98,1,71.9999978027344,8|0,0:0|0:0,0:0:0:0:
52,10,356648,6,0,B|15:72|15:72|20:144,1,143.999995605469,4|8,0:0|0:0,0:0:0:0:
244,196,357257,2,0,P|317:194|373:151,1,143.999995605469
284,13,357865,2,0,L|279:85,1,71.9999978027344,8|0,0:0|0:0,0:0:0:0:
244,196,358270,5,4,0:0:0:0:
133,161,358473,1,0,0:0:0:0:
30,215,358675,2,0,L|35:287,1,71.9999978027344,8|0,0:0|0:0,0:0:0:0:
124,360,359081,2,0,P|160:367|196:369,1,71.9999978027344,2|2,0:0|0:0,0:0:0:0:
230,357,359385,1,2,0:0:0:0:
262,340,359486,2,0,P|298:332|334:330,1,71.9999978027344,8|0,0:0|0:0,0:0:0:0:
444,355,359892,6,0,P|480:294|476:223,1,143.999995605469,4|8,0:0|0:0,0:0:0:0:
416,123,360500,1,0,0:0:0:0:
416,123,360703,2,0,P|344:111|273:106,1,143.999995605469,2|8,0:0|0:0,0:0:0:0:
225,211,361311,1,0,0:0:0:0:
225,211,361513,6,0,P|153:222|82:227,1,143.999995605469,0|8,0:0|0:0,0:0:0:0:
17,131,362121,1,0,0:0:0:0:
97,48,362324,2,0,P|132:49|168:54,1,71.9999978027344,4|0,0:0|0:0,0:0:0:0:
273,106,362730,2,0,P|308:104|344:99,1,71.9999978027344,12|0,0:0|0:0,0:0:0:0:
443,38,363135,6,0,P|433:101|427:180,1,143.999995605469,4|8,0:0|0:0,0:0:0:0:
510,262,363743,1,0,0:0:0:0:
510,262,363945,2,0,P|484:326|417:345,1,143.999995605469,2|8,0:0|0:0,0:0:0:0:
311,304,364554,1,0,0:0:0:0:
222,231,364757,6,0,P|187:236|151:238,1,71.9999978027344,0|0,0:0|0:0,0:0:0:0:
261,123,365162,1,8,0:0:0:0:
261,123,365365,1,0,0:0:0:0:
311,304,365567,2,0,L|306:376,1,71.9999978027344,4|0,0:0|0:0,0:0:0:0:
44,281,365973,2,0,L|39:209,1,71.9999978027344,12|0,0:0|0:0,0:0:0:0:
52,65,366378,6,0,P|113:29|183:37,1,143.999995605469,4|8,0:0|0:0,0:0:0:0:
261,123,366986,1,0,0:0:0:0:
261,123,367189,2,0,P|332:133|403:139,1,143.999995605469,2|8,0:0|0:0,0:0:0:0:
346,239,367797,1,0,0:0:0:0:
346,239,368000,6,0,P|274:245|202:255,1,143.999995605469,0|8,0:0|0:0,0:0:0:0:
149,152,368608,2,0,P|79:139|16:170,1,143.999995605469,0|0,0:0|0:0,0:0:0:0:
46,326,369216,2,0,P|81:331|117:333,1,71.9999978027344,8|0,0:0|0:0,0:0:0:0:
203,255,369621,6,0,P|275:245|347:240,1,143.999995605469,4|8,0:0|0:0,0:0:0:0:
452,285,370230,2,0,P|457:249|459:213,1,71.9999978027344,0|2,0:0|0:0,0:0:0:0:
484,100,370635,1,0,0:0:0:0:
484,100,370838,2,0,P|448:105|412:107,1,71.9999978027344,8|0,0:0|0:0,0:0:0:0:
303,68,371243,5,2,0:0:0:0:
240,172,371446,1,4,0:0:0:0:
127,217,371648,2,0,P|91:214|55:210,1,71.9999978027344,8|2,0:0|0:0,0:0:0:0:
72,95,372054,5,4,0:0:0:0:
185,71,372256,1,2,0:0:0:0:
240,172,372459,2,0,P|245:208|247:244,1,71.9999978027344,12|0,0:0|0:0,0:0:0:0:
201,351,372865,5,8,0:0:0:0:
201,351,373067,2,0,L|273:356,1,71.9999978027344,8|0,0:0|0:0,0:0:0:0:
448,185,373473,5,8,0:0:0:0:
448,185,373675,2,0,P|400:188|352:195,1,95.9999970703126,8|0,0:0|0:0,0:0:0:0:
185,71,374081,5,8,0:0:0:0:
185,71,374283,2,0,P|126:68|72:94,1,120.000004577637,8|0,0:0|3:0,0:0:0:0:
68,118,374588,1,0,3:0:0:0:
64,142,374689,1,8,0:0:0:0:
116,244,374892,5,8,0:0:0:0:
187,235,375094,1,2,3:0:0:0:
267,153,375297,5,0,3:0:0:0:
338,162,375500,1,2,3:0:0:0:
390,264,375703,5,0,3:0:0:0:
461,255,375905,1,2,3:0:0:0:
480,102,376108,5,4,0:0:0:0:
229,25,376513,5,0,1:0:0:0:
229,25,376716,1,2,0:0:0:0:
267,153,376919,2,0,P|264:200|256:248,1,95.9999970703126,0|0,1:0|0:0,0:0:0:0:
172,354,377324,2,0,P|124:362|76:366,1,95.9999970703126,0|2,1:0|0:0,0:0:0:0:
42,173,377730,6,0,P|89:176|137:184,1,95.9999970703126,0|0,1:0|0:0,0:0:0:0:
256,249,378135,1,0,1:0:0:0:
256,249,378338,1,2,0:0:0:0:
340,354,378540,2,0,P|388:362|436:366,1,95.9999970703126,0|0,1:0|0:0,0:0:0:0:
470,173,378946,2,0,P|423:176|375:184,1,95.9999970703126,0|0,1:0|0:0,0:0:0:0:
256,249,379351,1,4,0:0:0:0:
204,24,379757,5,0,1:0:0:0:
204,24,379959,1,2,0:0:0:0:
386,89,380162,2,0,L|375:184,1,95.9999970703126,0|0,1:0|0:0,0:0:0:0:
306,365,380567,2,0,L|401:354,1,95.9999970703126,0|2,1:0|0:0,0:0:0:0:
256,249,380973,6,0,L|161:238,1,95.9999970703126,0|0,1:0|0:0,0:0:0:0:
16,293,381378,1,0,1:0:0:0:
16,293,381581,1,2,0:0:0:0:
40,141,381784,2,0,L|29:46,1,95.9999970703126,0|0,1:0|0:0,0:0:0:0:
267,154,382189,2,0,L|256:249,1,95.9999970703126,0|0,1:0|0:0,0:0:0:0:
153,364,382594,1,4,0:0:0:0:
40,141,383000,5,0,1:0:0:0:
40,141,383202,1,2,0:0:0:0:
172,165,383405,2,0,P|219:162|267:154,1,95.9999970703126,0|0,1:0|0:0,0:0:0:0:
387,93,383811,2,0,P|434:96|482:104,1,95.9999970703126,0|2,1:0|0:0,0:0:0:0:
406,302,384216,5,0,1:0:0:0:
406,302,384419,1,2,0:0:0:0:
267,154,384621,2,0,L|256:59,1,95.9999970703126,0|2,1:0|0:0,0:0:0:0:
482,104,385027,2,0,B|504:147|504:147|493:242,1,143.999995605469,0|0,1:0|0:0,0:0:0:0:
406,302,385432,2,0,P|358:309|310:313,1,95.9999970703126,0|0,1:0|0:0,0:0:0:0:
169,245,385838,2,0,P|121:237|73:233,1,95.9999970703126,4|0,0:0|0:0,0:0:0:0:
267,154,386243,5,0,1:0:0:0:
199,376,386446,1,2,0:0:0:0:
139,114,386648,2,0,L|150:19,1,95.9999970703126,0|0,1:0|0:0,0:0:0:0:
387,93,387054,2,0,L|398:188,1,95.9999970703126,0|2,1:0|0:0,0:0:0:0:
329,315,387459,5,0,1:0:0:0:
310,313,387662,1,2,0:0:0:0:
169,245,387865,1,0,1:0:0:0:
398,188,388067,1,2,0:0:0:0:
291,311,388270,5,0,1:0:0:0:
272,309,388473,1,2,0:0:0:0:
227,138,388675,1,0,1:0:0:0:
398,188,388878,1,0,3:0:0:0:
253,307,389081,5,4,0:0:0:0:
358,31,389486,5,0,1:0:0:0:
358,31,389689,1,2,0:0:0:0:
398,188,389892,2,0,P|395:235|387:283,1,95.9999970703126,0|0,1:0|0:0,0:0:0:0:
119,331,390297,1,0,1:0:0:0:
119,331,390500,1,2,0:0:0:0:
204,141,390702,2,0,P|252:133|300:129,1,95.9999970703126,0|0,1:0|0:0,0:0:0:0:
265,378,391108,5,0,1:0:0:0:
265,378,391209,1,0,0:0:0:0:
265,378,391311,1,2,0:0:0:0:
74,172,391513,2,0,P|77:125|85:77,1,95.9999970703126,0|0,1:0|0:0,0:0:0:0:
287,34,391919,2,0,P|295:82|299:130,1,95.9999970703126,0|2,1:0|0:0,0:0:0:0:
119,331,392324,1,4,0:0:0:0:
454,370,392730,5,0,1:0:0:0:
454,370,392932,1,2,0:0:0:0:
361,248,393135,2,0,L|266:259,1,95.9999970703126,0|0,1:0|0:0,0:0:0:0:
119,331,393540,1,0,1:0:0:0:
119,331,393743,1,2,0:0:0:0:
26,209,393946,2,0,L|15:114,1,95.9999970703126,0|0,1:0|0:0,0:0:0:0:
279,30,394351,5,0,1:0:0:0:
279,30,394554,1,2,0:0:0:0:
372,152,394757,2,0,L|361:247,1,95.9999970703126,0|0,1:0|0:0,0:0:0:0:
119,331,395162,1,0,1:0:0:0:
119,331,395365,1,2,0:0:0:0:
146,196,395567,2,0,P|194:188|242:184,1,95.9999970703126,4|0,0:0|0:0,0:0:0:0:
299,366,395973,6,0,P|347:374|395:378,1,95.9999970703126,0|2,1:0|0:0,0:0:0:0:
502,184,396378,2,0,L|491:89,1,95.9999970703126,0|0,1:0|0:0,0:0:0:0:
352,20,396784,5,0,1:0:0:0:
203,53,396986,1,2,0:0:0:0:
146,196,397189,2,0,P|98:204|50:208,1,95.9999970703126,0|0,1:0|0:0,0:0:0:0:
69,36,397594,5,0,1:0:0:0:
203,53,397797,1,2,0:0:0:0:
277,164,398000,2,0,P|274:211|266:259,1,95.9999970703126,0|0,1:0|0:0,0:0:0:0:
397,225,398405,6,0,P|444:228|492:236,1,95.9999970703126,0|2,1:0|0:0,0:0:0:0:
429,355,398811,2,0,P|362:376|294:350,1,143.999995605469,4|0,0:0|0:0,0:0:0:0:
266,259,399216,1,0,1:0:0:0:
146,196,399419,2,0,P|98:203|50:207,1,95.9999970703126,2|0,0:0|1:0,0:0:0:0:
128,363,399824,1,2,0:0:0:0:
128,363,400027,1,0,1:0:0:0:
266,259,400230,1,2,0:0:0:0:
266,259,400331,1,0,0:0:0:0:
266,259,400432,6,0,P|274:211|277:164,1,95.9999970703126,0|2,1:0|0:0,0:0:0:0:
246,34,400838,2,0,P|294:42|341:45,1,95.9999970703126,0|2,1:0|0:0,0:0:0:0:
471,14,401243,2,0,P|463:62|460:109,1,95.9999970703126,4|2,1:2|0:0,0:0:0:0:
491,239,401648,2,0,P|443:231|396:228,1,95.9999970703126,4|0,1:2|3:0,0:0:0:0:
266,259,402054,5,4,0:0:0:0:
196,373,402257,1,2,0:0:0:0:
66,342,402459,1,0,1:0:0:0:
56,209,402662,1,4,0:0:0:0:
179,157,402865,2,0,P|187:109|190:62,1,95.9999970703126,2|0,0:0|0:0,0:0:0:0:
45,114,403270,5,4,0:0:0:0:
45,114,403473,2,0,P|48:161|56:209,1,95.9999970703126,2|0,0:0|0:0,0:0:0:0:
266,259,403878,1,4,0:0:0:0:
266,259,404081,2,0,P|263:306|255:354,1,95.9999970703126,2|0,0:0|0:0,0:0:0:0:
179,157,404486,5,0,3:0:0:0:
203,154,404588,1,0,3:0:0:0:
227,151,404689,1,0,3:0:0:0:
114,348,404892,1,0,3:0:0:0:
90,345,404993,1,0,3:0:0:0:
66,342,405094,1,0,3:0:0:0:
56,209,405297,5,4,0:0:0:0:
179,157,405500,1,2,0:0:0:0:
266,259,405702,1,0,1:0:0:0:
389,311,405905,1,4,0:0:0:0:
476,209,406108,2,0,P|484:161|487:114,1,95.9999970703126,2|0,0:0|0:0,0:0:0:0:
368,50,406513,5,4,0:0:0:0:
368,50,406716,2,0,P|320:58|273:61,1,95.9999970703126,2|0,0:0|0:0,0:0:0:0:
179,157,407121,1,4,0:0:0:0:
179,157,407324,2,0,P|131:153|83:145,1,95.9999970703126,2|0,0:0|0:0,0:0:0:0:
1,38,407730,5,0,3:0:0:0:
1,38,407932,1,0,3:0:0:0:
151,6,408135,1,0,1:0:0:0:
151,6,408338,1,0,3:0:0:0:
179,157,408540,5,4,0:0:0:0:
289,193,408743,1,2,0:0:0:0:
398,227,408946,1,0,1:0:0:0:
433,117,409148,1,0,0:0:0:0:
468,7,409351,2,0,P|421:10|373:18,1,95.9999970703126,2|0,0:0|0:0,0:0:0:0:
179,157,409757,5,0,1:0:0:0:
179,157,409959,2,0,P|132:154|84:146,1,95.9999970703126,2|0,0:0|0:0,0:0:0:0:
155,327,410365,1,0,0:0:0:0:
155,327,410567,2,0,P|202:319|250:315,1,95.9999970703126,0|0,1:0|0:0,0:0:0:0:
373,130,410973,6,0,P|381:82|384:35,1,95.9999970703126,2|0,0:0|0:0,0:0:0:0:
168,62,411378,2,0,P|171:109|179:157,1,95.9999970703126,0|0,1:0|0:0,0:0:0:0:
179,157,411682,1,0,0:0:0:0:
179,157,411784,5,4,0:0:0:0:
284,205,411986,1,2,0:0:0:0:
284,205,412189,1,0,1:0:0:0:
250,315,412392,1,0,0:0:0:0:
250,315,412594,2,0,P|202:319|155:327,1,95.9999970703126,2|0,0:0|0:0,0:0:0:0:
61,275,413000,5,0,1:0:0:0:
74,170,413202,1,2,0:0:0:0:
74,170,413405,1,0,0:0:0:0:
116,73,413608,5,0,0:0:0:0:
11,86,413811,1,0,1:0:0:0:
11,86,414013,1,0,0:0:0:0:
179,157,414216,6,0,P|226:165|274:169,1,95.9999970703126,2|0,0:0|0:0,0:0:0:0:
443,56,414621,1,0,1:0:0:0:
415,197,414824,1,0,0:0:0:0:
302,28,415027,5,4,1:1:0:0:
443,178,427024,6,0,P|440:139|435:99,1,80,4|0,0:0|0:0,0:0:0:0:
387,2,427318,1,2,0:0:0:0:
387,2,427416,2,0,P|446:7|505:17,1,120.000004577637,8|0,0:0|0:0,0:0:0:0:
339,148,427808,6,0,P|299:153|259:156,1,80,0|0,0:0|0:0,0:0:0:0:
160,111,428102,1,2,0:0:0:0:
160,111,428200,2,0,P|100:100|41:96,1,120.000004577637,8|0,0:0|0:0,0:0:0:0:
9,236,428592,6,0,P|12:275|17:315,1,80,0|0,0:0|0:0,0:0:0:0:
119,351,428887,1,2,0:0:0:0:
119,351,428985,2,0,P|178:346|237:336,1,120.000004577637,8|0,0:0|0:0,0:0:0:0:
331,227,429377,6,0,P|334:188|339:148,1,80,0|0,0:0|0:0,0:0:0:0:
267,65,429671,1,2,0:0:0:0:
267,65,429769,2,0,P|326:54|385:49,1,120.000004577637,8|0,0:0|0:0,0:0:0:0:
235,180,430161,6,0,P|196:177|156:172,1,80,4|0,0:1|0:0,0:0:0:0:
59,124,430455,1,2,0:0:0:0:
59,124,430553,2,0,P|64:183|75:242,1,120.000004577637,8|0,0:0|0:0,0:0:0:0:
238,336,430945,6,0,P|278:330|318:327,1,80,0|0,0:0|0:0,0:0:0:0:
393,249,431239,1,2,0:0:0:0:
393,249,431337,2,0,P|452:260|511:265,1,120.000004577637,8|0,0:0|0:0,0:0:0:0:
402,108,431729,6,0,P|362:111|322:116,1,80,0|0,0:0|0:0,0:0:0:0:
236,181,432023,1,2,0:0:0:0:
236,181,432121,1,8,0:0:0:0:
393,249,432317,1,0,0:0:0:0:
498,157,432513,6,0,P|503:117|505:77,1,80,0|0,0:0|0:0,0:0:0:0:
315,36,432905,2,0,P|317:75|322:115,1,80,8|0,0:0|0:0,0:0:0:0:
393,249,433297,6,0,P|391:288|386:328,1,80,4|0,0:0|0:0,0:0:0:0:
285,378,433690,1,8,0:0:0:0:
189,319,433886,1,2,0:0:0:0:
88,368,434082,6,0,P|48:373|8:375,1,80,0|0,0:0|0:0,0:0:0:0:
39,267,434474,1,8,0:0:0:0:
140,218,434670,1,2,0:0:0:0:
170,110,434866,6,0,P|165:70|163:30,1,80,0|0,0:0|0:0,0:0:0:0:
271,61,435258,1,8,0:0:0:0:
371,11,435454,1,2,0:0:0:0:
479,42,435650,6,0,P|477:81|471:121,1,80,0|0,0:0|0:0,0:0:0:0:
312,216,436042,2,0,P|314:255|318:295,1,80,8|0,0:0|0:0,0:0:0:0:
498,377,436434,6,0,P|503:337|505:297,1,80,4|0,0:0|0:0,0:0:0:0:
429,221,436728,1,2,0:0:0:0:
429,221,436826,2,0,B|391:207|391:207|311:216,1,120.000004577637,8|0,0:0|0:0,0:0:0:0:
227,354,437218,6,0,L|147:346,1,80,0|0,0:0|0:0,0:0:0:0:
71,270,437512,1,2,0:0:0:0:
71,270,437610,2,0,B|57:232|57:232|66:152,1,120.000004577637,8|0,0:0|0:0,0:0:0:0:
172,33,438002,6,0,P|211:28|251:26,1,80,0|0,0:0|0:0,0:0:0:0:
341,85,438296,1,2,0:0:0:0:
341,85,438394,2,0,P|400:96|459:101,1,120.000004577637,8|0,0:0|0:0,0:0:0:0:
382,223,438787,6,0,P|387:262|389:302,1,80,0|0,0:0|0:0,0:0:0:0:
285,272,439081,1,2,0:0:0:0:
285,272,439179,2,0,P|226:261|167:256,1,120.000004577637,8|0,0:0|0:0,0:0:0:0:
58,374,439571,6,0,P|59:334|65:294,1,80,4|0,0:1|0:0,0:0:0:0:
23,195,439865,1,2,0:0:0:0:
23,195,439963,2,0,P|12:136|7:77,1,120.000004577637,8|0,0:0|0:0,0:0:0:0:
162,115,440355,6,0,P|202:114|242:108,1,80,0|0,0:0|0:0,0:0:0:0:
326,41,440649,1,2,0:0:0:0:
326,41,440747,2,0,P|385:52|444:57,1,120.000004577637,8|0,0:0|0:0,0:0:0:0:
489,210,441139,6,0,P|488:250|482:290,1,80,0|0,0:0|0:0,0:0:0:0:
390,347,441433,1,2,0:0:0:0:
390,347,441531,2,0,P|331:358|272:363,1,120.000004577637,8|0,0:0|0:0,0:0:0:0:
128,292,441923,5,0,0:0:0:0:
199,149,442119,1,2,0:0:0:0:
199,149,442217,1,2,0:0:0:0:
199,149,442315,1,8,0:0:0:0:
271,363,442511,1,0,0:0:0:0:
128,292,442707,5,4,0:0:0:0:
235,256,442903,1,0,0:0:0:0:
342,220,443099,1,8,0:0:0:0:
449,184,443295,1,0,3:0:0:0:
447,172,443393,1,0,3:0:0:0:
445,160,443492,1,8,0:0:0:0:
273,15,443884,6,0,L|257:146,1,132.00000402832,4|0,0:0|0:0,0:0:0:0:
257,146,444276,6,0,L|165:51,1,132.00000402832,4|0,0:0|0:0,0:0:0:0:
165,51,444668,6,0,L|150:183,1,132.00000402832,4|0,0:0|0:0,0:0:0:0:
91,273,445060,6,0,B|96:312|121:344|121:344|159:349|196:334,1,155.999992858887,4|0,0:0|0:0,0:0:0:0:
197,334,445452,6,0,B|221:366|258:380|258:380|295:366|319:334,1,155.999992858887,4|0,0:0|0:0,0:0:0:0:
320,333,445844,5,4,0:0:0:0:
356,231,446040,1,0,0:0:0:0:
462,211,446236,2,0,B|487:170|487:170|477:74,1,143.999995605469,0|0,1:0|0:0,0:0:0:0:
394,6,446824,1,0,0:0:0:0:
288,26,447020,1,8,0:0:0:0:
288,26,447118,1,0,3:0:0:0:
176,143,447412,5,2,0:0:0:0:
70,123,447608,1,0,0:0:0:0:
106,225,447804,2,0,B|111:273|111:273|89:316|89:316|94:364,1,143.999995605469,0|0,1:0|0:0,0:0:0:0:
200,383,448393,1,0,0:0:0:0:
283,314,448589,1,8,0:0:0:0:
283,314,448687,1,0,3:0:0:0:
443,344,448981,5,4,0:0:0:0:
425,237,449177,1,0,0:0:0:0:
346,164,449373,2,0,B|356:68|356:68|331:27,1,143.999995605469,0|0,1:0|0:0,0:0:0:0:
245,93,449961,1,0,0:0:0:0:
138,75,450157,1,8,0:0:0:0:
138,75,450255,1,0,3:0:0:0:
9,172,450549,5,2,0:0:0:0:
27,279,450745,1,0,0:0:0:0:
88,367,450941,2,0,P|158:377|226:354,1,143.999995605469,0|0,1:0|0:0,0:0:0:0:
295,270,451529,1,0,0:0:0:0:
402,288,451725,1,8,0:0:0:0:
402,288,451823,1,0,3:0:0:0:
505,161,452117,5,4,0:0:0:0:
487,54,452313,1,0,0:0:0:0:
404,123,452509,2,0,P|334:133|266:110,1,143.999995605469,0|0,1:0|0:0,0:0:0:0:
197,27,453097,1,0,0:0:0:0:
90,45,453294,1,8,0:0:0:0:
90,45,453392,1,0,3:0:0:0:
11,187,453686,5,2,0:0:0:0:
117,205,453882,1,0,0:0:0:0:
186,288,454078,2,0,B|234:293|234:293|277:271|277:271|325:276,1,143.999995605469,0|0,1:0|0:0,0:0:0:0:
392,359,454666,1,0,0:0:0:0:
498,341,454862,1,8,0:0:0:0:
498,341,454960,1,0,3:0:0:0:
448,187,455254,5,4,0:0:0:0:
342,169,455450,1,2,0:0:0:0:
342,169,455646,1,2,0:0:0:0:
422,14,455842,5,4,0:0:0:0:
498,91,456038,1,2,0:0:0:0:
498,91,456234,1,2,0:0:0:0:
342,169,456430,5,4,0:0:0:0:
422,14,456626,1,2,0:0:0:0:
448,187,456822,1,4,0:0:0:0:
326,62,457018,5,0,3:0:0:0:
308,60,457116,1,0,3:0:0:0:
290,58,457214,1,0,3:0:0:0:
272,56,457312,1,0,3:0:0:0:
254,54,457410,1,0,3:0:0:0:
236,52,457508,1,0,3:0:0:0:
218,50,457606,5,4,3:0:0:0:
121,215,457802,1,8,0:0:0:0:
87,227,457900,1,8,0:0:0:0:
51,229,457998,1,8,3:0:0:0:
22,207,458096,1,8,3:0:0:0:
4,176,458195,1,8,3:0:0:0:
2,140,458293,1,8,3:0:0:0:
11,106,458391,5,4,0:0:0:0:
248,178,458783,1,0,1:0:0:0:
248,178,458979,2,0,B|256:236|256:236|230:289|230:289|238:347,1,176.000005371094,2|0,0:0|0:0,0:0:0:0:
420,298,459567,2,0,P|422:254|429:210,1,88.000002685547,0|0,1:0|0:0,0:0:0:0:
353,113,459959,6,0,P|346:69|344:25,1,88.000002685547,2|0,0:0|0:0,0:0:0:0:
482,55,460351,1,0,1:0:0:0:
482,55,460547,2,0,B|472:173|472:173|429:210,1,176.000005371094,2|0,0:0|0:0,0:0:0:0:
273,242,461135,1,0,1:0:0:0:
273,242,461331,1,0,0:0:0:0:
139,156,461527,6,0,P|95:150|51:147,1,88.000002685547,4|0,0:0|0:0,0:0:0:0:
14,283,461919,1,0,1:0:0:0:
14,283,462115,2,0,P|16:327|23:371,1,88.000002685547,2|0,0:0|0:0,0:0:0:0:
264,329,462507,1,0,0:0:0:0:
264,329,462703,2,0,P|270:285|273:241,1,88.000002685547,0|0,1:0|0:0,0:0:0:0:
201,30,463096,5,2,0:0:0:0:
317,109,463292,1,0,3:0:0:0:
343,106,463390,1,0,3:0:0:0:
369,103,463488,1,0,1:0:0:0:
494,38,463684,1,0,3:0:0:0:
494,38,463782,1,0,3:0:0:0:
494,38,463880,1,0,3:0:0:0:
460,210,464076,1,0,3:0:0:0:
460,210,464174,1,0,3:0:0:0:
460,210,464272,2,0,P|462:254|469:298,1,88.000002685547,0|0,1:0|0:0,0:0:0:0:
330,266,464664,5,4,0:0:0:0:
105,366,465056,1,0,1:0:0:0:
105,366,465252,2,0,B|163:358|163:358|216:384|216:384|274:376,1,176.000005371094,2|0,0:0|0:0,0:0:0:0:
330,266,465840,2,0,P|336:222|338:178,1,88.000002685547,0|0,1:0|0:0,0:0:0:0:
370,60,466232,6,0,P|326:66|282:68,1,88.000002685547,2|0,0:0|0:0,0:0:0:0:
173,12,466624,1,0,1:0:0:0:
173,12,466820,2,0,B|131:-3|86:5|86:5|54:42|48:84,1,176.000005371094,2|0,2:0|2:0,2:2:0:0:
42,207,467408,1,0,1:0:0:0:
42,207,467604,1,0,2:0:0:0:
157,271,467800,6,0,P|244:264|331:250,1,176.000005371094,4|0,0:0|1:0,0:0:0:0:
438,172,468389,2,0,P|454:88|403:20,1,176.000005371094,2|0,0:0|0:0,0:0:0:0:
274,46,468977,2,0,P|269:89|267:133,1,88.000002685547,0|0,1:0|0:0,0:0:0:0:
332,250,469369,5,4,0:0:0:0:
438,172,469565,1,2,0:0:0:0:
267,134,469761,1,0,1:0:0:0:
241,136,469859,1,0,3:0:0:0:
215,138,469957,1,0,3:0:0:0:
189,140,470055,1,0,3:0:0:0:
163,142,470153,5,4,3:0:0:0:
57,220,470349,1,2,0:0:0:0:
4,99,470545,1,0,1:0:0:0:
47,89,470643,1,8,3:0:0:0:
91,93,470741,1,8,3:0:0:0:
131,111,470839,1,8,3:0:0:0:
163,142,470937,5,4,0:0:0:0:
110,341,471329,1,0,1:0:0:0:
110,341,471525,2,0,P|197:346|277:313,1,176.000005371094,2|0,0:0|0:0,0:0:0:0:
399,367,472113,2,0,P|443:374|487:376,1,88.000002685547,0|0,1:0|0:0,0:0:0:0:
422,184,472505,6,0,P|378:186|334:193,1,88.000002685547,2|0,0:0|0:0,0:0:0:0:
278,312,472898,1,0,1:0:0:0:
278,312,473094,2,0,P|198:345|111:341,1,176.000005371094,2|0,0:0|0:0,0:0:0:0:
14,249,473682,1,0,1:0:0:0:
14,249,473878,1,0,0:0:0:0:
73,130,474074,6,0,P|80:86|82:42,1,88.000002685547,4|0,0:0|0:0,0:0:0:0:
201,99,474466,1,0,1:0:0:0:
201,99,474662,2,0,P|245:97|289:90,1,88.000002685547,2|0,0:0|0:0,0:0:0:0:
387,3,475054,1,0,0:0:0:0:
387,3,475250,2,0,P|431:5|475:12,1,88.000002685547,0|0,1:0|0:0,0:0:0:0:
414,215,475642,5,2,0:0:0:0:
283,142,475838,1,0,3:0:0:0:
286,116,475936,1,0,3:0:0:0:
289,90,476034,1,0,1:0:0:0:
475,12,476230,1,0,3:0:0:0:
480,47,476328,1,0,3:0:0:0:
485,82,476426,1,0,3:0:0:0:
414,215,476622,1,0,3:0:0:0:
380,243,476720,1,0,3:0:0:0:
340,261,476818,2,0,P|296:268|252:270,1,88.000002685547,0|0,1:0|0:0,0:0:0:0:
122,251,477210,5,4,0:0:0:0:
6,65,477602,1,0,1:0:0:0:
6,65,477799,2,0,P|91:76|167:34,1,176.000005371094,2|0,0:0|0:0,0:0:0:0:
289,90,478387,2,0,P|332:96|376:98,1,88.000002685547,0|0,1:0|0:0,0:0:0:0:
496,43,478779,6,0,P|502:86|504:130,1,88.000002685547,2|0,0:0|0:0,0:0:0:0:
466,256,479171,1,0,1:0:0:0:
466,256,479367,2,0,P|390:298|304:287,1,176.000005371094,2|0,0:0|0:0,0:0:0:0:
195,137,479955,2,0,P|151:139|107:146,1,88.000002685547,0|0,1:0|0:0,0:0:0:0:
1,320,480347,6,0,P|75:364|160:351,1,176.000005371094,4|0,0:0|1:0,0:0:0:0:
305,287,480935,2,0,B|321:248|321:248|308:205|308:205|332:164|326:120,1,176.000005371094,2|0,0:0|0:0,0:0:0:0:
108,146,481523,2,0,P|102:189|100:233,1,88.000002685547,0|0,1:0|0:0,0:0:0:0:
160,351,481915,5,0,3:0:0:0:
184,357,482013,1,0,3:0:0:0:
207,362,482111,1,0,3:0:0:0:
231,366,482209,1,0,3:0:0:0:
255,368,482307,5,8,3:0:0:0:
271,350,482405,1,8,3:0:0:0:
284,331,482503,1,8,3:0:0:0:
296,309,482601,1,8,3:0:0:0:
305,287,482700,5,0,3:0:0:0:
329,293,482798,1,0,3:0:0:0:
352,298,482896,1,0,3:0:0:0:
376,302,482994,1,0,3:0:0:0:
400,303,483092,6,0,P|443:291|479:268,1,88.000002685547,4|0,0:0|0:0,0:0:0:0:
345,81,483484,5,0,1:0:0:0:
345,81,483582,1,0,1:0:0:0:
345,81,483680,2,0,P|310:82|274:88,1,71.9999978027344,0|0,1:0|0:0,0:0:0:0:
203,179,484072,2,0,P|135:191|73:155,1,143.999995605469,4|0,0:0|3:0,0:0:0:0:
73,155,484562,1,0,3:0:0:0:
73,155,484660,1,8,3:0:0:0:
51,41,484856,1,0,0:0:0:0:
281,17,485052,6,0,P|280:52|274:88,1,71.9999978027344,0|0,0:0|0:0,0:0:0:0:
203,179,485444,1,8,1:2:0:0:
204,214,485542,1,0,1:0:0:0:
210,250,485640,1,0,1:0:0:0:
279,360,485836,5,0,0:0:0:0:
392,340,486032,1,0,0:0:0:0:
452,242,486228,1,12,0:0:0:0:
420,131,486424,1,0,0:0:0:0:
316,82,486620,5,0,1:0:0:0:
295,85,486718,1,0,1:0:0:0:
274,88,486816,1,0,1:0:0:0:
210,250,487012,1,0,0:0:0:0:
420,131,487208,1,4,0:0:0:0:
170,39,487404,6,0,P|163:74|161:112,1,71.9999978027344,0|0,0:0|0:0,0:0:0:0:
210,250,487797,2,0,P|208:285|200:321,1,71.9999978027344,0|0,1:0|1:0,0:0:0:0:
187,347,488091,1,0,1:0:0:0:
169,370,488189,5,0,1:0:0:0:
17,324,488385,1,0,3:0:0:0:
11,288,488483,1,0,3:0:0:0:
10,253,488581,1,12,0:0:0:0:
51,145,488777,1,4,0:0:0:0:
161,110,488973,5,0,1:0:0:0:
190,114,489071,1,0,1:0:0:0:
219,118,489169,1,0,1:0:0:0:
319,173,489365,2,0,P|354:171|390:163,1,71.9999978027344,4|0,0:0|0:0,0:0:0:0:
492,110,489757,5,0,1:0:0:0:
492,110,489855,1,0,1:0:0:0:
492,110,489953,2,0,P|499:149|502:189,1,80,0|0,1:0|0:0,0:0:0:0:
360,355,490345,5,6,0:0:0:0:
360,355,490443,1,2,0:0:0:0:
360,355,490541,2,0,P|362:315|370:275,1,80,2|0,0:0|0:0,0:0:0:0:
472,329,490933,1,8,1:2:0:0:
248,381,491129,1,0,3:0:0:0:
248,381,491227,1,0,3:0:0:0:
248,381,491325,5,8,3:0:0:0:
230,380,491423,1,8,3:0:0:0:
212,378,491521,1,8,3:0:0:0:
194,375,491619,1,8,3:0:0:0:
177,371,491717,5,4,0:0:0:0:
145,354,491815,1,0,3:0:0:0:
126,324,491913,1,0,3:0:0:0:
123,288,492011,1,0,3:0:0:0:
138,256,492109,5,0,1:0:0:0:
153,224,492207,1,0,1:0:0:0:
150,188,492305,1,4,1:0:0:0:
131,158,492403,1,0,1:0:0:0:
99,141,492502,5,0,3:0:0:0:
67,124,492600,1,0,3:0:0:0:
48,94,492698,1,0,3:0:0:0:
45,58,492796,1,0,3:0:0:0:
60,26,492894,5,8,3:0:0:0:
173,1,493090,1,8,3:0:0:0:
191,3,493188,1,8,3:0:0:0:
263,92,493384,1,8,3:0:0:0:
281,90,493482,1,8,3:0:0:0:
386,43,493678,6,0,P|433:55|480:60,1,95.9999970703126,4|0,0:0|0:0,0:0:0:0:
480,60,493972,2,0,P|491:106|497:154,1,95.9999970703126,2|0,0:0|0:0,0:0:0:0:
497,154,494266,1,2,0:0:0:0:
468,273,494462,5,0,3:0:0:0:
446,290,494560,1,0,3:0:0:0:
421,300,494658,1,0,3:0:0:0:
394,301,494756,1,0,3:0:0:0:
368,295,494854,5,0,1:0:0:0:
349,326,494952,1,0,1:0:0:0:
320,347,495050,1,0,1:0:0:0:
284,354,495148,1,0,1:0:0:0:
249,346,495246,5,0,3:0:0:0:
220,325,495344,1,0,3:0:0:0:
202,294,495442,1,0,3:0:0:0:
199,258,495540,1,0,3:0:0:0:
209,224,495638,5,8,3:2:0:0:
257,202,495736,1,8,3:2:0:0:
310,210,495834,1,8,3:2:0:0:
351,244,495932,1,8,3:2:0:0:
368,295,496030,5,4,0:0:0:0:
175,97,507832,6,0,P|177:50|187:3,1,95.9999970703126,4|0,0:0|0:0,0:0:0:0:
367,54,508222,2,0,P|376:102|379:149,1,95.9999970703126,4|0,0:0|0:0,0:0:0:0:
246,274,508612,5,4,0:1:0:0:
246,274,508807,1,2,0:0:0:0:
426,251,509001,1,8,0:0:0:0:
267,164,509195,1,2,0:0:0:0:
344,329,509390,1,0,0:0:0:0:
379,149,509586,1,2,0:0:0:0:
246,274,509780,2,0,L|165:266,1,80,8|0,0:0|0:0,0:0:0:0:
15,164,510171,5,0,0:0:0:0:
15,164,510366,1,2,0:0:0:0:
142,139,510560,1,8,0:0:0:0:
142,139,510755,1,2,0:0:0:0:
167,266,510950,2,0,B|161:286|149:302|149:302|129:316|101:320|72:313,1,120,0|0,0:0|0:0,0:0:0:0:
7,244,511339,2,0,L|15:163,1,80,8|0,0:0|0:0,0:0:0:0:
117,12,511729,5,0,0:0:0:0:
117,12,511924,1,2,0:0:0:0:
269,114,512119,1,8,0:0:0:0:
167,266,512313,1,2,0:0:0:0:
15,164,512509,1,0,0:0:0:0:
142,139,512703,1,2,0:0:0:0:
269,114,512898,2,0,P|279:76|284:36,1,80,8|0,0:0|0:0,0:0:0:0:
117,12,513288,5,0,0:0:0:0:
117,12,513483,1,2,0:0:0:0:
142,139,513677,1,8,0:0:0:0:
167,266,513872,2,0,B|190:279|217:284|217:284|240:271|267:266|267:266|290:279|317:284,1,160,2|0,0:0|0:0,0:0:0:0:
420,208,514456,2,0,P|459:203|498:192,1,80,8|0,0:0|0:0,0:0:0:0:
481,321,514846,5,0,0:0:0:0:
481,321,515041,1,2,0:0:0:0:
317,284,515236,1,8,0:0:0:0:
359,95,515430,1,2,0:0:0:0:
420,208,515625,1,0,0:0:0:0:
420,208,515723,1,0,0:0:0:0:
420,208,515820,1,2,0:0:0:0:
317,284,516015,2,0,P|279:294|239:299,1,80,8|0,0:0|0:0,0:0:0:0:
109,220,516405,5,0,0:0:0:0:
109,220,516600,1,2,0:0:0:0:
58,362,516794,2,0,P|96:372|136:377,1,80,8|2,0:0|0:0,0:0:0:0:
239,299,517184,1,0,0:0:0:0:
241,283,517281,1,0,0:0:0:0:
243,267,517379,1,2,0:0:0:0:
109,220,517573,2,0,P|69:224|30:235,1,80,8|2,0:0|0:0,0:0:0:0:
136,377,517963,5,0,0:0:0:0:
136,377,518158,1,2,0:0:0:0:
211,144,518353,2,0,L|203:63,1,80,8|2,0:0|0:0,0:0:0:0:
39,155,518742,2,0,L|31:236,1,80,0|2,0:0|0:0,0:0:0:0:
239,299,519132,1,8,0:0:0:0:
338,269,519327,1,2,0:0:0:0:
419,204,519522,5,2,3:0:0:0:
391,359,519717,1,2,3:0:0:0:
391,359,519911,1,4,3:0:0:0:
285,179,520106,5,4,3:0:0:0:
239,299,520301,1,0,1:0:0:0:
239,299,520496,1,0,1:0:0:0:
419,204,520691,5,0,3:0:0:0:
419,204,520885,1,0,3:0:0:0:
151,154,521080,5,4,0:0:0:0:
151,154,521275,1,2,0:0:0:0:
239,299,521470,1,8,0:0:0:0:
285,179,521665,1,2,0:0:0:0:
331,59,521860,1,0,0:0:0:0:
419,204,522054,1,2,0:0:0:0:
151,154,522249,2,0,P|108:157|65:166,1,88.000002685547,8|0,0:0|0:0,0:0:0:0:
36,321,522639,5,0,0:0:0:0:
36,321,522834,1,2,0:0:0:0:
143,361,523028,1,8,0:0:0:0:
239,299,523223,1,2,0:0:0:0:
346,339,523418,1,0,0:0:0:0:
389,339,523515,1,0,0:0:0:0:
428,319,523612,1,2,0:0:0:0:
453,283,523710,1,0,0:0:0:0:
460,240,523808,2,0,P|457:197|448:154,1,88.000002685547,8|0,0:0|0:0,0:0:0:0:
365,72,524197,5,0,0:0:0:0:
365,72,524392,1,2,0:0:0:0:
252,91,524587,1,8,0:0:0:0:
200,193,524782,1,2,0:0:0:0:
87,174,524977,5,0,0:0:0:0:
69,60,525171,1,2,0:0:0:0:
171,9,525366,1,8,0:0:0:0:
252,91,525561,5,2,0:0:0:0:
200,193,525756,1,0,0:0:0:0:
290,85,525951,5,2,0:0:0:0:
277,211,526146,1,8,0:0:0:0:
327,78,526340,5,2,0:0:0:0:
354,229,526535,1,0,0:0:0:0:
365,72,526730,5,2,0:0:0:0:
431,247,526925,1,8,0:0:0:0:
200,193,527120,1,2,0:0:0:0:
460,135,527315,5,4,0:0:0:0:
402,359,527704,1,8,0:0:0:0:
290,383,527899,1,2,0:0:0:0:
204,307,528094,1,0,0:0:0:0:
204,307,528191,1,0,0:0:0:0:
204,307,528289,1,2,0:0:0:0:
92,331,528483,2,0,P|49:328|6:319,1,88.000002685547,8|0,0:0|0:0,0:0:0:0:
87,182,528873,5,0,0:0:0:0:
87,182,529068,1,2,0:0:0:0:
200,193,529262,1,8,0:0:0:0:
307,157,529458,1,2,0:0:0:0:
390,80,529652,2,0,P|433:83|476:92,1,88.000002685547,0|2,0:0|0:0,0:0:0:0:
509,221,530042,2,0,L|499:308,1,88.000002685547,8|0,0:0|0:0,0:0:0:0:
317,244,530432,6,0,L|307:157,1,88.000002685547,4|2,0:0|0:0,0:0:0:0:
477,92,530821,1,8,0:0:0:0:
477,92,531016,1,2,0:0:0:0:
386,335,531211,2,0,P|326:358|262:345,1,132.00000402832,0|0,0:0|0:0,0:0:0:0:
186,298,531601,2,0,P|142:301|99:309,1,88.000002685547,8|0,0:0|0:0,0:0:0:0:
127,99,531990,5,2,3:0:0:0:
127,99,532185,1,2,3:0:0:0:
256,127,532380,1,4,3:0:0:0:
317,244,532575,1,4,3:0:0:0:
35,193,532769,5,0,1:0:0:0:
35,193,532964,1,0,1:0:0:0:
256,127,533159,1,0,1:0:0:0:
186,298,533354,1,0,1:0:0:0:
127,99,533549,6,0,B|156:57|206:49|206:49|213:98|256:127,1,191.999994140625,4|0,1:0|1:0,0:0:0:0:
394,167,534133,1,0,0:0:0:0:
394,167,534328,2,0,P|442:164|489:152,1,95.9999970703126,0|0,0:0|0:0,0:0:0:0:
428,20,534718,2,0,P|381:8|333:5,1,95.9999970703126,0|0,1:0|0:0,0:0:0:0:
256,127,535107,6,0,L|245:223,1,95.9999970703126,2|0,0:0|0:0,0:0:0:0:
270,364,535497,2,0,B|246:365|223:373|223:373|201:367|181:350|181:350|157:351|134:359,1,143.999995605469,0|0,1:0|0:0,0:0:0:0:
42,327,535887,2,0,L|31:231,1,95.9999970703126,0|0,0:0|0:0,0:0:0:0:
126,93,536276,1,0,1:0:0:0:
126,93,536471,1,0,0:0:0:0:
256,127,536666,6,0,B|287:127|318:112|318:112|335:84|362:66|362:66|393:81|424:81,1,191.999994140625,4|0,0:0|1:0,0:0:0:0:
393,270,537250,1,0,0:0:0:0:
393,270,537445,2,0,P|345:267|298:255,1,95.9999970703126,0|0,0:0|0:0,0:0:0:0:
256,127,537835,1,0,1:0:0:0:
126,93,538029,1,0,0:0:0:0:
26,184,538224,6,0,L|42:328,1,143.999995605469,2|0,0:0|0:0,0:0:0:0:
124,378,538614,2,0,P|171:366|219:363,1,95.9999970703126,0|0,1:0|0:0,0:0:0:0:
299,255,539004,2,0,P|346:267|394:270,1,95.9999970703126
508,340,539393,1,0,1:0:0:0:
463,155,539588,1,0,3:0:0:0:
463,155,539686,1,0,3:0:0:0:
463,155,539783,6,0,B|478:28|478:28|418:49,1,191.999994140625,4|0,1:0|1:0,0:0:0:0:
304,121,540367,1,0,0:0:0:0:
304,121,540562,2,0,P|257:109|209:106,1,95.9999970703126,0|0,0:0|0:0,0:0:0:0:
79,81,540952,2,0,P|91:128|94:176,1,95.9999970703126,0|0,1:0|0:0,0:0:0:0:
27,292,541342,6,0,P|74:304|122:307,1,95.9999970703126,2|0,0:0|0:0,0:0:0:0:
253,334,541731,2,0,P|241:287|238:239,1,95.9999970703126,0|0,1:0|0:0,0:0:0:0:
304,121,542121,2,0,P|351:124|398:136,1,95.9999970703126,0|0,0:0|0:0,0:0:0:0:
498,211,542510,1,0,1:0:0:0:
430,316,542705,1,0,3:0:0:0:
425,317,542803,1,0,3:0:0:0:
420,318,542900,6,0,B|389:318|358:303|358:303|331:321|314:349|314:349|283:349|252:334,1,191.999994140625,4|0,0:0|1:0,0:0:0:0:
94,175,543485,1,0,0:0:0:0:
304,121,543679,1,0,0:0:0:0:
304,121,543874,1,0,0:0:0:0:
121,307,544069,1,0,1:0:0:0:
121,307,544264,5,2,0:0:0:0:
97,306,544361,1,0,0:0:0:0:
73,303,544459,2,0,P|50:299|27:292,1,47.9999985351563,4|0,0:0|0:0,0:0:0:0:
94,175,544654,5,2,0:0:0:0:
94,151,544751,1,0,0:0:0:0:
90,127,544849,2,0,P|86:104|79:81,1,47.9999985351563,0|0,1:0|0:0,0:0:0:0:
210,106,545043,5,2,3:2:0:0:
234,107,545140,1,0,0:0:0:0:
258,110,545238,2,0,P|281:114|304:121,1,47.9999985351563,2|0,0:2|0:0,0:0:0:0:
387,71,545433,2,0,P|395:92|400:116,1,47.9999985351563,2|0,0:2|0:0,0:0:0:0:
486,162,545628,2,0,P|471:179|453:196,1,47.9999985351563,4|0,0:0|0:0,0:0:0:0:
452,292,545822,2,0,P|429:288|406:281,1,47.9999985351563,4|0,0:0|0:0,0:0:0:0:
323,331,546017,6,0,B|292:331|261:346|261:346|234:328|217:300|217:300|186:315|155:315,1,191.999994140625,4|0,1:0|1:0,0:0:0:0:
26,279,546602,1,0,0:0:0:0:
26,279,546797,2,0,P|14:232|10:184,1,95.9999970703126,0|0,0:0|0:0,0:0:0:0:
210,106,547186,1,0,1:0:0:0:
156,315,547381,1,0,0:0:0:0:
81,68,547576,6,0,P|151:66|209:105,1,143.999995605469,2|0,0:0|0:0,0:0:0:0:
298,145,547965,2,0,P|345:140|392:129,1,95.9999970703126,0|0,1:0|0:0,0:0:0:0:
498,44,548355,2,0,P|490:139|477:234,1,191.999994140625,0|0,0:0|1:0,0:0:0:0:
433,363,548940,1,0,0:0:0:0:
267,319,549134,6,0,P|251:226|298:145,1,191.999994140625,4|0,0:0|1:0,0:0:0:0:
477,235,549719,1,0,0:0:0:0:
477,235,549914,2,0,P|429:239|382:250,1,95.9999970703126,0|0,0:0|0:0,0:0:0:0:
267,319,550303,1,0,1:0:0:0:
183,214,550498,1,0,0:0:0:0:
68,283,550693,6,0,P|73:330|84:377,1,95.9999970703126,2|0,0:0|0:0,0:0:0:0:
267,319,551083,1,0,1:0:0:0:
298,145,551277,1,0,0:0:0:0:
154,40,551472,2,0,P|107:45|60:56,1,95.9999970703126,0|0,0:0|0:0,0:0:0:0:
12,267,551862,1,0,1:0:0:0:
40,275,551959,1,0,3:0:0:0:
68,283,552057,1,0,3:0:0:0:
267,319,552252,6,0,B|298:311|324:291|324:291|355:299|381:319|381:319|412:311|438:291,1,191.999994140625,4|0,1:0|1:0,0:0:0:0:
507,176,552835,1,0,0:0:0:0:
507,176,553031,2,0,P|502:129|491:82,1,95.9999970703126,0|0,0:0|0:0,0:0:0:0:
301,51,553420,1,0,1:0:0:0:
284,185,553615,1,0,0:0:0:0:
267,319,553810,6,0,P|208:359|137:357,1,143.999995605469,4|0,0:0|0:0,0:0:0:0:
50,317,554200,2,0,P|39:270|33:222,1,95.9999970703126,0|0,1:0|0:0,0:0:0:0:
76,84,554589,6,0,B|124:78|124:78|167:100|167:100|215:94,1,143.999995605469,2|0,0:0|0:0,0:0:0:0:
301,51,554979,2,0,P|348:56|395:67,1,95.9999970703126,0|0,1:0|0:0,0:0:0:0:
447,277,555369,5,4,3:0:0:0:
314,294,555563,1,4,3:0:0:0:
231,188,555758,2,0,P|220:141|214:93,1,95.9999970703126,0|0,1:0|0:0,0:0:0:0:
461,183,556148,2,0,P|458:230|447:277,1,95.9999970703126,0|0,0:0|0:0,0:0:0:0:
181,313,556538,1,0,1:0:0:0:
231,188,556732,1,0,3:0:0:0:
231,188,556830,1,0,3:0:0:0:
231,188,556927,5,0,0:0:0:0:
314,294,557122,1,0,0:0:0:0:
98,207,557317,1,0,1:0:0:0:
364,169,557512,1,0,0:0:0:0:
181,313,557706,5,4,3:0:0:0:
281,63,557901,1,4,3:0:0:0:
314,294,558096,1,0,1:0:0:0:
148,82,558291,1,0,1:0:0:0:
364,169,558486,5,4,2:1:0:0:
256,192,558583,12,0,564720,0:0:0:0:
118,309,573501,6,0,P|75:305|32:295,1,88.000002685547,4|0,0:0|0:0,0:0:0:0:
142,24,573872,2,0,P|185:13|229:10,1,88.000002685547,4|0,0:0|0:0,0:0:0:0:
397,213,574242,6,0,L|387:309,1,95.9999970703126,4|0,0:0|0:0,0:0:0:0:
92,207,574612,2,0,L|82:111,1,95.9999970703126,0|0,1:0|0:0,0:0:0:0:
229,10,574983,6,0,P|275:14|322:25,1,95.9999970703126,0|0,0:0|0:0,0:0:0:0:
287,250,575353,2,0,P|240:261|192:265,1,95.9999970703126,0|0,1:0|0:0,0:0:0:0:
392,108,575724,5,0,0:0:0:0:
392,108,575909,1,0,0:0:0:0:
497,272,576094,2,0,L|487:368,1,95.9999970703126,0|0,1:0|0:0,0:0:0:0:
287,250,576464,2,0,L|277:154,1,95.9999970703126,0|0,0:0|0:0,0:0:0:0:
507,62,576835,1,0,1:0:0:0:
507,62,577020,1,0,0:0:0:0:
487,367,577205,6,0,P|440:378|392:382,1,95.9999970703126,0|0,0:0|0:0,0:0:0:0:
287,250,577575,2,0,P|240:239|192:235,1,95.9999970703126,0|0,1:0|0:0,0:0:0:0:
70,265,577946,5,0,0:0:0:0:
70,265,578131,1,0,1:0:0:0:
163,113,578316,1,0,1:0:0:0:
163,113,578501,1,0,1:0:0:0:
223,357,578687,5,0,0:0:0:0:
196,366,578779,1,0,0:0:0:0:
169,371,578872,1,0,0:0:0:0:
141,370,578964,1,0,0:0:0:0:
113,364,579057,5,0,1:0:0:0:
96,343,579149,1,0,0:0:0:0:
82,319,579242,1,0,0:0:0:0:
73,292,579335,1,0,0:0:0:0:
70,264,579427,5,0,0:0:0:0:
66,260,579520,1,0,0:0:0:0:
62,256,579612,2,0,P|34:248|7:246,1,55.9999982910157,0|0,0:0|0:0,0:0:0:0:
101,115,579798,5,0,1:0:0:0:
105,119,579890,1,0,0:0:0:0:
109,123,579983,2,0,P|137:115|164:113,1,55.9999982910157,0|0,0:0|0:0,0:0:0:0:
290,176,580168,5,0,0:0:0:0:
317,181,580261,1,0,0:0:0:0:
345,180,580353,1,0,0:0:0:0:
372,173,580446,1,0,0:0:0:0:
397,160,580538,5,0,1:0:0:0:
437,151,580631,1,0,0:0:0:0:
475,166,580724,1,0,0:0:0:0:
497,201,580816,1,0,0:0:0:0:
494,242,580909,5,0,0:0:0:0:
490,246,581001,1,0,0:0:0:0:
486,250,581094,2,0,P|478:278|476:305,1,55.9999982910157,0|0,0:0|0:0,0:0:0:0:
359,367,581279,5,0,1:0:0:0:
355,363,581372,1,0,0:0:0:0:
351,359,581464,2,0,P|348:331|340:304,1,55.9999982910157,0|0,0:0|0:0,0:0:0:0:
223,236,581649,6,0,L|168:229,1,55.9999982910157,0|0,0:0|0:0,0:0:0:0:
183,329,581835,2,0,L|128:336,1,55.9999982910157,0|0,0:0|0:0,0:0:0:0:
13,246,582020,6,0,L|68:253,1,55.9999982910157,0|0,1:0|0:0,0:0:0:0:
53,153,582205,2,0,L|108:146,1,55.9999982910157,0|0,0:0|0:0,0:0:0:0:
192,87,582390,6,0,P|200:59|202:32,1,55.9999982910157,0|0,0:0|0:0,0:0:0:0:
292,79,582575,1,0,0:0:0:0:
296,83,582668,1,0,0:0:0:0:
300,87,582761,6,0,P|327:84|354:76,1,55.9999982910157,0|0,1:0|0:0,0:0:0:0:
435,14,582946,1,0,0:0:0:0:
439,18,583038,1,0,0:0:0:0:
443,22,583131,6,0,P|470:25|497:33,1,55.9999982910157,0|0,0:0|0:0,0:0:0:0:
447,122,583316,2,0,P|444:149|436:176,1,55.9999982910157,0|0,0:0|0:0,0:0:0:0:
483,267,583501,6,0,P|486:294|494:321,1,55.9999982910157,0|0,1:0|0:0,0:0:0:0:
393,314,583687,2,0,P|366:317|339:325,1,55.9999982910157,0|0,0:0|0:0,0:0:0:0:
253,379,583872,5,4,0:1:0:0:
225,378,583964,1,0,0:0:0:0:
197,375,584057,1,0,0:0:0:0:
169,369,584149,1,0,0:0:0:0:
141,360,584242,5,4,1:0:0:0:
110,334,584335,1,0,0:0:0:0:
92,296,584427,1,0,0:0:0:0:
92,254,584520,1,0,0:0:0:0:
109,215,584612,6,0,P|118:171|122:121,1,95.9999970703126,4|0,0:0|0:0,0:0:0:0:
423,82,584983,2,0,P|427:129|437:176,1,95.9999970703126,8|0,0:0|0:0,0:0:0:0:
233,278,585353,6,0,P|229:231|219:184,1,95.9999970703126,0|0,0:0|0:0,0:0:0:0:
325,22,585724,2,0,P|316:66|312:116,1,95.9999970703126,8|0,0:0|0:0,0:0:0:0:
396,311,586094,5,0,0:0:0:0:
396,311,586279,1,0,0:0:0:0:
233,278,586464,2,0,P|186:282|139:292,1,95.9999970703126,8|0,0:0|0:0,0:0:0:0:
40,367,586835,1,0,0:0:0:0:
40,367,587020,1,0,0:0:0:0:
17,165,587205,6,0,P|64:169|111:179,1,95.9999970703126,8|0,0:0|0:0,0:0:0:0:
233,278,587575,2,0,L|242:373,1,95.9999970703126
396,311,587946,2,0,L|405:216,1,95.9999970703126,8|0,0:0|0:0,0:0:0:0:
251,278,588316,2,0,L|242:373,1,95.9999970703126
414,311,588687,2,0,L|405:216,1,95.9999970703126,8|0,0:0|0:0,0:0:0:0:
260,125,589057,6,0,P|216:116|166:112,1,95.9999970703126,4|0,0:0|0:0,0:0:0:0:
228,14,589427,2,0,P|272:5|322:1,1,95.9999970703126,8|0,0:0|0:0,0:0:0:0:
373,105,589798,6,0,P|417:114|467:118,1,95.9999970703126,0|0,0:0|0:0,0:0:0:0:
405,216,590168,2,0,P|361:225|311:229,1,95.9999970703126,8|0,0:0|0:0,0:0:0:0:
213,201,590538,5,0,0:0:0:0:
213,201,590724,1,0,0:0:0:0:
165,112,590909,2,0,P|121:103|71:99,1,95.9999970703126,8|0,0:0|0:0,0:0:0:0:
15,353,591279,5,0,1:0:0:0:
237,299,591464,1,0,1:0:0:0:
15,353,591649,1,0,1:0:0:0:
237,299,591835,1,0,1:0:0:0:
15,353,592020,1,4,1:2:0:0:
114,277,592390,5,0,0:0:0:0:
138,376,592575,1,0,0:0:0:0:
114,277,592761,1,0,0:0:0:0:
138,376,592946,1,0,0:0:0:0:
114,277,593131,2,0,L|120:205,1,71.9999978027344,0|0,0:0|0:0,0:0:0:0:
217,142,593501,5,0,0:0:0:0:
217,142,593687,2,0,B|311:130|311:130|355:155,1,143.999995605469,0|0,0:0|0:0,0:0:0:0:
422,327,594242,5,0,1:0:0:0:
237,299,594427,1,0,1:0:0:0:
422,327,594612,1,0,1:0:0:0:
237,299,594798,1,0,1:0:0:0:
422,327,594983,1,4,1:2:0:0:
354,154,595353,5,4,0:0:0:0:
354,154,595538,2,0,P|347:119|344:83,1,71.9999978027344,4|0,2:0|0:0,0:0:0:0:
511,170,595909,5,2,2:0:0:0:
511,170,596094,2,0,P|508:205|500:241,1,71.9999978027344,0|0,2:0|0:0,0:0:0:0:
422,326,596464,6,0,P|369:338|315:343,1,107.999996704102,2|0,2:0|0:0,0:0:0:0:
237,299,596835,2,0,P|184:287|130:282,1,107.999996704102,2|0,2:0|0:0,0:0:0:0:
42,306,597205,5,0,1:0:0:0:
82,157,597390,1,0,1:0:0:0:
42,306,597575,1,0,1:0:0:0:
82,157,597761,1,0,1:0:0:0:
42,306,597946,1,4,1:2:0:0:
1,114,598316,5,0,1:0:0:0:
142,88,598501,1,0,1:0:0:0:
1,114,598687,1,0,1:0:0:0:
142,88,598872,1,0,1:0:0:0:
1,114,599057,1,4,1:2:0:0:
163,199,599427,5,2,2:0:0:0:
163,199,599612,2,0,B|216:206|216:206|266:187|266:187|319:194,1,160,4|0,2:0|0:0,0:0:0:0:
184,310,600168,5,0,1:0:0:0:
142,88,600353,1,0,1:0:0:0:
184,310,600538,1,0,1:0:0:0:
142,88,600724,1,0,1:0:0:0:
184,310,600909,1,4,1:2:0:0:
427,157,601279,5,0,1:0:0:0:
406,268,601464,1,4,1:2:0:0:
142,88,601835,5,2,3:2:0:0:
301,54,602020,1,0,0:0:0:0:
301,54,602205,1,0,0:0:0:0:
183,310,602390,1,2,3:2:0:0:
183,310,602575,2,0,P|105:293|26:284,1,160,4|0,2:0|0:0,0:0:0:0:
40,105,603126,6,0,P|90:93|142:88,1,103.999995239258,4|0,1:0|0:0,0:0:0:0:
200,208,603496,2,0,P|188:258|183:310,1,103.999995239258,8|0,0:0|0:0,0:0:0:0:
331,174,603867,1,0,0:0:0:0:
331,174,604052,1,0,0:0:0:0:
143,88,604237,1,8,0:0:0:0:
143,88,604422,1,0,0:0:0:0:
183,310,604608,6,0,P|233:321|285:326,1,103.999995239258,0|0,0:0|0:0,0:0:0:0:
245,71,604978,2,0,P|193:75|142:88,1,103.999995239258,8|0,0:0|0:0,0:0:0:0:
52,279,605348,2,0,P|56:331|69:382,1,103.999995239258,0|0,0:0|0:0,0:0:0:0:
400,255,605719,1,8,0:0:0:0:
404,251,605903,1,0,0:0:0:0:
408,247,606089,6,0,P|419:197|424:145,1,103.999995239258,4|0,2:0|0:0,0:0:0:0:
370,20,606459,1,8,0:0:0:0:
370,20,606645,1,0,0:0:0:0:
269,224,606830,6,0,P|273:276|286:327,1,103.999995239258,0|0,0:0|0:0,0:0:0:0:
462,371,607200,1,8,0:0:0:0:
462,371,607385,1,0,0:0:0:0:
370,20,607570,6,0,B|333:22|302:10|302:10|287:21|277:34|277:34|262:26|243:23|243:23|220:46|186:59,1,207.999990478516,4|12,2:0|2:0,0:0:0:0:
63,41,608126,1,0,0:0:0:0:
7,152,608311,1,4,2:0:0:0:
96,240,608496,1,0,0:0:0:0:
206,182,608682,1,12,2:0:0:0:
186,59,608867,1,0,0:0:0:0:
96,240,609052,6,0,P|85:290|80:342,1,103.999995239258,4|0,3:1|0:0,0:0:0:0:
221,380,609422,2,0,P|272:375|323:363,1,103.999995239258,8|0,0:0|0:0,0:0:0:0:
455,231,609793,6,0,P|450:180|438:129,1,103.999995239258,0|0,0:0|0:0,0:0:0:0:
330,30,610163,2,0,P|253:22|186:59,1,155.999992858887,8|0,0:0|0:0,0:0:0:0:
186,59,610534,6,0,P|135:54|84:42,1,103.999995239258,0|0,0:0|0:0,0:0:0:0:
35,179,610904,1,8,0:0:0:0:
35,179,611089,1,0,0:0:0:0:
162,252,611274,6,0,P|212:241|264:236,1,103.999995239258,0|0,0:0|0:0,0:0:0:0:
186,59,611645,1,8,0:0:0:0:
186,59,611830,1,0,0:0:0:0:
35,179,612015,6,0,P|24:229|19:281,1,103.999995239258,4|0,2:0|0:0,0:0:0:0:
108,370,612385,1,8,0:0:0:0:
232,356,612571,1,0,0:0:0:0:
265,236,612756,1,0,0:0:0:0:
389,250,612941,1,0,0:0:0:0:
478,162,613126,2,0,P|474:110|461:59,1,103.999995239258,8|0,0:0|0:0,0:0:0:0:
300,21,613496,5,4,2:0:0:0:
265,236,613682,1,0,0:0:0:0:
300,21,613867,1,12,2:0:0:0:
265,236,614052,1,0,0:0:0:0:
104,197,614237,5,4,2:0:0:0:
96,172,614330,1,0,0:0:0:0:
91,146,614422,1,0,0:0:0:0:
87,120,614515,1,0,0:0:0:0:
86,94,614608,5,12,2:0:0:0:
98,56,614700,1,2,0:0:0:0:
124,27,614793,1,2,0:0:0:0:
160,11,614885,1,2,0:0:0:0:
198,5,614978,6,0,P|249:9|300:21,1,103.999995239258,4|0,3:1|0:0,0:0:0:0:
425,178,615348,1,8,0:0:0:0:
231,125,615534,1,0,0:0:0:0:
420,54,615719,1,0,0:0:0:0:
308,222,615904,1,0,0:0:0:0:
300,21,616089,1,8,0:0:0:0:
425,178,616274,1,0,0:0:0:0:
231,125,616459,6,0,P|180:129|129:141,1,103.999995239258,0|0,0:0|0:0,0:0:0:0:
46,366,616830,2,0,P|96:378|148:383,1,103.999995239258,8|0,0:0|0:0,0:0:0:0:
324,324,617200,2,0,P|320:273|308:222,1,103.999995239258,0|0,0:0|0:0,0:0:0:0:
14,193,617571,1,8,0:0:0:0:
14,193,617756,1,0,0:0:0:0:
46,366,617941,6,0,P|96:378|148:383,1,103.999995239258,4|0,2:0|0:0,0:0:0:0:
222,341,618219,1,0,0:0:0:0:
222,341,618311,2,0,P|272:329|324:324,1,103.999995239258,8|0,0:0|0:0,0:0:0:0:
486,361,618682,6,0,P|497:311|502:259,1,103.999995239258,0|0,0:0|0:0,0:0:0:0:
445,113,619052,2,0,B|399:90|399:90|296:102,1,155.999992858887,8|0,0:0|0:0,0:0:0:0:
206,129,619422,6,0,B|157:110|126:65|126:65|173:36|225:39,1,207.999990478516,4|12,2:0|2:0,0:0:0:0:
187,219,619978,1,0,0:0:0:0:
8,140,620163,1,4,2:0:0:0:
6,130,620348,1,0,0:0:0:0:
225,39,620534,1,12,2:0:0:0:
183,223,620719,1,0,0:0:0:0:
179,227,620811,1,0,0:0:0:0:
175,231,620904,6,0,P|125:243|73:248,1,103.999995239258,4|0,3:1|0:0,0:0:0:0:
4,120,621274,1,8,0:0:0:0:
2,110,621459,1,0,0:0:0:0:
307,187,621645,2,0,P|302:238|289:289,1,103.999995239258,0|0,0:0|0:0,0:0:0:0:
147,353,622015,1,8,0:0:0:0:
137,355,622200,1,0,0:0:0:0:
123,56,622385,6,0,P|173:44|225:39,1,103.999995239258,0|0,0:0|0:0,0:0:0:0:
307,187,622756,2,0,P|357:199|409:204,1,103.999995239258,8|0,0:0|0:0,0:0:0:0:
486,105,623126,1,0,0:0:0:0:
486,105,623311,1,0,0:0:0:0:
225,39,623496,1,8,0:0:0:0:
225,39,623682,1,0,0:0:0:0:
307,187,623867,6,0,P|302:238|289:289,1,103.999995239258,4|0,2:0|0:0,0:0:0:0:
221,354,624145,1,0,0:0:0:0:
221,354,624237,2,0,P|171:366|119:371,1,103.999995239258,8|0,0:0|0:0,0:0:0:0:
65,149,624608,6,0,P|139:132|205:170,1,155.999992858887,0|0,0:0|0:0,0:0:0:0:
205,170,624978,2,0,P|255:182|307:187,1,103.999995239258,8|0,0:0|0:0,0:0:0:0:
483,113,625348,5,4,2:0:0:0:
432,238,625534,1,0,0:0:0:0:
358,62,625719,1,12,2:0:0:0:
483,113,625904,1,0,0:0:0:0:
307,187,626089,5,4,2:0:0:0:
281,185,626182,1,2,0:0:0:0:
255,182,626274,1,2,0:0:0:0:
230,177,626367,1,2,0:0:0:0:
205,170,626459,5,14,2:0:0:0:
220,220,626552,1,2,2:0:0:0:
213,272,626645,1,2,2:0:0:0:
184,316,626737,1,2,2:0:0:0:
142,346,626830,6,0,P|92:358|40:363,1,103.999995239258,4|0,3:1|0:0,0:0:0:0:
103,154,627200,2,0,P|154:158|205:170,1,103.999995239258,8|0,0:0|0:0,0:0:0:0:
297,333,627571,1,0,0:0:0:0:
297,333,627756,1,0,0:0:0:0:
438,301,627941,1,8,0:0:0:0:
438,301,628126,1,0,0:0:0:0:
507,173,628311,6,0,P|503:121|490:70,1,103.999995239258,0|0,0:0|0:0,0:0:0:0:
355,15,628682,2,0,P|303:20|252:32,1,103.999995239258,8|0,0:0|0:0,0:0:0:0:
206,170,629052,2,0,P|155:166|104:154,1,103.999995239258,0|0,0:0|0:0,0:0:0:0:
4,78,629422,1,8,0:0:0:0:
4,78,629608,1,0,0:0:0:0:
40,262,629793,6,0,L|31:365,1,103.999995239258,4|0,2:0|0:0,0:0:0:0:
182,325,630163,1,8,0:0:0:0:
182,325,630348,1,0,0:0:0:0:
206,170,630534,6,0,L|197:67,1,103.999995239258,0|0,0:0|0:0,0:0:0:0:
348,106,630904,1,8,0:0:0:0:
348,106,631089,1,0,0:0:0:0:
444,230,631274,6,0,B|428:261|419:295|419:295|439:323|445:358|445:358|415:373|380:379,1,207.999990478516,4|12,2:0|2:0,0:0:0:0:
276,369,631830,1,0,0:0:0:0:
182,325,632015,1,4,2:0:0:0:
138,231,632200,1,0,0:0:0:0:
44,275,632385,1,12,2:0:0:0:
88,369,632571,1,0,0:0:0:0:
138,231,632756,6,0,L|129:128,1,103.999995239258,4|0,3:1|0:0,0:0:0:0:
329,171,633126,2,0,L|320:274,1,103.999995239258,8|0,0:0|0:0,0:0:0:0:
254,34,633496,6,0,P|304:21|356:16,1,103.999995239258,0|0,0:0|0:0,0:0:0:0:
320,275,633867,2,0,B|303:310|271:335|271:335|231:325|202:299,1,155.999992858887,8|0,0:0|0:0,0:0:0:0:
138,231,634237,6,0,P|88:218|36:213,1,103.999995239258,0|0,0:0|0:0,0:0:0:0:
62,367,634608,1,8,0:0:0:0:
62,367,634793,1,0,0:0:0:0:
320,275,634978,6,0,P|370:288|422:293,1,103.999995239258,0|0,0:0|0:0,0:0:0:0:
396,139,635348,1,8,0:0:0:0:
396,139,635534,1,0,0:0:0:0:
232,70,635719,6,0,P|180:74|130:87,1,103.999995239258,4|0,2:0|0:0,0:0:0:0:
62,367,636089,1,8,0:0:0:0:
62,367,636274,1,0,0:0:0:0:
320,275,636459,1,0,0:0:0:0:
320,275,636645,1,0,0:0:0:0:
27,158,636830,2,0,P|14:108|9:56,1,103.999995239258,8|0,0:0|0:0,0:0:0:0:
241,18,637200,5,4,2:0:0:0:
238,31,637293,1,0,0:0:0:0:
235,44,637385,1,0,0:0:0:0:
233,57,637478,1,0,0:0:0:0:
232,70,637571,5,12,2:0:0:0:
254,116,637663,1,0,0:0:0:0:
296,146,637756,1,0,0:0:0:0:
345,155,637848,1,0,0:0:0:0:
396,139,637941,5,4,2:0:0:0:
447,149,638034,1,0,0:0:0:0:
487,183,638126,1,0,0:0:0:0:
507,231,638219,1,0,0:0:0:0:
500,282,638311,5,12,2:0:0:0:
468,323,638404,1,2,0:0:0:0:
421,346,638496,1,2,0:0:0:0:
369,340,638589,1,2,0:0:0:0:
325,313,638682,6,0,P|275:300|223:295,1,103.999995239258,4|0,3:1|0:0,0:0:0:0:
32,347,639052,1,8,0:0:0:0:
83,155,639237,1,0,0:0:0:0:
142,376,639422,1,0,0:0:0:0:
2,236,639608,1,0,0:0:0:0:
193,185,639793,1,8,0:0:0:0:
142,376,639978,1,0,0:0:0:0:
83,155,640163,6,0,P|87:103|100:52,1,103.999995239258,0|0,0:0|0:0,0:0:0:0:
285,117,640534,2,0,P|297:167|302:219,1,103.999995239258,8|0,0:0|0:0,0:0:0:0:
142,376,640904,2,0,P|90:371|39:358,1,103.999995239258,0|0,0:0|0:0,0:0:0:0:
2,236,641274,1,8,0:0:0:0:
2,236,641459,1,0,0:0:0:0:
269,328,641645,6,0,P|320:323|371:310,1,103.999995239258,4|0,2:0|0:0,0:0:0:0:
474,330,641922,1,0,0:0:0:0:
474,330,642015,2,0,P|485:280|490:228,1,103.999995239258,8|0,0:0|0:0,0:0:0:0:
453,32,642385,6,0,P|403:21|351:16,1,103.999995239258,0|0,0:0|0:0,0:0:0:0:
210,53,642756,2,0,B|186:64|171:86|171:86|161:137|193:185,1,155.999992858887,8|0,0:0|0:0,0:0:0:0:
252,273,643126,6,0,B|259:327|232:373|232:373|180:384|132:359,1,207.999990478516,4|12,2:0|2:0,0:0:0:0:
0,258,643682,1,0,0:0:0:0:
193,185,643867,1,4,2:0:0:0:
193,185,644052,1,0,0:0:0:0:
131,358,644237,1,12,2:0:0:0:
72,156,644422,1,0,0:0:0:0:
72,156,644515,1,0,0:0:0:0:
72,156,644608,6,0,P|76:104|89:53,1,103.999995239258,4|0,3:1|0:0,0:0:0:0:
265,83,644978,1,8,0:0:0:0:
265,83,645163,1,0,0:0:0:0:
234,341,645348,2,0,P|184:353|132:358,1,103.999995239258,0|0,0:0|0:0,0:0:0:0:
0,258,645719,1,8,0:0:0:0:
0,258,645904,1,0,0:0:0:0:
315,219,646089,6,0,P|367:223|418:236,1,103.999995239258,0|0,0:0|0:0,0:0:0:0:
491,362,646459,2,0,P|441:374|389:379,1,103.999995239258,8|0,0:0|0:0,0:0:0:0:
234,341,646830,1,0,0:0:0:0:
232,331,647015,1,0,0:0:0:0:
315,219,647200,1,8,0:0:0:0:
317,209,647385,1,0,0:0:0:0:
265,83,647571,6,0,B|217:64|217:64|165:71,1,103.999995239258,4|0,2:0|0:0,0:0:0:0:
100,145,647848,1,0,0:0:0:0:
100,145,647941,2,0,B|52:164|52:164|0:157,1,103.999995239258,8|0,0:0|0:0,0:0:0:0:
67,294,648311,6,0,B|58:345|58:345|93:383|93:383|145:379,1,155.999992858887,0|0,0:0|0:0,0:0:0:0:
232,331,648682,2,0,P|282:343|334:348,1,103.999995239258,8|0,0:0|0:0,0:0:0:0:
485,257,649052,5,4,2:0:0:0:
364,227,649237,1,0,0:0:0:0:
455,378,649422,1,12,2:0:0:0:
485,257,649608,1,0,0:0:0:0:
334,348,649793,5,4,2:0:0:0:
308,346,649885,1,0,0:0:0:0:
282,343,649978,1,0,0:0:0:0:
257,338,650071,1,0,0:0:0:0:
232,331,650163,5,12,2:0:0:0:
186,355,650256,1,2,0:0:0:0:
135,354,650348,1,2,0:0:0:0:
88,332,650441,1,2,0:0:0:0:
56,291,650534,6,0,P|44:241|39:189,1,103.999995239258,4|0,2:0|0:0,0:0:0:0:
188,98,650904,2,0,P|181:149|169:199,1,103.999995239258,8|0,0:0|0:0,0:0:0:0:
67,66,651274,5,0,0:0:0:0:
67,66,651459,1,0,0:0:0:0:
309,130,651645,2,0,P|360:125|411:112,1,103.999995239258,8|0,0:0|0:0,0:0:0:0:
385,267,652015,5,0,0:0:0:0:
245,337,652200,1,0,0:0:0:0:
169,200,652385,2,0,P|176:149|188:99,1,103.999995239258,8|0,0:0|0:0,0:0:0:0:
276,9,652756,1,0,0:0:0:0:
276,9,652941,1,0,0:0:0:0:
309,130,653126,5,8,0:0:0:0:
67,66,653311,1,0,0:0:0:0:
309,130,653496,1,0,0:0:0:0:
67,66,653682,1,0,0:0:0:0:
276,9,653867,2,0,P|328:13|379:26,1,103.999995239258,8|0,0:0|0:0,0:0:0:0:
414,199,654237,5,0,0:0:0:0:
414,199,654422,1,0,0:0:0:0:
240,235,654608,1,8,0:0:0:0:
240,235,654793,1,0,0:0:0:0:
169,374,654978,6,0,P|117:370|66:357,1,103.999995239258,4|0,2:0|0:0,0:0:0:0:
33,183,655348,2,0,P|83:171|135:166,1,103.999995239258,8|0,0:0|0:0,0:0:0:0:
240,235,655719,5,0,0:0:0:0:
309,130,655904,1,0,0:0:0:0:
378,25,656089,2,0,P|430:29|481:42,1,103.999995239258,8|0,0:0|0:0,0:0:0:0:
465,271,656459,5,0,0:0:0:0:
344,304,656645,1,0,0:0:0:0:
240,235,656830,2,0,P|228:285|223:337,1,103.999995239258,8|0,0:0|0:0,0:0:0:0:
102,370,657200,1,0,0:0:0:0:
102,370,657385,1,0,0:0:0:0:
55,183,657571,5,8,0:0:0:0:
240,235,657756,1,0,0:0:0:0:
55,183,657940,1,0,0:0:0:0:
240,235,658126,1,0,0:0:0:0:
378,100,658311,6,0,P|428:88|480:83,1,103.999995239258,8|0,0:0|0:0,0:0:0:0:
510,182,658589,1,0,0:0:0:0:
510,182,658682,2,0,P|505:233|492:284,1,103.999995239258,4|0,2:0|0:0,0:0:0:0:
361,369,659052,1,12,2:0:0:0:
322,363,659145,1,0,0:0:0:0:
284,352,659237,1,0,0:0:0:0:
141,291,659422,6,0,P|89:295|38:308,1,103.999995239258,4|0,2:0|0:0,0:0:0:0:
115,137,659793,2,0,P|165:149|217:154,1,103.999995239258,8|0,0:0|0:0,0:0:0:0:
284,352,660163,5,0,0:0:0:0:
284,352,660348,1,0,0:0:0:0:
39,308,660534,2,0,P|26:257|22:205,1,103.999995239258,8|0,0:0|0:0,0:0:0:0:
310,85,660904,5,4,0:0:0:0:
310,85,661089,1,4,0:0:0:0:
284,352,661274,2,0,P|233:365|181:369,1,103.999995239258,8|0,0:0|0:0,0:0:0:0:
39,308,661644,1,4,0:0:0:0:
39,308,661830,1,4,0:0:0:0:
181,62,662015,5,12,0:0:0:0:
214,249,662200,1,0,0:0:0:0:
181,62,662385,1,4,0:0:0:0:
214,249,662571,1,0,0:0:0:0:
398,301,662756,2,0,P|449:288|501:284,1,103.999995239258,12|0,0:0|0:0,0:0:0:0:
415,77,663126,5,4,0:0:0:0:
415,77,663311,1,0,0:0:0:0:
332,184,663496,1,12,0:0:0:0:
332,184,663682,1,0,0:0:0:0:
214,249,663867,6,0,P|163:236|111:232,1,103.999995239258,4|0,2:0|0:0,0:0:0:0:
36,107,664237,2,0,P|87:102|138:89,1,103.999995239258,8|0,0:0|0:0,0:0:0:0:
274,12,664608,5,0,0:0:0:0:
415,77,664793,1,0,0:0:0:0:
470,222,664978,2,0,L|461:325,1,103.999995239258,8|0,0:0|0:0,0:0:0:0:
214,249,665348,5,4,3:2:0:0:
377,173,665533,1,4,0:0:0:0:
341,363,665719,2,0,L|238:372,1,103.999995239258,12|0,0:2|0:0,0:0:0:0:
85,338,666089,1,4,0:0:0:0:
85,338,666274,1,4,0:0:0:0:
48,185,666459,6,0,P|54:122|65:59,1,128,12|0,2:0|0:0,0:0:0:0:
65,58,666830,6,0,L|154:150,1,128,4|0,2:0|0:0,0:0:0:0:
154,150,667200,6,0,P|165:86|171:23,1,128,12|0,2:0|0:0,0:0:0:0:
290,103,667571,6,0,B|321:122|356:127|356:127|382:102|396:68,1,143.999995605469,4|0,2:0|0:0,0:0:0:0:
397,67,667941,6,0,B|428:86|463:91|463:91|489:66|503:32,1,143.999995605469,12|0,2:0|0:0,0:0:0:0:
