osu file format v14

[General]
AudioFilename: audio.mp3
AudioLeadIn: 0
PreviewTime: 30737
Countdown: 0
SampleSet: Soft
StackLeniency: 0.7
Mode: 0
LetterboxInBreaks: 0
WidescreenStoryboard: 0

[Editor]
Bookmarks: 5834,16603,55064,73526,91987,116602,122756,135063,147372,173526,205978,223101,231663,248787,265911,283034,299891,301496
DistanceSpacing: 1.6
BeatDivisor: 8
GridSize: 32
TimelineZoom: 2.3

[Metadata]
Title:Romanticide
TitleUnicode:Romanticide
Artist:Nightwish
ArtistUnicode:Nightwish
Creator:Sieg
Version:Fall
Source:
Tags:once marathon english rock symphonic metal
BeatmapID:1307018
BeatmapSetID:620131

[Difficulty]
HPDrainRate:6
CircleSize:4
OverallDifficulty:8
ApproachRate:9
SliderMultiplier:2
SliderTickRate:1

[Events]
//Background and Video events
0,0,"bg.jpg",0,0
//Break Periods
//Storyboard Layer 0 (Background)
//Storyboard Layer 1 (Fail)
//Storyboard Layer 2 (Pass)
//Storyboard Layer 3 (Foreground)
//Storyboard Sound Samples

[TimingPoints]
1412,384.615384615385,4,2,1,60,1,0
2950,-100,4,2,7,60,0,0
5641,-100,4,2,1,60,0,0
5738,-100,4,2,1,60,0,0
5834,384.615384615385,4,2,1,50,1,0
15257,-100,4,2,7,60,0,0
15473,-100,4,2,1,60,0,0
16795,-100,4,2,7,60,0,0
17781,-100,4,2,1,60,0,0
17949,-100,4,2,1,60,0,0
18045,-100,4,2,1,60,0,0
27564,-100,4,2,7,60,0,0
27781,-100,4,2,1,60,0,0
30449,-100,4,2,1,60,0,0
30545,-100,4,2,1,60,0,0
36026,-100,4,2,1,30,0,0
36122,-100,4,2,1,35,0,0
36218,-100,4,2,1,40,0,0
36314,-100,4,2,1,45,0,0
36410,-100,4,2,1,50,0,0
36507,-100,4,2,1,55,0,0
36603,-100,4,2,1,60,0,0
48334,-100,4,2,1,30,0,0
48430,-100,4,2,1,35,0,0
48526,-100,4,2,1,40,0,0
48622,-100,4,2,1,45,0,0
48718,-100,4,2,1,50,0,0
48814,-100,4,2,1,55,0,0
48910,-100,4,2,1,60,0,0
55064,-83.3333333333333,4,1,1,50,0,1
59511,-83.3333333333333,4,2,1,60,0,0
61218,-76.9230769230769,4,1,1,60,0,1
70641,-76.9230769230769,4,2,7,60,0,1
70858,-76.9230769230769,4,1,1,60,0,1
72180,-76.9230769230769,4,2,1,60,0,0
73526,-100,4,2,1,60,0,0
73622,-100,4,2,1,60,0,0
76218,-100,4,2,1,40,0,0
76314,-100,4,2,1,45,0,0
76410,-100,4,2,1,50,0,0
76507,-100,4,2,1,55,0,0
76603,-100,4,2,1,60,0,0
79103,-100,4,2,1,30,0,0
79199,-100,4,2,1,35,0,0
79295,-100,4,2,1,40,0,0
79391,-100,4,2,1,45,0,0
79487,-100,4,2,1,50,0,0
79584,-100,4,2,1,55,0,0
79680,-100,4,2,1,60,0,0
85834,-83.3333333333333,4,1,1,60,0,1
90353,-83.3333333333333,4,1,1,60,0,0
91987,-142.857142857143,4,2,1,70,0,0
92757,-142.857142857143,4,2,7,60,0,0
98910,-142.857142857143,4,2,1,60,0,0
99103,-142.857142857143,4,2,7,60,0,0
104295,-142.857142857143,4,2,1,60,0,0
104391,-142.857142857143,4,2,7,60,0,0
111218,-142.857142857143,4,2,1,60,0,0
111410,-142.857142857143,4,2,7,60,0,0
112757,-142.857142857143,4,2,1,80,0,0
112949,-142.857142857143,4,2,7,60,0,0
114295,-142.857142857143,4,2,1,80,0,0
114487,-142.857142857143,4,2,7,60,0,0
115064,-142.857142857143,4,2,7,60,0,0
115449,-142.857142857143,4,2,7,70,0,0
115834,-142.857142857143,4,2,7,80,0,0
116218,-142.857142857143,4,2,7,90,0,0
116603,-142.857142857143,4,2,7,60,0,0
117949,-142.857142857143,4,2,1,60,0,0
119680,-142.857142857143,4,2,1,50,0,0
134680,-111.111111111111,4,2,1,50,0,0
147372,-90.9090909090909,4,2,1,60,0,1
154776,-90.9090909090909,4,2,1,20,0,1
154872,-90.9090909090909,4,2,1,60,0,1
154968,-90.9090909090909,4,2,1,20,0,1
155064,-90.9090909090909,4,2,1,60,0,1
164776,-90.9090909090909,4,2,1,20,0,1
164872,-90.9090909090909,4,2,1,60,0,1
164968,-90.9090909090909,4,2,1,20,0,1
165064,-90.9090909090909,4,2,1,60,0,1
171026,-90.9090909090909,4,2,7,60,0,1
171987,-142.857142857143,4,2,1,50,0,0
173141,-142.857142857143,4,2,1,60,0,0
173526,-142.857142857143,4,2,1,70,0,0
173622,-142.857142857143,4,2,7,55,0,0
178910,-142.857142857143,4,2,1,55,0,0
179007,-142.857142857143,4,2,7,55,0,0
184295,-142.857142857143,4,2,1,55,0,0
184391,-142.857142857143,4,2,7,55,0,0
191218,-142.857142857143,4,2,1,55,0,0
191314,-142.857142857143,4,2,7,55,0,0
192757,-142.857142857143,4,2,1,75,0,0
192949,-142.857142857143,4,2,7,55,0,0
194295,-142.857142857143,4,2,1,75,0,0
194487,-142.857142857143,4,2,7,55,0,0
196603,-142.857142857143,4,2,1,55,0,0
199680,-142.857142857143,4,2,1,10,0,0
200064,-142.857142857143,4,2,1,12,0,0
200449,-142.857142857143,4,2,1,14,0,0
200834,-142.857142857143,4,2,1,16,0,0
201218,-142.857142857143,4,2,1,18,0,0
201603,-142.857142857143,4,2,1,20,0,0
201987,-142.857142857143,4,2,1,22,0,0
202372,-142.857142857143,4,2,1,24,0,0
202757,-142.857142857143,4,2,1,26,0,0
203141,-142.857142857143,4,2,1,28,0,0
203526,-142.857142857143,4,2,1,30,0,0
203910,-142.857142857143,4,2,1,32,0,0
204295,-142.857142857143,4,2,1,34,0,0
205978,535.117056856187,4,1,1,45,1,0
205978,-62.5,4,1,1,45,0,0
223101,-62.5,4,1,1,70,0,1
223168,-62.5,4,1,1,50,0,0
223369,-62.5,4,1,1,50,0,0
231663,-62.5,4,1,1,60,0,0
257616,-62.5,4,2,1,60,0,0
265911,-50,4,1,1,60,0,1
283101,-50,4,1,1,60,0,0
283302,-50,4,1,1,60,0,1
287248,-50,4,1,1,60,0,0
287315,-50,4,1,1,60,0,1
291529,-50,4,1,1,60,0,0
291864,-50,4,2,1,60,0,1
291931,-50,4,2,1,60,0,0
295877,-50,4,2,1,60,0,1
295944,-50,4,2,1,60,0,0
299088,-50,4,2,7,60,0,0
299891,-50,4,2,1,60,0,0
299957,-50,4,2,1,11,0,1
300024,-50,4,2,1,11,0,0
300158,-50,4,2,1,10,0,0
300426,-50,4,2,1,9,0,0
300693,-50,4,2,1,8,0,0
300961,-50,4,2,1,7,0,0
301228,-50,4,2,1,6,0,0
301496,-50,4,2,1,5,0,0

[Colours]
Combo1 : 59,68,75
Combo2 : 211,33,45
Combo3 : 114,160,193
Combo4 : 205,149,117

[HitObjects]
198,168,1412,37,2,0:0:0:0:
311,231,1604,1,0,0:0:0:0:
162,243,1796,2,0,L|155:355,1,100,0|0,0:0|0:0,0:0:0:0:
239,229,2181,1,2,0:0:0:0:
355,174,2373,1,0,0:0:0:0:
237,311,2565,1,0,0:0:0:0:
463,105,2950,6,0,P|465:160|471:216,1,100,14|0,3:0|0:0,0:0:0:0:
321,42,3335,2,0,P|322:95|317:163,1,100,14|0,3:0|0:0,0:0:0:0:
187,155,3719,2,0,P|191:209|190:273,1,100,14|0,3:0|0:0,0:0:0:0:
56,65,4104,2,0,P|51:121|53:184,1,100,14|0,3:0|0:0,0:0:0:0:
38,197,4488,5,8,3:0:0:0:
175,171,4680,1,8,3:0:0:0:
313,146,4872,1,4,3:0:0:0:
451,121,5064,1,2,3:0:0:0:
385,265,5257,1,4,3:0:0:0:
247,290,5449,1,2,3:0:0:0:
110,316,5641,1,4,1:0:0:0:
443,22,6026,6,0,L|448:80,1,50,0|0,1:0|0:0,0:0:0:0:
496,93,6218,2,0,L|504:203,1,100,12|0,0:1|0:0,0:0:0:0:
379,254,6603,2,0,P|392:193|444:167,1,100,2|0,1:0|0:0,0:0:0:0:
302,332,6987,2,0,L|295:232,1,100,8|0,0:1|0:0,0:0:0:0:
174,183,7372,2,0,P|209:216|215:264,1,100,2|0,1:0|0:0,0:0:0:0:
69,352,7757,5,8,0:1:0:0:
147,248,7949,1,0,0:0:0:0:
263,360,8141,1,2,1:0:0:0:
137,324,8333,1,0,0:0:0:0:
295,232,8526,1,8,0:1:0:0:
295,232,8622,1,0,0:0:0:0:
295,232,8718,2,0,B|276:183|316:149|316:149|300:113|300:113|314:43,1,200,4|0,1:0|0:0,0:0:0:0:
221,156,9295,6,0,P|212:209|220:256,1,100,8|0,0:1|0:0,0:0:0:0:
381,100,9680,2,0,L|400:-1,1,100,2|0,1:0|0:0,0:0:0:0:
466,159,10064,2,0,P|461:202|431:173,1,100,8|0,0:1|0:0,0:0:0:0:
286,272,10449,2,0,P|243:321|204:321,1,100,2|0,1:0|0:0,0:0:0:0:
75,227,10834,1,8,0:1:0:0:
219,254,11026,1,0,0:0:0:0:
288,109,11218,1,2,1:0:0:0:
152,137,11410,1,0,0:0:0:0:
174,324,11603,1,8,0:1:0:0:
174,324,11699,1,0,0:0:0:0:
174,324,11795,2,0,P|262:322|295:225,1,200,4|0,1:0|0:0,0:0:0:0:
274,69,12372,6,0,P|220:72|172:64,1,100,8|0,0:1|0:0,0:0:0:0:
18,132,12757,2,0,P|17:173|53:153,1,100,2|0,1:0|0:0,0:0:0:0:
229,161,13141,2,0,P|282:152|330:155,1,100,8|0,0:1|0:0,0:0:0:0:
488,98,13526,2,0,P|488:56|452:76,1,100,2|0,1:0|0:0,0:0:0:0:
423,230,13910,1,8,0:1:0:0:
446,357,14102,1,0,0:0:0:0:
292,279,14295,1,2,1:0:0:0:
327,154,14487,1,0,0:0:0:0:
338,346,14680,1,8,0:1:0:0:
338,346,14776,1,0,0:0:0:0:
338,346,14872,2,0,B|290:359|260:347|260:347|230:365|230:365|171:354,1,150,4|0,1:0|0:0,0:0:0:0:
124,366,15257,5,4,3:0:0:0:
231,108,15449,1,4,3:0:0:0:
221,94,15834,2,0,P|211:132|173:104,1,100,4|0,1:0|0:0,0:0:0:0:
18,299,16218,2,0,P|28:261|66:289,1,100,4|0,1:2|0:0,0:0:0:0:
72,301,16795,5,8,3:0:0:0:
49,173,16987,1,8,3:0:0:0:
141,298,17180,1,4,3:0:0:0:
114,145,17372,1,4,3:0:0:0:
212,294,17564,1,2,3:0:0:0:
179,116,17756,1,2,3:0:0:0:
282,289,17949,1,4,1:0:0:0:
106,64,18334,5,0,1:0:0:0:
106,64,18526,2,0,P|50:48|5:52,1,100,12|0,0:1|0:0,0:0:0:0:
207,42,18910,1,2,1:0:0:0:
207,42,19295,2,0,P|262:26|308:30,1,100,8|0,0:1|0:0,0:0:0:0:
418,135,19680,1,2,1:0:0:0:
418,135,20065,2,0,P|464:112|532:106,1,100,8|0,0:1|0:0,0:0:0:0:
334,105,20449,1,2,1:0:0:0:
78,166,20834,1,12,0:1:0:0:
286,216,21026,1,12,1:0:0:0:
114,237,21218,1,0,0:0:0:0:
406,320,21603,6,0,P|461:335|507:332,1,100,8|0,0:1|0:0,0:0:0:0:
305,342,21987,1,2,1:0:0:0:
305,342,22372,2,0,P|249:357|204:354,1,100,8|0,0:1|0:0,0:0:0:0:
94,249,22757,1,2,1:0:0:0:
94,249,23142,2,0,P|48:272|-20:278,1,100,8|0,0:1|0:0,0:0:0:0:
178,279,23526,1,2,1:0:0:0:
447,219,23910,1,12,0:1:0:0:
239,172,24102,1,12,1:0:0:0:
412,151,24294,1,0,0:0:0:0:
279,250,24680,6,0,P|277:301|251:364,1,100,8|0,0:1|0:0,0:0:0:0:
239,172,25064,1,2,1:0:0:0:
239,172,25449,2,0,P|240:120|266:57,1,100,8|0,0:1|0:0,0:0:0:0:
199,239,25834,1,2,1:0:0:0:
199,239,26218,2,0,P|147:240|84:266,1,100,8|0,0:1|0:0,0:0:0:0:
311,176,26603,1,2,1:0:0:0:
140,42,26987,1,12,0:1:0:0:
101,255,27180,1,12,1:0:0:0:
372,342,27564,5,4,3:0:0:0:
411,129,27757,1,4,3:0:0:0:
58,130,28141,2,0,L|167:105,1,100,4|0,1:0|0:0,0:0:0:0:
309,294,28526,2,0,L|200:319,1,100,4|0,1:2|0:0,0:0:0:0:
374,88,29103,5,2,0:0:0:0:
276,187,29295,1,0,0:0:0:0:
411,223,29487,1,0,0:0:0:0:
270,24,29680,2,0,P|243:75|245:133,1,100,2|0,0:0|0:0,0:0:0:0:
242,360,30064,2,0,P|269:309|267:251,1,100,2|0,0:0|0:0,0:0:0:0:
157,107,30449,1,4,1:0:0:0:
157,107,30834,6,0,P|99:99|53:97,1,100,8|0,0:1|0:0,0:0:0:0:
244,173,31218,2,0,P|293:171|348:161,1,100,2|0,1:0|0:0,0:0:0:0:
160,194,31603,2,0,P|179:250|179:318,1,100,8|0,0:1|0:0,0:0:0:0:
384,376,31987,2,0,P|368:298|373:217,1,150,2|0,1:0|0:0,0:0:0:0:
482,258,32372,2,0,P|494:306|489:372,1,100,8|0,0:1|0:0,0:0:0:0:
448,185,32757,1,2,1:0:0:0:
311,153,32949,1,0,0:0:0:0:
491,104,33141,1,8,0:1:0:0:
311,153,33334,1,0,0:0:0:0:
461,23,33526,2,0,P|407:22|353:12,1,100,2|0,1:0|0:0,0:0:0:0:
343,228,33910,6,0,P|292:231|234:248,1,100,8|0,0:1|0:0,0:0:0:0:
156,96,34295,2,0,P|201:106|195:69,1,100,2|0,1:0|0:0,0:0:0:0:
27,25,34680,2,0,P|38:104|13:184,1,150,8|0,0:1|0:0,0:0:0:0:
60,231,35064,2,0,P|41:297|114:357,1,150,2|0,1:0|0:0,0:0:0:0:
115,283,35449,1,8,0:1:0:0:
128,137,35641,1,0,0:0:0:0:
185,310,35834,1,2,1:0:0:0:
202,136,36026,1,2,1:0:0:0:
195,106,36122,1,0,1:0:0:0:
178,82,36218,1,8,0:1:0:0:
153,67,36314,1,0,1:0:0:0:
123,62,36410,1,2,1:0:0:0:
94,70,36506,1,0,1:0:0:0:
71,89,36602,1,2,1:0:0:0:
374,23,36987,6,0,P|381:74|383:130,1,100,8|0,0:1|0:0,0:0:0:0:
231,235,37372,2,0,P|206:287|259:364,1,150,2|0,1:0|0:0,0:0:0:0:
280,291,37757,2,0,P|349:282|434:286,1,150,8|0,0:1|0:0,0:0:0:0:
479,342,38141,2,0,P|504:290|451:213,1,150,2|0,1:0|0:0,0:0:0:0:
388,194,38526,1,8,0:1:0:0:
326,363,38718,1,0,0:0:0:0:
305,198,38910,2,0,P|302:148|294:84,1,100,2|0,1:0|0:0,0:0:0:0:
231,235,39295,1,8,0:1:0:0:
388,194,39487,1,0,0:0:0:0:
258,305,39680,2,0,P|194:301|157:223,1,150,2|0,1:0|0:0,0:0:0:0:
231,235,40064,1,8,0:1:0:0:
105,356,40257,6,0,P|57:352|3:357,1,100,0|2,0:0|1:0,0:0:0:0:
155,231,40641,2,0,P|107:233|42:227,1,100,0|8,0:0|0:1,0:0:0:0:
108,104,41026,2,0,P|52:100|-3:111,1,100,0|2,0:0|1:0,0:0:0:0:
190,52,41410,1,0,0:0:0:0:
53,22,41602,1,8,0:1:0:0:
226,118,41795,1,0,0:0:0:0:
382,45,41987,1,2,1:0:0:0:
286,169,42180,1,0,0:0:0:0:
442,96,42372,1,8,0:1:0:0:
346,220,42564,1,0,0:0:0:0:
502,147,42756,1,4,1:0:0:0:
198,234,43141,6,0,P|183:289|250:355,1,150,8|0,0:1|0:0,0:0:0:0:
257,280,43526,2,0,P|313:291|375:221,1,150,2|0,1:0|0:0,0:0:0:0:
301,218,43910,2,0,P|300:168|296:107,1,100,8|0,0:1|0:0,0:0:0:0:
167,23,44295,1,2,1:0:0:0:
223,172,44487,1,0,0:0:0:0:
167,322,44680,2,0,P|166:272|162:211,1,100,8|0,0:1|0:0,0:0:0:0:
74,59,45064,1,2,1:0:0:0:
18,208,45256,1,0,0:0:0:0:
87,353,45449,2,0,P|85:300|83:251,1,100,8|0,0:1|0:0,0:0:0:0:
74,59,45834,2,0,P|133:33|239:69,1,150,2|0,1:0|0:0,0:0:0:0:
335,82,46218,6,0,P|383:28|454:39,1,150,8|0,0:1|0:0,0:0:0:0:
408,99,46602,2,0,P|411:181|416:260,1,150,2|0,1:0|0:0,0:0:0:0:
488,268,46987,2,0,P|488:326|493:394,1,100,8|0,0:1|0:0,0:0:0:0:
334,289,47372,2,0,P|334:231|329:163,1,100,2|0,1:0|0:0,0:0:0:0:
275,351,47756,1,8,0:1:0:0:
229,217,47948,1,0,0:0:0:0:
349,364,48141,1,2,1:0:0:0:
195,293,48334,1,2,1:0:0:0:
166,283,48430,1,0,1:0:0:0:
136,282,48526,1,8,0:1:0:0:
107,290,48622,1,0,1:0:0:0:
82,306,48718,1,2,1:0:0:0:
62,328,48814,1,0,1:0:0:0:
49,355,48910,1,2,1:0:0:0:
324,136,49294,6,0,P|276:140|224:144,1,100,8|0,1:0|0:0,0:0:0:0:
387,177,49679,2,0,P|396:120|324:60,1,150,2|0,1:0|0:0,0:0:0:0:
259,66,50064,2,0,P|181:71|107:79,1,150,8|0,0:1|0:0,0:0:0:0:
37,87,50449,1,2,1:0:0:0:
148,204,50641,1,0,0:0:0:0:
259,66,50834,1,8,0:1:0:0:
85,150,51025,1,0,0:0:0:0:
291,232,51217,2,0,P|295:182|297:121,1,100,2|0,1:0|0:0,0:0:0:0:
148,204,51603,2,0,P|143:253|142:315,1,100,8|0,0:1|0:0,0:0:0:0:
372,131,51987,2,0,P|323:62|247:77,1,150,2|0,1:0|0:0,0:0:0:0:
297,132,52372,1,8,1:0:0:0:
445,264,52564,6,0,P|449:316|451:363,1,100,0|2,0:0|1:0,0:0:0:0:
307,226,52948,2,0,P|304:275|307:339,1,100,0|8,0:0|0:1,0:0:0:0:
151,272,53333,2,0,P|153:323|146:382,1,100,0|2,0:0|1:0,0:0:0:0:
31,262,53717,1,0,0:0:0:0:
174,196,53909,1,8,0:1:0:0:
236,343,54102,1,0,0:0:0:0:
344,210,54294,1,4,1:0:0:0:
174,196,54487,1,0,0:0:0:0:
298,82,54679,1,4,1:0:0:0:
114,97,54871,1,0,0:0:0:0:
276,6,55064,5,10,0:0:0:0:
323,7,55160,1,0,0:0:0:0:
361,34,55256,1,0,0:0:0:0:
377,79,55352,1,0,0:0:0:0:
364,125,55448,1,10,0:0:0:0:
328,155,55544,1,0,0:0:0:0:
281,159,55641,1,0,0:0:0:0:
236,141,55737,1,0,0:0:0:0:
190,152,55833,1,10,0:0:0:0:
159,187,55929,1,0,0:0:0:0:
153,234,56025,1,0,0:0:0:0:
174,276,56121,1,0,0:0:0:0:
216,299,56217,1,10,0:0:0:0:
263,294,56314,1,0,0:0:0:0:
304,267,56410,2,0,P|304:299|306:336,1,59.9999981689454,0|0,0:0|0:0,0:0:0:0:
418,367,56603,6,0,P|417:304|413:245,1,119.999996337891,10|0,0:0|0:0,0:0:0:0:
467,41,56987,2,0,P|474:104|474:177,1,119.999996337891,10|0,0:0|0:0,0:0:0:0:
381,67,57372,1,10,0:0:0:0:
327,61,57468,1,0,0:0:0:0:
273,55,57564,1,0,0:0:0:0:
219,50,57660,1,0,0:0:0:0:
166,44,57756,1,10,0:0:0:0:
166,44,58141,6,0,P|161:108|163:164,1,119.999996337891,2|0,0:0|0:0,0:0:0:0:
15,137,58526,2,0,P|20:73|18:17,1,119.999996337891,10|0,0:0|0:0,0:0:0:0:
110,216,58910,1,10,0:0:0:0:
144,264,59006,1,0,0:0:0:0:
134,322,59102,1,0,0:0:0:0:
86,355,59198,1,0,0:0:0:0:
28,346,59294,1,10,0:0:0:0:
0,296,59390,1,0,0:0:0:0:
11,241,59486,1,4,0:0:0:0:
246,336,59872,6,0,P|314:336|356:291,1,119.999996337891,2|0,0:0|0:0,0:0:0:0:
325,106,60257,1,0,0:0:0:0:
283,269,60449,1,0,0:0:0:0:
401,95,60641,1,0,0:0:0:0:
238,193,60834,2,0,P|149:207|113:124,1,179.999994506836,2|0,0:0|0:0,0:0:0:0:
184,142,61218,6,0,P|199:74|318:102,1,194.999991073609,4|0,0:0|0:0,0:0:0:0:
358,72,61603,5,10,0:0:0:0:
370,57,61699,1,0,0:0:0:0:
387,45,61795,1,0,0:0:0:0:
405,39,61891,1,0,0:0:0:0:
423,37,61987,1,2,0:0:0:0:
443,39,62083,1,0,0:0:0:0:
461,47,62179,1,0,0:0:0:0:
477,59,62276,1,0,0:0:0:0:
421,113,62372,1,12,0:0:0:0:
417,151,62468,1,0,0:0:0:0:
437,183,62564,1,0,0:0:0:0:
473,198,62660,1,0,0:0:0:0:
510,188,62756,1,2,0:0:0:0:
403,352,62949,6,0,P|342:354|268:371,1,129.999994049073,0|10,0:0|0:0,0:0:0:0:
127,189,63334,2,0,P|60:205|-8:208,1,129.999994049073,0|2,0:0|0:0,0:0:0:0:
252,273,63718,2,0,P|182:281|117:292,1,129.999994049073,0|12,0:0|0:0,0:0:0:0:
29,98,64103,1,0,0:0:0:0:
29,98,64199,1,0,0:0:0:0:
29,98,64295,2,0,B|51:68|103:66|103:66|134:39|134:39|166:57|205:52,1,194.999991073609,2|0,0:0|0:0,0:0:0:0:
248,76,64680,5,10,0:0:0:0:
246,95,64776,1,0,0:0:0:0:
252,113,64872,1,0,0:0:0:0:
264,128,64968,1,0,0:0:0:0:
281,138,65064,1,2,0:0:0:0:
300,140,65160,1,0,0:0:0:0:
319,136,65256,1,0,0:0:0:0:
335,124,65353,1,0,0:0:0:0:
347,53,65449,1,12,0:0:0:0:
385,48,65545,1,0,0:0:0:0:
424,43,65641,1,0,0:0:0:0:
463,39,65737,1,0,0:0:0:0:
501,34,65833,1,2,0:0:0:0:
444,217,66026,6,0,P|443:284|438:356,1,129.999994049073,0|10,0:0|0:0,0:0:0:0:
319,136,66410,2,0,P|234:97|191:117,1,129.999994049073,0|2,0:0|0:0,0:0:0:0:
199,317,66795,2,0,P|291:327|326:295,1,129.999994049073,0|12,0:0|0:0,0:0:0:0:
19,295,67180,1,0,0:0:0:0:
19,295,67276,1,0,0:0:0:0:
19,295,67372,2,0,B|53:304|79:333|79:333|139:312|139:312|202:317,1,194.999991073609,2|0,0:0|0:0,0:0:0:0:
239,284,67757,5,10,0:0:0:0:
257,279,67853,1,0,0:0:0:0:
273,268,67949,1,0,0:0:0:0:
282,252,68045,1,0,0:0:0:0:
286,232,68141,1,2,0:0:0:0:
282,213,68237,1,0,0:0:0:0:
272,197,68333,1,0,0:0:0:0:
256,186,68430,1,0,0:0:0:0:
189,209,68526,1,12,0:0:0:0:
150,214,68622,1,0,0:0:0:0:
111,219,68718,1,0,0:0:0:0:
73,224,68814,1,0,0:0:0:0:
34,229,68910,1,2,0:0:0:0:
104,45,69103,6,0,P|55:22|63:74,1,129.999994049073,0|10,0:0|0:0,0:0:0:0:
280,115,69487,2,0,P|353:100|434:124,1,129.999994049073,0|2,0:0|0:0,0:0:0:0:
376,291,69872,1,0,0:0:0:0:
191,158,70064,1,12,0:0:0:0:
425,36,70257,1,12,0:2:0:0:
118,203,70641,5,4,3:0:0:0:
455,312,70834,1,4,3:0:0:0:
75,129,71218,2,0,P|132:121|203:180,1,129.999994049073,12|0,0:0|2:0,0:0:0:0:
499,238,71603,2,0,P|442:230|371:289,1,129.999994049073,12|0,0:2|2:0,0:0:0:0:
339,19,72180,5,2,0:0:0:0:
279,192,72372,1,0,0:0:0:0:
460,157,72564,1,0,0:0:0:0:
277,94,72757,2,0,P|222:97|203:23,1,129.999994049073,2|0,0:0|0:0,0:0:0:0:
235,290,73141,2,0,P|290:287|309:361,1,129.999994049073,2|0,0:0|0:0,0:0:0:0:
118,203,73526,1,4,1:0:0:0:
448,94,73910,5,8,0:1:0:0:
375,242,74102,2,0,P|365:297|367:350,1,100,0|2,0:0|1:0,0:0:0:0:
302,192,74487,1,0,0:0:0:0:
449,221,74680,1,8,0:1:0:0:
365,340,74872,1,0,0:0:0:0:
302,192,75064,2,0,P|312:137|310:84,1,100,2|0,1:0|0:0,0:0:0:0:
167,159,75449,1,8,0:1:0:0:
239,310,75641,2,0,P|237:254|224:202,1,100,0|2,0:0|1:0,0:0:0:0:
164,351,76026,1,0,0:0:0:0:
105,205,76218,1,8,1:1:0:0:
80,198,76314,1,0,1:0:0:0:
56,192,76410,1,2,1:0:0:0:
32,186,76506,1,0,1:0:0:0:
8,180,76603,2,0,P|2:273|6:308,1,100,2|0,1:0|0:0,0:0:0:0:
66,117,76987,6,0,P|59:70|26:95,1,100,8|0,0:1|0:0,0:0:0:0:
202,59,77371,2,0,P|274:28|332:75,1,150,2|0,1:0|0:0,0:0:0:0:
263,102,77756,2,0,P|263:160|258:215,1,100,8|0,0:1|0:0,0:0:0:0:
332,357,78141,2,0,P|327:267|345:199,1,150,2|0,1:0|0:0,0:0:0:0:
370,143,78525,1,8,0:1:0:0:
423,293,78717,1,0,0:0:0:0:
449,134,78910,1,2,1:0:0:0:
349,297,79103,1,2,1:0:0:0:
358,330,79199,1,0,1:0:0:0:
382,355,79295,1,8,0:1:0:0:
414,367,79391,1,0,1:0:0:0:
449,364,79487,1,2,1:0:0:0:
478,345,79583,1,0,1:0:0:0:
496,316,79680,2,0,P|497:264|500:197,1,100,2|0,1:0|0:0,0:0:0:0:
454,58,80064,5,8,0:1:0:0:
306,89,80257,1,0,0:0:0:0:
160,120,80448,2,0,P|74:128|41:70,1,150,2|0,1:0|0:0,0:0:0:0:
113,63,80834,1,8,0:1:0:0:
306,89,81026,2,0,P|311:144|312:192,1,100,0|2,0:0|1:0,0:0:0:0:
180,278,81410,1,0,0:0:0:0:
236,127,81603,1,8,0:1:0:0:
322,260,81794,1,0,0:0:0:0:
160,359,81987,2,0,P|70:351|5:360,1,150,2|0,1:0|0:0,0:0:0:0:
81,268,82372,2,0,P|121:277|186:276,1,100,8|0,0:1|0:0,0:0:0:0:
267,127,82756,2,0,P|324:64|397:88,1,150,2|0,1:0|0:0,0:0:0:0:
340,136,83140,1,8,0:1:0:0:
467,260,83333,6,0,P|471:312|473:359,1,100,0|2,0:0|1:0,0:0:0:0:
336,215,83717,2,0,P|333:264|336:328,1,100,0|8,0:0|0:1,0:0:0:0:
190,271,84102,2,0,P|192:322|185:381,1,100,0|2,0:0|1:0,0:0:0:0:
137,202,84487,1,0,0:0:0:0:
48,324,84679,1,8,0:1:0:0:
190,271,84871,1,0,0:0:0:0:
336,215,85063,1,4,1:0:0:0:
482,158,85256,1,0,0:0:0:0:
339,202,85449,1,12,0:1:0:0:
193,259,85642,1,0,0:0:0:0:
343,189,85834,5,10,0:0:0:0:
371,151,85930,1,0,0:0:0:0:
375,104,86026,1,0,0:0:0:0:
353,62,86122,1,0,0:0:0:0:
312,38,86218,1,10,0:0:0:0:
265,40,86314,1,0,0:0:0:0:
226,67,86410,1,0,0:0:0:0:
208,111,86507,1,0,0:0:0:0:
216,158,86603,1,10,0:0:0:0:
248,193,86699,1,0,0:0:0:0:
294,204,86795,1,0,0:0:0:0:
333,230,86891,1,0,0:0:0:0:
357,271,86987,1,10,0:0:0:0:
356,318,87083,1,0,0:0:0:0:
332,360,87180,2,0,L|268:377,1,59.9999981689454
217,306,87372,6,0,P|160:322|98:338,1,119.999996337891,10|0,0:0|0:0,0:0:0:0:
248,193,87757,2,0,P|304:180|369:165,1,119.999996337891,10|0,0:0|0:0,0:0:0:0:
217,306,88141,1,8,0:0:0:0:
163,318,88237,1,0,0:0:0:0:
111,330,88333,1,0,0:0:0:0:
57,342,88429,1,0,0:0:0:0:
6,354,88525,1,8,0:0:0:0:
6,354,88910,6,0,P|1:290|3:234,1,119.999996337891,10|0,0:0|0:0,0:0:0:0:
135,149,89295,2,0,P|140:85|138:29,1,119.999996337891,10|0,0:0|0:0,0:0:0:0:
256,192,89680,1,10,0:0:0:0:
289,240,89776,1,0,0:0:0:0:
346,252,89872,1,0,0:0:0:0:
396,221,89968,1,0,0:0:0:0:
412,164,90064,1,10,0:0:0:0:
384,113,90160,1,0,0:0:0:0:
329,94,90256,1,4,0:0:0:0:
255,308,91987,6,0,P|251:187|380:102,1,279.999991455078,4|12,1:0|3:0,0:0:0:0:
164,323,93141,1,6,3:0:0:0:
65,51,93526,5,4,3:0:0:0:
69,55,93622,1,4,3:0:0:0:
73,59,93718,1,2,3:0:0:0:
64,142,93910,1,6,3:0:0:0:
59,226,94103,1,4,3:0:0:0:
164,323,94295,1,12,3:0:0:0:
168,327,94680,1,6,3:0:0:0:
158,62,95064,5,4,3:0:0:0:
162,66,95160,1,4,3:0:0:0:
166,70,95256,1,2,3:0:0:0:
157,153,95448,1,6,3:0:0:0:
152,237,95641,1,4,3:0:0:0:
256,336,95834,1,12,3:0:0:0:
256,340,96218,1,6,3:0:0:0:
350,66,96603,5,4,3:0:0:0:
346,70,96699,1,4,3:0:0:0:
342,74,96795,1,2,3:0:0:0:
344,157,96987,2,0,L|350:245,1,69.9999978637696,6|4,3:0|3:0,0:0:0:0:
427,205,97372,2,0,L|433:293,1,69.9999978637696,12|4,3:0|3:0,0:0:0:0:
507,140,97757,2,0,L|513:228,1,69.9999978637696,6|4,3:0|3:0,0:0:0:0:
421,30,98141,5,4,3:0:0:0:
417,34,98237,1,4,3:0:0:0:
413,38,98333,1,2,3:0:0:0:
422,121,98525,1,6,3:0:0:0:
427,205,98718,1,4,3:0:0:0:
348,323,98910,1,12,1:0:0:0:
344,327,99295,1,6,3:0:0:0:
354,62,99680,5,4,3:0:0:0:
350,66,99776,1,4,3:0:0:0:
346,70,99872,1,2,3:0:0:0:
355,153,100064,1,6,3:0:0:0:
360,237,100257,1,4,3:0:0:0:
256,336,100450,1,12,3:0:0:0:
256,48,100833,1,6,3:0:0:0:
256,336,101218,5,4,3:0:0:0:
256,336,101314,1,4,3:0:0:0:
256,336,101410,1,2,3:0:0:0:
180,280,101603,1,6,3:0:0:0:
323,244,101795,1,4,3:0:0:0:
139,198,101987,1,12,3:0:0:0:
414,236,102372,2,0,L|425:330,1,69.9999978637696,6|4,3:0|3:0,0:0:0:0:
263,199,102757,5,4,3:0:0:0:
263,199,102853,1,4,3:0:0:0:
263,199,102949,1,2,3:0:0:0:
180,280,103141,2,0,L|169:374,1,69.9999978637696,6|4,3:0|3:0,0:0:0:0:
98,236,103526,2,0,L|87:330,1,69.9999978637696,12|4,3:0|3:0,0:0:0:0:
16,192,103910,2,0,L|5:286,1,69.9999978637696,6|4,3:0|3:0,0:0:0:0:
88,148,104295,6,0,P|179:157|258:69,1,209.999993591309,4|4,1:0|3:0,0:0:0:0:
423,53,105064,2,0,L|505:43,1,69.9999978637696,12|4,3:0|3:0,0:0:0:0:
409,163,105449,2,0,L|327:173,1,69.9999978637696,4|4,3:0|3:0,0:0:0:0:
259,72,105834,5,4,3:0:0:0:
259,72,105930,1,4,3:0:0:0:
259,72,106026,1,2,3:0:0:0:
339,171,106218,1,6,3:0:0:0:
172,100,106411,1,4,3:0:0:0:
303,253,106603,2,0,L|313:335,1,69.9999978637696,12|4,3:0|3:0,0:0:0:0:
180,169,106987,2,0,L|170:87,1,69.9999978637696,4|4,3:0|3:0,0:0:0:0:
250,244,107372,5,4,3:0:0:0:
250,244,107468,1,4,3:0:0:0:
250,244,107565,1,2,3:0:0:0:
308,364,107757,1,6,3:0:0:0:
310,178,107949,1,4,3:0:0:0:
141,293,108141,2,0,L|59:303,1,69.9999978637696,12|4,3:0|3:0,0:0:0:0:
238,372,108526,2,0,L|320:362,1,69.9999978637696,4|4,3:0|3:0,0:0:0:0:
476,345,108911,5,4,3:0:0:0:
476,345,109007,1,4,3:0:0:0:
476,345,109103,1,2,3:0:0:0:
452,197,109295,2,0,L|461:110,1,69.9999978637696,6|4,3:0|3:0,0:0:0:0:
329,278,109680,2,0,L|338:191,1,69.9999978637696,12|4,3:0|3:0,0:0:0:0:
206,359,110064,2,0,L|215:272,1,69.9999978637696,6|4,3:0|3:0,0:0:0:0:
250,97,110449,5,4,3:0:0:0:
250,97,110545,1,4,3:0:0:0:
250,97,110642,1,2,3:0:0:0:
115,167,110834,1,6,3:0:0:0:
196,34,111026,1,4,3:0:0:0:
25,204,111218,1,12,1:0:0:0:
381,24,111603,1,6,3:0:0:0:
297,357,111988,5,4,3:0:0:0:
297,357,112084,1,4,3:0:0:0:
297,357,112180,1,2,3:0:0:0:
137,361,112372,1,6,3:0:0:0:
326,276,112564,1,4,3:0:0:0:
66,320,112756,1,12,1:0:0:0:
496,253,113141,1,6,3:0:0:0:
154,116,113526,5,4,3:0:0:0:
154,116,113622,1,4,3:0:0:0:
154,116,113718,1,2,3:0:0:0:
304,62,113910,1,6,3:0:0:0:
151,201,114102,1,4,3:0:0:0:
385,79,114294,1,12,1:0:0:0:
0,271,114680,5,10,3:0:0:0:
195,355,114872,1,8,3:0:0:0:
68,240,115064,1,8,3:0:0:0:
271,299,115256,1,8,3:0:0:0:
112,180,115449,1,2,3:0:0:0:
322,206,115641,1,2,3:0:0:0:
115,108,115833,1,4,3:0:0:0:
327,109,116025,1,4,3:0:0:0:
81,43,116218,1,2,3:0:0:0:
291,14,116410,1,2,3:0:0:0:
256,192,116603,12,2,117949,0:0:0:0:
275,78,119680,5,2,0:0:0:0:
301,243,120064,1,0,0:0:0:0:
193,113,120449,1,2,0:0:0:0:
173,194,120641,1,0,0:0:0:0:
336,153,121026,1,0,0:0:0:0:
364,318,121410,2,0,L|430:308,3,34.9999989318848,2|0|0|0,0:0|0:0|0:0|0:0,0:0:0:0:
429,272,121795,2,0,L|495:262,2,34.9999989318848
48,219,122757,6,0,L|-4:206,2,34.9999989318848,4|0|0,1:0|1:0|1:0,0:0:0:0:
153,201,123141,2,0,L|205:214,2,34.9999989318848,2|0|0,1:0|1:0|1:0,0:0:0:0:
180,310,123526,1,10,1:0:0:0:
92,148,123718,1,0,1:0:0:0:
92,148,124103,1,0,1:0:0:0:
92,148,124487,1,0,1:0:0:0:
55,180,124583,1,0,1:0:0:0:
40,227,124679,1,2,1:0:0:0:
51,275,124775,1,0,1:0:0:0:
85,310,124871,1,0,1:0:0:0:
133,323,124967,1,0,1:0:0:0:
179,310,125063,1,10,1:0:0:0:
256,64,125449,1,0,0:0:0:0:
464,219,125834,6,0,L|516:206,2,34.9999989318848,4|0|0,1:0|1:0|1:0,0:0:0:0:
359,201,126218,2,0,L|307:214,2,34.9999989318848,2|0|0,1:0|1:0|1:0,0:0:0:0:
332,310,126603,1,10,1:0:0:0:
420,148,126795,1,0,1:0:0:0:
420,148,127180,1,0,1:0:0:0:
420,148,127564,1,0,1:0:0:0:
456,180,127660,1,0,1:0:0:0:
471,227,127756,1,2,1:0:0:0:
460,275,127852,1,0,1:0:0:0:
426,310,127948,1,0,1:0:0:0:
378,323,128044,1,0,1:0:0:0:
332,310,128140,1,10,1:0:0:0:
256,64,128526,1,0,0:0:0:0:
71,195,128910,6,0,L|58:247,2,34.9999989318848,4|0|0,1:0|1:0|1:0,0:0:0:0:
53,90,129294,2,0,L|66:38,2,34.9999989318848,2|0|0,1:0|1:0|1:0,0:0:0:0:
162,63,129679,1,10,1:0:0:0:
0,151,129871,1,0,1:0:0:0:
0,151,130256,1,0,1:0:0:0:
0,151,130640,1,0,1:0:0:0:
33,187,130736,1,0,1:0:0:0:
80,202,130834,1,2,1:0:0:0:
128,191,130930,1,0,1:0:0:0:
163,157,131026,1,0,1:0:0:0:
176,109,131122,1,0,1:0:0:0:
163,63,131218,1,10,1:0:0:0:
256,320,131602,1,0,0:0:0:0:
441,195,131987,6,0,L|454:247,2,34.9999989318848,4|0|0,1:0|1:0|1:0,0:0:0:0:
459,90,132371,2,0,L|446:38,2,34.9999989318848,2|0|0,1:0|1:0|1:0,0:0:0:0:
350,63,132756,1,10,1:0:0:0:
512,151,132948,1,0,1:0:0:0:
512,151,133333,1,0,1:0:0:0:
512,151,133717,1,0,1:0:0:0:
479,187,133813,1,0,1:0:0:0:
432,202,133909,1,2,1:0:0:0:
384,191,134007,1,0,1:0:0:0:
349,157,134103,1,0,1:0:0:0:
336,109,134199,1,0,1:0:0:0:
349,63,134295,1,10,1:0:0:0:
247,204,134680,6,0,P|239:270|236:343,1,134.999995880127,2|0,0:0|0:0,0:0:0:0:
308,338,135064,2,0,P|306:361|304:411,2,44.999998626709,4|0|0,1:0|0:0|0:0,0:0:0:0:
427,239,135449,2,0,P|429:262|437:311,2,44.999998626709,8|0|0,0:0|0:0|0:0,0:0:0:0:
451,96,135834,1,2,1:0:0:0:
317,174,136026,1,0,1:0:0:0:
494,155,136218,1,8,0:0:0:0:
360,43,136410,2,0,P|309:40|259:34,1,89.9999972534181,0|0,1:0|0:0,0:0:0:0:
136,135,136795,5,2,1:0:0:0:
146,169,136891,1,0,1:0:0:0:
141,205,136987,1,8,1:0:0:0:
122,235,137083,1,0,1:0:0:0:
92,255,137179,1,0,1:0:0:0:
57,261,137275,1,0,1:0:0:0:
23,251,137372,2,0,L|13:371,1,89.9999972534181,2|0,0:0|0:0,0:0:0:0:
122,234,137757,2,0,L|135:339,1,89.9999972534181,8|0,0:0|0:0,0:0:0:0:
263,263,138141,5,4,1:0:0:0:
269,308,138237,1,0,0:0:0:0:
274,352,138333,1,0,0:0:0:0:
404,292,138526,1,8,0:0:0:0:
410,337,138622,1,0,0:0:0:0:
415,381,138718,1,0,0:0:0:0:
479,252,138910,1,2,1:0:0:0:
428,119,139103,1,0,1:0:0:0:
404,292,139295,1,8,0:0:0:0:
230,204,139487,2,0,P|182:194|130:195,1,89.9999972534181,0|0,1:0|0:0,0:0:0:0:
298,245,139872,5,2,1:0:0:0:
332,235,139968,1,0,1:0:0:0:
360,212,140064,1,8,1:0:0:0:
375,180,140160,1,0,1:0:0:0:
376,144,140256,1,0,1:0:0:0:
362,111,140352,1,0,1:0:0:0:
336,87,140449,2,0,P|386:72|437:70,1,89.9999972534181,2|0,0:0|0:0,0:0:0:0:
282,24,140834,2,0,P|232:39|181:41,1,89.9999972534181,8|0,0:0|0:0,0:0:0:0:
50,45,141218,5,4,1:0:0:0:
50,45,141314,1,0,0:0:0:0:
50,45,141410,1,0,0:0:0:0:
171,123,141603,1,8,0:0:0:0:
171,123,141699,1,0,0:0:0:0:
171,123,141795,1,0,0:0:0:0:
316,58,141987,1,2,1:0:0:0:
385,188,142180,1,0,1:0:0:0:
395,23,142372,1,8,0:0:0:0:
260,152,142564,2,0,P|255:201|254:258,1,89.9999972534181,0|0,1:0|0:0,0:0:0:0:
85,133,142949,5,2,1:0:0:0:
87,96,143045,1,0,1:0:0:0:
104,64,143141,1,8,1:0:0:0:
133,44,143237,1,0,1:0:0:0:
168,36,143333,1,0,1:0:0:0:
203,43,143429,1,0,1:0:0:0:
232,64,143526,2,0,P|275:54|320:54,1,89.9999972534181,2|0,0:0|0:0,0:0:0:0:
418,160,143910,2,0,P|462:160|506:169,1,89.9999972534181,8|0,0:0|0:0,0:0:0:0:
436,43,144295,6,0,L|498:28,2,44.999998626709,4|0|0,1:0|0:0|0:0,0:0:0:0:
319,147,144680,2,0,L|257:162,2,44.999998626709,8|0|0,0:0|0:0|0:0,0:0:0:0:
482,179,145064,1,2,1:0:0:0:
453,329,145257,1,0,1:0:0:0:
408,146,145449,1,8,0:0:0:0:
285,313,145642,2,0,P|249:322|255:277,1,89.9999972534181,0|0,1:0|0:0,0:0:0:0:
138,122,146026,6,0,L|133:169,1,44.999998626709,8|0,0:0|0:0,0:0:0:0:
71,211,146218,2,0,L|66:258,1,44.999998626709,12|0,0:1|0:0,0:0:0:0:
110,318,146410,2,0,L|105:365,1,44.999998626709,0|0,1:0|0:0,0:0:0:0:
182,370,146603,2,0,L|187:323,1,44.999998626709,0|0,1:0|0:0,0:0:0:0:
249,281,146795,2,0,L|254:234,1,44.999998626709,8|0,0:0|0:0,0:0:0:0:
210,174,146987,2,0,L|215:127,1,44.999998626709,12|0,0:1|0:0,0:0:0:0:
190,56,147180,1,0,1:0:0:0:
376,49,147372,5,4,1:0:0:0:
414,28,147468,1,0,0:0:0:0:
457,31,147564,1,0,0:0:0:0:
492,56,147660,1,0,0:0:0:0:
508,97,147756,1,10,0:0:0:0:
304,113,147949,1,0,0:0:0:0:
476,187,148141,1,2,0:0:0:0:
481,230,148237,1,0,0:0:0:0:
486,274,148333,1,0,1:0:0:0:
491,318,148429,1,0,0:0:0:0:
496,361,148525,1,10,0:0:0:0:
357,229,148718,1,0,0:0:0:0:
149,202,148910,6,0,P|119:189|87:186,2,55.0000016784668,2|0|0,1:0|0:0|0:0,0:0:0:0:
365,359,149295,2,0,P|385:334|398:305,2,55.0000016784668,10|0|0,0:0|0:0|0:0,0:0:0:0:
326,88,149680,2,0,P|346:63|373:46,2,55.0000016784668,2|0|0,1:0|0:0|1:0,0:0:0:0:
153,294,150064,2,0,P|145:325|130:352,2,55.0000016784668,10|0|0,0:0|0:0|1:0,0:0:0:0:
195,49,150449,5,4,1:0:0:0:
160,23,150545,1,0,0:0:0:0:
116,15,150641,1,0,0:0:0:0:
72,25,150737,1,0,0:0:0:0:
37,52,150834,1,10,0:0:0:0:
18,92,150930,1,0,0:0:0:0:
18,137,151026,1,0,0:0:0:0:
33,178,151122,1,0,0:0:0:0:
66,208,151218,1,2,1:0:0:0:
108,223,151314,1,0,0:0:0:0:
140,254,151410,1,0,0:0:0:0:
150,297,151507,1,0,0:0:0:0:
136,340,151603,1,10,0:0:0:0:
101,366,151699,1,0,0:0:0:0:
52,366,151795,1,0,0:0:0:0:
120,118,151987,5,4,1:0:0:0:
120,118,152084,1,0,0:0:0:0:
120,118,152180,1,0,0:0:0:0:
211,280,152372,1,10,0:0:0:0:
211,280,152469,1,0,0:0:0:0:
211,280,152565,1,0,0:0:0:0:
194,67,152757,1,4,1:2:0:0:
194,67,152854,1,0,0:0:0:0:
194,67,152950,1,0,0:0:0:0:
303,317,153141,1,10,0:0:0:0:
303,317,153238,1,0,0:0:0:0:
303,317,153334,1,0,0:0:0:0:
272,29,153526,6,0,B|292:86|292:86|258:116|258:116|310:150|312:212,2,220.000006713867,4|8|2,1:0|0:0|1:2,0:0:0:0:
385,178,154487,1,0,1:0:0:0:
187,13,154680,2,0,L|209:77,1,55.0000016784668,8|0,0:0|0:0,0:0:0:0:
135,133,154872,2,0,L|113:69,1,55.0000016784668
209,178,155064,6,0,B|209:218|245:260|245:260|218:300|218:300|242:336|244:382,1,220.000006713867,2|8,1:0|0:0,0:0:0:0:
125,212,155641,1,0,0:0:0:0:
310,178,155834,2,0,P|382:264|307:339,1,220.000006713867,2|8,1:2|0:0,0:0:0:0:
399,135,156410,1,0,1:0:0:0:
215,18,156603,5,2,1:0:0:0:
198,214,156795,2,0,P|190:273|187:325,1,110.000003356934,2|8,0:0|0:0,0:0:0:0:
154,127,157180,1,0,0:0:0:0:
19,285,157372,2,0,P|76:329|32:264,1,220.000006713867,2|8,1:2|0:0,0:0:0:0:
468,143,158141,5,2,1:0:0:0:
270,160,158334,1,0,0:0:0:0:
444,67,158526,1,8,0:0:0:0:
185,34,158718,2,0,P|134:19|72:21,1,110.000003356934,2|2,0:0|1:0,0:0:0:0:
246,84,159103,1,0,1:0:0:0:
112,229,159295,2,0,P|61:244|-1:242,1,110.000003356934,10|0,0:0|0:0,0:0:0:0:
184,129,159680,6,0,B|183:196|225:228|225:228|202:255|202:255|222:368,1,220.000006713867,4|8,1:0|0:0,0:0:0:0:
277,138,160257,1,2,0:0:0:0:
269,111,160353,1,0,0:0:0:0:
270,84,160449,1,2,1:0:0:0:
280,59,160545,1,0,0:0:0:0:
296,40,160641,2,0,P|222:34|161:44,1,110.000003356934,2|8,1:0|0:0,0:0:0:0:
384,53,161026,1,0,0:0:0:0:
483,224,161218,5,4,1:0:0:0:
483,224,161314,1,0,0:0:0:0:
483,224,161410,1,0,0:0:0:0:
362,360,161603,1,10,0:0:0:0:
362,360,161699,1,0,0:0:0:0:
362,360,161795,1,0,0:0:0:0:
319,173,161987,1,2,1:0:0:0:
319,173,162083,1,0,0:0:0:0:
319,173,162180,1,0,1:0:0:0:
175,327,162372,1,10,0:0:0:0:
175,327,162468,1,0,0:0:0:0:
175,327,162564,1,0,1:0:0:0:
19,179,162757,5,4,1:0:0:0:
31,143,162853,1,0,0:0:0:0:
59,116,162949,1,0,0:0:0:0:
95,104,163045,1,0,0:0:0:0:
133,110,163141,1,10,0:0:0:0:
164,132,163237,1,0,0:0:0:0:
182,166,163333,1,0,0:0:0:0:
183,204,163430,1,0,0:0:0:0:
168,239,163526,1,2,1:0:0:0:
201,281,163622,1,0,0:0:0:0:
253,298,163718,1,0,0:0:0:0:
305,286,163814,1,0,0:0:0:0:
343,246,163910,1,10,0:0:0:0:
354,193,164006,1,0,0:0:0:0:
334,143,164102,1,0,0:0:0:0:
290,111,164199,1,0,0:0:0:0:
246,88,164295,6,0,P|154:106|66:89,1,165.000005035401,4|0,1:0|0:0,0:0:0:0:
43,188,164680,2,0,L|129:179,1,55.0000016784668,10|0,0:0|0:0,0:0:0:0:
214,241,164872,2,0,L|128:242,1,55.0000016784668
71,290,165064,1,4,1:2:0:0:
236,107,165257,1,0,0:0:0:0:
276,338,165449,1,8,0:0:0:0:
305,142,165641,1,0,0:0:0:0:
197,361,165834,6,0,P|206:293|338:284,2,220.000006713867,4|8|2,1:0|0:0|1:0,0:0:0:0:
392,329,166795,1,0,1:0:0:0:
363,133,166987,1,10,0:0:0:0:
276,338,167180,1,0,0:0:0:0:
442,157,167372,1,2,1:0:0:0:
256,192,167468,12,2,168718,0:0:0:0:
76,346,168910,6,0,B|68:293|68:293|103:263|103:263|64:212|90:145,1,220.000006713867,2|8,1:0|0:0,0:0:0:0:
278,140,169487,2,0,B|266:178|295:220|295:220|275:294|275:294|290:357,1,220.000006713867,2|0,0:0|0:0,0:0:0:0:
416,131,170064,1,8,0:0:0:0:
468,322,170257,1,0,0:0:0:0:
483,86,170449,6,0,P|436:56|354:70,1,110.000003356934,4|8,1:0|0:0,0:0:0:0:
491,222,170834,1,0,1:0:0:0:
306,151,171026,1,8,3:0:0:0:
371,365,171218,1,8,3:0:0:0:
256,96,171410,1,4,3:0:0:0:
256,320,171602,1,4,3:0:0:0:
206,151,171795,1,12,3:0:0:0:
141,365,171987,6,0,B|153:337|153:337|117:344|58:338|28:281|9:226|66:162,1,279.999991455078,4|0,0:1|0:0,0:0:0:0:
296,234,173141,1,0,0:0:0:0:
65,51,173526,5,4,1:0:0:0:
69,55,173622,1,4,3:0:0:0:
73,59,173718,1,2,3:0:0:0:
4,107,173910,1,6,3:0:0:0:
80,141,174103,1,4,3:0:0:0:
41,275,174295,1,12,3:0:0:0:
256,320,174680,1,6,3:0:0:0:
158,62,175064,5,4,3:0:0:0:
162,66,175160,1,4,3:0:0:0:
166,70,175257,1,2,3:0:0:0:
97,118,175449,1,6,3:0:0:0:
173,152,175642,1,4,3:0:0:0:
134,286,175834,1,12,3:0:0:0:
256,64,176218,1,6,3:0:0:0:
350,318,176603,5,4,3:0:0:0:
350,318,176699,1,4,3:0:0:0:
350,318,176795,1,2,3:0:0:0:
324,226,176987,2,0,L|330:138,1,69.9999978637696,6|4,3:0|3:0,0:0:0:0:
411,154,177372,2,0,L|417:66,1,69.9999978637696,12|4,3:0|3:0,0:0:0:0:
496,204,177757,2,0,L|502:116,1,69.9999978637696,6|4,3:0|3:0,0:0:0:0:
447,333,178141,5,4,3:0:0:0:
447,333,178237,1,4,3:0:0:0:
447,333,178334,1,2,3:0:0:0:
508,277,178526,1,6,3:0:0:0:
432,243,178718,1,4,3:0:0:0:
471,109,178910,1,4,1:0:0:0:
256,64,179295,1,6,3:0:0:0:
354,322,179680,5,4,3:0:0:0:
354,322,179776,1,4,3:0:0:0:
354,322,179872,1,2,3:0:0:0:
415,266,180064,1,6,3:0:0:0:
339,232,180257,1,4,3:0:0:0:
378,98,180449,1,12,3:0:0:0:
114,161,180833,1,6,3:0:0:0:
256,336,181218,5,4,3:0:0:0:
256,336,181314,1,4,3:0:0:0:
256,336,181410,1,2,3:0:0:0:
180,280,181603,1,6,3:0:0:0:
323,244,181795,1,4,3:0:0:0:
139,198,181987,1,12,3:0:0:0:
414,236,182372,2,0,L|425:330,1,69.9999978637696,6|4,3:0|3:0,0:0:0:0:
263,199,182757,5,4,3:0:0:0:
263,199,182853,1,4,3:0:0:0:
263,199,182949,1,2,3:0:0:0:
180,280,183141,2,0,L|169:374,1,69.9999978637696,6|4,3:0|3:0,0:0:0:0:
98,236,183526,2,0,L|87:330,1,69.9999978637696,12|4,3:0|3:0,0:0:0:0:
16,192,183910,2,0,L|5:286,1,69.9999978637696,6|4,3:0|3:0,0:0:0:0:
88,148,184295,6,0,P|199:132|230:222,1,209.999993591309,4|4,1:0|3:0,0:0:0:0:
266,351,185064,2,0,L|335:336,1,69.9999978637696,12|4,3:0|3:0,0:0:0:0:
421,202,185449,2,0,L|352:217,1,69.9999978637696,4|4,3:0|3:0,0:0:0:0:
265,115,185834,5,4,3:0:0:0:
265,115,185930,1,4,3:0:0:0:
265,115,186026,1,2,3:0:0:0:
354,24,186218,1,6,3:0:0:0:
151,68,186411,1,4,3:0:0:0:
383,102,186603,2,0,L|452:87,1,69.9999978637696,12|4,3:0|3:0,0:0:0:0:
220,54,186988,2,0,L|151:69,1,69.9999978637696,4|4,3:0|3:0,0:0:0:0:
33,222,187372,5,4,3:0:0:0:
33,222,187468,1,4,3:0:0:0:
33,222,187565,1,2,3:0:0:0:
91,342,187757,1,6,3:0:0:0:
93,156,187949,1,4,3:0:0:0:
172,360,188141,2,0,L|241:345,1,69.9999978637696,12|4,3:0|3:0,0:0:0:0:
349,208,188526,2,0,L|280:223,1,69.9999978637696,4|4,3:0|3:0,0:0:0:0:
435,354,188911,5,4,3:0:0:0:
435,354,189007,1,4,3:0:0:0:
435,354,189103,1,2,3:0:0:0:
452,197,189295,2,0,L|461:110,1,69.9999978637696,6|4,3:0|3:0,0:0:0:0:
329,278,189680,2,0,L|338:191,1,69.9999978637696,12|4,3:0|3:0,0:0:0:0:
206,359,190064,2,0,L|215:272,1,69.9999978637696,6|4,3:0|3:0,0:0:0:0:
250,97,190449,5,4,3:0:0:0:
250,97,190545,1,4,3:0:0:0:
250,97,190642,1,2,3:0:0:0:
115,167,190834,1,6,3:0:0:0:
196,34,191026,1,4,3:0:0:0:
25,204,191218,1,12,1:0:0:0:
381,24,191603,1,6,3:0:0:0:
297,357,191988,5,4,3:0:0:0:
297,357,192084,1,4,3:0:0:0:
297,357,192180,1,2,3:0:0:0:
137,361,192372,1,6,3:0:0:0:
326,276,192564,1,4,3:0:0:0:
66,320,192756,1,12,1:0:0:0:
496,253,193141,1,6,3:0:0:0:
253,44,193526,5,4,3:0:0:0:
253,44,193622,1,4,3:0:0:0:
253,44,193718,1,2,3:0:0:0:
106,106,193910,1,6,3:0:0:0:
313,104,194102,1,4,3:0:0:0:
58,174,194294,1,12,1:0:0:0:
512,271,194680,5,10,3:0:0:0:
317,355,194872,1,8,3:0:0:0:
444,240,195064,1,8,3:0:0:0:
241,299,195256,1,8,3:0:0:0:
400,180,195449,1,2,3:0:0:0:
190,206,195641,1,2,3:0:0:0:
397,108,195833,1,4,3:0:0:0:
185,109,196025,1,4,3:0:0:0:
431,43,196218,1,2,3:0:0:0:
221,14,196410,1,2,3:0:0:0:
400,180,196603,1,4,1:0:0:0:
256,192,196699,12,2,199487,0:0:0:0:
256,192,199680,12,2,204295,0:0:0:0:
268,271,205978,6,0,B|328:288,2,40,4|0|0,0:3|0:0|0:0,0:0:0:0:
160,250,206246,2,0,P|122:260|74:263,1,80
227,206,206513,1,8,0:0:0:0:
428,48,206780,2,0,P|388:46|341:57,1,80,8|0,0:3|0:0,0:0:0:0:
119,173,207182,2,0,P|80:184|32:182,1,80,4|0,0:3|0:0,0:0:0:0:
293,138,207583,2,0,P|331:128|380:129,1,80,8|0,0:0|0:0,0:0:0:0:
222,96,207850,2,0,P|181:98|135:86,1,80,8|0,0:3|0:0,0:0:0:0:
23,62,208118,6,0,B|9:1,2,40,4|0|0,0:3|0:0|0:0,0:0:0:0:
31,189,208386,2,0,P|19:236|20:278,1,80
78,122,208653,1,8,0:0:0:0:
158,365,208921,2,0,P|169:320|169:276,1,80,8|0,0:3|0:0,0:0:0:0:
173,30,209322,2,0,P|162:75|162:119,1,80,4|0,0:3|0:0,0:0:0:0:
289,351,209723,2,0,P|258:356|260:313,1,80,8|0,0:0|0:0,0:0:0:0:
411,304,209991,2,0,P|441:298|440:342,1,80,8|0,0:3|0:0,0:0:0:0:
443,215,210258,6,0,B|503:232,2,40,4|0|0,0:3|0:0|0:0,0:0:0:0:
314,221,210526,2,0,P|281:228|228:234,1,80
376,175,210793,1,8,0:0:0:0:
70,90,211060,1,8,0:3:0:0:
146,64,211194,1,0,0:0:0:0:
442,90,211462,1,4,0:3:0:0:
366,64,211596,1,0,0:0:0:0:
157,212,211864,2,0,P|151:242|195:241,1,80,8|0,0:0|0:0,0:0:0:0:
255,108,212131,2,0,L|248:8,1,80,8|0,0:3|0:0,0:0:0:0:
90,172,212399,6,0,B|30:155,2,40,4|0|0,0:3|0:0|0:0,0:0:0:0:
219,166,212666,2,0,P|252:159|305:153,1,80
157,212,212934,1,8,0:0:0:0:
442,294,213201,1,8,0:3:0:0:
366,320,213335,1,0,0:0:0:0:
70,294,213603,1,4,0:3:0:0:
146,320,213737,1,0,0:0:0:0:
372,182,214005,2,0,P|377:151|334:153,1,80,8|0,0:0|0:0,0:0:0:0:
234,284,214272,2,0,L|241:384,1,80,8|0,0:3|0:0,0:0:0:0:
263,169,214539,6,0,L|269:222,2,40,4|0|0,0:3|0:0|0:0,0:0:0:0:
134,97,214807,2,0,P|118:53|127:-3,1,80
187,151,215074,1,8,0:0:0:0:
459,253,215341,1,8,0:3:0:0:
390,294,215475,1,0,0:0:0:0:
95,330,215743,1,4,0:3:0:0:
175,340,215877,1,0,0:0:0:0:
212,87,216144,1,8,0:0:0:0:
135,61,216279,1,0,0:0:0:0:
82,120,216412,2,0,P|41:113|-7:109,1,80,8|0,0:3|0:0,0:0:0:0:
72,240,216680,6,0,P|68:265|72:290,2,40,4|0|0,0:3|0:0|0:0,0:0:0:0:
206,213,216947,2,0,P|218:254|214:307,1,80
133,180,217215,1,8,0:0:0:0:
390,89,217483,1,8,0:3:0:0:
459,131,217617,1,0,0:0:0:0:
158,55,217885,1,4,0:3:0:0:
238,45,218019,1,0,0:0:0:0:
317,316,218285,1,8,0:0:0:0:
393,336,218418,1,0,0:0:0:0:
430,264,218553,2,0,P|471:271|519:275,1,80,8|0,0:3|0:0,0:0:0:0:
454,150,218820,6,0,L|448:103,2,40,4|0|0,0:3|0:0|0:0,0:0:0:0:
336,98,219088,2,0,L|322:11,1,80
377,169,219355,1,8,0:0:0:0:
121,294,219623,1,8,0:3:0:0:
53,253,219757,1,0,0:0:0:0:
354,329,220025,1,4,0:3:0:0:
274,339,220159,1,0,0:0:0:0:
106,98,220425,1,8,0:0:0:0:
161,155,220558,1,0,0:0:0:0:
129,230,220693,2,0,L|27:260,1,80,8|0,0:3|0:0,0:0:0:0:
188,314,220961,6,0,B|128:331,2,40,4|0|0,0:3|0:0|0:0,0:0:0:0:
296,293,221228,2,0,P|334:303|382:306,1,80
229,249,221495,1,8,0:0:0:0:
442,90,221762,1,8,0:3:0:0:
366,63,221896,1,0,0:0:0:0:
290,35,222031,2,0,P|277:80|281:136,1,80,0|0,0:3|0:0,0:0:0:0:
327,290,222299,2,0,P|284:282|230:286,1,80
69,347,222566,2,0,P|77:300|67:245,1,80,8|0,0:0|0:0,0:0:0:0:
20,90,222834,2,0,P|63:82|117:86,1,80,8|0,0:0|0:0,0:0:0:0:
336,178,223101,6,0,P|376:178|429:155,1,80,4|0,0:0|0:0,0:0:0:0:
348,99,223369,1,2,0:0:0:0:
336,178,223502,1,0,0:0:0:0:
320,256,223636,2,0,L|305:344,1,80,10|0,0:0|0:0,0:0:0:0:
455,378,223904,2,0,P|467:331|458:290,1,80,2|0,0:0|0:0,0:0:0:0:
412,38,224305,2,0,P|371:38|327:58,1,80,0|2,0:0|0:0,0:0:0:0:
256,32,224573,1,0,0:0:0:0:
100,38,224707,2,0,P|141:38|185:58,1,80,10|0,0:0|0:0,0:0:0:0:
314,154,224974,2,0,P|344:165|343:128,1,80,2|0,0:0|0:0,0:0:0:0:
176,178,225242,6,0,P|136:178|83:155,1,80,2|0,0:0|0:0,0:0:0:0:
164,99,225510,1,2,0:0:0:0:
176,178,225643,1,0,0:0:0:0:
192,256,225777,2,0,L|207:344,1,80,10|0,0:0|0:0,0:0:0:0:
57,378,226045,2,0,P|45:331|54:290,1,80,2|0,0:0|0:0,0:0:0:0:
309,250,226446,2,0,P|298:295|309:347,1,80,0|2,0:0|0:0,0:0:0:0:
462,236,226713,2,0,P|482:277|482:330,1,80,0|10,0:0|0:0,0:0:0:0:
391,298,226981,1,0,0:0:0:0:
419,161,227115,2,0,L|410:65,1,80,2|0,0:0|0:0,0:0:0:0:
309,250,227382,6,0,L|320:154,1,80,2|0,0:0|0:0,0:0:0:0:
311,90,227650,1,2,0:0:0:0:
253,35,227783,1,0,0:0:0:0:
173,43,227917,2,0,P|142:31|85:28,1,80,10|0,0:0|0:0,0:0:0:0:
79,143,228185,2,0,P|44:129|-8:127,1,80,2|0,0:0|0:0,0:0:0:0:
29,369,228586,1,0,0:0:0:0:
18,289,228719,1,2,0:0:0:0:
7,210,228853,1,0,0:0:0:0:
133,125,228988,2,0,P|179:109|234:109,1,80,10|0,0:0|0:0,0:0:0:0:
236,228,229255,2,0,P|284:221|338:231,1,80,2|0,0:0|0:0,0:0:0:0:
378,81,229523,6,0,P|426:79|479:95,1,80,2|0,0:0|0:0,0:0:0:0:
506,148,229790,1,2,0:0:0:0:
500,227,229923,1,0,0:0:0:0:
468,301,230058,2,0,L|459:395,1,80,10|0,0:0|0:0,0:0:0:0:
357,267,230326,2,0,L|363:357,1,80,2|0,0:0|0:0,0:0:0:0:
284,64,230727,5,0,0:0:0:0:
284,64,230860,2,0,P|268:114|275:154,1,80,6|0,0:0|0:0,0:0:0:0:
220,313,231128,2,0,L|212:219,1,80,10|0,0:0|0:0,0:0:0:0:
105,130,231396,2,0,P|116:174|108:228,1,80,6|0,0:0|0:0,0:0:0:0:
12,29,231663,1,4,0:0:0:0:
12,29,231931,6,0,P|1:73|9:127,1,80,2|0,0:0|0:0,0:0:0:0:
20,274,232198,2,0,P|18:319|-12:296,1,80,10|0,0:0|0:0,0:0:0:0:
113,208,232466,1,2,0:0:0:0:
165,268,232600,1,0,0:0:0:0:
158,347,232733,1,2,0:0:0:0:
220,212,232867,2,0,P|259:197|328:194,1,80,0|2,0:0|0:0,0:0:0:0:
165,268,233135,1,0,0:0:0:0:
321,336,233268,2,0,P|355:325|341:292,1,80,10|0,0:0|0:0,0:0:0:0:
248,122,233536,2,0,P|289:115|357:126,1,80,2|0,0:0|0:0,0:0:0:0:
469,207,233804,6,0,P|477:257|474:300,1,80,2|0,0:0|0:0,0:0:0:0:
403,149,234071,1,2,0:0:0:0:
486,124,234205,1,0,0:0:0:0:
362,47,234339,2,0,L|263:42,1,80,10|0,0:0|0:0,0:0:0:0:
168,130,234606,2,0,B|254:121,1,80,2|0,0:0|0:0,0:0:0:0:
145,48,234874,2,0,P|83:123|97:178,1,160,2|2,0:0|0:0,0:0:0:0:
168,130,235275,1,0,0:0:0:0:
222,200,235409,2,0,B|308:191,1,80,10|0,0:0|0:0,0:0:0:0:
355,261,235676,2,0,B|276:270,1,80,2|0,0:0|0:0,0:0:0:0:
462,332,235944,6,0,P|451:292|426:315,1,80,2|0,0:0|0:0,0:0:0:0:
213,331,236212,2,0,P|223:370|248:347,1,80,2|0,0:0|0:0,0:0:0:0:
137,181,236479,2,0,P|123:142|100:167,1,80,10|0,0:0|0:0,0:0:0:0:
8,302,236747,1,2,0:0:0:0:
86,319,236881,1,0,0:0:0:0:
137,258,237014,1,2,0:0:0:0:
16,156,237148,2,0,P|16:107|-1:66,1,80,0|2,0:0|0:0,0:0:0:0:
105,26,237416,1,0,0:0:0:0:
212,122,237549,2,0,P|211:170|229:212,1,80,10|0,0:0|0:0,0:0:0:0:
273,65,237817,2,0,P|239:41|189:42,1,80,2|0,0:0|0:0,0:0:0:0:
303,150,238085,1,2,0:0:0:0:
303,150,238352,6,0,L|404:140,1,80,2|0,0:0|0:0,0:0:0:0:
491,55,238620,2,0,L|390:65,1,80,10|0,0:0|0:0,0:0:0:0:
439,231,238887,2,0,P|478:220|455:195,1,80,2|0,0:0|0:0,0:0:0:0:
345,273,239155,1,8,0:0:0:0:
487,345,239289,1,8,0:0:0:0:
285,343,239422,2,0,P|245:326|187:335,1,80,4|0,0:0|0:0,0:0:0:0:
68,356,239690,1,4,0:0:0:0:
190,253,239824,1,0,0:0:0:0:
6,301,239957,2,0,P|-2:267|31:267,1,80
285,343,240225,6,0,B|279:251,1,80,4|0,0:0|0:0,0:0:0:0:
344,138,240493,1,2,0:0:0:0:
349,217,240626,1,0,0:0:0:0:
270,102,240760,2,0,B|264:10,1,80,10|0,0:2|0:0,0:0:0:0:
203,146,241028,1,2,0:0:0:0:
206,225,241161,2,0,P|160:270|60:220,1,160
8,100,241563,2,0,P|18:60|43:83,1,80,2|0,0:0|0:0,0:0:0:0:
135,202,241830,2,0,P|148:264|53:323,1,160,10|2,0:2|0:0,0:0:0:0:
310,349,242365,6,0,P|356:340|404:343,1,80,4|0,0:0|0:0,0:0:0:0:
432,236,242633,2,0,P|478:237|524:251,1,80,2|0,0:0|0:0,0:0:0:0:
336,258,242901,2,0,P|252:208|248:152,1,160,10|0,0:2|1:0,0:0:0:0:
329,173,243302,1,0,0:0:0:0:
402,142,243435,1,2,0:0:0:0:
432,67,243569,1,0,0:0:0:0:
273,40,243703,2,0,L|181:46,1,80,2|0,0:0|0:0,0:0:0:0:
100,130,243971,2,0,L|180:125,1,80,4|0,0:0|0:0,0:0:0:0:
79,50,244238,2,0,L|-13:56,1,80
99,222,244506,6,0,P|71:308|7:300,1,160,4|0,0:0|0:0,0:0:0:0:
196,267,244907,1,0,0:0:0:0:
196,267,245041,2,0,P|256:334|217:385,1,160,10|0,0:2|0:0,0:0:0:0:
346,311,245442,1,0,0:0:0:0:
346,311,245576,2,0,P|434:292|458:351,1,160,2|0,0:2|0:0,0:0:0:0:
427,198,245977,1,0,0:0:0:0:
427,198,246111,2,0,P|455:112|518:120,1,160,10|0,0:2|0:0,0:0:0:0:
343,118,246513,1,0,0:0:0:0:
343,118,246647,2,0,P|283:51|322:0,1,160,2|0,0:2|0:0,0:0:0:0:
198,68,247048,1,0,0:0:0:0:
198,68,247182,2,0,P|109:86|85:27,1,160,10|0,0:2|0:0,0:0:0:0:
0,266,247717,6,0,P|40:251|80:253,1,80,8|8,0:0|0:0,0:0:0:0:
240,346,247984,2,0,P|270:316|307:301,1,80,4|0,0:0|0:0,0:0:0:0:
349,105,248252,2,0,P|334:65|336:25,1,80,2|0,0:2|0:0,0:0:0:0:
466,200,248519,2,0,P|492:233|503:272,1,80,4|0,0:0|0:0,0:0:0:0:
288,160,248787,2,0,B|246:155|246:155|215:193|215:193|183:93|39:108|28:191,1,320,4|10,0:2|0:0,0:0:0:0:
92,318,249590,5,2,0:0:0:0:
118,229,249724,1,0,0:0:0:0:
271,252,249857,2,0,P|313:262|361:246,1,80,2|0,0:0|0:0,0:0:0:0:
451,143,250125,2,0,P|462:109|495:123,1,80,2|0,0:0|0:0,0:0:0:0:
310,183,250392,2,0,P|287:150|281:111,1,80,10|0,0:0|0:0,0:0:0:0:
449,254,250660,2,0,L|441:364,1,80,2|0,0:0|0:0,0:0:0:0:
388,190,250927,5,2,0:0:0:0:
271,252,251061,2,0,L|287:350,2,80,0|2|0,0:0|0:0|0:0,0:0:0:0:
281,111,251463,2,0,L|182:106,1,80,10|0,0:0|0:0,0:0:0:0:
87,194,251730,2,0,B|173:185,1,80,2|0,0:0|0:0,0:0:0:0:
64,112,251998,2,0,P|2:187|16:242,1,160,2|2,0:0|0:0,0:0:0:0:
91,299,252399,1,0,0:0:0:0:
247,221,252533,2,0,P|250:180|238:135,2,80,10|0|2,0:0|0:0|0:0,0:0:0:0:
190,298,252934,1,0,0:0:0:0:
177,104,253068,6,0,P|166:64|141:87,1,80,2|0,0:0|0:0,0:0:0:0:
332,173,253336,2,0,P|342:212|367:189,1,80,2|0,0:0|0:0,0:0:0:0:
434,56,253603,2,0,P|424:15|398:38,1,80,10|0,0:0|0:0,0:0:0:0:
295,93,253871,1,2,0:0:0:0:
257,162,254004,1,0,0:0:0:0:
180,187,254138,1,2,0:0:0:0:
105,158,254272,1,0,0:0:0:0:
64,88,254406,2,0,L|173:71,1,80,2|0,0:0|0:0,0:0:0:0:
117,249,254673,2,0,P|125:296|150:334,1,80,10|0,0:0|0:0,0:0:0:0:
317,115,254941,2,0,P|283:91|233:92,1,80,2|0,0:0|0:0,0:0:0:0:
257,315,255208,6,0,L|375:306,1,80,2|0,0:0|0:0,0:0:0:0:
456,189,255476,2,0,L|355:199,1,80,2|0,0:0|0:0,0:0:0:0:
413,34,255744,2,0,L|514:24,1,80,10|0,0:0|0:0,0:0:0:0:
245,88,256011,2,0,P|206:77|229:52,1,80,2|0,0:0|0:0,0:0:0:0:
388,121,256279,1,10,0:0:0:0:
355,276,256413,1,8,0:0:0:0:
168,158,256546,2,0,P|128:141|70:150,1,80,4|0,0:0|0:0,0:0:0:0:
214,321,256814,1,10,0:0:0:0:
247,166,256948,1,0,0:0:0:0:
90,350,257081,2,0,P|56:358|60:318,1,80,4|8,0:0|0:0,0:0:0:0:
168,158,257349,1,4,2:1:0:0:
381,255,257616,6,0,P|429:267|459:314,1,80,4|0,1:0|0:0,0:0:0:0:
387,332,257884,1,0,0:0:0:0:
131,129,258151,2,0,P|83:117|52:69,1,80,4|0,1:0|0:0,0:0:0:0:
125,52,258419,1,0,0:0:0:0:
392,159,258687,2,0,P|436:138|490:154,1,80,4|0,1:0|0:0,0:0:0:0:
446,215,258955,1,0,0:0:0:0:
119,224,259222,2,0,P|75:245|21:229,1,80,4|0,1:0|0:0,0:0:0:0:
65,168,259490,1,0,0:0:0:0:
339,79,259757,2,0,P|359:34|411:12,1,80,4|0,1:0|0:0,0:0:0:0:
416,87,260025,1,0,0:0:0:0:
172,304,260292,2,0,P|152:349|100:371,1,80,4|0,1:0|0:0,0:0:0:0:
95,296,260560,1,0,0:0:0:0:
345,130,260827,6,0,L|339:35,1,80,4|0,1:0|0:0,0:0:0:0:
134,100,261095,2,0,B|150:-1,1,80,4|0,1:2|0:0,0:0:0:0:
248,187,261362,2,0,P|245:153|206:171,1,80,4|0,1:0|0:0,0:0:0:0:
389,285,261897,6,0,P|384:235|405:191,1,80,4|0,1:0|0:0,0:0:0:0:
403,123,262165,1,0,0:0:0:0:
241,353,262432,2,0,P|282:324|331:320,1,80,4|0,1:0|0:0,0:0:0:0:
389,285,262700,1,0,0:0:0:0:
108,260,262967,2,0,P|154:281|182:321,1,80,4|0,1:0|0:0,0:0:0:0:
241,353,263235,1,0,0:0:0:0:
122,99,263503,2,0,P|128:149|107:193,1,80,4|0,1:0|0:0,0:0:0:0:
108,260,263770,1,0,0:0:0:0:
270,30,264038,2,0,P|229:59|180:63,1,80,4|0,1:0|0:0,0:0:0:0:
122,99,264305,1,0,0:0:0:0:
403,123,264573,2,0,P|357:102|329:62,1,80,4|0,1:0|0:0,0:0:0:0:
270,30,264840,1,0,0:0:0:0:
241,261,265108,6,0,L|235:356,1,80,4|0,1:0|0:0,0:0:0:0:
30,291,265376,2,0,B|46:392,1,80,4|0,1:2|0:0,0:0:0:0:
144,204,265643,2,0,P|141:238|102:220,1,80,4|0,1:0|0:0,0:0:0:0:
14,55,265911,6,0,P|74:32|126:37,1,100,4|0,0:0|0:0,0:0:0:0:
204,87,266179,1,10,0:0:0:0:
300,62,266312,1,0,0:0:0:0:
397,38,266446,1,2,0:0:0:0:
512,109,266580,1,0,0:0:0:0:
512,109,266714,2,0,L|396:137,1,100,10|0,0:0|0:0,0:0:0:0:
216,185,267115,1,0,0:0:0:0:
120,160,267248,1,10,0:0:0:0:
23,136,267382,1,0,0:0:0:0:
66,251,267516,2,0,L|182:279,1,100,2|0,0:0|0:0,0:0:0:0:
304,367,267784,2,0,L|188:339,1,100,10|0,0:0|0:0,0:0:0:0:
382,310,268051,6,0,P|386:268|424:293,1,100,2|0,0:0|0:0,0:0:0:0:
498,355,268319,1,10,0:0:0:0:
503,255,268452,1,0,0:0:0:0:
509,155,268586,1,2,0:0:0:0:
430,64,268721,1,0,0:0:0:0:
430,64,268855,2,0,L|424:183,1,100,10|0,0:0|0:0,0:0:0:0:
247,291,269256,2,0,P|250:227|237:184,1,100,4|10,0:0|0:0,0:0:0:0:
84,264,269523,2,0,L|91:377,1,100,4|2,0:0|0:0,0:0:0:0:
156,210,269791,1,0,0:0:0:0:
7,131,269924,2,0,P|3:194|17:238,1,100,14|0,0:0|0:0,0:0:0:0:
283,126,270192,6,0,P|286:62|273:19,1,100,2|0,0:0|0:0,0:0:0:0:
179,36,270459,1,10,0:0:0:0:
126,117,270592,1,0,0:0:0:0:
155,209,270726,1,2,0:0:0:0:
248,252,270860,1,0,0:0:0:0:
248,252,270995,2,0,L|244:372,1,100,10|0,0:0|0:0,0:0:0:0:
19,329,271396,1,0,0:0:0:0:
13,229,271529,1,10,0:0:0:0:
7,129,271663,1,0,0:0:0:0:
129,53,271798,2,0,P|175:37|241:47,1,100,2|0,0:0|0:0,0:0:0:0:
232,222,272064,2,0,P|280:222|339:254,1,100,10|0,0:0|0:0,0:0:0:0:
408,66,272332,6,0,P|448:38|514:31,1,100,2|0,0:0|0:0,0:0:0:0:
500,130,272600,1,10,0:0:0:0:
506,230,272733,1,0,0:0:0:0:
512,330,272867,1,2,0:0:0:0:
406,261,273001,1,0,0:0:0:0:
406,261,273135,2,0,L|399:146,1,100,10|0,0:0|0:0,0:0:0:0:
259,331,273537,1,0,0:0:0:0:
259,331,273670,2,0,P|243:281|258:234,1,100,14|0,0:0|0:0,0:0:0:0:
195,82,273938,2,0,L|186:185,1,100,6|0,0:0|0:0,0:0:0:0:
80,265,274206,2,0,P|91:221|78:158,1,100,12|0,0:0|0:0,0:0:0:0:
14,329,274472,6,0,P|74:352|126:347,1,100,4|0,0:2|0:0,0:0:0:0:
204,297,274740,1,10,0:0:0:0:
300,322,274873,1,0,0:0:0:0:
397,346,275007,1,2,0:0:0:0:
512,275,275141,1,0,0:0:0:0:
512,275,275275,2,0,L|396:247,1,100,10|0,0:0|0:0,0:0:0:0:
216,199,275676,1,0,0:0:0:0:
120,224,275809,1,10,0:0:0:0:
23,248,275943,1,0,0:0:0:0:
66,133,276078,2,0,L|182:105,1,100,2|0,0:0|0:0,0:0:0:0:
304,17,276345,2,0,L|188:45,1,100,10|0,0:0|0:0,0:0:0:0:
382,74,276613,6,0,P|386:115|424:90,1,100,2|0,0:0|0:0,0:0:0:0:
498,29,276880,1,10,0:0:0:0:
503,128,277013,1,0,0:0:0:0:
509,228,277147,1,2,0:0:0:0:
430,320,277282,1,0,0:0:0:0:
430,320,277416,2,0,L|424:201,1,100,10|0,0:0|0:0,0:0:0:0:
247,93,277817,2,0,P|250:156|237:200,1,100,4|10,0:0|0:0,0:0:0:0:
84,120,278084,2,0,L|91:7,1,100,4|2,0:0|0:0,0:0:0:0:
156,174,278352,1,0,0:0:0:0:
7,253,278486,2,0,P|3:189|17:146,1,100,14|0,0:0|0:0,0:0:0:0:
283,258,278753,6,0,P|286:321|273:365,1,100,2|0,0:0|0:0,0:0:0:0:
179,348,279020,1,10,0:0:0:0:
126,266,279155,1,0,0:0:0:0:
155,174,279289,1,2,0:0:0:0:
264,132,279422,1,0,0:0:0:0:
264,132,279557,2,0,L|268:12,1,100,10|0,0:0|0:0,0:0:0:0:
19,55,279957,1,0,0:0:0:0:
13,155,280090,1,10,0:0:0:0:
7,255,280224,1,0,0:0:0:0:
129,331,280359,2,0,P|175:347|241:337,1,100,2|0,0:0|0:0,0:0:0:0:
232,162,280626,2,0,P|280:161|339:129,1,100,10|0,0:0|0:0,0:0:0:0:
408,318,280894,6,0,P|448:345|514:352,1,100,2|0,0:0|0:0,0:0:0:0:
500,254,281161,1,10,0:0:0:0:
506,154,281294,1,0,0:0:0:0:
512,54,281428,1,2,0:0:0:0:
406,123,281562,1,0,0:0:0:0:
406,123,281696,2,0,L|399:238,1,100,10|0,0:0|0:0,0:0:0:0:
227,321,282098,1,0,0:0:0:0:
227,321,282232,2,0,P|226:271|185:294,1,100,14|0,0:0|0:0,0:0:0:0:
14,358,282499,2,0,P|26:308|17:238,1,100,6|0,0:0|0:0,0:0:0:0:
125,82,282767,2,0,P|112:131|122:202,1,100,14|0,0:0|0:0,0:0:0:0:
126,346,283034,1,4,0:0:0:0:
222,64,283302,6,0,P|268:52|319:0,1,100,12|0,0:0|0:0,0:0:0:0:
196,140,283569,1,2,0:2:0:0:
196,140,283703,1,0,0:0:0:0:
365,116,283837,2,0,P|398:149|468:168,1,100,12|0,0:0|0:0,0:0:0:0:
286,131,284104,1,2,0:2:0:0:
286,131,284238,1,0,0:0:0:0:
418,284,284372,2,0,P|405:329|424:400,1,100,12|0,0:0|0:0,0:0:0:0:
365,223,284639,1,2,0:2:0:0:
365,223,284773,1,0,0:0:0:0:
241,339,284907,2,0,P|195:351|143:403,1,100,12|0,0:0|0:0,0:0:0:0:
267,262,285174,1,2,0:2:0:0:
267,262,285308,1,0,0:0:0:0:
93,291,285442,2,0,P|59:257|-10:238,1,100,12|0,0:0|0:0,0:0:0:0:
172,275,285709,1,2,0:2:0:0:
172,275,285843,1,0,0:0:0:0:
110,112,285977,2,0,P|122:66|103:-4,1,100,12|0,0:0|0:0,0:0:0:0:
163,172,286244,1,2,0:2:0:0:
163,172,286378,1,0,0:0:0:0:
308,63,286513,6,0,P|356:49|430:50,1,100,12|0,0:0|0:0,0:0:0:0:
311,264,286780,2,0,P|313:214|323:165,1,100,4|0,0:0|0:0,0:0:0:0:
125,273,287048,2,0,P|81:261|12:265,1,100,12|0,0:0|0:0,0:0:0:0:
222,320,287315,6,0,P|268:332|319:384,1,100,12|0,0:0|0:0,0:0:0:0:
196,244,287582,1,2,0:2:0:0:
196,244,287716,1,0,0:0:0:0:
365,268,287850,2,0,P|398:235|468:216,1,100,12|0,0:0|0:0,0:0:0:0:
286,253,288117,1,2,2:0:0:0:
286,253,288251,1,0,0:0:0:0:
418,100,288385,2,0,P|405:55|424:-16,1,100,12|0,0:0|0:0,0:0:0:0:
365,161,288652,1,2,2:0:0:0:
365,161,288786,1,0,0:0:0:0:
241,45,288920,2,0,P|195:33|143:-19,1,100,12|0,0:0|0:0,0:0:0:0:
267,122,289187,1,2,0:2:0:0:
267,122,289321,1,0,0:0:0:0:
93,93,289456,2,0,P|59:127|-10:146,1,100,12|0,0:0|0:0,0:0:0:0:
172,109,289722,1,2,0:2:0:0:
172,109,289856,1,0,0:0:0:0:
110,272,289991,2,0,P|122:318|103:388,1,100,12|0,0:0|0:0,0:0:0:0:
163,212,290257,1,2,0:2:0:0:
163,212,290391,1,0,0:0:0:0:
326,315,290526,2,0,P|371:317|429:281,1,100,12|0,0:0|0:0,0:0:0:0:
512,36,290794,6,0,P|467:34|409:70,1,100,12|0,0:0|0:0,0:0:0:0:
419,293,291061,2,0,P|436:233|421:185,1,100,4|0,0:0|0:0,0:0:0:0:
230,138,291329,2,0,P|177:134|114:172,1,100,12|0,0:0|0:0,0:0:0:0:
500,242,291864,6,0,P|504:295|506:341,1,100,4|0,1:0|0:0,0:0:0:0:
500,242,292131,1,0,0:0:0:0:
206,180,292399,2,0,P|211:239|210:298,1,100,4|0,1:0|0:0,0:0:0:0:
206,180,292667,1,0,0:0:0:0:
404,177,292934,2,0,P|401:226|404:290,1,100,4|0,1:0|0:0,0:0:0:0:
404,177,293201,1,0,0:0:0:0:
110,273,293469,2,0,P|108:333|114:391,1,100,4|0,1:0|0:0,0:0:0:0:
110,273,293737,1,0,0:0:0:0:
303,258,294004,2,0,P|305:309|298:368,1,100,4|0,1:0|0:0,0:0:0:0:
303,258,294272,1,0,0:0:0:0:
11,181,294539,2,0,P|11:242|15:299,1,100,4|0,1:0|0:0,0:0:0:0:
11,181,294807,1,0,0:0:0:0:
426,183,295074,6,0,P|379:161|303:167,1,100,4|0,1:0|0:0,0:0:0:0:
129,100,295342,2,0,P|178:97|223:76,1,100,4|0,1:2|0:0,0:0:0:0:
198,320,295610,2,0,P|193:255|158:213,1,100,4|0,1:0|0:0,0:0:0:0:
12,142,295877,6,0,P|7:88|6:43,1,100,4|0,0:1|0:0,0:0:0:0:
12,142,296144,1,0,1:0:0:0:
306,204,296412,2,0,P|301:145|302:86,1,100,4|0,0:1|0:0,0:0:0:0:
306,204,296680,1,0,1:0:0:0:
108,207,296947,2,0,P|111:158|108:94,1,100,4|0,0:1|0:0,0:0:0:0:
108,207,297214,1,0,1:0:0:0:
402,111,297483,2,0,P|403:50|398:-7,1,100,4|0,0:1|0:0,0:0:0:0:
402,111,297750,1,0,1:0:0:0:
209,126,298018,2,0,P|207:75|214:16,1,100,4|0,0:1|0:0,0:0:0:0:
209,126,298285,1,0,1:0:0:0:
501,203,298553,2,0,P|500:141|497:85,1,100,4|0,0:1|0:0,0:0:0:0:
501,203,298820,1,0,1:0:0:0:
243,314,299088,5,4,3:0:0:0:
143,323,299221,1,4,3:0:0:0:
43,333,299355,1,6,3:0:0:0:
415,199,299623,1,4,3:0:0:0:
315,187,299756,1,4,3:0:0:0:
216,176,299890,1,4,1:0:0:0:
256,192,299957,12,2,301496,0:0:0:0:
