osu file format v14

[General]
AudioFilename: audio.mp3
AudioLeadIn: 0
PreviewTime: -1
Countdown: 0
SampleSet: Normal
StackLeniency: 0.5
Mode: 0
LetterboxInBreaks: 0
WidescreenStoryboard: 0

[Editor]
DistanceSpacing: 3.3
BeatDivisor: 4
GridSize: 16
TimelineZoom: 1.5

[Metadata]
Title:Planet Hell
TitleUnicode:Planet Hell
Artist:Nightwish
ArtistUnicode:Nightwish
Creator:Rayne
Version:Strayne
Source:
Tags:
BeatmapID:1755590
BeatmapSetID:838573

[Difficulty]
HPDrainRate:7
CircleSize:4
OverallDifficulty:7
ApproachRate:9
SliderMultiplier:1.6
SliderTickRate:1

[Events]
//Background and Video events
0,0,"91b39f61.jpg",0,0
//Break Periods
2,183070,191128
//Storyboard Layer 0 (Background)
//Storyboard Layer 1 (Fail)
//Storyboard Layer 2 (Pass)
//Storyboard Layer 3 (Foreground)
//Storyboard Sound Samples

[TimingPoints]
816,410.958904109589,4,1,0,63,1,0
56715,-100,4,1,0,63,0,0
98625,-100,4,1,0,63,0,0
111775,-100,4,1,0,63,0,0
118351,-100,4,1,0,63,0,0
118352,-100,4,1,0,63,0,0
119788,-100,4,1,0,63,0,0
120405,-100,4,1,0,63,0,0
120815,-100,4,1,0,63,0,0
121226,-100,4,1,0,63,0,0
121637,-100,4,1,0,63,0,0
122048,-100,4,1,0,63,0,0
123076,-66.6666666666667,4,1,0,63,0,0
124925,-100,4,1,0,63,0,0
125028,-100,4,1,0,63,0,0
129857,-58.8235294117647,4,1,0,63,0,0
130268,-40,4,1,0,63,0,0
130679,-33.3333333333333,4,1,0,63,0,0
131089,-25,4,1,0,63,0,0
131500,-100,4,1,0,63,0,0
133966,-58.8235294117647,4,1,0,63,0,0
134377,-40,4,1,0,63,0,0
134788,-31.25,4,1,0,63,0,0
135199,-100,4,1,0,63,0,0
136432,-58.8235294117647,4,1,0,63,0,0
136843,-40,4,1,0,63,0,0
137254,-31.25,4,1,0,63,0,0
138076,-100,4,1,0,63,0,0
143007,-58.8235294117647,4,1,0,63,0,0
143418,-40,4,1,0,63,0,0
143829,-31.25,4,1,0,63,0,0
144240,-25.6410256410256,4,1,0,63,0,0
144651,-100,4,1,0,63,0,0
146295,-55.5555555555556,4,1,0,63,0,0
147117,-100,4,1,0,63,0,0
147939,-55.5555555555556,4,1,0,63,0,0
148350,-100,4,1,0,63,0,0
149583,-55.5555555555556,4,1,0,63,0,0
149994,-41.6666666666667,4,1,0,63,0,0
150405,-33.3333333333333,4,1,0,63,0,0
150816,-27.7777777777778,4,1,0,63,0,0
151227,-100,4,1,0,63,0,0
152870,-100,4,1,0,63,0,0
153487,-100,4,1,0,63,0,0
153692,-100,4,1,0,63,0,0
154103,-100,4,1,0,63,0,0
154514,-100,4,1,0,63,0,0
154925,-100,4,1,0,63,0,0
155336,-100,4,1,0,63,0,0
155747,-100,4,1,0,63,0,0
156158,-100,4,1,0,63,0,0
156980,-100,4,1,0,63,0,0
157391,-100,4,1,0,63,0,0
157802,-100,4,1,0,63,0,0
158213,-100,4,1,0,63,0,0
158624,-100,4,1,0,63,0,0
159035,-100,4,1,0,63,0,0
159446,-100,4,1,0,63,0,0
161089,-100,4,1,0,63,0,0
162733,-100,4,1,0,63,0,0
166021,-100,4,1,0,63,0,0
166843,-100,4,1,0,63,0,0
167254,-100,4,1,0,63,0,0
167665,-100,4,1,0,63,0,0
168076,-100,4,1,0,63,0,0
168487,-100,4,1,0,63,0,0
168898,-100,4,1,0,63,0,0
169309,-100,4,1,0,63,0,0
169411,-100,4,1,0,63,0,0
170131,-100,4,1,0,63,0,0
170542,-100,4,1,0,63,0,0
170952,-100,4,1,0,63,0,0
171363,-100,4,1,0,63,0,0
171774,-100,4,1,0,63,0,0
172185,-100,4,1,0,63,0,0
172596,-100,4,1,0,63,0,0
174240,-100,4,1,0,63,0,0
192322,-66.6666666666667,4,1,0,63,0,0
193144,-66.6666666666667,4,1,0,63,0,0
193966,-66.6666666666667,4,1,0,63,0,0
195610,-100,4,1,0,63,0,0
195611,-100,4,1,0,63,0,0
197665,-100,4,1,0,63,0,0
201774,-76.9230769230769,4,1,0,63,0,0
201980,-62.5,4,1,0,63,0,0
202185,-333.333333333333,4,1,0,63,0,0
203418,-142.857142857143,4,1,0,63,0,0
203624,-100,4,1,0,63,0,0
203829,-200,4,1,0,63,0,0
204651,-500,4,1,0,63,0,0
205679,-100,4,1,0,63,0,0
208761,-62.5,4,1,0,63,0,0
209172,-100,4,1,0,63,0,0

[HitObjects]
258,191,56706,5,0,0:0:0:0:
392,104,59172,5,4,0:0:0:0:
328,104,59274,1,0,0:0:0:0:
264,104,59377,1,0,0:0:0:0:
200,104,59480,1,0,0:0:0:0:
136,104,59583,1,4,0:0:0:0:
88,220,59788,5,0,0:0:0:0:
152,220,59891,1,0,0:0:0:0:
216,220,59994,1,4,0:0:0:0:
344,220,60199,5,0,0:0:0:0:
392,100,60405,1,4,0:0:0:0:
484,188,60610,1,0,0:0:0:0:
392,104,60815,5,4,0:0:0:0:
328,104,60917,1,0,0:0:0:0:
264,104,61020,1,0,0:0:0:0:
200,104,61123,1,0,0:0:0:0:
136,104,61226,1,4,0:0:0:0:
88,220,61432,5,0,0:0:0:0:
152,220,61535,1,0,0:0:0:0:
216,220,61638,1,4,0:0:0:0:
344,220,61843,5,0,0:0:0:0:
392,100,62049,1,4,0:0:0:0:
484,188,62254,1,0,0:0:0:0:
392,104,62459,5,4,0:0:0:0:
328,104,62561,1,0,0:0:0:0:
264,104,62664,1,0,0:0:0:0:
200,104,62767,1,0,0:0:0:0:
136,104,62870,1,4,0:0:0:0:
88,220,63076,5,0,0:0:0:0:
152,220,63179,1,0,0:0:0:0:
216,220,63282,1,4,0:0:0:0:
344,220,63487,1,0,0:0:0:0:
392,100,63692,1,4,0:0:0:0:
484,188,63898,1,0,0:0:0:0:
392,100,64103,6,0,L|288:80,1,80,8|0,0:0|0:0,0:0:0:0:
120,284,64514,6,0,L|224:304,1,80,8|0,0:0|0:0,0:0:0:0:
327,44,64925,6,0,P|247:71|232:84,1,80,8|0,0:0|0:0,0:0:0:0:
184,339,65336,6,0,P|264:312|280:300,1,80,8|0,0:0|0:0,0:0:0:0:
120,104,65747,5,4,0:0:0:0:
184,104,65849,1,0,0:0:0:0:
248,104,65952,1,0,0:0:0:0:
312,104,66055,1,0,0:0:0:0:
376,104,66158,1,4,0:0:0:0:
424,220,66363,5,0,0:0:0:0:
360,220,66466,1,0,0:0:0:0:
296,220,66569,1,4,0:0:0:0:
168,220,66774,5,0,0:0:0:0:
120,100,66980,1,4,0:0:0:0:
28,188,67185,1,0,0:0:0:0:
392,104,67391,5,4,0:0:0:0:
328,104,67493,1,0,0:0:0:0:
264,104,67596,1,0,0:0:0:0:
200,104,67699,1,0,0:0:0:0:
136,104,67802,1,4,0:0:0:0:
88,220,68007,5,0,0:0:0:0:
152,220,68110,1,0,0:0:0:0:
216,220,68213,5,0,0:0:0:0:
343,220,68418,5,0,0:0:0:0:
392,100,68624,6,4,L|288:100,1,80
120,104,69035,5,4,0:0:0:0:
184,104,69137,1,0,0:0:0:0:
248,104,69240,1,0,0:0:0:0:
312,104,69343,1,0,0:0:0:0:
376,104,69446,1,4,0:0:0:0:
424,220,69651,5,0,0:0:0:0:
360,220,69754,1,0,0:0:0:0:
296,220,69857,1,4,0:0:0:0:
168,220,70062,5,0,0:0:0:0:
120,100,70268,1,4,0:0:0:0:
28,188,70473,1,0,0:0:0:0:
120,100,70679,6,0,L|224:80,1,80,8|0,0:0|0:0,0:0:0:0:
392,284,71090,6,0,L|288:304,1,80,8|0,0:0|0:0,0:0:0:0:
184,44,71501,6,0,P|264:71|280:84,1,80,8|0,0:0|0:0,0:0:0:0:
327,339,71912,6,0,P|247:312|232:300,1,80,8|0,0:0|0:0,0:0:0:0:
316,72,72322,5,6,0:0:0:0:
359,107,72425,1,0,0:0:0:0:
362,163,72528,1,0,0:0:0:0:
337,213,72631,1,0,0:0:0:0:
282,222,72733,1,0,0:0:0:0:
201,64,72939,5,0,0:0:0:0:
376,65,73144,1,0,0:0:0:0:
326,245,73350,5,0,0:0:0:0:
301,186,73452,1,0,0:0:0:0:
297,121,73555,1,0,0:0:0:0:
297,21,73761,5,0,0:0:0:0:
116,232,73966,5,6,0:0:0:0:
81,188,74068,1,0,0:0:0:0:
76,131,74172,1,0,0:0:0:0:
109,86,74274,1,0,0:0:0:0:
155,54,74377,1,0,0:0:0:0:
260,256,74583,5,0,0:0:0:0:
260,256,74685,1,4,0:0:0:0:
260,256,74788,1,0,0:0:0:0:
108,324,74994,5,0,0:0:0:0:
320,212,75199,1,4,0:0:0:0:
92,132,75405,1,0,0:0:0:0:
336,92,75610,5,4,0:0:0:0:
272,104,75712,1,0,0:0:0:0:
216,132,75815,1,0,0:0:0:0:
172,176,75918,1,0,0:0:0:0:
140,232,76021,6,0,L|140:332,1,80
372,152,76432,2,0,L|372:52,1,80
145,138,76843,2,0,L|74:208,1,80
366,245,77254,6,0,L|437:175,1,80,2|0,0:0|0:0,0:0:0:0:
89,189,77665,2,0,L|88:284,1,80,2|0,0:0|0:0,0:0:0:0:
422,194,78076,2,0,L|424:104,1,80,2|0,0:0|0:0,0:0:0:0:
152,316,78487,2,0,L|303:315,1,120,2|0,0:0|0:0,0:0:0:0:
292,252,78898,5,4,0:0:0:0:
304,188,79000,1,0,0:0:0:0:
284,128,79103,1,0,0:0:0:0:
232,92,79206,1,0,0:0:0:0:
168,80,79309,1,4,0:0:0:0:
100,188,79514,5,0,0:0:0:0:
164,200,79616,1,0,0:0:0:0:
224,180,79720,1,4,0:0:0:0:
324,36,79925,5,0,0:0:0:0:
112,152,80131,1,0,0:0:0:0:
328,252,80336,1,0,0:0:0:0:
416,204,80542,5,4,0:0:0:0:
356,228,80644,1,0,0:0:0:0:
328,288,80747,1,0,0:0:0:0:
284,336,80850,1,0,0:0:0:0:
220,340,80952,1,0,0:0:0:0:
120,224,81158,5,0,0:0:0:0:
320,88,81363,6,0,P|318:156|308:176,1,80
100,116,81774,6,0,P|168:117|188:128,1,80
449,271,82185,5,0,0:0:0:0:
400,277,82287,1,0,0:0:0:0:
351,272,82390,1,0,0:0:0:0:
305,255,82493,1,0,0:0:0:0:
263,229,82595,5,8,0:0:0:0:
256,44,82802,5,0,0:0:0:0:
260,83,82904,1,0,0:0:0:0:
250,121,83007,1,8,0:0:0:0:
149,298,83213,5,0,0:0:0:0:
360,184,83418,1,0,0:0:0:0:
124,140,83624,1,0,0:0:0:0:
297,310,83829,6,0,L|384:312,1,80
243,78,84240,2,0,L|144:80,1,80
377,311,84651,2,0,P|415:284|431:240,1,80
163,79,85062,2,0,P|124:105|116:208,1,120
156,228,85473,5,2,0:0:0:0:
228,228,85575,1,0,0:0:0:0:
296,200,85678,1,0,0:0:0:0:
328,136,85781,1,0,0:0:0:0:
340,64,85883,1,0,0:0:0:0:
452,156,86089,5,0,0:0:0:0:
380,132,86192,1,0,0:0:0:0:
340,64,86295,1,0,0:0:0:0:
424,72,86500,5,0,0:0:0:0:
296,200,86706,1,0,0:0:0:0:
60,236,86911,1,0,0:0:0:0:
320,120,87117,5,0,0:0:0:0:
376,149,87219,1,0,0:0:0:0:
416,198,87322,1,0,0:0:0:0:
438,258,87425,1,0,0:0:0:0:
431,321,87527,1,0,0:0:0:0:
320,120,87733,5,0,0:0:0:0:
303,337,87939,5,0,0:0:0:0:
132,101,88144,1,0,0:0:0:0:
409,192,88350,1,0,0:0:0:0:
132,282,88555,1,0,0:0:0:0:
303,46,88761,5,0,0:0:0:0:
324,116,88863,1,0,0:0:0:0:
288,180,88966,1,0,0:0:0:0:
267,249,89068,1,0,0:0:0:0:
304,312,89172,1,0,0:0:0:0:
444,220,89377,5,0,0:0:0:0:
416,152,89480,1,0,0:0:0:0:
348,172,89583,6,0,B|320:192|320:192|264:192,1,80
96,68,89994,2,0,B|116:92|116:92|116:164,1,80
164,344,90405,6,0,P|153:305|158:266,1,80
368,276,90815,2,0,P|378:237|373:198,1,80
164,184,91226,2,0,P|153:145|158:106,1,80
368,116,91636,2,0,P|378:77|373:38,1,80
168,76,92048,5,0,0:0:0:0:
189,146,92150,1,0,0:0:0:0:
153,210,92254,1,0,0:0:0:0:
132,279,92355,1,0,0:0:0:0:
169,342,92459,1,0,0:0:0:0:
359,353,92665,5,0,0:0:0:0:
380,283,92767,1,0,0:0:0:0:
344,219,92870,1,0,0:0:0:0:
209,47,93076,5,0,0:0:0:0:
380,283,93281,1,0,0:0:0:0:
103,192,93487,1,0,0:0:0:0:
380,102,93692,5,0,0:0:0:0:
315,102,93795,1,0,0:0:0:0:
250,102,93898,1,0,0:0:0:0:
186,104,94000,1,0,0:0:0:0:
121,105,94103,1,0,0:0:0:0:
172,222,94309,5,0,0:0:0:0:
235,220,94411,1,0,0:0:0:0:
299,217,94514,1,0,0:0:0:0:
204,36,94720,5,0,0:0:0:0:
116,292,94925,1,0,0:0:0:0:
42,105,95131,1,0,0:0:0:0:
268,45,95336,5,0,0:0:0:0:
289,96,95438,1,0,0:0:0:0:
310,149,95541,1,0,0:0:0:0:
284,198,95644,1,0,0:0:0:0:
256,246,95747,2,0,L|172:248,1,80
372,80,96158,6,0,L|456:80,1,80
188,192,96569,2,0,L|188:108,1,80
400,224,96980,2,0,L|400:308,1,80
308,84,97391,2,0,L|392:84,1,80
220,256,97802,6,0,L|136:256,1,80
316,92,98213,2,0,L|400:92,1,80
256,260,98624,5,0,0:0:0:0:
236,260,98726,1,0,0:0:0:0:
216,260,98829,1,0,0:0:0:0:
196,260,98932,1,0,0:0:0:0:
176,260,99034,1,0,0:0:0:0:
228,108,99240,5,0,0:0:0:0:
248,108,99342,1,0,0:0:0:0:
356,228,99548,5,0,0:0:0:0:
341,242,99650,1,0,0:0:0:0:
99,243,99857,5,0,0:0:0:0:
288,96,100268,5,0,0:0:0:0:
308,96,100370,1,0,0:0:0:0:
328,96,100473,1,0,0:0:0:0:
348,96,100576,1,0,0:0:0:0:
368,96,100678,1,0,0:0:0:0:
288,236,100884,5,0,0:0:0:0:
273,250,100986,1,0,0:0:0:0:
204,104,101192,5,0,0:0:0:0:
204,80,101294,1,0,0:0:0:0:
428,172,101501,5,0,0:0:0:0:
160,160,101911,5,0,0:0:0:0:
160,140,102013,1,0,0:0:0:0:
160,120,102116,1,0,0:0:0:0:
160,100,102219,1,0,0:0:0:0:
160,80,102321,1,0,0:0:0:0:
302,179,102527,5,0,0:0:0:0:
300,160,102629,1,0,0:0:0:0:
169,263,102835,5,0,0:0:0:0:
168,244,102937,1,0,0:0:0:0:
383,353,103144,5,0,0:0:0:0:
352,224,103555,5,0,0:0:0:0:
352,244,103657,1,0,0:0:0:0:
352,264,103760,1,0,0:0:0:0:
352,284,103863,1,0,0:0:0:0:
352,304,103965,1,0,0:0:0:0:
210,205,104171,5,0,0:0:0:0:
212,224,104273,1,0,0:0:0:0:
343,121,104479,5,0,0:0:0:0:
344,140,104581,1,0,0:0:0:0:
129,31,104788,5,0,0:0:0:0:
404,106,105199,5,0,0:0:0:0:
384,126,105302,1,0,0:0:0:0:
364,145,105405,1,0,0:0:0:0:
345,164,105507,1,0,0:0:0:0:
326,184,105610,1,0,0:0:0:0:
157,147,105815,5,0,0:0:0:0:
176,127,105918,1,0,0:0:0:0:
326,184,106124,5,0,0:0:0:0:
307,204,106227,1,0,0:0:0:0:
100,88,106432,5,0,0:0:0:0:
342,340,106843,5,0,0:0:0:0:
322,320,106946,1,0,0:0:0:0:
303,300,107049,1,0,0:0:0:0:
284,281,107151,1,0,0:0:0:0:
264,262,107254,1,0,0:0:0:0:
299,73,107459,5,0,0:0:0:0:
319,92,107562,1,0,0:0:0:0:
264,262,107768,5,0,0:0:0:0:
244,243,107871,1,0,0:0:0:0:
360,36,108076,5,0,0:0:0:0:
404,106,108486,5,0,0:0:0:0:
384,126,108589,1,0,0:0:0:0:
364,145,108692,1,0,0:0:0:0:
345,164,108794,1,0,0:0:0:0:
326,184,108897,1,0,0:0:0:0:
142,127,109102,5,0,0:0:0:0:
161,107,109205,1,0,0:0:0:0:
326,184,109411,5,0,0:0:0:0:
307,204,109514,1,0,0:0:0:0:
100,88,109719,5,0,0:0:0:0:
342,340,110131,5,0,0:0:0:0:
322,320,110234,1,0,0:0:0:0:
303,300,110337,1,0,0:0:0:0:
284,281,110439,1,0,0:0:0:0:
264,262,110542,1,0,0:0:0:0:
317,78,110747,5,0,0:0:0:0:
337,97,110850,1,0,0:0:0:0:
264,262,111055,5,0,0:0:0:0:
244,243,111159,1,0,0:0:0:0:
124,80,111364,1,4,0:0:0:0:
360,36,111569,1,4,0:0:0:0:
435,248,111774,5,4,0:0:0:0:
425,209,111876,1,0,0:0:0:0:
403,176,111979,1,0,0:0:0:0:
371,152,112082,1,0,0:0:0:0:
333,139,112184,1,8,0:0:0:0:
293,137,112287,1,0,0:0:0:0:
256,149,112390,1,0,0:0:0:0:
231,180,112493,1,0,0:0:0:0:
242,216,112596,5,4,0:0:0:0:
279,228,112698,1,0,0:0:0:0:
313,209,112801,1,0,0:0:0:0:
324,172,112904,1,0,0:0:0:0:
313,134,113006,1,8,0:0:0:0:
288,103,113109,1,0,0:0:0:0:
255,81,113212,1,0,0:0:0:0:
217,68,113315,1,0,0:0:0:0:
177,64,113417,1,4,0:0:0:0:
138,68,113520,1,0,0:0:0:0:
100,84,113623,1,0,0:0:0:0:
84,120,113726,1,0,0:0:0:0:
84,160,113828,1,12,0:0:0:0:
100,196,113931,1,0,0:0:0:0:
128,224,114034,1,0,0:0:0:0:
168,236,114136,1,0,0:0:0:0:
208,240,114240,5,4,0:0:0:0:
248,236,114342,1,0,0:0:0:0:
284,220,114445,1,0,0:0:0:0:
312,192,114547,1,0,0:0:0:0:
308,152,114650,1,8,0:0:0:0:
272,136,114753,1,0,0:0:0:0:
244,164,114856,1,0,0:0:0:0:
236,204,114958,1,0,0:0:0:0:
246,242,115062,5,4,0:0:0:0:
268,276,115164,1,0,0:0:0:0:
298,301,115267,1,0,0:0:0:0:
335,316,115369,1,0,0:0:0:0:
375,320,115472,1,8,0:0:0:0:
414,313,115575,1,0,0:0:0:0:
450,296,115678,1,12,0:0:0:0:
480,270,115780,1,0,0:0:0:0:
488,232,115884,5,4,0:0:0:0:
489,192,115986,1,0,0:0:0:0:
471,157,116089,1,0,0:0:0:0:
436,139,116192,1,0,0:0:0:0:
396,136,116294,1,4,0:0:0:0:
357,143,116397,1,0,0:0:0:0:
328,172,116500,1,0,0:0:0:0:
316,212,116603,1,0,0:0:0:0:
320,252,116705,5,12,0:0:0:0:
364,272,116809,1,0,0:0:0:0:
412,260,116911,1,0,0:0:0:0:
432,216,117014,1,0,0:0:0:0:
428,168,117117,1,12,0:0:0:0:
404,128,117219,1,0,0:0:0:0:
372,92,117322,1,0,0:0:0:0:
328,72,117425,1,0,0:0:0:0:
280,72,117528,5,12,0:0:0:0:
244,104,117631,1,0,0:0:0:0:
272,139,117733,1,0,0:0:0:0:
321,124,117836,1,0,0:0:0:0:
347,81,117939,1,12,0:0:0:0:
335,32,118041,1,0,0:0:0:0:
293,4,118144,1,8,0:0:0:0:
241,3,118247,1,0,0:0:0:0:
200,28,118350,5,12,0:0:0:0:
180,76,118452,1,0,0:0:0:0:
184,128,118555,1,0,0:0:0:0:
208,224,118761,5,0,0:0:0:0:
308,88,118966,5,0,0:0:0:0:
308,88,119069,1,0,0:0:0:0:
308,88,119172,1,0,0:0:0:0:
172,284,119377,5,0,0:0:0:0:
412,284,119583,1,0,0:0:0:0:
228,132,119788,1,0,0:0:0:0:
228,132,119994,5,0,3:0:0:0:
258,157,120096,1,0,3:0:0:0:
297,157,120199,1,0,3:0:0:0:
332,140,120302,1,0,3:0:0:0:
360,112,120405,1,0,3:0:0:0:
376,76,120507,1,0,3:0:0:0:
380,36,120610,1,0,3:0:0:0:
356,4,120713,1,0,3:0:0:0:
320,20,120815,5,0,3:0:0:0:
311,62,120917,1,0,3:0:0:0:
317,106,121020,1,0,3:0:0:0:
332,148,121123,1,0,3:0:0:0:
356,184,121225,1,0,3:0:0:0:
388,212,121328,1,0,3:0:0:0:
436,208,121431,1,0,3:0:0:0:
456,164,121535,1,0,3:0:0:0:
444,120,121637,5,0,3:0:0:0:
406,79,121739,1,0,3:0:0:0:
358,49,121842,1,0,3:0:0:0:
305,32,121945,1,0,3:0:0:0:
249,28,122047,1,0,3:0:0:0:
193,33,122150,1,0,3:0:0:0:
140,49,122253,1,0,3:0:0:0:
91,76,122356,1,0,3:0:0:0:
51,115,122458,5,0,3:0:0:0:
25,164,122561,1,0,3:0:0:0:
22,220,122664,1,0,3:0:0:0:
39,273,122767,1,0,3:0:0:0:
71,319,122869,1,0,3:0:0:0:
112,356,122972,1,0,3:0:0:0:
168,348,123076,6,0,B|362:333|458:261|454:101|394:-6|222:-46|22:-6|-81:65|-81:257|162:349|138:233|230:277|296:212,1,1080.00004119873
344,184,125028,5,0,0:0:0:0:
319,134,125130,1,0,0:0:0:0:
274,102,125233,1,0,0:0:0:0:
212,92,125336,1,0,0:0:0:0:
260,220,125542,5,0,0:0:0:0:
316,180,125644,1,0,0:0:0:0:
344,116,125747,1,0,0:0:0:0:
456,280,125952,5,0,0:0:0:0:
260,220,126158,1,0,0:0:0:0:
448,72,126363,1,0,0:0:0:0:
386,268,126569,5,0,0:0:0:0:
317,257,126671,1,0,0:0:0:0:
260,220,126774,1,0,0:0:0:0:
234,157,126877,1,0,0:0:0:0:
235,88,126979,1,0,0:0:0:0:
164,272,127185,5,0,0:0:0:0:
188,208,127288,1,0,0:0:0:0:
234,157,127390,1,0,0:0:0:0:
472,128,127596,5,0,0:0:0:0:
212,232,127802,1,0,0:0:0:0:
496,232,128007,1,0,0:0:0:0:
284,116,128213,5,0,0:0:0:0:
220,132,128315,1,0,0:0:0:0:
168,176,128418,1,0,0:0:0:0:
148,240,128521,1,0,0:0:0:0:
148,308,128624,1,4,0:0:0:0:
288,166,128829,5,0,0:0:0:0:
224,182,128931,1,0,0:0:0:0:
172,226,129034,1,0,0:0:0:0:
16,360,129240,5,0,0:0:0:0:
254,265,129446,1,4,0:0:0:0:
495,347,129651,1,0,0:0:0:0:
144,340,129857,6,0,P|199:246|196:192,1,136.000002593994,8|0,0:0|0:0,0:0:0:0:
400,312,130268,6,0,P|319:187|320:96,1,200,8|0,0:0|0:0,0:0:0:0:
96,288,130679,6,0,P|176:204|176:64,1,240.000009155274,8|0,0:0|0:0,0:0:0:0:
452,260,131089,6,0,P|372:196|448:0,1,320,8|0,0:0|0:0,0:0:0:0:
296,48,131500,5,0,0:0:0:0:
248,96,131603,1,0,0:0:0:0:
224,160,131706,1,0,0:0:0:0:
248,224,131809,1,0,0:0:0:0:
296,272,131911,1,0,0:0:0:0:
176,336,132117,5,0,0:0:0:0:
200,272,132220,1,0,0:0:0:0:
248,224,132322,1,0,0:0:0:0:
384,136,132528,5,0,0:0:0:0:
384,336,132733,1,0,0:0:0:0:
184,204,132939,1,0,0:0:0:0:
292,36,133144,5,0,0:0:0:0:
340,84,133247,1,0,0:0:0:0:
364,148,133350,1,0,0:0:0:0:
340,212,133453,1,0,0:0:0:0:
292,260,133555,1,0,0:0:0:0:
136,296,133761,5,0,0:0:0:0:
160,232,133864,1,0,0:0:0:0:
200,176,133966,6,0,P|236:232|168:300,1,136.000002593994
116,184,134377,6,0,P|172:100|273:145,1,200
198,235,134788,6,0,P|114:179|149:41,1,256
73,247,135199,5,0,0:0:0:0:
370,39,135610,1,0,0:0:0:0:
252,382,136021,1,0,0:0:0:0:
44,108,136432,6,0,L|170:7,1,136.000002593994
500,220,136843,2,0,L|355:364,1,200
224,48,137254,2,0,P|240:240|240:48,2,512,0|0|2,0:0|0:0|0:0,0:0:0:0:
295,63,138179,5,0,0:0:0:0:
356,90,138281,1,0,0:0:0:0:
419,115,138384,1,0,0:0:0:0:
482,138,138487,1,0,0:0:0:0:
144,344,138692,5,0,0:0:0:0:
187,291,138795,1,0,0:0:0:0:
233,241,138898,1,4,0:0:0:0:
416,160,139103,5,0,0:0:0:0:
464,304,139309,1,0,0:0:0:0:
232,304,139514,1,0,0:0:0:0:
249,104,139720,5,2,0:0:0:0:
285,166,139823,1,0,0:0:0:0:
319,229,139926,1,0,0:0:0:0:
356,290,140029,1,0,0:0:0:0:
392,351,140131,1,0,0:0:0:0:
189,165,140337,5,0,0:0:0:0:
225,226,140439,1,0,0:0:0:0:
262,287,140542,1,0,0:0:0:0:
100,223,140747,5,0,0:0:0:0:
272,155,140952,1,2,0:0:0:0:
120,43,141158,1,0,0:0:0:0:
288,280,141363,5,2,0:0:0:0:
288,208,141466,1,0,0:0:0:0:
288,136,141569,1,0,0:0:0:0:
288,64,141672,1,0,0:0:0:0:
344,20,141774,1,0,0:0:0:0:
500,144,141980,5,0,0:0:0:0:
444,192,142083,1,0,0:0:0:0:
372,192,142185,1,0,0:0:0:0:
184,20,142391,5,0,0:0:0:0:
316,236,142596,1,0,0:0:0:0:
64,288,142802,1,0,0:0:0:0:
392,352,143007,6,0,P|372:352|268:240,1,136.000002593994,2|0,0:0|0:0,0:0:0:0:
72,308,143418,2,0,P|91:302|208:148,1,200,2|0,0:0|0:0,0:0:0:0:
379,267,143829,2,0,P|339:239|455:83,1,256,2|0,0:0|0:0,0:0:0:0:
72,228,144240,2,0,P|112:196|4:20,1,312.000001190186,2|0,0:0|0:0,0:0:0:0:
8,188,144651,5,2,0:0:0:0:
28,118,144754,1,0,0:0:0:0:
75,63,144857,1,0,0:0:0:0:
144,48,144959,1,0,0:0:0:0:
191,102,145062,1,0,0:0:0:0:
230,290,145268,5,0,0:0:0:0:
245,220,145370,1,0,0:0:0:0:
302,176,145473,1,0,0:0:0:0:
502,258,145679,5,0,0:0:0:0:
282,372,145884,1,2,0:0:0:0:
108,195,146089,1,0,0:0:0:0:
348,285,146295,6,0,L|48:285,1,287.999991210938,2|0,0:0|0:0,0:0:0:0:
206,191,146911,1,0,0:0:0:0:
348,285,147117,5,0,0:0:0:0:
319,236,147220,1,0,0:0:0:0:
323,180,147322,1,0,0:0:0:0:
355,134,147425,1,0,0:0:0:0:
406,107,147528,1,0,0:0:0:0:
440,213,147733,5,0,0:0:0:0:
378,20,147939,6,0,P|263:62|213:220,1,287.999991210938,2|0,0:0|0:0,0:0:0:0:
232,319,148555,5,0,0:0:0:0:
158,132,148761,5,0,0:0:0:0:
212,146,148863,1,0,0:0:0:0:
254,183,148966,1,0,0:0:0:0:
288,228,149069,1,0,0:0:0:0:
310,279,149172,1,0,0:0:0:0:
128,284,149377,5,0,0:0:0:0:
349,73,149583,6,0,L|151:73,1,143.999995605469,2|0,0:0|0:0,0:0:0:0:
109,283,149994,6,0,L|317:281,1,191.999994140625,2|0,0:0|0:0,0:0:0:0:
349,73,150405,6,0,L|84:73,1,240.000009155274,2|0,0:0|0:0,0:0:0:0:
109,283,150816,6,0,L|406:283,1,287.999991210938,2|0,0:0|0:0,0:0:0:0:
296,146,151226,5,0,0:0:0:0:
218,144,151329,1,0,0:0:0:0:
140,138,151432,1,0,0:0:0:0:
183,73,151535,1,0,0:0:0:0:
262,75,151637,1,0,0:0:0:0:
333,236,151843,5,0,0:0:0:0:
276,290,151946,1,0,0:0:0:0:
217,341,152049,1,0,0:0:0:0:
202,264,152152,1,0,0:0:0:0:
259,210,152254,1,0,0:0:0:0:
495,61,152459,5,8,0:0:0:0:
443,336,152665,5,8,0:0:0:0:
195,50,152870,5,0,0:0:0:0:
235,50,152972,1,0,0:0:0:0:
275,50,153075,1,0,0:0:0:0:
315,50,153178,1,0,0:0:0:0:
355,50,153280,1,0,0:0:0:0:
395,50,153383,1,0,0:0:0:0:
435,50,153486,1,0,0:0:0:0:
475,50,153589,1,0,0:0:0:0:
436,120,153692,5,0,0:0:0:0:
396,120,153794,1,0,0:0:0:0:
356,120,153897,1,0,0:0:0:0:
316,120,154000,1,0,0:0:0:0:
279,191,154103,5,0,0:0:0:0:
319,191,154205,1,0,0:0:0:0:
359,191,154308,1,0,0:0:0:0:
399,191,154411,1,0,0:0:0:0:
434,262,154513,5,0,0:0:0:0:
394,262,154615,1,0,0:0:0:0:
354,262,154718,1,0,0:0:0:0:
314,262,154821,1,0,0:0:0:0:
279,191,154924,5,0,0:0:0:0:
319,191,155026,1,0,0:0:0:0:
359,191,155129,1,0,0:0:0:0:
399,191,155232,1,0,0:0:0:0:
354,262,155335,5,0,0:0:0:0:
314,262,155437,1,0,0:0:0:0:
274,262,155540,1,0,0:0:0:0:
234,262,155643,1,0,0:0:0:0:
193,262,155747,6,0,L|92:260,1,80
385,104,156158,5,0,0:0:0:0:
358,134,156261,1,0,0:0:0:0:
320,146,156363,1,0,0:0:0:0:
280,142,156466,1,0,0:0:0:0:
244,124,156569,1,0,0:0:0:0:
216,94,156672,1,0,0:0:0:0:
199,57,156774,1,0,0:0:0:0:
189,18,156877,1,0,0:0:0:0:
266,41,156980,5,0,0:0:0:0:
266,81,157083,1,0,0:0:0:0:
252,118,157186,1,0,0:0:0:0:
225,147,157288,1,0,0:0:0:0:
151,114,157391,5,0,0:0:0:0:
179,86,157494,1,0,0:0:0:0:
218,76,157597,1,0,0:0:0:0:
257,82,157699,1,0,0:0:0:0:
328,125,157802,5,0,0:0:0:0:
295,148,157905,1,0,0:0:0:0:
272,179,158008,1,0,0:0:0:0:
269,218,158110,1,0,0:0:0:0:
324,276,158213,5,0,0:0:0:0:
350,245,158316,1,0,0:0:0:0:
355,205,158419,1,0,0:0:0:0:
354,165,158521,1,0,0:0:0:0:
424,127,158624,5,0,0:0:0:0:
436,164,158726,1,0,0:0:0:0:
424,200,158829,1,0,0:0:0:0:
404,236,158932,1,0,0:0:0:0:
420,272,159035,1,0,0:0:0:0:
226,143,159446,5,2,0:0:0:0:
344,148,159651,5,0,0:0:0:0:
283,148,159754,1,0,0:0:0:0:
222,148,159857,1,0,0:0:0:0:
128,224,160062,5,0,0:0:0:0:
189,224,160165,1,0,0:0:0:0:
250,224,160268,1,0,0:0:0:0:
136,60,160473,5,0,0:0:0:0:
64,248,160679,1,0,0:0:0:0:
252,188,160884,1,0,0:0:0:0:
102,77,161089,5,2,0:0:0:0:
132,140,161192,1,0,0:0:0:0:
172,196,161295,1,0,0:0:0:0:
208,256,161398,1,0,0:0:0:0:
244,316,161500,1,0,0:0:0:0:
424,224,161706,5,0,0:0:0:0:
464,280,161809,1,0,0:0:0:0:
500,340,161911,1,0,0:0:0:0:
388,172,162117,5,0,0:0:0:0:
208,260,162322,1,0,0:0:0:0:
208,60,162528,1,0,0:0:0:0:
400,296,162733,5,2,0:0:0:0:
365,237,162836,1,0,0:0:0:0:
332,178,162939,1,0,0:0:0:0:
297,119,163042,1,0,0:0:0:0:
263,60,163144,1,0,0:0:0:0:
112,192,163350,5,0,0:0:0:0:
171,157,163453,1,0,0:0:0:0:
230,123,163555,1,0,0:0:0:0:
230,336,163761,5,0,0:0:0:0:
179,77,163966,1,0,0:0:0:0:
71,319,164172,1,0,0:0:0:0:
342,91,164377,5,0,0:0:0:0:
210,27,164583,2,0,L|210:112,1,80
391,321,164994,2,0,L|288:321,1,80
53,216,165405,6,0,B|126:194|126:194|138:78,1,160
156,37,166021,5,0,0:0:0:0:
185,63,166123,1,0,0:0:0:0:
215,90,166226,1,0,0:0:0:0:
244,117,166329,1,0,0:0:0:0:
274,144,166431,1,0,0:0:0:0:
303,171,166534,1,0,0:0:0:0:
333,198,166637,1,0,0:0:0:0:
362,225,166740,1,0,0:0:0:0:
290,260,166843,5,0,0:0:0:0:
258,235,166945,1,0,0:0:0:0:
227,210,167048,1,0,0:0:0:0:
196,185,167151,1,0,0:0:0:0:
160,256,167254,5,0,0:0:0:0:
186,285,167356,1,0,0:0:0:0:
212,315,167459,1,0,0:0:0:0:
239,345,167562,1,0,0:0:0:0:
165,376,167665,5,0,0:0:0:0:
139,346,167767,1,0,0:0:0:0:
112,316,167870,1,0,0:0:0:0:
86,286,167973,1,0,0:0:0:0:
136,223,168076,5,0,0:0:0:0:
162,253,168178,1,0,0:0:0:0:
189,283,168281,1,0,0:0:0:0:
215,313,168384,1,0,0:0:0:0:
288,281,168487,5,0,0:0:0:0:
262,251,168589,1,0,0:0:0:0:
235,221,168692,1,0,0:0:0:0:
209,191,168795,1,0,0:0:0:0:
180,161,168898,6,0,L|116:79,1,80
195,50,169309,5,0,0:0:0:0:
235,50,169411,1,0,0:0:0:0:
275,50,169514,1,0,0:0:0:0:
315,50,169617,1,0,0:0:0:0:
355,50,169719,1,0,0:0:0:0:
395,50,169822,1,0,0:0:0:0:
435,50,169925,1,0,0:0:0:0:
475,50,170028,1,0,0:0:0:0:
436,120,170131,5,0,0:0:0:0:
396,120,170233,1,0,0:0:0:0:
356,120,170336,1,0,0:0:0:0:
316,120,170439,1,0,0:0:0:0:
279,191,170542,5,0,0:0:0:0:
319,191,170644,1,0,0:0:0:0:
359,191,170747,1,0,0:0:0:0:
399,191,170850,1,0,0:0:0:0:
434,262,170952,5,0,0:0:0:0:
394,262,171054,1,0,0:0:0:0:
354,262,171157,1,0,0:0:0:0:
314,262,171260,1,0,0:0:0:0:
279,191,171363,5,0,0:0:0:0:
319,191,171465,1,0,0:0:0:0:
359,191,171568,1,0,0:0:0:0:
399,191,171671,1,0,0:0:0:0:
354,262,171774,5,0,0:0:0:0:
314,262,171876,1,0,0:0:0:0:
274,262,171979,1,0,0:0:0:0:
234,262,172082,1,0,0:0:0:0:
193,262,172185,6,0,L|99:262,1,80
412,35,172596,5,2,0:0:0:0:
360,90,172699,1,0,0:0:0:0:
308,144,172802,1,0,0:0:0:0:
259,202,172905,1,0,0:0:0:0:
207,257,173008,1,0,0:0:0:0:
192,106,173213,5,0,0:0:0:0:
142,164,173316,1,0,0:0:0:0:
90,218,173419,1,0,0:0:0:0:
255,19,173624,5,0,0:0:0:0:
257,279,173829,1,0,0:0:0:0:
70,103,174035,1,0,0:0:0:0:
372,341,174240,5,2,0:0:0:0:
296,344,174343,1,0,0:0:0:0:
221,347,174446,1,0,0:0:0:0:
257,279,174549,1,0,0:0:0:0:
292,212,174651,1,0,0:0:0:0:
442,34,174857,5,0,0:0:0:0:
466,107,174960,1,0,0:0:0:0:
391,91,175063,1,0,0:0:0:0:
152,66,175268,5,0,0:0:0:0:
378,229,175473,1,0,0:0:0:0:
107,303,175679,1,0,0:0:0:0:
470,347,175884,5,0,0:0:0:0:
39,40,176295,5,0,0:0:0:0:
50,54,176500,2,0,L|216:54,1,160
56,342,177117,5,0,0:0:0:0:
372,232,177528,5,0,0:0:0:0:
352,232,177630,1,0,0:0:0:0:
332,232,177733,1,0,0:0:0:0:
312,232,177836,1,0,0:0:0:0:
292,232,177938,1,0,0:0:0:0:
211,233,178144,6,0,B|184:222|184:222|159:156,1,80
250,83,178555,5,0,0:0:0:0:
267,93,178657,1,0,0:0:0:0:
284,103,178760,1,0,0:0:0:0:
301,113,178863,1,0,0:0:0:0:
319,123,178965,1,0,0:0:0:0:
496,192,179172,6,0,B|16:192|16:192|256:32|256:368|256:368|480:32|32:32|32:32,1,1440
139,257,192322,5,0,0:0:0:0:
194,278,192424,1,0,0:0:0:0:
253,274,192527,1,0,0:0:0:0:
306,245,192630,1,0,0:0:0:0:
341,197,192732,1,0,0:0:0:0:
353,139,192835,1,0,0:0:0:0:
339,81,192938,1,0,0:0:0:0:
302,35,193041,1,0,0:0:0:0:
258,114,193144,6,0,P|240:224|258:245,1,120.000004577637,4|0,0:0|0:0,0:0:0:0:
254,312,193452,5,0,0:0:0:0:
199,288,193554,1,0,0:0:0:0:
160,244,193657,1,0,0:0:0:0:
144,186,193760,1,0,0:0:0:0:
152,127,193862,1,0,0:0:0:0:
209,56,193966,6,0,L|338:56,1,120.000004577637,4|0,0:0|0:0,0:0:0:0:
400,62,194274,5,0,0:0:0:0:
377,117,194377,1,0,0:0:0:0:
323,144,194480,1,0,0:0:0:0:
278,183,194583,1,0,0:0:0:0:
259,239,194685,1,0,0:0:0:0:
275,296,194788,1,0,0:0:0:0:
331,316,194891,1,0,0:0:0:0:
387,294,194994,1,0,0:0:0:0:
401,236,195096,1,0,0:0:0:0:
360,191,195199,1,0,0:0:0:0:
300,196,195302,1,0,0:0:0:0:
249,228,195405,1,0,0:0:0:0:
230,284,195507,1,0,0:0:0:0:
159,256,195610,5,4,0:0:0:0:
159,211,195713,1,0,0:0:0:0:
148,193,195816,1,0,0:0:0:0:
163,180,195918,1,0,0:0:0:0:
158,140,196021,1,4,0:0:0:0:
158,140,196226,5,4,0:0:0:0:
353,128,196432,5,4,0:0:0:0:
353,173,196535,1,0,0:0:0:0:
342,190,196638,1,0,0:0:0:0:
357,201,196740,1,0,0:0:0:0:
357,241,196843,1,4,0:0:0:0:
357,241,197048,5,4,0:0:0:0:
118,139,197254,5,0,0:0:0:0:
141,121,197357,1,0,0:0:0:0:
163,102,197459,1,0,0:0:0:0:
184,83,197562,1,0,0:0:0:0:
238,94,197665,5,0,0:0:0:0:
198,124,197768,1,0,0:0:0:0:
162,156,197870,1,0,0:0:0:0:
126,187,197973,1,0,0:0:0:0:
120,250,198076,5,0,0:0:0:0:
182,202,198179,1,0,0:0:0:0:
241,149,198281,1,0,0:0:0:0:
299,101,198384,1,0,0:0:0:0:
412,32,198487,5,0,0:0:0:0:
287,264,198692,1,0,0:0:0:0:
147,104,198898,5,0,0:0:0:0:
163,118,199000,1,0,0:0:0:0:
178,133,199103,1,0,0:0:0:0:
192,148,199206,1,0,0:0:0:0:
208,163,199308,1,0,0:0:0:0:
223,177,199411,1,0,0:0:0:0:
253,204,199514,5,2,0:0:0:0:
277,187,199616,1,0,0:0:0:0:
301,169,199719,1,0,0:0:0:0:
325,151,199822,1,0,0:0:0:0:
349,134,199924,1,0,0:0:0:0:
374,116,200027,1,0,0:0:0:0:
398,98,200130,1,0,0:0:0:0:
422,80,200233,1,0,0:0:0:0:
408,65,200336,5,0,0:0:0:0:
395,52,200438,1,0,0:0:0:0:
382,40,200541,1,0,0:0:0:0:
369,27,200644,1,0,0:0:0:0:
310,75,200747,5,0,0:0:0:0:
251,122,200849,1,0,0:0:0:0:
191,170,200952,2,0,L|136:215,1,40,2|0,0:0|0:0,0:0:0:0:
110,254,201158,5,0,0:0:0:0:
176,290,201260,1,0,0:0:0:0:
246,319,201363,2,0,L|314:355,1,40,2|0,0:0|0:0,0:0:0:0:
372,292,201569,6,0,L|431:292,1,40,2|0,0:0|0:0,0:0:0:0:
372,168,201774,6,0,L|424:117,1,51.999997619629,2|0,0:0|0:0,0:0:0:0:
252,96,201980,6,0,L|252:-8,1,64,2|0,0:0|0:0,0:0:0:0:
247,107,202185,6,0,L|123:82,1,119.999996337891,2|0,0:0|0:0,0:0:0:0:
93,180,203418,6,0,L|69:226,1,27.9999991455078,2|0,0:0|0:0,0:0:0:0:
152,276,203624,2,0,L|152:338,1,40,2|0,0:0|0:0,0:0:0:0:
268,280,203829,2,0,L|356:324,1,80,2|0,0:0|0:0,0:0:0:0:
289,308,204446,5,2,0:0:0:0:
296,315,204548,1,2,0:0:0:0:
306,314,204651,2,2,L|372:313,1,64,2|0,0:0|0:0,0:0:0:0:
370,232,205679,5,0,0:0:0:0:
330,232,205781,1,0,0:0:0:0:
290,232,205884,1,0,0:0:0:0:
250,232,205987,1,0,0:0:0:0:
210,232,206089,1,0,0:0:0:0:
170,232,206192,1,0,0:0:0:0:
130,232,206295,2,0,L|46:232,1,80,4|0,0:0|0:0,0:0:0:0:
73,289,206706,5,0,0:0:0:0:
101,261,206808,1,0,0:0:0:0:
130,232,206911,1,0,0:0:0:0:
158,204,207014,1,0,0:0:0:0:
186,175,207117,6,0,L|243:117,1,80,4|0,0:0|0:0,0:0:0:0:
283,231,207528,2,0,L|350:160,1,80,4|0,0:0|0:0,0:0:0:0:
414,80,207939,5,4,0:0:0:0:
416,139,208041,1,0,0:0:0:0:
363,167,208144,1,0,0:0:0:0:
337,221,208247,1,0,0:0:0:0:
279,238,208350,2,0,L|295:306,1,40,4|0,0:0|0:0,0:0:0:0:
204,221,208555,2,0,L|188:153,1,40,4|0,0:0|0:0,0:0:0:0:
286,141,208761,5,4,0:0:0:0:
233,126,208863,1,0,0:0:0:0:
210,66,208966,1,0,0:0:0:0:
256,20,209069,1,0,0:0:0:0:
309,35,209172,6,0,L|364:76,1,40,4|0,0:0|0:0,0:0:0:0:
338,191,209377,2,0,L|283:232,1,40,4|0,0:0|0:0,0:0:0:0:
167,217,209583,5,4,0:0:0:0:
220,232,209685,1,0,0:0:0:0:
243,292,209788,1,0,0:0:0:0:
197,338,209891,1,0,0:0:0:0:
144,323,209994,6,0,L|89:282,1,40,4|0,0:0|0:0,0:0:0:0:
183,187,210199,2,0,L|225:134,1,40,4|0,0:0|0:0,0:0:0:0:
