osu file format v14

[General]
AudioFilename: audio.mp3
AudioLeadIn: 0
PreviewTime: 77148
Countdown: 0
SampleSet: Normal
StackLeniency: 0.7
Mode: 0
LetterboxInBreaks: 0
WidescreenStoryboard: 0

[Editor]
Bookmarks: 82333,112703,261592
DistanceSpacing: 1.2
BeatDivisor: 4
GridSize: 16
TimelineZoom: 1.8

[Metadata]
Title:Last Ride Of The Day
TitleUnicode:Last Ride Of The Day
Artist:Nightwish
ArtistUnicode:Nightwish
Creator:Ameyy
Version:EPIC
Source:
Tags:
BeatmapID:1130456
BeatmapSetID:533597

[Difficulty]
HPDrainRate:7
CircleSize:4
OverallDifficulty:8
ApproachRate:9
SliderMultiplier:1.4
SliderTickRate:1

[Events]
//Background and Video events
0,0,"Konachan.com - 213309 building clouds haru_akira landscape original scenic sky water.jpg",0,0
//Break Periods
2,103274,108029
//Storyboard Layer 0 (Background)
//Storyboard Layer 1 (Fail)
//Storyboard Layer 2 (Pass)
//Storyboard Layer 3 (Foreground)
//Storyboard Sound Samples

[TimingPoints]
9000,370.37037037037,4,2,0,100,1,0
13074,-90.9090909090909,4,2,0,100,0,0
13444,-100,4,2,0,100,0,0
14555,-83.3333333333333,4,2,0,100,0,0
15666,-100,4,2,0,100,0,0
17888,-76.9230769230769,4,2,0,100,0,0
25666,-71.4285714285714,4,2,0,100,0,0
26037,-66.6666666666667,4,2,0,100,0,0
26407,-62.5,4,2,0,100,0,0
26777,-76.9230769230769,4,2,0,100,0,0
34370,-62.5,4,3,0,100,0,0
35666,-125,4,2,0,70,0,0
44555,-100,4,1,0,70,0,0
53074,-90.9090909090909,4,3,0,100,0,0
53444,-83.3333333333333,4,1,0,100,0,0
71592,-100,4,2,0,100,0,0
75666,-100,4,3,0,100,0,0
77148,-58.8235294117647,4,1,0,100,0,1
88629,-58.8235294117647,4,3,0,100,0,1
89370,-58.8235294117647,4,1,0,100,0,1
100851,-58.8235294117647,4,1,0,100,0,0
118629,-133.333333333333,4,2,0,100,0,0
123074,-100,4,1,0,70,0,0
127148,-90.9090909090909,4,3,0,70,0,0
127518,-83.3333333333333,4,1,0,100,0,0
136407,-83.3333333333333,4,2,0,100,0,0
142333,-58.8235294117647,4,1,0,100,0,1
166222,-100,4,2,0,100,0,0
168814,-100,4,2,0,100,0,0
171222,-83.3333333333333,4,1,0,100,0,0
171962,-76.9230769230769,4,1,0,100,0,0
181592,-100,4,1,0,100,0,0
182333,-76.9230769230769,4,1,0,100,0,0
189740,-90.9090909090909,4,1,0,100,0,0
200851,-55.5555555555556,4,1,0,100,0,1
223074,-55.5555555555556,4,1,0,100,0,0
224555,-58.8235294117647,4,1,0,100,0,1
248259,-76.9230769230769,4,1,0,100,0,0
257148,-66.6666666666667,4,1,0,100,0,0
264925,-66.6666666666667,4,1,0,100,0,1
264972,-66.6666666666667,4,1,0,100,0,0
265296,-66.6666666666667,4,1,0,100,0,1
265342,-66.6666666666667,4,1,0,100,0,0
265666,-66.6666666666667,4,1,0,100,0,1
265712,-66.6666666666667,4,1,0,100,0,0
266037,-66.6666666666667,4,2,0,5,0,0

[HitObjects]
352,112,8999,5,0,0:0:0:0:
352,112,9185,1,0,0:0:0:0:
400,208,9370,2,0,P|320:208|256:160,1,140
175,132,9925,2,0,B|130:131|130:131|88:154,1,70
119,247,10296,1,0,0:0:0:0:
148,45,10481,1,0,0:0:0:0:
125,246,10666,1,0,0:0:0:0:
154,47,10851,2,0,B|193:53|222:36|222:36|251:53|305:43,1,140
393,64,11407,5,0,0:0:0:0:
422,164,11592,2,0,L|365:237,1,70
226,283,11962,2,0,L|272:225,1,70
396,329,12333,2,0,L|318:278,1,70
263,126,12703,2,0,L|332:174,1,70
326,60,13074,6,0,P|280:36|197:62,1,115.50000352478
170,65,13444,2,0,L|114:115,1,70
134,215,13814,1,0,0:0:0:0:
32,82,13999,1,0,0:0:0:0:
115,289,14185,2,0,B|156:304|201:258,1,70
272,190,14555,6,0,P|301:261|268:361,1,167.999994873047
400,312,15111,1,0,0:0:0:0:
446,164,15296,1,0,0:0:0:0:
499,315,15481,1,0,0:0:0:0:
504,105,15666,2,0,P|448:83|420:90,1,70
337,59,16037,1,0,0:0:0:0:
302,158,16222,1,0,0:0:0:0:
152,74,16407,6,0,L|203:123,1,70
152,74,16777,2,0,L|68:88,1,70
125,180,17148,1,0,0:0:0:0:
273,326,17333,1,0,0:0:0:0:
131,327,17518,1,0,0:0:0:0:
270,179,17703,1,0,0:0:0:0:
63,238,17888,6,0,P|41:175|85:108,1,136.499993751526
135,88,18259,2,0,P|200:57|225:20,1,90.9999958343508
420,121,18629,2,0,L|345:71,1,90.9999958343508
380,203,19000,1,0,0:0:0:0:
380,203,19185,1,0,0:0:0:0:
477,348,19370,1,0,0:0:0:0:
262,257,19555,1,0,0:0:0:0:
464,236,19740,1,0,0:0:0:0:
282,375,19925,1,0,0:0:0:0:
380,203,20111,6,0,P|315:183|266:124,1,136.499993751526
207,105,20481,2,0,L|112:161,1,90.9999958343508
138,287,20851,1,0,0:0:0:0:
39,191,21037,1,0,0:0:0:0:
218,331,21222,2,0,L|322:328,1,90.9999958343508
414,241,21592,2,0,P|333:240|305:222,1,90.9999958343508
213,159,21962,2,0,B|277:146|277:146|380:168,1,136.499993751526
412,139,22333,6,0,L|401:42,1,90.9999958343508
220,40,22703,1,0,0:0:0:0:
100,177,22888,2,0,L|138:78,1,90.9999958343508
247,234,23259,1,0,0:0:0:0:
76,296,23444,1,0,0:0:0:0:
300,308,23629,5,0,0:0:0:0:
300,308,23722,1,0,0:0:0:0:
300,308,23814,2,0,P|334:256|328:195,1,90.9999958343508
423,68,24185,2,0,L|455:196,1,90.9999958343508
337,227,24555,6,0,P|314:155|266:114,1,136.499993751526
178,117,24925,2,0,L|118:202,1,90.9999958343508
244,330,25296,1,0,0:0:0:0:
67,286,25481,1,0,0:0:0:0:
229,203,25666,2,0,L|159:304,1,97.9999970092774
359,255,26037,2,0,L|294:358,1,105.000004005432
489,295,26407,2,0,L|429:400,1,112
442,222,26777,6,0,L|430:118,1,90.9999958343508
266,52,27148,1,0,0:0:0:0:
338,218,27333,1,0,0:0:0:0:
380,41,27518,1,0,0:0:0:0:
237,224,27703,1,0,0:0:0:0:
237,224,27796,1,0,0:0:0:0:
237,224,27888,2,0,B|199:250|199:250|134:258,1,90.9999958343508
11,141,28259,2,0,B|49:115|49:115|114:107,1,90.9999958343508
127,337,28629,2,0,P|82:297|93:197,1,136.499993751526
149,166,29000,6,0,L|234:115,1,90.9999958343508
408,109,29370,1,0,0:0:0:0:
408,109,29555,1,0,0:0:0:0:
385,289,29740,1,0,0:0:0:0:
315,120,29925,1,0,0:0:0:0:
453,239,30111,5,0,0:0:0:0:
228,225,30296,1,0,0:0:0:0:
502,162,30481,1,0,0:0:0:0:
228,225,30666,1,0,0:0:0:0:
395,140,30851,2,0,P|390:76|352:46,1,90.9999958343508
346,53,31129,1,0,0:0:0:0:
318,50,31222,6,0,L|237:119,1,90.9999958343508
73,156,31592,2,0,L|155:84,1,90.9999958343508
70,263,31962,2,0,P|5:238|-17:190,1,90.9999958343508
63,54,32333,1,0,0:0:0:0:
166,203,32518,1,0,0:0:0:0:
63,54,32703,2,0,B|131:26|132:79|234:36,1,136.499993751526
289,47,33074,2,0,P|336:81|353:129,1,90.9999958343508
280,278,33444,5,0,0:0:0:0:
283,264,33537,1,0,0:0:0:0:
286,250,33629,1,0,0:0:0:0:
289,236,33722,1,0,0:0:0:0:
293,223,33814,1,0,0:0:0:0:
411,361,34000,5,0,0:0:0:0:
229,345,34185,1,0,0:0:0:0:
375,237,34370,1,0,0:0:0:0:
198,191,34555,1,0,0:0:0:0:
325,362,34740,1,0,0:0:0:0:
294,131,34925,5,0,0:0:0:0:
463,254,35111,1,0,0:0:0:0:
198,191,35296,1,0,0:0:0:0:
390,304,35481,1,0,0:0:0:0:
294,131,35666,6,0,P|240:90|172:90,1,112
89,115,36222,1,0,0:0:0:0:
294,131,36407,2,0,L|417:130,1,112
337,297,37148,1,0,0:0:0:0:
228,267,37333,1,0,0:0:0:0:
126,220,37518,2,0,P|63:267|53:310,1,112
149,354,38074,1,0,0:0:0:0:
228,267,38259,6,0,L|281:191,1,84
332,196,38629,2,0,L|393:111,1,84
437,122,38999,2,0,P|456:194|444:225,1,84
420,246,39370,2,0,P|401:291|406:342,1,84
368,370,39740,2,0,L|278:341,1,84
238,316,40111,1,0,0:0:0:0:
65,173,40481,6,0,B|50:121|50:121|58:59,1,112
168,79,41037,1,0,0:0:0:0:
236,167,41222,2,0,B|235:201|235:201|223:243,2,56
322,95,41777,1,0,0:0:0:0:
230,224,41962,2,0,L|132:298,1,112
246,330,42518,5,0,0:0:0:0:
342,273,42703,2,0,L|386:209,1,56
319,128,43074,2,0,L|289:194,1,56
206,111,43444,2,0,L|198:33,1,56
105,114,43814,2,0,L|86:181,2,56
201,55,44370,1,0,0:0:0:0:
338,78,44555,6,0,P|352:144|342:204,1,105
301,233,44925,2,0,L|288:328,1,70
431,285,45296,1,0,0:0:0:0:
324,376,45481,1,0,0:0:0:0:
455,202,45666,2,0,L|484:129,1,70
364,13,46037,2,0,L|325:108,1,70
200,103,46407,2,0,P|221:158|268:214,1,105
280,257,46777,6,0,P|233:307|221:312,2,70
388,167,47333,1,0,0:0:0:0:
465,283,47518,2,0,P|483:312|511:332,2,70
388,167,48074,1,0,0:0:0:0:
358,303,48259,2,0,L|323:386,1,70
388,167,48629,2,0,P|393:104|360:55,1,105
303,73,48999,6,0,P|256:118|243:127,1,70
111,110,49370,1,0,0:0:0:0:
111,110,49555,1,0,0:0:0:0:
158,241,49740,1,0,0:0:0:0:
23,161,49925,1,0,0:0:0:0:
238,206,50111,1,0,0:0:0:0:
76,228,50296,1,0,0:0:0:0:
261,129,50481,6,0,L|329:163,1,70
223,42,50851,2,0,L|99:44,1,105
111,114,51222,2,0,B|134:141|134:141|154:184,1,70
269,257,51592,1,0,0:0:0:0:
140,311,51777,1,0,0:0:0:0:
213,128,51962,2,0,L|297:167,1,70
407,208,52333,5,0,0:0:0:0:
310,344,52518,1,0,0:0:0:0:
497,259,52703,1,0,0:0:0:0:
347,134,52888,1,0,0:0:0:0:
235,309,53074,2,0,P|190:333|131:328,1,77.0000023498536
310,211,53444,6,0,P|381:215|432:148,1,125.999996154785
467,111,53814,2,0,L|442:24,1,83.9999974365235
275,37,54185,1,0,0:0:0:0:
117,95,54370,1,0,0:0:0:0:
301,123,54555,2,0,L|206:174,1,83.9999974365235
74,232,54925,5,0,0:0:0:0:
203,339,55111,1,0,0:0:0:0:
147,180,55296,1,0,0:0:0:0:
277,285,55481,1,0,0:0:0:0:
37,317,55666,2,0,P|-2:279|-5:202,1,125.999996154785
38,139,56037,2,0,P|53:83|57:40,1,83.9999974365235
223,57,56407,5,0,0:0:0:0:
223,57,56592,1,0,0:0:0:0:
312,198,56777,1,0,0:0:0:0:
219,57,56962,1,0,0:0:0:0:
119,193,57148,1,0,0:0:0:0:
222,60,57333,1,0,0:0:0:0:
312,198,57518,1,0,0:0:0:0:
135,104,57703,1,0,0:0:0:0:
377,134,57888,6,0,L|418:230,1,83.9999974365235
451,47,58259,2,0,L|352:22,1,83.9999974365235
480,152,58629,1,0,0:0:0:0:
301,57,58814,1,0,0:0:0:0:
409,211,58999,2,0,L|355:289,1,83.9999974365235
192,272,59370,6,0,B|217:233|217:233|256:204,1,83.9999974365235
302,368,59740,1,0,0:0:0:0:
136,338,59925,1,0,0:0:0:0:
140,169,60111,2,0,P|192:111|270:103,1,125.999996154785
301,152,60481,6,0,P|321:91|290:44,1,83.9999974365235
391,224,60851,2,0,L|357:309,1,83.9999974365235
191,299,61222,1,0,0:0:0:0:
111,151,61407,1,0,0:0:0:0:
278,150,61592,5,0,0:0:0:0:
130,230,61777,1,0,0:0:0:0:
142,62,61962,1,0,0:0:0:0:
214,215,62148,1,0,0:0:0:0:
72,13,62333,6,0,P|58:75|109:144,1,125.999996154785
58,207,62703,2,0,L|15:295,1,83.9999974365235
189,282,63074,1,0,0:0:0:0:
189,282,63259,1,0,0:0:0:0:
355,300,63444,6,0,L|261:230,1,83.9999974365235
229,93,63814,2,0,L|317:166,1,83.9999974365235
462,141,64185,1,0,0:0:0:0:
225,202,64370,1,0,0:0:0:0:
403,79,64555,2,0,P|376:144|419:219,1,125.999996154785
450,255,64925,5,0,0:0:0:0:
303,171,65111,1,0,0:0:0:0:
147,233,65296,1,0,0:0:0:0:
293,315,65481,1,0,0:0:0:0:
200,174,65666,2,0,P|134:154|99:170,1,83.9999974365235
90,322,66037,2,0,P|156:342|191:326,1,83.9999974365235
276,210,66407,2,0,P|283:154|264:118,1,83.9999974365235
125,50,66777,6,0,L|30:148,1,125.999996154785
50,224,67148,2,0,L|92:337,1,83.9999974365235
235,240,67518,1,0,0:0:0:0:
383,318,67703,1,0,0:0:0:0:
245,155,67888,1,0,0:0:0:0:
206,349,68074,1,0,0:0:0:0:
317,184,68259,6,0,B|321:140|321:140|299:97,1,83.9999974365235
141,57,68629,1,0,0:0:0:0:
153,224,68814,1,0,0:0:0:0:
325,31,68999,2,0,P|371:67|376:118,1,83.9999974365235
381,258,69370,5,0,0:0:0:0:
500,140,69555,1,0,0:0:0:0:
335,175,69740,5,0,0:0:0:0:
339,342,69925,1,0,0:0:0:0:
500,140,70111,2,0,L|432:217,1,83.9999974365235
286,258,70481,5,0,0:0:0:0:
163,143,70666,1,0,0:0:0:0:
144,309,70851,1,0,0:0:0:0:
274,105,71037,1,0,0:0:0:0:
53,164,71222,1,0,0:0:0:0:
356,159,71407,1,0,0:0:0:0:
140,101,71592,5,0,0:0:0:0:
145,121,71777,1,0,0:0:0:0:
150,141,71962,1,0,0:0:0:0:
356,159,72147,1,0,0:0:0:0:
327,360,72333,1,0,0:0:0:0:
307,351,72518,1,0,0:0:0:0:
288,341,72703,1,0,0:0:0:0:
245,207,72888,5,0,0:0:0:0:
206,315,73074,1,0,0:0:0:0:
349,174,73259,1,0,0:0:0:0:
103,171,73444,1,0,0:0:0:0:
346,280,73629,1,0,0:0:0:0:
222,50,73814,1,0,0:0:0:0:
135,278,73999,1,0,0:0:0:0:
349,174,74185,2,0,L|435:211,1,70
458,69,74555,5,0,0:0:0:0:
318,75,74740,1,0,0:0:0:0:
241,191,74925,1,0,0:0:0:0:
390,24,75111,1,0,0:0:0:0:
488,193,75296,1,0,0:0:0:0:
318,75,75481,1,0,0:0:0:0:
108,116,75666,5,0,0:0:0:0:
97,158,75758,1,0,0:0:0:0:
100,201,75851,1,0,0:0:0:0:
115,242,75943,1,0,0:0:0:0:
150,265,76036,1,0,0:0:0:0:
190,251,76128,1,0,0:0:0:0:
218,281,76221,1,0,0:0:0:0:
246,315,76314,1,0,0:0:0:0:
284,336,76406,1,0,0:0:0:0:
327,343,76499,1,0,0:0:0:0:
351,312,76591,1,0,0:0:0:0:
347,269,76684,1,0,0:0:0:0:
323,233,76777,1,0,0:0:0:0:
337,237,76870,1,0,0:0:0:0:
350,240,76962,1,0,0:0:0:0:
363,244,77055,1,0,0:0:0:0:
384,250,77148,6,0,L|480:160,1,119.000002269745
336,48,77518,1,0,0:0:0:0:
192,160,77703,1,0,0:0:0:0:
372,153,77888,1,0,0:0:0:0:
266,0,78074,1,0,0:0:0:0:
192,160,78259,6,0,P|173:104|189:47,1,119.000002269745
128,241,78629,2,0,P|91:194|78:137,1,119.000002269745
103,346,78999,2,0,P|50:319|14:272,1,119.000002269745
189,314,79370,2,0,P|305:255|330:358,1,238.00000453949
262,359,79925,5,0,0:0:0:0:
373,189,80111,2,0,P|400:130|394:67,1,119.000002269745
223,119,80481,1,0,0:0:0:0:
331,260,80666,1,0,0:0:0:0:
474,132,80851,1,0,0:0:0:0:
255,200,81037,1,0,0:0:0:0:
317,18,81222,1,0,0:0:0:0:
331,260,81407,1,0,0:0:0:0:
153,249,81592,6,0,B|135:192|135:192|167:123,1,119.000002269745
329,294,81962,2,0,B|274:320|274:320|219:292,1,119.000002269745
392,140,82333,2,0,B|416:193|416:193|398:250,1,119.000002269745
221,90,82703,2,0,B|276:64|276:64|331:92,1,119.000002269745
268,208,83074,5,0,0:0:0:0:
145,78,83259,1,0,0:0:0:0:
274,204,83444,1,0,0:0:0:0:
404,79,83629,1,0,0:0:0:0:
137,79,83814,2,0,B|104:39|104:39|36:134|102:227,1,238.00000453949
162,378,84370,5,0,0:0:0:0:
162,378,84555,2,0,P|192:317|252:289,1,119.000002269745
427,374,84925,6,0,P|397:313|337:285,1,119.000002269745
234,292,85296,2,0,P|277:209|334:319,1,238.00000453949
296,359,85851,1,0,0:0:0:0:
435,246,86037,5,0,0:0:0:0:
424,67,86222,1,0,0:0:0:0:
248,36,86407,1,0,0:0:0:0:
465,166,86592,1,0,0:0:0:0:
205,133,86777,1,0,0:0:0:0:
424,67,86962,1,0,0:0:0:0:
312,246,87148,1,0,0:0:0:0:
498,92,87333,1,0,0:0:0:0:
247,35,87518,5,0,0:0:0:0:
235,36,87611,1,0,0:0:0:0:
223,39,87703,1,0,0:0:0:0:
212,45,87796,1,0,0:0:0:0:
201,50,87888,1,0,0:0:0:0:
191,57,87981,1,0,0:0:0:0:
183,66,88074,1,0,0:0:0:0:
175,75,88166,1,0,0:0:0:0:
182,97,88259,1,0,0:0:0:0:
204,124,88351,1,0,0:0:0:0:
220,156,88444,1,0,0:0:0:0:
210,190,88537,6,0,L|140:188,1,59.5000011348725
7,294,88722,2,0,L|95:296,1,59.5000011348725
245,308,88999,2,0,P|351:253|464:347,1,238.00000453949
344,362,89555,1,0,0:0:0:0:
421,196,89740,2,0,P|348:181|290:191,1,119.000002269745
171,66,90111,1,0,0:0:0:0:
347,88,90296,1,0,0:0:0:0:
151,175,90481,6,0,L|55:261,1,119.000002269745
250,189,90851,2,0,L|250:328,1,119.000002269745
350,177,91222,2,0,L|446:263,1,119.000002269745
346,85,91592,5,0,0:0:0:0:
492,186,91777,1,0,0:0:0:0:
276,110,91962,2,0,P|304:22|361:10,2,119.000002269745
114,31,92518,1,0,0:0:0:0:
220,176,92703,1,0,0:0:0:0:
44,204,92888,1,0,0:0:0:0:
203,83,93074,1,0,0:0:0:0:
140,255,93259,1,0,0:0:0:0:
39,100,93444,6,0,L|155:173,1,119.000002269745
320,240,93814,2,0,L|217:174,1,119.000002269745
79,286,94185,1,0,0:0:0:0:
231,378,94370,1,0,0:0:0:0:
424,319,94555,1,0,0:0:0:0:
453,107,94740,1,0,0:0:0:0:
331,319,94925,6,0,P|279:362|208:379,1,119.000002269745
364,193,95296,1,0,0:0:0:0:
423,375,95481,1,0,0:0:0:0:
494,160,95666,1,0,0:0:0:0:
284,243,95851,1,0,0:0:0:0:
284,243,96037,2,0,P|275:166|305:122,1,119.000002269745
449,44,96407,5,0,0:0:0:0:
270,54,96592,1,0,0:0:0:0:
448,52,96777,1,0,0:0:0:0:
269,47,96962,1,0,0:0:0:0:
102,112,97148,2,0,P|65:171|162:305,1,238.00000453949
306,234,97703,5,0,0:0:0:0:
462,319,97888,2,0,L|319:355,1,119.000002269745
355,168,98259,2,0,L|475:144,1,119.000002269745
306,234,98629,1,0,0:0:0:0:
201,89,98814,1,0,0:0:0:0:
201,89,98999,1,0,0:0:0:0:
148,260,99185,1,0,0:0:0:0:
98,13,99370,2,0,B|58:75|65:141|114:181|114:181|56:223|56:247|52:305|77:385|168:363|190:346|227:334|263:279|236:223|204:192|204:192|261:191|312:104|301:44|301:44|346:91|476:31,1,952.000018157959
256,192,100944,12,0,103074,0:0:0:0:
205,100,108629,6,0,L|85:30,1,119.000002269745
307,100,108999,2,0,L|426:30,1,119.000002269745
256,248,109370,1,0,0:0:0:0:
255,17,109555,1,0,0:0:0:0:
114,157,109740,2,0,B|133:225|153:261|195:277|267:289|313:263|472:269|310:60|201:3|371:85|452:-59|604:54|533:165|517:323|417:252|350:241|304:177|230:148|263:-56|201:6|163:35|19:-137|-182:24|85:324|-4:209|-13:224|72:315|128:413|234:365|316:359|345:282|381:242|381:242|529:258|546:152|547:89|523:-19|372:-24|330:44|323:46,1,1904.00003631592
235,173,112888,5,0,0:0:0:0:
56,160,113074,2,0,L|97:297,1,119.000002269745
151,128,113444,2,0,L|234:29,1,119.000002269745
232,215,113814,2,0,L|290:352,1,119.000002269745
367,168,114185,2,0,P|406:113|363:18,1,178.500003404617
317,95,114555,1,0,0:0:0:0:
404,250,114740,6,0,P|462:198|481:151,1,119.000002269745
421,331,115111,1,0,0:0:0:0:
284,216,115296,1,0,0:0:0:0:
269,365,115481,1,0,0:0:0:0:
235,139,115666,2,0,P|193:202|210:262,1,119.000002269745
46,336,116037,2,0,P|88:273|71:213,1,119.000002269745
168,76,116407,5,0,0:0:0:0:
179,72,116499,1,0,0:0:0:0:
190,68,116592,1,0,0:0:0:0:
201,65,116685,1,0,0:0:0:0:
212,62,116777,1,0,0:0:0:0:
369,144,116962,5,0,0:0:0:0:
494,16,117148,1,0,0:0:0:0:
494,194,117333,1,0,0:0:0:0:
317,216,117518,1,0,0:0:0:0:
427,75,117703,1,0,0:0:0:0:
413,304,117888,1,0,0:0:0:0:
412,77,118074,1,0,0:0:0:0:
225,165,118259,1,0,0:0:0:0:
409,207,118444,1,0,0:0:0:0:
304,120,118629,6,0,P|245:74|197:68,1,105.000004005432
196,200,119185,1,0,0:0:0:0:
221,301,119370,2,0,L|326:242,1,105.000004005432
389,53,120111,5,0,0:0:0:0:
450,137,120296,1,0,0:0:0:0:
345,133,120481,2,0,P|303:85|303:35,1,105.000004005432
212,103,121037,1,0,0:0:0:0:
255,198,121222,2,0,L|289:260,1,52.5000020027161
152,166,121592,2,0,L|117:103,1,52.5000020027161
35,70,121962,5,0,0:0:0:0:
58,172,122148,1,0,0:0:0:0:
35,274,122333,1,0,0:0:0:0:
77,369,122518,1,0,0:0:0:0:
181,289,122703,2,0,L|231:326,1,52.5000020027161
308,258,123074,6,0,P|339:207|429:188,1,140
425,316,123629,1,0,0:0:0:0:
456,131,123814,2,0,P|425:175|389:195,1,70
480,40,124185,2,0,L|414:8,1,70
281,44,124555,5,0,0:0:0:0:
172,131,124740,1,0,0:0:0:0:
40,82,124925,2,0,L|88:146,1,70
72,267,125296,2,0,P|54:201|93:127,1,140
148,260,125851,2,0,P|129:318|105:335,1,70
192,186,126222,5,0,0:0:0:0:
258,309,126407,1,0,0:0:0:0:
318,182,126592,1,0,0:0:0:0:
247,40,126777,1,0,0:0:0:0:
379,133,126962,1,0,0:0:0:0:
140,131,127148,1,0,0:0:0:0:
336,61,127333,1,0,0:0:0:0:
167,204,127518,2,0,P|102:200|75:91,1,167.999994873047
230,145,128074,5,0,0:0:0:0:
397,157,128259,2,0,L|310:209,1,83.9999974365235
492,192,128629,2,0,L|491:77,1,83.9999974365235
342,30,128999,1,0,0:0:0:0:
342,30,129185,1,0,0:0:0:0:
174,23,129370,1,0,0:0:0:0:
311,118,129555,1,0,0:0:0:0:
100,5,129740,6,0,P|121:79|209:91,1,167.999994873047
257,253,130296,1,0,0:0:0:0:
90,229,130481,2,0,L|43:116,1,83.9999974365235
454,151,130851,2,0,L|422:229,1,83.9999974365235
257,253,131222,1,0,0:0:0:0:
356,118,131407,1,0,0:0:0:0:
341,285,131592,1,0,0:0:0:0:
156,118,131777,1,0,0:0:0:0:
174,284,131962,6,0,P|117:304|32:287,1,125.999996154785
18,218,132333,2,0,L|69:135,1,83.9999974365235
222,195,132703,1,0,0:0:0:0:
381,245,132888,1,0,0:0:0:0:
222,195,133074,2,0,L|323:176,1,83.9999974365235
448,93,133444,5,0,0:0:0:0:
248,6,133629,1,0,0:0:0:0:
448,93,133814,2,0,L|366:113,1,83.9999974365235
197,106,134185,2,0,P|145:140|138:229,1,125.999996154785
165,275,134555,2,0,P|218:294|252:332,1,83.9999974365235
404,287,134925,5,0,0:0:0:0:
247,223,135111,1,0,0:0:0:0:
459,231,135296,2,0,P|483:280|467:329,1,83.9999974365235
247,223,135666,2,0,P|223:174|239:125,1,83.9999974365235
431,72,136037,2,0,P|455:121|439:170,1,83.9999974365235
298,78,136407,5,0,0:0:0:0:
133,42,136592,1,0,0:0:0:0:
93,205,136777,1,0,0:0:0:0:
379,130,136962,1,0,0:0:0:0:
195,117,137148,1,0,0:0:0:0:
142,284,137333,1,0,0:0:0:0:
290,112,137518,1,0,0:0:0:0:
99,118,137703,1,0,0:0:0:0:
248,206,137888,6,0,P|263:284|341:322,1,167.999994873047
403,166,138444,1,0,0:0:0:0:
470,319,138629,1,0,0:0:0:0:
304,151,138814,1,0,0:0:0:0:
487,54,138999,1,0,0:0:0:0:
410,257,139185,1,0,0:0:0:0:
345,83,139370,6,0,P|284:73|245:106,1,83.9999974365235
145,198,139740,1,0,0:0:0:0:
167,31,139925,1,0,0:0:0:0:
303,146,140111,1,0,0:0:0:0:
76,97,140296,1,0,0:0:0:0:
202,281,140481,1,0,0:0:0:0:
243,78,140666,1,0,0:0:0:0:
61,224,140851,5,0,0:0:0:0:
64,270,140944,1,0,0:0:0:0:
80,313,141037,1,0,0:0:0:0:
110,347,141129,1,0,0:0:0:0:
152,365,141222,1,0,0:0:0:0:
197,370,141314,1,0,0:0:0:0:
242,363,141407,1,0,0:0:0:0:
278,335,141499,1,0,0:0:0:0:
313,304,141592,1,0,0:0:0:0:
357,290,141685,1,0,0:0:0:0:
402,282,141777,1,0,0:0:0:0:
407,266,141870,1,0,0:0:0:0:
414,251,141962,1,0,0:0:0:0:
421,236,142055,1,0,0:0:0:0:
428,220,142148,1,0,0:0:0:0:
436,205,142240,1,0,0:0:0:0:
443,189,142333,6,0,P|443:128|277:87,1,238.00000453949
191,211,142888,1,0,0:0:0:0:
35,122,143074,2,0,L|57:4,2,119.000002269745
191,211,143629,1,0,0:0:0:0:
352,286,143814,2,0,B|337:313|337:313|447:326,1,119.000002269745
338,164,144185,2,0,B|332:134|332:134|432:156,1,119.000002269745
266,292,144555,2,0,B|186:292|186:292|97:313|97:313|24:313,1,238.00000453949
119,157,145111,5,0,0:0:0:0:
269,61,145296,1,0,0:0:0:0:
237,236,145481,1,0,0:0:0:0:
84,78,145666,2,0,P|40:126|39:190,1,119.000002269745
237,236,146037,2,0,P|281:188|282:124,1,119.000002269745
448,65,146407,1,0,0:0:0:0:
448,65,146592,1,0,0:0:0:0:
476,230,146777,5,0,0:0:0:0:
456,266,146870,1,0,0:0:0:0:
424,292,146962,1,0,0:0:0:0:
386,310,147055,1,0,0:0:0:0:
346,321,147147,1,0,0:0:0:0:
304,324,147240,1,0,0:0:0:0:
262,318,147333,2,0,L|189:300,1,59.5000011348725
85,322,147518,2,0,L|150:344,1,59.5000011348725
258,314,147703,2,0,L|185:296,1,59.5000011348725
81,318,147888,2,0,L|146:340,1,59.5000011348725
257,308,148074,2,0,L|184:290,1,59.5000011348725
164,211,148259,6,0,P|163:133|21:169,1,238.00000453949
13,309,148814,1,0,0:0:0:0:
109,158,148999,2,0,L|180:49,1,119.000002269745
403,158,149370,2,0,L|332:49,1,119.000002269745
247,211,149740,1,0,0:0:0:0:
253,36,149925,1,0,0:0:0:0:
334,195,150111,5,0,0:0:0:0:
158,224,150296,1,0,0:0:0:0:
205,384,150481,1,0,0:0:0:0:
247,211,150666,1,0,0:0:0:0:
72,173,150851,2,0,L|-7:292,1,119.000002269745
390,275,151222,6,0,L|324:175,1,119.000002269745
344,353,151592,2,0,P|421:362|472:316,1,119.000002269745
462,163,151962,1,0,0:0:0:0:
317,56,152148,1,0,0:0:0:0:
197,188,152333,1,0,0:0:0:0:
368,140,152518,1,0,0:0:0:0:
196,81,152703,6,0,P|178:160|213:200,1,119.000002269745
87,330,153074,2,0,P|105:251|70:211,1,119.000002269745
45,49,153444,1,0,0:0:0:0:
89,221,153629,1,0,0:0:0:0:
259,273,153814,6,0,L|219:200,1,59.5000011348725
254,134,153999,2,0,L|223:66,1,59.5000011348725
378,213,154185,2,0,L|268:-6,1,238.00000453949
428,84,154740,1,0,0:0:0:0:
443,261,154925,2,0,P|384:293|319:263,1,119.000002269745
161,243,155296,5,0,0:0:0:0:
295,360,155481,1,0,0:0:0:0:
225,195,155666,2,0,P|150:166|89:209,1,119.000002269745
296,173,156037,2,0,L|296:49,1,119.000002269745
367,199,156407,2,0,P|442:170|503:213,1,119.000002269745
425,353,156777,1,0,0:0:0:0:
270,264,156962,1,0,0:0:0:0:
190,351,157148,6,0,B|160:338|160:338|134:342|134:342|110:334|41:352,1,119.000002269745
108,169,157518,1,0,0:0:0:0:
270,264,157703,1,0,0:0:0:0:
239,88,157888,1,0,0:0:0:0:
168,252,158074,1,0,0:0:0:0:
159,73,158259,2,0,P|193:18|268:17,1,119.000002269745
406,78,158629,6,0,L|423:151,3,59.5000011348725
357,201,158999,2,0,L|343:274,3,59.5000011348725
413,319,159370,2,0,L|432:384,3,59.5000011348725
342,357,159740,2,0,L|278:302,1,59.5000011348725
168,246,159925,2,0,L|211:289,1,59.5000011348725
122,308,160111,6,0,P|94:227|222:191,1,238.00000453949
386,147,160666,1,0,0:0:0:0:
227,67,160851,2,0,P|208:131|212:184,1,119.000002269745
386,147,161222,2,0,P|405:83|401:30,1,119.000002269745
306,182,161592,5,0,0:0:0:0:
368,348,161777,1,0,0:0:0:0:
242,221,161962,1,0,0:0:0:0:
297,376,162148,1,0,0:0:0:0:
306,182,162333,2,0,L|419:121,1,119.000002269745
297,376,162703,2,0,L|180:330,1,119.000002269745
356,275,163074,6,0,B|417:303|417:251|501:300,1,119.000002269745
311,208,163444,1,0,0:0:0:0:
137,250,163629,1,0,0:0:0:0:
115,73,163814,1,0,0:0:0:0:
223,214,163999,1,0,0:0:0:0:
115,73,164185,2,0,P|187:50|248:60,1,119.000002269745
406,73,164555,5,0,0:0:0:0:
419,106,164648,1,0,0:0:0:0:
429,139,164740,1,0,0:0:0:0:
433,174,164833,1,0,0:0:0:0:
433,209,164925,1,0,0:0:0:0:
426,244,165018,1,0,0:0:0:0:
416,278,165111,1,0,0:0:0:0:
395,306,165203,1,0,0:0:0:0:
364,325,165296,1,0,0:0:0:0:
311,334,165388,1,0,0:0:0:0:
258,324,165481,1,0,0:0:0:0:
207,292,165574,1,0,0:0:0:0:
171,245,165666,1,0,0:0:0:0:
152,175,165759,1,0,0:0:0:0:
187,113,165851,1,0,0:0:0:0:
246,72,165944,1,0,0:0:0:0:
317,75,166037,1,0,0:0:0:0:
309,217,166222,5,0,0:0:0:0:
309,217,166407,1,0,0:0:0:0:
436,153,166592,1,0,0:0:0:0:
309,217,166777,1,0,0:0:0:0:
309,217,166962,1,0,0:0:0:0:
423,303,167148,1,0,0:0:0:0:
309,217,167333,1,0,0:0:0:0:
309,217,167518,1,0,0:0:0:0:
309,359,167703,1,0,0:0:0:0:
309,217,167888,1,0,0:0:0:0:
309,217,168074,1,0,0:0:0:0:
190,296,168259,1,0,0:0:0:0:
309,217,168444,1,0,0:0:0:0:
309,217,168629,1,0,0:0:0:0:
179,157,168814,5,0,0:0:0:0:
246,107,168999,2,0,L|339:107,1,70
385,59,169370,1,0,0:0:0:0:
434,126,169555,1,0,0:0:0:0:
434,126,169740,1,0,0:0:0:0:
385,194,169925,1,0,0:0:0:0:
385,194,170111,1,0,0:0:0:0:
438,258,170296,1,0,0:0:0:0:
438,258,170481,1,0,0:0:0:0:
381,319,170666,1,0,0:0:0:0:
381,319,170851,1,0,0:0:0:0:
314,267,171037,1,0,0:0:0:0:
314,267,171222,6,0,B|238:273|194:255|194:255|232:214,1,167.999994873047
347,40,171962,2,0,P|272:56|148:25,1,181.999991668702
136,140,172518,2,0,B|74:188|74:188|93:222,1,90.9999958343508
376,140,172888,2,0,B|438:188|438:188|419:222,1,90.9999958343508
363,284,173259,1,0,0:0:0:0:
264,237,173444,2,0,L|171:262,1,90.9999958343508
363,284,173814,2,0,L|453:339,1,90.9999958343508
258,342,174185,6,0,B|215:333|215:333|181:349|181:349|143:335|77:344,1,181.999991668702
49,164,174740,1,0,0:0:0:0:
78,343,174925,2,0,L|88:251,1,90.9999958343508
153,81,175296,2,0,L|137:211,1,90.9999958343508
229,12,175666,2,0,L|350:19,1,90.9999958343508
225,173,176037,2,0,L|208:298,1,90.9999958343508
384,203,176407,5,0,0:0:0:0:
392,213,176499,1,0,0:0:0:0:
397,225,176592,1,0,0:0:0:0:
399,238,176685,1,0,0:0:0:0:
400,251,176777,1,0,0:0:0:0:
337,304,176870,1,0,0:0:0:0:
315,312,176962,1,0,0:0:0:0:
292,316,177055,1,0,0:0:0:0:
269,314,177148,1,0,0:0:0:0:
201,275,177240,1,0,0:0:0:0:
196,243,177333,1,0,0:0:0:0:
201,211,177425,1,0,0:0:0:0:
223,188,177518,1,0,0:0:0:0:
251,174,177611,1,0,0:0:0:0:
282,174,177703,1,0,0:0:0:0:
310,160,177796,1,0,0:0:0:0:
313,142,177888,1,0,0:0:0:0:
313,123,177981,1,0,0:0:0:0:
307,105,178074,1,0,0:0:0:0:
296,90,178166,1,0,0:0:0:0:
282,77,178259,1,0,0:0:0:0:
268,65,178351,1,0,0:0:0:0:
234,50,178444,1,0,0:0:0:0:
197,51,178537,1,0,0:0:0:0:
166,71,178629,1,0,0:0:0:0:
146,102,178722,1,0,0:0:0:0:
157,136,178814,1,0,0:0:0:0:
181,174,178907,1,0,0:0:0:0:
204,212,178999,1,0,0:0:0:0:
213,256,179092,1,0,0:0:0:0:
209,301,179185,1,0,0:0:0:0:
182,337,179277,1,0,0:0:0:0:
139,354,179370,1,0,0:0:0:0:
94,345,179462,1,0,0:0:0:0:
61,313,179555,1,0,0:0:0:0:
59,267,179648,1,0,0:0:0:0:
82,228,179740,1,0,0:0:0:0:
126,219,179833,1,0,0:0:0:0:
170,227,179925,1,0,0:0:0:0:
210,248,180018,1,0,0:0:0:0:
250,269,180111,1,0,0:0:0:0:
305,289,180203,1,0,0:0:0:0:
364,285,180296,1,0,0:0:0:0:
411,249,180388,1,0,0:0:0:0:
441,197,180481,1,0,0:0:0:0:
433,138,180574,1,0,0:0:0:0:
391,96,180666,1,0,0:0:0:0:
331,62,180759,1,0,0:0:0:0:
264,51,180851,1,0,0:0:0:0:
195,51,180944,1,0,0:0:0:0:
138,90,181037,1,0,0:0:0:0:
105,149,181129,1,0,0:0:0:0:
138,164,181222,1,0,0:0:0:0:
171,178,181314,1,0,0:0:0:0:
203,194,181407,1,0,0:0:0:0:
220,225,181499,1,0,0:0:0:0:
235,248,181592,6,0,B|255:291|255:291|203:289|150:323,1,140
459,96,182333,2,0,B|409:97|375:114|375:114|342:97|265:98,1,181.999991668702
360,261,182888,2,0,L|313:178,1,90.9999958343508
212,332,183259,2,0,L|301:295,1,90.9999958343508
454,208,183629,1,0,0:0:0:0:
359,359,183814,6,0,P|314:326|288:275,1,90.9999958343508
157,176,184185,2,0,P|202:209|228:260,1,90.9999958343508
54,164,184555,2,0,P|89:91|175:75,1,136.499993751526
222,99,184925,2,0,P|284:128|329:127,1,90.9999958343508
469,49,185296,1,0,0:0:0:0:
460,230,185481,1,0,0:0:0:0:
378,67,185666,1,0,0:0:0:0:
371,248,185851,1,0,0:0:0:0:
288,34,186037,6,0,B|250:30|250:30|220:39|220:39|197:32|142:36,1,136.499993751526
114,117,186407,2,0,P|125:177|92:258,1,136.499993751526
120,336,186777,1,0,0:0:0:0:
483,313,187148,6,0,P|439:265|433:188,1,136.499993751526
398,110,187518,2,0,L|284:105,1,90.9999958343508
203,255,187888,1,0,0:0:0:0:
359,349,188074,1,0,0:0:0:0:
165,174,188259,6,0,B|119:178|119:178|54:174,1,90.9999958343508
268,347,188629,2,0,B|314:351|314:351|379:347,1,90.9999958343508
290,179,188999,1,0,0:0:0:0:
426,300,189185,1,0,0:0:0:0:
412,118,189370,1,0,0:0:0:0:
329,279,189555,1,0,0:0:0:0:
417,108,189740,6,0,B|363:102|352:69|352:69|312:81|265:36,1,154.000004699707
175,162,190296,1,0,0:0:0:0:
58,61,190481,2,0,L|66:151,1,77.0000023498536
175,162,190851,2,0,L|188:274,1,77.0000023498536
29,240,191222,1,0,0:0:0:0:
164,312,191407,2,0,P|226:306|257:218,1,154.000004699707
401,167,191962,5,0,0:0:0:0:
371,318,192148,1,0,0:0:0:0:
476,205,192333,1,0,0:0:0:0:
446,356,192518,1,0,0:0:0:0:
403,155,192703,6,0,B|346:155|346:155|305:164|305:164|235:163,1,154.000004699707
151,43,193259,2,0,P|111:100|111:211,1,154.000004699707
210,291,193814,1,0,0:0:0:0:
82,353,193999,1,0,0:0:0:0:
235,369,194185,1,0,0:0:0:0:
348,264,194370,1,0,0:0:0:0:
338,110,194555,6,0,P|354:69|461:73,1,154.000004699707
442,217,195111,1,0,0:0:0:0:
293,256,195296,1,0,0:0:0:0:
169,164,195481,1,0,0:0:0:0:
260,40,195666,1,0,0:0:0:0:
260,40,196037,5,0,0:0:0:0:
243,192,196222,1,0,0:0:0:0:
157,63,196407,1,0,0:0:0:0:
356,213,196592,1,0,0:0:0:0:
94,164,196777,1,0,0:0:0:0:
350,98,196962,1,0,0:0:0:0:
218,248,197148,5,0,0:0:0:0:
218,248,197333,2,0,B|243:299|259:328|259:328|286:329|345:326,1,154.000004699707
423,210,197888,1,0,0:0:0:0:
484,351,198074,1,0,0:0:0:0:
410,215,198259,1,0,0:0:0:0:
474,354,198444,1,0,0:0:0:0:
399,218,198629,6,0,P|343:188|291:101,1,154.000004699707
444,75,199185,1,0,0:0:0:0:
241,57,199555,6,0,P|217:113|223:144,1,77.0000023498536
227,280,199925,1,0,0:0:0:0:
110,178,200111,1,0,0:0:0:0:
77,328,200296,1,0,0:0:0:0:
227,280,200481,1,0,0:0:0:0:
110,178,200666,1,0,0:0:0:0:
77,328,200851,6,0,B|136:320|136:320|176:335|176:335|249:320|334:337,1,251.999992309571
313,145,201407,1,0,0:0:0:0:
489,211,201592,2,0,L|408:102,1,125.999996154785
313,145,201962,1,0,0:0:0:0:
97,160,202148,1,0,0:0:0:0:
150,63,202333,2,0,P|201:114|212:186,1,125.999996154785
387,344,202703,2,0,P|336:293|325:221,1,125.999996154785
413,109,203074,2,0,P|480:71|436:165,1,251.999992309571
259,195,203629,5,0,0:0:0:0:
106,305,203814,2,0,B|93:226|93:226|123:160,1,125.999996154785
269,69,204185,2,0,L|258:199,1,125.999996154785
394,325,204555,2,0,B|407:246|407:246|377:180,1,125.999996154785
209,266,204925,1,0,0:0:0:0:
348,136,205111,1,0,0:0:0:0:
178,53,205296,5,0,0:0:0:0:
178,53,205481,1,0,0:0:0:0:
276,214,205666,1,0,0:0:0:0:
379,56,205851,1,0,0:0:0:0:
155,156,206037,1,0,0:0:0:0:
379,317,206222,1,0,0:0:0:0:
282,56,206407,1,0,0:0:0:0:
228,318,206592,1,0,0:0:0:0:
155,156,206777,6,0,B|135:137|135:137|15:174,1,125.999996154785
357,228,207148,2,0,B|377:247|377:247|497:210,1,125.999996154785
257,30,207518,2,0,B|211:156|288:156|246:287,1,251.999992309571
369,130,208074,1,0,0:0:0:0:
143,130,208259,1,0,0:0:0:0:
357,229,208444,1,0,0:0:0:0:
155,229,208629,1,0,0:0:0:0:
253,360,208814,1,0,0:0:0:0:
357,229,208999,6,0,L|465:320,1,125.999996154785
58,310,209370,2,0,L|155:229,1,125.999996154785
357,229,209740,2,0,P|245:166|147:249,1,251.999992309571
326,311,210296,5,0,0:0:0:0:
425,150,210481,1,0,0:0:0:0:
256,64,210666,5,0,0:0:0:0:
364,218,210851,1,0,0:0:0:0:
402,32,211037,5,0,0:0:0:0:
213,36,211222,2,0,L|142:50,3,62.9999980773926
208,123,211592,2,0,L|287:141,3,62.9999980773926
208,210,211962,2,0,L|143:224,3,62.9999980773926
221,293,212333,2,0,L|299:319,1,62.9999980773926
195,367,212518,2,0,L|130:378,1,62.9999980773926
341,368,212703,6,0,P|361:308|325:242,1,125.999996154785
343,63,213074,1,0,0:0:0:0:
343,63,213259,1,0,0:0:0:0:
447,219,213444,2,0,L|493:346,1,125.999996154785
365,195,213814,2,0,P|418:139|494:149,1,125.999996154785
280,186,214185,5,0,0:0:0:0:
104,115,214370,1,0,0:0:0:0:
140,300,214555,5,0,0:0:0:0:
186,117,214740,1,0,0:0:0:0:
280,186,214925,5,0,0:0:0:0:
92,215,215111,1,0,0:0:0:0:
240,331,215296,5,0,0:0:0:0:
280,186,215481,1,0,0:0:0:0:
98,134,215666,6,0,P|30:162|135:281,1,251.999992309571
280,186,216222,1,0,0:0:0:0:
93,217,216407,2,0,P|156:251|147:332,1,125.999996154785
280,186,216777,2,0,L|417:140,1,125.999996154785
371,333,217148,5,0,0:0:0:0:
484,181,217333,1,0,0:0:0:0:
332,68,217518,1,0,0:0:0:0:
277,345,217703,1,0,0:0:0:0:
237,26,217888,1,0,0:0:0:0:
185,378,218074,1,0,0:0:0:0:
332,68,218259,6,0,L|263:191,1,125.999996154785
116,247,218629,2,0,L|241:18,1,251.999992309571
348,179,219185,1,0,0:0:0:0:
204,302,219370,2,0,L|82:359,1,125.999996154785
359,268,219740,6,0,L|497:320,2,125.999996154785
209,150,220296,1,0,0:0:0:0:
292,319,220481,2,0,P|280:248|316:197,1,125.999996154785
223,35,220851,2,0,P|237:95|208:149,1,125.999996154785
123,36,221222,1,0,0:0:0:0:
310,54,221407,1,0,0:0:0:0:
210,148,221592,2,0,B|174:122|174:122|134:167|146:250|186:319,1,251.999992309571
333,198,222148,5,0,0:0:0:0:
333,198,222333,1,0,0:0:0:0:
495,293,222518,1,0,0:0:0:0:
440,112,222703,1,0,0:0:0:0:
387,293,222888,1,0,0:0:0:0:
297,29,223074,1,0,0:0:0:0:
278,35,223166,1,0,0:0:0:0:
261,44,223259,1,0,0:0:0:0:
245,56,223352,1,0,0:0:0:0:
231,70,223444,1,0,0:0:0:0:
228,115,223537,1,0,0:0:0:0:
255,150,223629,1,0,0:0:0:0:
274,190,223722,1,0,0:0:0:0:
274,233,223814,5,0,0:0:0:0:
254,272,223907,1,0,0:0:0:0:
222,303,224000,1,0,0:0:0:0:
178,310,224092,1,0,0:0:0:0:
134,302,224185,1,0,0:0:0:0:
103,270,224277,1,0,0:0:0:0:
95,226,224370,2,0,L|99:147,1,62.9999980773926
444,195,224555,6,0,P|444:256|278:297,1,238.00000453949
192,173,225110,1,0,0:0:0:0:
36,262,225296,2,0,L|58:380,2,119.000002269745
192,173,225851,1,0,0:0:0:0:
353,98,226036,2,0,B|338:71|338:71|448:58,1,119.000002269745
339,220,226407,2,0,B|333:250|333:250|433:228,1,119.000002269745
270,143,226777,2,0,P|204:94|32:88,1,238.00000453949
120,227,227333,5,0,0:0:0:0:
270,323,227518,1,0,0:0:0:0:
238,148,227703,1,0,0:0:0:0:
85,306,227888,2,0,P|41:258|40:194,1,119.000002269745
238,148,228259,2,0,P|282:196|283:260,1,119.000002269745
449,319,228629,1,0,0:0:0:0:
449,319,228814,1,0,0:0:0:0:
477,154,228999,5,0,0:0:0:0:
457,118,229092,1,0,0:0:0:0:
425,92,229184,1,0,0:0:0:0:
387,74,229277,1,0,0:0:0:0:
347,63,229369,1,0,0:0:0:0:
305,60,229462,1,0,0:0:0:0:
263,66,229555,2,0,L|190:84,1,59.5000011348725
86,62,229740,2,0,L|151:40,1,59.5000011348725
259,70,229925,2,0,L|186:88,1,59.5000011348725
82,66,230110,2,0,L|147:44,1,59.5000011348725
258,76,230296,2,0,L|185:94,1,59.5000011348725
165,173,230481,6,0,P|164:251|22:215,1,238.00000453949
14,75,231036,1,0,0:0:0:0:
110,226,231221,2,0,L|181:335,1,119.000002269745
404,226,231592,2,0,L|333:335,1,119.000002269745
248,173,231962,1,0,0:0:0:0:
254,348,232147,1,0,0:0:0:0:
335,189,232333,5,0,0:0:0:0:
159,160,232518,1,0,0:0:0:0:
206,0,232703,1,0,0:0:0:0:
248,173,232888,1,0,0:0:0:0:
73,211,233073,2,0,L|-6:92,1,119.000002269745
391,109,233444,6,0,L|325:209,1,119.000002269745
345,31,233814,2,0,P|422:22|473:68,1,119.000002269745
463,221,234184,1,0,0:0:0:0:
318,328,234370,1,0,0:0:0:0:
198,196,234555,1,0,0:0:0:0:
369,244,234740,1,0,0:0:0:0:
197,303,234925,6,0,P|179:224|214:184,1,119.000002269745
88,54,235296,2,0,P|106:133|71:173,1,119.000002269745
46,335,235666,1,0,0:0:0:0:
90,163,235851,1,0,0:0:0:0:
260,111,236036,6,0,L|220:184,1,59.5000011348725
255,250,236221,2,0,L|224:318,1,59.5000011348725
379,171,236407,2,0,L|269:390,1,238.00000453949
429,300,236962,1,0,0:0:0:0:
444,123,237147,2,0,P|385:91|320:121,1,119.000002269745
162,141,237518,5,0,0:0:0:0:
296,24,237703,1,0,0:0:0:0:
226,189,237888,2,0,P|151:218|90:175,1,119.000002269745
297,211,238259,2,0,L|297:335,1,119.000002269745
368,185,238629,2,0,P|443:214|504:171,1,119.000002269745
426,31,238999,1,0,0:0:0:0:
271,120,239184,1,0,0:0:0:0:
191,33,239370,6,0,B|161:46|161:46|135:42|135:42|111:50|42:32,1,119.000002269745
109,215,239740,1,0,0:0:0:0:
271,120,239925,1,0,0:0:0:0:
240,296,240110,1,0,0:0:0:0:
169,132,240296,1,0,0:0:0:0:
160,311,240481,2,0,P|194:366|269:367,1,119.000002269745
407,306,240851,6,0,L|424:233,3,59.5000011348725
358,183,241221,2,0,L|344:110,3,59.5000011348725
414,65,241592,2,0,L|433:0,3,59.5000011348725
343,27,241962,2,0,L|279:82,1,59.5000011348725
169,138,242147,2,0,L|212:95,1,59.5000011348725
123,76,242333,6,0,P|95:157|223:193,1,238.00000453949
387,237,242888,1,0,0:0:0:0:
228,317,243073,2,0,P|209:253|213:200,1,119.000002269745
387,237,243444,2,0,P|406:301|402:354,1,119.000002269745
307,202,243814,5,0,0:0:0:0:
369,36,243999,1,0,0:0:0:0:
243,163,244184,1,0,0:0:0:0:
298,8,244370,1,0,0:0:0:0:
307,202,244555,2,0,L|420:263,1,119.000002269745
298,8,244925,2,0,L|181:54,1,119.000002269745
357,109,245296,6,0,B|418:81|418:133|502:84,1,119.000002269745
312,176,245666,1,0,0:0:0:0:
138,134,245851,1,0,0:0:0:0:
116,311,246036,1,0,0:0:0:0:
224,170,246221,1,0,0:0:0:0:
116,311,246407,2,0,P|188:334|249:324,1,119.000002269745
407,311,246777,5,0,0:0:0:0:
420,278,246870,1,0,0:0:0:0:
430,245,246962,1,0,0:0:0:0:
434,210,247055,1,0,0:0:0:0:
434,175,247147,1,0,0:0:0:0:
427,140,247240,1,0,0:0:0:0:
417,106,247333,1,0,0:0:0:0:
396,78,247425,1,0,0:0:0:0:
365,59,247518,1,0,0:0:0:0:
312,50,247610,1,0,0:0:0:0:
259,60,247703,1,0,0:0:0:0:
208,92,247796,1,0,0:0:0:0:
172,139,247888,1,0,0:0:0:0:
153,209,247981,1,0,0:0:0:0:
188,271,248073,1,0,0:0:0:0:
247,312,248166,1,0,0:0:0:0:
312,283,248259,6,0,L|435:229,1,90.9999958343508
405,137,248629,1,0,0:0:0:0:
405,137,248814,1,0,0:0:0:0:
470,224,248999,2,0,L|508:331,1,90.9999958343508
468,58,249370,5,0,0:0:0:0:
329,205,249555,1,0,0:0:0:0:
320,55,249740,1,0,0:0:0:0:
478,206,249925,1,0,0:0:0:0:
257,131,250111,2,0,P|183:156|104:124,1,136.499993751526
84,174,250481,2,0,L|28:257,1,90.9999958343508
142,250,250851,5,0,0:0:0:0:
204,340,251037,1,0,0:0:0:0:
240,237,251222,2,0,P|254:156|268:124,1,90.9999958343508
357,106,251592,2,0,P|343:187|329:219,1,90.9999958343508
209,62,251962,5,0,0:0:0:0:
363,285,252148,1,0,0:0:0:0:
221,78,252333,1,0,0:0:0:0:
350,269,252518,1,0,0:0:0:0:
234,97,252703,6,0,P|168:36|112:30,1,136.499993751526
88,70,253074,2,0,L|35:180,1,90.9999958343508
126,227,253444,1,0,0:0:0:0:
230,194,253629,1,0,0:0:0:0:
209,301,253814,2,0,P|157:330|97:327,1,90.9999958343508
230,194,254185,2,0,P|282:165|342:168,1,90.9999958343508
427,249,254555,2,0,L|316:249,2,90.9999958343508
422,139,255111,5,0,0:0:0:0:
334,73,255296,2,0,B|251:72|251:72|195:45,1,136.499993751526
152,69,255666,2,0,P|121:146|135:200,1,136.499993751526
183,218,256037,2,0,P|255:215|331:242,1,136.499993751526
364,258,256407,2,0,L|449:365,1,136.499993751526
494,334,256777,2,0,P|493:277|453:191,1,136.499993751526
438,145,257148,6,0,B|401:22|301:17|235:22|113:22|35:63|19:189|82:311|158:358|257:379|361:356|390:280|376:149|319:137|319:137|241:160|205:120|94:109|40:28|40:28|3:89|-42:93|-42:93|6:118|53:288|53:288|112:220|301:217|435:246|435:246|431:272|402:313|392:382|283:400|236:392|236:392|288:273|252:106,1,2520.00009613037
256,192,261685,12,0,266037,0:0:0:0:
