osu file format v14

[General]
AudioFilename: audio.mp3
AudioLeadIn: 0
PreviewTime: 42500
Countdown: 0
SampleSet: Normal
StackLeniency: 0.7
Mode: 2
LetterboxInBreaks: 0
WidescreenStoryboard: 0

[Editor]
DistanceSpacing: 0.6
BeatDivisor: 4
GridSize: 16
TimelineZoom: 1

[Metadata]
Title:Escapist Martha /.
TitleUnicode:Escapist Martha /.
Artist:Nightwish
ArtistUnicode:Nightwish
Creator:e0486
Version:Martha
Source:
Tags:Dark Passion Play symphonic metal tm1209 encorew ametrin Martha Heracles fate go fgo
BeatmapID:1747592
BeatmapSetID:834229

[Difficulty]
HPDrainRate:6
CircleSize:4
OverallDifficulty:5
ApproachRate:9.5
SliderMultiplier:2.1
SliderTickRate:2

[Events]
//Background and Video events
0,0,"5556.png",0,0
//Break Periods
2,42700,48433
//Storyboard Layer 0 (Background)
//Storyboard Layer 1 (Fail)
//Storyboard Layer 2 (Pass)
//Storyboard Layer 3 (Foreground)
//Storyboard Sound Samples

[TimingPoints]
0,416.666666666667,4,1,0,70,1,0
42500,-125,4,1,0,70,0,0
55833,-100,4,1,0,70,0,1
55833,-90.9090909090909,4,1,0,70,0,1
67916,-90.9090909090909,4,1,0,70,0,0
69166,-90.9090909090909,4,1,0,70,0,1
80833,-90.9090909090909,4,1,0,70,0,0

[HitObjects]
125,103,0,6,0,P|102:165|123:217,1,105
251,157,416,2,0,P|272:101|221:32,1,105
67,220,833,5,0,0:0:0:0:
32,160,937,1,0,0:0:0:0:
128,128,1041,1,0,0:0:0:0:
160,64,1145,1,0,0:0:0:0:
416,224,1250,1,0,0:0:0:0:
368,160,1354,1,0,0:0:0:0:
224,160,1458,1,0,0:0:0:0:
272,96,1562,1,0,0:0:0:0:
432,64,1666,6,0,P|345:51|260:57,1,157.5
96,224,2083,2,0,P|156:244|291:232,1,157.5
416,160,2500,2,0,L|320:160,3,52.5
112,192,2916,5,0,0:0:0:0:
176,96,3125,1,0,0:0:0:0:
352,160,3333,2,0,L|240:160,1,105
80,192,3750,1,0,0:0:0:0:
336,224,3958,1,0,0:0:0:0:
112,272,4166,6,0,P|96:336|128:384,1,105
272,256,4583,1,0,0:0:0:0:
160,80,4791,1,0,0:0:0:0:
320,128,5000,2,0,L|432:160,1,105
176,192,5416,2,0,L|48:224,1,105
352,224,5833,5,0,0:0:0:0:
352,224,6041,1,0,0:0:0:0:
352,224,6250,2,0,P|384:176|368:128,1,105
240,16,6666,2,0,P|224:96|256:112,1,105
336,0,7083,5,0,0:0:0:0:
128,256,7291,1,0,0:0:0:0:
448,144,7500,1,0,0:0:0:0:
128,16,7708,1,0,0:0:0:0:
256,96,7916,2,0,P|190:104|142:100,1,105
48,112,8333,1,0,0:0:0:0:
80,192,8541,1,0,0:0:0:0:
368,192,8750,1,0,0:0:0:0:
320,256,8958,1,0,0:0:0:0:
112,288,9166,6,0,L|176:320,2,52.5
64,224,9479,1,0,0:0:0:0:
240,160,9583,2,0,L|160:160,1,52.5
336,96,9791,2,0,L|400:96,1,52.5
208,272,10000,6,0,L|144:272,1,52.5
128,240,10208,1,0,0:0:0:0:
112,176,10312,1,0,0:0:0:0:
352,16,10416,1,0,0:0:0:0:
288,96,10520,1,0,0:0:0:0:
288,144,10625,1,0,0:0:0:0:
288,192,10729,1,0,0:0:0:0:
400,240,10833,5,0,0:0:0:0:
368,288,10937,1,0,0:0:0:0:
160,240,11041,1,0,0:0:0:0:
208,288,11145,1,0,0:0:0:0:
480,160,11250,1,0,0:0:0:0:
416,112,11354,1,0,0:0:0:0:
336,96,11458,1,0,0:0:0:0:
256,112,11562,1,0,0:0:0:0:
368,176,11666,5,0,0:0:0:0:
288,208,11770,1,0,0:0:0:0:
208,192,11875,1,0,0:0:0:0:
144,144,11979,1,0,0:0:0:0:
240,32,12083,2,0,L|288:64,1,52.5
80,80,12291,2,0,L|32:112,1,52.5
448,128,12500,5,0,0:0:0:0:
448,128,12708,1,0,0:0:0:0:
192,240,12916,2,0,L|320:240,1,105
16,192,13333,1,0,0:0:0:0:
16,192,13541,1,0,0:0:0:0:
272,160,13750,2,0,L|160:160,1,105
400,64,14166,5,0,0:0:0:0:
256,352,14375,1,0,0:0:0:0:
448,192,14583,1,0,0:0:0:0:
272,32,14791,1,0,0:0:0:0:
400,256,15000,5,0,0:0:0:0:
352,272,15104,1,0,0:0:0:0:
304,272,15208,1,0,0:0:0:0:
256,240,15312,1,0,0:0:0:0:
160,80,15416,1,0,0:0:0:0:
48,272,15520,1,0,0:0:0:0:
352,192,15625,1,0,0:0:0:0:
464,64,15729,1,0,0:0:0:0:
240,0,15833,6,0,P|304:32|448:0,1,210,4|8,0:0|0:0,0:0:0:0:
144,96,16458,1,0,0:0:0:0:
187,154,16562,1,0,0:0:0:0:
239,220,16666,2,0,P|161:235|95:221,1,105
400,240,17083,2,0,P|384:304|416:352,1,105,8|0,0:0|0:0,0:0:0:0:
80,256,17500,6,0,P|144:272|256:256,1,157.5
304,176,17916,6,0,L|176:176,1,105,8|0,0:0|0:0,0:0:0:0:
96,128,18333,6,0,L|160:128,1,52.5
256,64,18541,2,0,L|192:64,1,52.5
368,176,18750,2,0,L|192:176,1,157.5,8|0,0:0|0:0,0:0:0:0:
160,256,19166,6,0,L|192:304,1,52.5
304,336,19375,2,0,L|272:288,1,52.5
320,160,19583,2,0,L|352:208,1,52.5,8|0,0:0|0:0,0:0:0:0:
224,208,19791,2,0,L|192:160,1,52.5
256,48,20000,2,0,P|176:32|96:48,1,157.5
128,112,20416,5,8,0:0:0:0:
240,128,20520,1,0,0:0:0:0:
160,176,20625,1,0,0:0:0:0:
256,192,20729,1,0,0:0:0:0:
32,240,20833,2,0,L|160:240,1,105
208,272,21250,6,0,L|80:272,1,105,8|0,0:0|0:0,0:0:0:0:
352,320,21666,6,0,L|464:320,1,105
192,304,22083,1,8,0:0:0:0:
96,272,22187,1,0,0:0:0:0:
160,224,22291,1,0,0:0:0:0:
240,208,22395,1,0,0:0:0:0:
416,288,22500,6,0,L|352:288,1,52.5,4|0,0:0|0:0,0:0:0:0:
320,208,22708,2,0,L|384:208,1,52.5
448,128,22916,2,0,L|304:128,1,105,8|0,0:0|0:0,0:0:0:0:
128,160,23333,6,0,L|256:160,1,105
400,256,23750,2,0,L|304:256,2,52.5,8|0|0,0:0|0:0|0:0,0:0:0:0:
255,304,24062,1,0,0:0:0:0:
448,352,24166,2,0,L|320:352,1,105
160,272,24583,2,0,L|48:272,1,105,8|0,0:0|0:0,0:0:0:0:
304,240,25000,6,0,L|400:240,1,52.5
208,176,25208,2,0,L|128:176,1,52.5
336,112,25416,2,0,L|256:112,1,52.5,8|0,0:0|0:0,0:0:0:0:
176,32,25625,2,0,L|240:32,1,52.5
416,80,25833,2,0,L|416:208,1,105
176,320,26250,6,0,L|176:208,1,105,8|0,0:0|0:0,0:0:0:0:
352,272,26666,1,0,0:0:0:0:
464,224,26770,1,0,0:0:0:0:
400,160,26875,1,0,0:0:0:0:
304,128,26979,1,0,0:0:0:0:
208,192,27083,2,0,L|128:160,2,52.5,8|0|0,0:0|0:0|0:0,0:0:0:0:
64,224,27395,1,0,0:0:0:0:
304,272,27500,2,0,P|320:336|304:368,1,105
48,272,27916,2,0,P|32:336|48:368,1,105,8|0,0:0|0:0,0:0:0:0:
224,288,28333,6,0,L|304:272,1,52.5,4|0,0:0|0:0,0:0:0:0:
112,192,28541,2,0,L|48:208,1,52.5
176,352,28750,2,0,L|240:336,1,52.5,8|0,0:0|0:0,0:0:0:0:
144,128,28958,2,0,L|80:144,1,52.5
400,144,29166,6,0,P|416:208|352:288,1,157.5
192,80,29583,2,0,L|304:64,1,105,8|0,0:0|0:0,0:0:0:0:
480,128,30000,1,0,0:0:0:0:
304,288,30208,1,0,0:0:0:0:
352,320,30312,1,0,0:0:0:0:
336,368,30416,6,0,L|208:368,1,105,8|0,0:0|0:0,0:0:0:0:
112,176,30833,2,0,P|112:272|80:288,1,105
16,256,31250,2,0,P|16:336|64:368,1,105,8|0,0:0|0:0,0:0:0:0:
192,352,31666,6,0,L|256:352,1,52.5
384,320,31875,2,0,L|464:320,1,52.5
256,240,32083,2,0,L|192:240,1,52.5,8|0,0:0|0:0,0:0:0:0:
80,160,32291,2,0,L|16:160,1,52.5
320,160,32500,2,0,L|432:160,1,105
176,224,32916,6,0,L|176:304,2,52.5,8|0|0,0:0|0:0|0:0,0:0:0:0:
112,320,33229,1,0,0:0:0:0:
356,3,33333,2,0,P|272:16|256:-16,1,105
448,192,33750,6,0,L|528:192,2,52.5,8|0|0,0:0|0:0|0:0,0:0:0:0:
224,128,34062,1,0,0:0:0:0:
256,160,34166,2,0,L|368:160,1,105
96,240,34583,2,0,L|208:240,1,105,8|0,0:0|0:0,0:0:0:0:
448,288,35000,2,0,L|304:288,1,105
48,336,35416,1,8,0:0:0:0:
176,336,35520,1,0,0:0:0:0:
288,336,35625,1,0,0:0:0:0:
400,336,35729,1,0,0:0:0:0:
32,224,35833,6,0,L|96:240,2,52.5,4|0|0,0:0|0:0|0:0,0:0:0:0:
80,64,36145,1,0,0:0:0:0:
240,128,36250,2,0,L|160:128,1,52.5,8|0,0:0|0:0,0:0:0:0:
304,192,36458,2,0,L|368:192,1,52.5
96,256,36666,2,0,L|224:256,1,105
350,348,37083,1,8,0:0:0:0:
392,304,37187,1,0,0:0:0:0:
403,245,37291,1,0,0:0:0:0:
368,192,37395,1,0,0:0:0:0:
256,224,37500,6,0,L|192:208,1,52.5
32,288,37708,2,0,L|84:272,1,52.5
208,48,37916,2,0,P|208:128|240:176,1,105,8|0,0:0|0:0,0:0:0:0:
64,192,38333,2,0,P|64:288|32:320,1,105
224,352,38750,2,0,L|288:336,1,52.5,8|0,0:0|0:0,0:0:0:0:
448,256,38958,2,0,L|368:240,1,52.5
160,224,39166,6,0,L|80:208,1,52.5
336,128,39375,2,0,L|432:112,1,52.5
144,304,39583,1,8,0:0:0:0:
64,256,39687,1,0,0:0:0:0:
64,208,39791,1,0,0:0:0:0:
64,160,39895,1,0,0:0:0:0:
160,48,40000,6,0,L|304:48,1,105
416,144,40416,1,8,0:0:0:0:
320,160,40520,1,0,0:0:0:0:
384,208,40625,1,0,0:0:0:0:
288,224,40729,1,0,0:0:0:0:
496,240,40833,5,0,0:0:0:0:
496,240,40937,1,0,0:0:0:0:
128,272,41041,1,0,0:0:0:0:
128,272,41145,1,0,0:0:0:0:
320,80,41250,5,8,0:0:0:0:
320,80,41354,1,0,0:0:0:0:
16,0,41458,1,0,0:0:0:0:
16,0,41562,1,0,0:0:0:0:
75,17,41666,2,0,P|48:64|-13:41,1,105,4|0,0:0|0:0,0:0:0:0:
256,192,42083,12,4,42500,0:0:0:0:
120,47,48958,5,0,0:0:0:0:
202,73,49166,2,0,B|186:121|186:121|154:137|154:137|106:137|106:137|58:121|58:121|58:121,1,168,0|2,0:0|0:0,0:0:0:0:
368,128,50000,6,0,B|384:192|384:192|416:224|416:224|496:240,1,168,0|2,0:0|0:0,0:0:0:0:
464,128,50625,1,0,0:0:0:0:
368,160,50833,2,0,L|272:160,1,84
152,230,51250,2,0,L|59:230,1,84,2|0,0:0|0:0,0:0:0:0:
288,256,51666,2,0,P|288:336|304:368,1,84
16,336,52083,6,0,L|112:336,1,84,2|0,0:0|0:0,0:0:0:0:
336,288,52500,2,0,L|304:256,1,42
176,288,52708,2,0,L|208:256,1,42
416,208,52916,2,0,L|352:176,1,42,2|0,0:0|0:0,0:0:0:0:
96,208,53125,2,0,L|160:176,1,42
336,96,53333,2,0,L|288:80,1,42
96,96,53541,2,0,L|48:112,1,42
224,336,53750,2,0,L|272:352,1,42,2|0,0:0|0:0,0:0:0:0:
432,352,53958,2,0,L|464:320,1,42
118,178,54166,6,0,P|118:114|150:66,1,84
458,206,54583,2,0,P|458:142|426:94,1,84,2|0,0:0|0:0,0:0:0:0:
96,128,55000,1,8,0:0:0:0:
256,80,55208,1,0,0:0:0:0:
368,144,55416,1,8,0:0:0:0:
400,176,55520,1,8,0:0:0:0:
416,224,55625,1,8,0:0:0:0:
400,272,55729,1,8,0:0:0:0:
112,176,55833,6,0,P|144:224|208:240,1,105,4|0,0:0|0:0,0:0:0:0:
288,192,56250,2,0,P|320:240|304:304,1,105,8|0,0:0|0:0,0:0:0:0:
432,352,56666,6,0,L|352:352,1,52.5
160,352,56875,2,0,L|96:352,1,52.5
352,224,57083,2,0,L|256:224,1,52.5,8|0,0:0|0:0,0:0:0:0:
160,144,57291,2,0,L|224:144,1,52.5
416,144,57500,2,0,L|304:144,1,105
112,192,57916,2,0,P|112:256|128:320,1,105,8|0,0:0|0:0,0:0:0:0:
272,256,58333,6,0,L|352:272,2,52.5
400,192,58645,1,0,0:0:0:0:
208,192,58750,2,0,L|192:128,1,52.5,8|0,0:0|0:0,0:0:0:0:
272,128,58958,2,0,L|272:64,1,52.5
400,16,59166,1,0,0:0:0:0:
336,352,59375,1,0,0:0:0:0:
32,48,59583,1,8,0:0:0:0:
192,240,59791,1,0,0:0:0:0:
48,304,60000,5,0,0:0:0:0:
96,336,60104,1,0,0:0:0:0:
160,352,60208,1,0,0:0:0:0:
224,336,60312,1,0,0:0:0:0:
288,256,60416,2,0,L|352:256,1,52.5,8|0,0:0|0:0,0:0:0:0:
384,208,60625,1,0,0:0:0:0:
352,160,60729,1,0,0:0:0:0:
128,211,60833,2,0,L|80:192,1,52.5
32,176,61041,2,0,L|32:112,1,52.5
336,64,61250,2,0,L|272:64,1,52.5,8|0,0:0|0:0,0:0:0:0:
384,96,61458,2,0,L|432:144,1,52.5
112,128,61666,5,0,0:0:0:0:
176,192,61770,1,0,0:0:0:0:
240,256,61875,1,0,0:0:0:0:
304,320,61979,1,0,0:0:0:0:
400,320,62083,1,8,0:0:0:0:
336,256,62187,1,0,0:0:0:0:
272,192,62292,1,0,0:0:0:0:
208,128,62396,1,0,0:0:0:0:
64,128,62500,6,0,P|48:192|64:240,1,105
352,240,62916,2,0,P|352:160|320:112,1,105,8|0,0:0|0:0,0:0:0:0:
112,128,63333,5,0,0:0:0:0:
160,96,63437,1,0,0:0:0:0:
224,80,63541,1,0,0:0:0:0:
160,160,63645,1,0,0:0:0:0:
336,224,63750,2,0,L|256:224,1,52.5,8|0,0:0|0:0,0:0:0:0:
96,256,63958,2,0,L|32:256,1,52.5
224,320,64166,2,0,L|368:320,1,105
256,208,64583,2,0,L|240:144,1,52.5,8|0,0:0|0:0,0:0:0:0:
288,80,64791,2,0,L|304:144,1,52.5
368,224,65000,2,0,P|432:208|448:144,1,105
144,176,65416,5,8,0:0:0:0:
272,192,65520,1,0,0:0:0:0:
144,224,65625,1,0,0:0:0:0:
272,256,65729,1,0,0:0:0:0:
304,320,65833,2,0,P|384:336|432:320,1,105
208,64,66250,2,0,P|128:48|80:64,1,105,8|0,0:0|0:0,0:0:0:0:
256,336,66666,5,0,0:0:0:0:
32,224,66875,1,0,0:0:0:0:
320,192,67083,1,8,0:0:0:0:
96,96,67291,1,0,0:0:0:0:
224,32,67500,1,0,0:0:0:0:
448,112,67708,1,0,0:0:0:0:
400,128,67812,1,0,0:0:0:0:
368,160,67916,6,0,P|368:224|384:288,1,115.50000352478,8|0,0:0|0:0,0:0:0:0:
320,336,68333,1,0,0:0:0:0:
192,304,68437,1,0,0:0:0:0:
112,240,68541,1,0,0:0:0:0:
48,160,68645,1,0,0:0:0:0:
128,64,68750,2,0,L|128:128,3,57.7500017623902,8|0|0|0,0:0|0:0|0:0|0:0,0:0:0:0:
288,352,69166,6,0,L|272:288,1,57.7500017623902,4|0,0:0|0:0,0:0:0:0:
208,256,69375,2,0,L|224:336,1,57.7500017623902
304,224,69583,1,8,0:0:0:0:
272,176,69687,1,0,0:0:0:0:
208,160,69791,1,0,0:0:0:0:
144,176,69895,1,0,0:0:0:0:
208,256,70000,2,0,P|128:272|80:240,1,115.50000352478
160,128,70416,6,0,L|208:96,1,57.7500017623902,8|0,0:0|0:0,0:0:0:0:
48,80,70625,2,0,L|48:144,1,57.7500017623902
240,272,70833,2,0,L|288:240,1,57.7500017623902
128,288,71042,2,0,L|128:352,1,57.7500017623902
416,352,71250,1,8,0:0:0:0:
352,304,71354,1,0,0:0:0:0:
336,240,71458,1,0,0:0:0:0:
352,192,71562,1,0,0:0:0:0:
224,48,71666,6,0,P|224:128|192:160,1,115.50000352478
48,48,72083,1,8,0:0:0:0:
112,208,72291,1,0,0:0:0:0:
208,256,72500,6,0,L|272:256,1,57.7500017623902
384,304,72708,2,0,L|448:304,1,57.7500017623902
128,336,72916,2,0,L|192:336,1,57.7500017623902,8|0,0:0|0:0,0:0:0:0:
352,368,73125,2,0,L|288:368,1,57.7500017623902
48,368,73333,2,0,L|176:368,1,115.50000352478
432,192,73750,5,8,0:0:0:0:
464,128,73854,1,0,0:0:0:0:
128,112,73958,1,0,0:0:0:0:
96,64,74062,1,0,0:0:0:0:
304,80,74166,2,0,P|304:176|272:192,1,115.50000352478
144,208,74583,2,0,P|192:256|256:240,1,115.50000352478,8|0,0:0|0:0,0:0:0:0:
432,0,75000,5,0,0:0:0:0:
376,16,75104,1,0,0:0:0:0:
319,14,75208,1,0,0:0:0:0:
266,0,75312,1,0,0:0:0:0:
16,16,75416,1,8,0:0:0:0:
16,16,75520,1,0,0:0:0:0:
208,96,75625,1,0,0:0:0:0:
208,96,75729,1,0,0:0:0:0:
103,135,75833,6,0,B|55:167|55:167|39:231,1,115.50000352478,4|0,0:0|0:0,0:0:0:0:
129,312,76250,2,0,B|144:256|144:256|192:224,1,115.50000352478,8|0,0:0|0:0,0:0:0:0:
352,304,76666,6,0,L|288:304,1,57.7500017623902
240,272,76875,2,0,L|272:224,1,57.7500017623902
480,176,77083,1,8,0:0:0:0:
464,122,77187,1,0,0:0:0:0:
288,112,77291,1,0,0:0:0:0:
304,58,77395,1,0,0:0:0:0:
64,192,77500,2,0,L|32:144,1,57.7500017623902
96,224,77708,2,0,L|160:240,1,57.7500017623902
368,304,77916,2,0,L|304:304,1,57.7500017623902,8|0,0:0|0:0,0:0:0:0:
256,336,78125,2,0,L|352:336,1,57.7500017623902
405,357,78333,6,0,L|245:357,1,115.50000352478
80,352,78750,1,8,0:0:0:0:
208,32,78958,1,0,0:0:0:0:
400,96,79166,6,0,P|416:176|288:176,1,231.000007049561,0|8,0:0|0:0,0:0:0:0:
83,11,79791,1,0,0:0:0:0:
111,0,79895,1,0,0:0:0:0:
144,0,80000,2,0,P|227:1|261:14,1,115.50000352478
432,112,80416,1,8,0:0:0:0:
48,208,80625,1,0,0:0:0:0:
256,192,80833,8,4,81666,0:0:0:0:
