osu file format v14

[General]
AudioFilename: audio.mp3
AudioLeadIn: 0
PreviewTime: 128140
Countdown: 0
SampleSet: Normal
StackLeniency: 0.7
Mode: 0
LetterboxInBreaks: 0
WidescreenStoryboard: 1

[Editor]
Bookmarks: 48473,128473,186390
DistanceSpacing: 1.1
BeatDivisor: 2
GridSize: 32
TimelineZoom: 0.9

[Metadata]
Title:Escapist
TitleUnicode:Escapist
Artist:Nightwish
ArtistUnicode:Nightwish
Creator:pw384
Version:tm's Easy
Source:
Tags:Dark Passion Play symphonic metal tm1209 encorew ametrin 384059043
BeatmapID:1304238
BeatmapSetID:604273

[Difficulty]
HPDrainRate:2.5
CircleSize:3.2
OverallDifficulty:2.5
ApproachRate:3.2
SliderMultiplier:0.8
SliderTickRate:1

[Events]
//Background and Video events
0,0,"bg2.jpg",0,0
//Break Periods
2,158652,163705
2,171986,177038
2,211986,217038
//Storyboard Layer 0 (Background)
//Storyboard Layer 1 (Fail)
//Storyboard Layer 2 (Pass)
//Storyboard Layer 3 (Foreground)
//Storyboard Sound Samples

[TimingPoints]
120,416.666666666667,4,2,0,40,1,0
120,-100,4,2,0,40,0,0
11786,-100,4,2,0,10,0,0
15953,-100,4,2,0,20,0,0
16370,-100,4,2,0,30,0,0
16786,-100,4,2,0,40,0,0
17203,-100,4,2,0,50,0,0
17620,-100,4,2,0,45,0,0
29286,-100,4,2,0,50,0,0
37411,-100,4,2,0,20,0,0
38661,-100,4,2,0,50,0,0
41370,-100,4,2,0,55,0,0
43870,-100,4,2,0,25,0,0
45120,-100,4,2,0,40,0,0
46995,-100,4,2,0,60,0,0
48453,-100,4,1,1,75,0,0
68453,-100,4,1,1,80,0,0
71786,-100,4,1,1,85,0,0
75120,-100,4,3,1,60,0,0
78036,-100,4,3,1,30,0,0
78453,-100,4,3,1,60,0,0
81370,-100,4,3,1,30,0,0
81786,-100,4,3,1,60,0,0
84703,-100,4,3,1,30,0,0
85120,-100,4,3,1,60,0,0
88453,-100,4,1,1,75,0,0
101786,-100,4,3,1,60,0,0
104703,-100,4,3,1,30,0,0
105120,-100,4,3,1,60,0,0
108036,-100,4,3,1,30,0,0
108453,-100,4,3,1,60,0,0
111370,-100,4,3,1,30,0,0
111786,-100,4,3,1,60,0,0
115120,-100,4,1,1,60,0,0
125745,-100,4,1,1,60,0,0
126370,-100,4,1,1,60,0,0
126995,-100,4,1,1,60,0,0
127620,-100,4,1,1,70,0,0
128453,-100,4,1,1,75,0,1
141370,-100,4,1,1,75,0,0
141786,-100,4,1,1,75,0,1
155120,-100,4,1,1,75,0,0
178453,-100,4,1,1,60,0,0
180120,-100,4,1,1,60,0,0
181786,-100,4,1,1,60,0,0
183453,-100,4,1,1,50,0,0
183661,-100,4,1,1,55,0,0
183870,-100,4,1,1,60,0,0
184286,-100,4,1,1,65,0,0
184703,-100,4,1,1,70,0,0
185120,-100,4,1,1,75,0,0
197620,-100,4,2,1,60,0,0
198453,-100,4,1,1,75,0,0
210953,-100,4,1,1,60,0,0
211786,-100,4,1,1,60,0,0
218453,-100,4,2,0,60,0,0
223453,-100,4,2,0,70,0,0
224286,-100,4,1,1,80,0,0
225120,-100,4,1,1,80,0,1
238036,-100,4,1,1,80,0,0
238453,-100,4,1,1,80,0,1
251370,-100,4,1,1,80,0,0
251786,-100,4,1,1,80,0,1
264703,-100,4,1,1,80,0,0
265120,-100,4,1,1,80,0,1
278453,-100,4,1,1,80,0,0

[Colours]
Combo1 : 207,187,118
Combo2 : 170,105,74
Combo3 : 120,89,54

[HitObjects]
456,58,48453,6,0,P|510:112|498:188,1,160,4|0,0:2|0:0,0:0:0:0:
438,254,49703,1,8,0:0:0:0:
355,286,50120,2,0,P|276:284|199:263,1,160,0|0,0:0|0:0,0:0:0:0:
143,193,51370,1,12,0:0:0:0:
129,106,51786,6,0,B|137:53|137:53|181:21|237:26,1,160,4|0,0:2|0:0,0:0:0:0:
319,63,53036,1,8,0:0:0:0:
378,129,53453,2,0,P|376:208|355:285,1,160,0|0,0:0|0:0,0:0:0:0:
294,349,54703,1,12,0:0:0:0:
212,381,55120,6,0,B|155:386|111:354|111:354|103:301,1,160,4|0,0:2|0:0,0:0:0:0:
138,220,56370,1,8,0:0:0:0:
207,166,56786,2,0,P|283:144|363:142,1,160,0|0,0:0|0:0,0:0:0:0:
445,174,58036,1,12,0:0:0:0:
499,243,58453,6,0,B|504:299|472:343|472:343|419:351,1,160,4|0,0:2|0:0,0:0:0:0:
337,317,59703,1,8,0:0:0:0:
286,244,60120,2,0,P|246:251|206:253,1,80,0|8,0:0|0:0,0:0:0:0:
160,328,60953,2,0,P|120:326|80:318,1,80,0|12,0:0|0:0,0:0:0:0:
22,251,61786,6,0,B|4:213|16:172|16:172|41:138|81:128,1,160,4|0,0:2|0:0,0:0:0:0:
167,148,63036,1,8,0:0:0:0:
233,205,63453,2,0,P|309:227|389:229,1,160,0|0,0:0|0:0,0:0:0:0:
463,180,64703,1,12,0:0:0:0:
502,101,65120,6,0,B|494:48|494:48|450:16|394:21,1,160,4|0,0:2|0:0,0:0:0:0:
308,43,66370,1,8,0:0:0:0:
237,94,66786,2,0,P|215:170|213:250,1,160,0|0,0:0|0:0,0:0:0:0:
261,323,68036,1,12,0:0:0:0:
341,359,68453,6,0,B|380:370|419:351|419:351|449:322|452:280,1,160,4|0,0:2|0:0,0:0:0:0:
439,194,69703,1,8,0:0:0:0:
394,118,70120,2,0,P|318:96|238:94,1,160,0|0,0:0|0:0,0:0:0:0:
156,127,71370,1,12,0:0:0:0:
100,195,71786,6,0,B|95:252|127:296|127:296|180:304,1,160,4|4,0:2|0:2,0:0:0:0:
264,281,73036,1,0,0:0:0:0:
348,305,73453,2,0,B|433:311|494:253|494:253|456:244|419:225,1,240,4|4,0:2|1:2,0:0:0:0:
365,153,75120,6,0,P|355:76|399:11,2,160,0|2|0,0:0|0:0|0:0,0:0:0:0:
419,225,77203,1,2,0:0:0:0:
378,303,77620,2,0,P|338:309|298:313,1,80,0|4,0:0|3:2,0:0:0:0:
219,274,78453,6,0,P|141:264|81:313,1,160,0|2,0:0|0:0,0:0:0:0:
42,140,80120,2,0,P|82:147|122:149,1,80,0|2,0:0|0:0,0:0:0:0:
187,91,80953,2,0,P|227:84|267:82,1,80,0|4,0:0|3:2,0:0:0:0:
342,125,81786,6,0,P|420:134|480:85,1,160,0|2,0:0|0:0,0:0:0:0:
451,259,83453,2,0,P|411:252|371:250,1,80,0|2,0:0|0:0,0:0:0:0:
298,202,84286,2,0,P|258:209|218:211,1,80,0|4,0:0|3:2,0:0:0:0:
145,259,85120,6,0,B|107:277|66:265|66:265|32:240|22:200,1,160,0|2,0:0|0:0,0:0:0:0:
35,114,86370,1,0,0:0:0:0:
106,62,86786,2,0,P|146:55|186:53,1,80,0|8,0:0|0:1,0:0:0:0:
255,105,87620,2,0,P|295:112|335:114,1,80,0|8,0:0|0:1,0:0:0:0:
413,75,88453,6,0,B|466:83|466:83|498:127|493:183,1,160,4|0,0:2|0:0,0:0:0:0:
465,267,89703,1,8,0:0:0:0:
410,336,90120,2,0,P|334:358|254:360,1,160,0|0,0:0|0:0,0:0:0:0:
168,337,91370,1,12,0:0:0:0:
112,268,91786,6,0,B|107:211|139:167|139:167|192:159,1,160,4|0,0:2|0:0,0:0:0:0:
276,180,93036,1,8,0:0:0:0:
346,233,93453,2,0,B|384:245|423:229|423:229|455:201|460:159,1,160,0|0,0:0|0:0,0:0:0:0:
430,76,94703,1,12,0:0:0:0:
352,34,95120,6,0,P|275:56|195:57,1,160,4|0,0:2|0:0,0:0:0:0:
111,82,96370,1,8,0:0:0:0:
72,160,96786,2,0,B|80:213|80:213|124:245|180:240,1,160,0|0,0:0|0:0,0:0:0:0:
264,213,98036,1,12,0:0:0:0:
332,157,98453,6,0,B|370:139|411:151|411:151|445:176|455:216,1,160,4|4,0:2|0:2,0:0:0:0:
441,301,99703,1,8,0:0:0:0:
384,368,100120,2,0,P|344:375|304:377,1,80,4|8,0:2|0:0,0:0:0:0:
235,325,100953,2,0,P|195:318|155:316,1,80,4|8,0:2|0:0,0:0:0:0:
77,355,101786,6,0,B|38:345|13:311|13:311|1:270|19:232,2,160,0|2|0,0:0|0:0|0:0,0:0:0:0:
156,316,103870,1,2,0:0:0:0:
214,250,104286,2,0,P|221:210|223:170,1,80,0|4,0:0|3:2,0:0:0:0:
174,96,105120,6,0,B|139:72|96:77|96:77|59:97|43:135,1,160,0|2,0:0|0:0,0:0:0:0:
77,307,106786,2,0,P|117:314|157:316,1,80,0|2,0:0|0:0,0:0:0:0:
214,250,107620,2,0,P|254:243|294:241,1,80,0|4,0:0|3:2,0:0:0:0:
369,285,108453,6,0,P|445:297|499:243,1,160,0|2,0:0|0:0,0:0:0:0:
447,75,110120,2,0,P|407:68|367:66,1,80,0|2,0:0|0:0,0:0:0:0:
298,118,110953,2,0,P|258:125|218:127,1,80,0|4,0:0|3:2,0:0:0:0:
138,90,111786,6,0,B|81:85|37:117|37:117|29:170,1,160,0|2,0:0|0:0,0:0:0:0:
77,242,113036,1,0,0:0:0:0:
155,281,113453,2,0,P|195:288|235:290,1,80,0|8,0:0|0:1,0:0:0:0:
302,233,114286,2,0,P|342:226|382:224,1,80,0|8,0:0|0:1,0:0:0:0:
466,247,115120,6,0,B|496:276|499:318|499:318|488:359|454:382,1,160,4|0,0:2|0:0,0:0:0:0:
368,379,116370,1,8,0:0:0:0:
311,312,116786,2,0,P|304:272|302:232,1,80,0|8,0:0|0:0,0:0:0:0:
369,176,117620,2,0,P|376:136|378:96,1,80,0|8,0:0|0:0,0:0:0:0:
333,21,118453,6,0,P|257:9|193:58,1,160,0|0,0:0|0:0,0:0:0:0:
182,144,119703,1,8,0:0:0:0:
223,223,120120,2,0,P|263:230|303:232,1,80,0|8,0:0|0:0,0:0:0:0:
369,176,120953,2,0,P|409:169|449:167,1,80,0|8,0:0|0:0,0:0:0:0:
505,233,121786,6,0,B|510:290|478:334|478:334|425:342,1,160,0|0,0:0|0:0,0:0:0:0:
343,310,123036,1,8,0:0:0:0:
303,232,123453,2,0,P|263:225|223:223,1,80,0|8,0:0|0:0,0:0:0:0:
165,289,124286,2,0,P|125:296|85:298,1,80,0|8,0:0|0:0,0:0:0:0:
17,243,125120,6,0,B|4:205|4:205|11:125,2,120,4|4|4,0:2|0:2|0:2,0:0:0:0:
476,35,128453,6,0,P|398:52|318:56,1,160,4|0,0:0|0:0,0:0:0:0:
232,37,129703,1,8,0:0:0:0:
157,83,130120,2,0,P|117:76|77:74,1,80,0|8,0:0|0:0,0:0:0:0:
30,148,130953,1,0,0:0:0:0:
30,236,131370,1,8,0:0:0:0:
78,310,131786,6,0,P|117:307|157:300,1,80,0|8,0:0|0:0,0:0:0:0:
225,245,132620,2,0,P|264:247|304:254,1,80,0|8,0:0|0:0,0:0:0:0:
366,191,133453,2,0,P|405:188|445:181,2,80,0|8|0,0:0|0:0|0:0,0:0:0:0:
311,121,134703,1,0,0:0:0:0:
290,35,135120,6,0,P|211:37|134:58,1,160,4|0,0:2|0:0,0:0:0:0:
64,113,136370,1,8,0:0:0:0:
30,194,136786,2,0,P|32:233|39:273,1,80,0|8,0:0|0:0,0:0:0:0:
120,307,137620,1,0,0:0:0:0:
202,276,138036,1,8,0:0:0:0:
274,327,138453,6,0,P|313:328|353:324,1,80,0|8,0:0|0:0,0:0:0:0:
409,256,139286,2,0,P|410:216|406:176,1,80,0|8,0:0|0:0,0:0:0:0:
321,154,140120,2,0,L|315:115,2,40,0|0|8,0:0|0:0|0:0,0:0:0:0:
246,200,140953,2,0,P|206:207|166:209,1,80,0|8,0:0|0:0,0:0:0:0:
80,191,141786,6,0,P|26:137|38:61,1,160,4|0,0:2|0:0,0:0:0:0:
115,17,143036,1,8,0:0:0:0:
196,51,143453,2,0,P|236:44|276:42,1,80,0|8,0:0|0:0,0:0:0:0:
358,70,144286,1,0,0:0:0:0:
434,26,144703,1,8,0:0:0:0:
491,94,145120,6,0,P|483:133|478:172,1,80
471,260,145953,2,0,P|431:267|392:272,1,80,0|8,0:0|0:0,0:0:0:0:
323,219,146786,2,0,P|316:179|314:139,2,80,0|8|0,0:0|0:0|0:0,0:0:0:0:
304,305,148036,1,8,0:0:0:0:
225,345,148453,6,0,P|146:342|68:322,1,160,4|0,0:2|0:0,0:0:0:0:
34,240,149703,1,8,0:0:0:0:
69,159,150120,2,0,P|109:152|149:150,1,80,0|8,0:0|0:0,0:0:0:0:
229,185,150953,1,0,0:0:0:0:
219,97,151370,1,8,0:0:0:0:
276,30,151786,6,0,P|316:40|361:47,1,80,0|8,0:0|0:0,0:0:0:0:
393,125,152620,2,0,P|403:165|410:210,1,80,0|8,0:0|0:0,0:0:0:0:
327,237,153453,2,0,L|321:284,2,40,0|0|8,0:0|0:0|0:0,0:0:0:0:
247,199,154286,2,0,P|207:192|167:189,1,80,0|8,0:0|0:0,0:0:0:0:
82,213,155120,6,0,P|94:291|101:371,1,160,4|0,0:0|0:0,0:0:0:0:
260,296,156786,2,0,P|339:302|418:315,2,160,4|4|0,0:0|0:0|0:0,0:0:0:0:
286,31,165120,6,0,P|208:43|128:50,1,160,4|4,0:2|0:2,0:0:0:0:
30,197,166786,2,0,P|110:203|189:216,1,160,4|4,0:2|0:2,0:0:0:0:
266,374,168453,6,0,B|380:379|458:297|458:297|407:300|355:279,1,320,4|4,0:2|0:2,0:0:0:0:
276,236,170536,1,0,0:0:0:0:
218,169,170953,2,0,P|212:129|210:89,1,80,0|4,0:0|0:2,0:0:0:0:
246,9,171786,5,0,0:0:0:0:
256,192,178453,12,0,183453,0:0:0:0:
86,116,185120,6,0,P|140:62|216:74,1,160,4|0,0:2|0:0,0:0:0:0:
272,142,186370,1,8,0:0:0:0:
299,225,186786,2,0,P|296:264|289:304,1,80,0|8,0:0|0:0,0:0:0:0:
228,367,187620,1,0,0:0:0:0:
141,380,188036,1,8,0:0:0:0:
60,345,188453,6,0,P|39:269|37:189,1,160,0|0,0:0|0:0,0:0:0:0:
86,116,189703,1,8,0:0:0:0:
168,146,190120,2,0,P|207:143|247:136,1,80,0|8,0:0|0:0,0:0:0:0:
317,83,190953,2,0,P|356:85|396:92,1,80,0|8,0:0|0:0,0:0:0:0:
464,146,191786,6,0,B|482:184|470:225|470:225|445:259|405:269,1,160,4|0,0:2|0:0,0:0:0:0:
318,260,193036,1,8,0:0:0:0:
246,310,193453,2,0,P|167:308|90:287,1,160,0|0,0:0|0:0,0:0:0:0:
34,218,194703,1,8,0:0:0:0:
19,131,195120,6,0,B|27:78|27:78|71:46|127:51,1,160,0|0,0:0|0:0,0:0:0:0:
212,73,196370,1,8,0:0:0:0:
282,125,196786,2,0,P|279:164|272:204,1,80,0|8,0:0|0:0,0:0:0:0:
194,246,197620,1,4,0:0:0:0:
307,378,198453,6,0,P|386:376|463:355,1,160,4|0,0:2|0:0,0:0:0:0:
509,279,199703,1,8,0:0:0:0:
453,210,200120,2,0,P|413:206|373:199,1,80,0|8,0:0|0:0,0:0:0:0:
289,226,200953,1,0,0:0:0:0:
255,307,201370,1,8,0:0:0:0:
170,333,201786,6,0,B|117:325|117:325|85:281|90:225,1,160,0|0,0:0|0:0,0:0:0:0:
145,156,203036,1,8,0:0:0:0:
229,132,203453,2,0,P|268:135|308:142,1,80,0|8,0:0|0:0,0:0:0:0:
376,198,204286,2,0,P|415:196|455:189,1,80,0|8,0:0|0:0,0:0:0:0:
506,116,205120,6,0,B|498:63|498:63|454:31|398:36,1,160,4|0,0:2|0:0,0:0:0:0:
309,68,206370,1,8,0:0:0:0:
253,136,206786,2,0,P|213:142|173:146,1,80,0|8,0:0|0:0,0:0:0:0:
88,124,207620,1,0,0:0:0:0:
25,185,208036,1,8,0:0:0:0:
6,269,208453,6,0,B|14:322|14:322|58:354|114:349,1,160,0|0,0:0|0:0,0:0:0:0:
201,338,209703,1,8,0:0:0:0:
280,299,210120,2,0,P|307:303|330:307,2,40,0|0|8,0:0|0:0|0:0,0:0:0:0:
205,251,210953,2,0,P|198:211|195:171,1,80,4|8,0:2|0:0,0:0:0:0:
213,85,211786,5,0,0:0:0:0:
256,192,218453,12,0,223453,0:0:0:0:
12,242,225120,6,0,P|90:225|170:221,1,160,4|0,0:2|0:0,0:0:0:0:
253,249,226370,1,8,0:0:0:0:
322,302,226786,2,0,P|362:309|402:311,1,80,0|8,0:0|0:0,0:0:0:0:
448,236,227620,1,0,0:0:0:0:
448,148,228036,1,8,0:0:0:0:
401,72,228453,6,0,P|361:75|322:82,1,80,0|8,0:0|0:0,0:0:0:0:
259,143,229286,2,0,P|219:140|179:133,1,80,0|8,0:0|0:0,0:0:0:0:
120,199,230120,2,0,P|80:201|40:208,2,80,0|8|0,0:0|0:0|0:0,0:0:0:0:
181,262,231370,1,8,0:0:0:0:
238,328,231786,6,0,P|317:326|394:305,1,160,4|0,0:2|0:0,0:0:0:0:
455,240,233036,1,8,0:0:0:0:
495,161,233453,2,0,P|502:121|504:81,1,80,0|8,0:0|0:0,0:0:0:0:
422,47,234286,1,0,0:0:0:0:
337,70,234703,1,8,0:0:0:0:
254,39,235120,6,0,P|247:79|245:119,1,80,0|8,0:0|0:0,0:0:0:0:
174,170,235953,2,0,P|181:210|183:250,1,80,0|8,0:0|0:0,0:0:0:0:
246,310,236786,2,0,L|241:356,2,40,0|0|8,0:0|0:0|0:0,0:0:0:0:
302,241,237620,2,0,P|342:234|382:232,1,80,0|8,0:0|0:0,0:0:0:0:
448,174,238453,6,0,P|502:228|490:304,1,160,4|0,0:2|0:0,0:0:0:0:
416,353,239703,1,8,0:0:0:0:
331,327,240120,2,0,P|291:334|251:336,1,80,0|8,0:0|0:0,0:0:0:0:
168,305,240953,1,0,0:0:0:0:
88,342,241370,1,8,0:0:0:0:
37,270,241786,6,0,P|42:231|44:191,1,80,0|8,0:0|0:0,0:0:0:0:
66,106,242620,2,0,P|105:100|145:98,1,80,0|8,0:0|0:0,0:0:0:0:
218,148,243453,2,0,P|225:188|227:228,2,80,0|8|0,0:0|0:0|0:0,0:0:0:0:
224,60,244703,1,8,0:0:0:0:
303,20,245120,6,0,P|382:23|460:43,1,160,4|0,0:2|0:0,0:0:0:0:
506,117,246370,1,8,0:0:0:0:
462,193,246786,2,0,P|455:233|453:273,1,80,0|8,0:0|0:0,0:0:0:0:
406,347,247620,1,0,0:0:0:0:
332,298,248036,1,8,0:0:0:0:
252,335,248453,6,0,P|202:325|161:320,1,80,0|8,0:0|0:0,0:0:0:0:
179,233,249286,2,0,P|184:193|192:154,1,80,0|8,0:0|0:0,0:0:0:0:
276,127,250120,2,0,P|278:108|281:85,2,40,0|0|8,0:0|0:0|0:0,0:0:0:0:
352,172,250953,2,0,P|392:179|432:182,1,80,0|8,0:0|0:0,0:0:0:0:
507,138,251786,6,0,B|525:100|513:59|513:59|488:25|448:15,1,160,4|0,0:0|0:0,0:0:0:0:
361,8,253036,1,8,0:0:0:0:
310,78,253453,2,0,P|270:85|230:88,1,80,0|8,0:0|0:0,0:0:0:0:
146,62,254286,1,0,0:0:0:0:
56,71,254703,1,8,0:0:0:0:
11,146,255120,6,0,P|5:190|3:235,1,80,0|8,0:0|0:0,0:0:0:0:
85,255,255953,2,0,P|91:299|93:344,1,80,0|8,0:0|0:0,0:0:0:0:
177,358,256786,2,0,P|217:351|257:349,2,80,0|8|0,0:0|0:0|0:0,0:0:0:0:
175,269,258036,1,8,0:0:0:0:
235,204,258453,6,0,P|310:198|401:213,1,160,4|0,0:0|0:0,0:0:0:0:
458,271,259703,1,8,0:0:0:0:
404,340,260120,2,0,P|364:333|324:331,1,80,0|8,0:0|0:0,0:0:0:0:
240,357,260953,1,0,0:0:0:0:
153,347,261370,1,8,0:0:0:0:
108,272,261786,6,0,P|114:224|116:184,1,80,0|8,0:0|0:0,0:0:0:0:
127,104,262620,2,0,P|175:98|215:96,1,80,0|8,0:0|0:0,0:0:0:0:
269,157,263453,2,0,L|277:202,2,40,0|0|8,0:0|0:0|0:0,0:0:0:0:
298,74,264286,2,0,P|337:71|377:66,1,80,0|8,0:0|0:0,0:0:0:0:
457,28,265120,5,4,1:2:0:0:
450,115,265536,1,8,0:0:0:0:
492,192,265953,2,0,B|480:242|395:247|395:247|312:250|299:312,1,240,4|8,0:0|0:0,0:0:0:0:
225,352,267620,2,0,P|164:347|126:341,1,80,0|8,0:0|0:0,0:0:0:0:
79,288,268453,6,0,P|140:191|79:95,1,240,0|8,0:0|0:0,0:0:0:0:
17,34,270120,2,0,P|62:56|178:58,1,160
256,40,271370,1,8,0:0:0:0:
341,60,271786,6,0,P|421:63|495:33,2,160,4|0|0,0:0|0:0|0:0,0:0:0:0:
256,40,273870,1,8,0:0:0:0:
181,86,274286,2,0,L|126:107,2,40,0|0|8,0:0|0:0|0:0,0:0:0:0:
256,131,275120,6,0,P|265:210|270:322,1,160,4|0,0:0|0:0,0:0:0:0:
202,347,276370,1,8,0:0:0:0:
122,310,276786,2,0,P|115:270|112:230,1,80,0|8,0:0|0:0,0:0:0:0:
151,151,277620,2,0,L|156:104,2,40,0|0|8,0:0|0:0|0:0,0:0:0:0:
63,160,278453,5,4,1:2:0:0:
