osu file format v14

[General]
AudioFilename: audio.mp3
AudioLeadIn: 0
PreviewTime: 128140
Countdown: 0
SampleSet: Normal
StackLeniency: 0.5
Mode: 0
LetterboxInBreaks: 0
WidescreenStoryboard: 1

[Editor]
Bookmarks: 48473,75140,88473,101806,115140,128473,155140,171806,185140,211806,225140,238473,251806,265140,278473,291806
DistanceSpacing: 1.2
BeatDivisor: 4
GridSize: 32
TimelineZoom: 1.6

[Metadata]
Title:Escapist
TitleUnicode:Escapist
Artist:Nightwish
ArtistUnicode:Nightwish
Creator:pw384
Version:Ametrin's Insane
Source:
Tags:Dark Passion Play symphonic metal tm1209 encorew ametrin 384059043
BeatmapID:1298386
BeatmapSetID:604273

[Difficulty]
HPDrainRate:6
CircleSize:4
OverallDifficulty:7.5
ApproachRate:8.5
SliderMultiplier:1.7
SliderTickRate:1

[Events]
//Background and Video events
0,0,"bg2.jpg",0,0
//Break Periods
2,158653,164436
2,211986,217570
2,278653,284445
//Storyboard Layer 0 (Background)
//Storyboard Layer 1 (Fail)
//Storyboard Layer 2 (Pass)
//Storyboard Layer 3 (Foreground)
//Storyboard Sound Samples

[TimingPoints]
120,416.666666666667,4,2,0,40,1,0
48453,-100,4,1,1,70,0,0
74286,-100,4,1,1,60,0,0
74703,-100,4,1,1,50,0,0
75120,-133.333333333333,4,2,0,50,0,0
86786,-133.333333333333,4,3,1,50,0,0
88453,-100,4,1,1,70,0,0
100953,-100,4,1,1,60,0,0
101370,-100,4,1,1,50,0,0
101786,-133.333333333333,4,2,0,50,0,0
113453,-133.333333333333,4,3,1,50,0,0
115120,-100,4,1,1,60,0,0
127203,-100,4,1,1,65,0,0
127620,-100,4,1,1,70,0,0
128036,-100,4,1,1,75,0,0
128453,-83.3333333333333,4,1,1,80,0,1
155120,-133.333333333333,4,1,1,60,0,0
171786,-133.333333333333,4,1,1,60,0,0
178453,-100,4,1,1,60,0,0
179286,-100,4,1,1,65,0,0
180120,-100,4,1,1,70,0,0
180953,-100,4,1,1,75,0,0
181786,-100,4,1,1,70,0,0
183453,-100,4,1,1,60,0,0
183870,-100,4,1,1,65,0,0
184286,-100,4,1,1,70,0,0
184703,-100,4,1,1,75,0,0
185120,-90.9090909090909,4,1,1,80,0,0
211786,-83.3333333333333,4,1,1,60,0,0
218245,-133.333333333333,4,2,0,50,0,0
223453,-133.333333333333,4,2,0,55,0,0
224286,-133.333333333333,4,1,1,65,0,0
225120,-83.3333333333333,4,1,1,80,0,1
278453,-100,4,1,1,80,0,0

[Colours]
Combo1 : 207,187,118
Combo2 : 170,105,74
Combo3 : 120,89,54

[HitObjects]
256,192,46995,12,0,48245,2:0:0:0:
15,381,48453,6,0,P|95:348|193:355,1,170,4|8,0:2|0:0,0:0:0:0:
251,280,49078,1,0,0:0:0:0:
152,169,49286,2,0,P|145:216|146:265,1,85,0|0,0:0|0:0,0:0:0:0:
73,94,49703,1,8,0:0:0:0:
73,94,49911,1,0,0:0:0:0:
247,30,50120,6,0,P|254:77|253:126,1,85,0|0,0:0|2:0,0:0:0:0:
145,253,50536,2,0,L|234:235,1,85,8|0,0:0|2:0,0:0:0:0:
338,126,50953,2,0,L|233:111,1,85,0|0,0:0|2:0,0:0:0:0:
426,3,51370,2,0,P|485:29|491:96,1,127.5,12|0,0:0|2:0,0:0:0:0:
457,120,51786,6,0,B|431:202|425:286,1,170,4|8,0:2|0:0,0:0:0:0:
475,375,52411,1,0,0:0:0:0:
329,369,52620,2,0,P|326:320|320:276,1,85,0|0,0:0|0:0,0:0:0:0:
261,201,53036,1,8,0:0:0:0:
261,201,53245,1,0,0:0:0:0:
159,316,53453,6,0,L|59:304,1,85,0|0,0:0|2:0,0:0:0:0:
0,189,53870,2,0,L|100:177,1,85,8|0,0:0|2:0,0:0:0:0:
187,30,54286,1,0,0:0:0:0:
51,83,54495,1,0,2:0:0:0:
180,227,54703,1,12,0:0:0:0:
152,116,54911,1,0,0:0:0:0:
319,24,55120,6,0,P|393:53|374:146,1,170,4|8,0:2|0:0,0:0:0:0:
330,216,55745,1,0,0:0:0:0:
430,329,55953,2,0,P|483:328|524:311,1,85,0|0,0:0|0:0,0:0:0:0:
456,231,56370,1,8,0:0:0:0:
456,231,56578,1,0,0:0:0:0:
274,300,56786,6,0,L|285:401,1,85,0|0,0:0|2:0,0:0:0:0:
330,216,57203,1,8,0:0:0:0:
242,136,57411,1,0,2:0:0:0:
104,220,57620,2,0,P|59:219|16:207,1,85,0|0,0:0|2:0,0:0:0:0:
91,359,58036,2,0,P|153:339|227:336,1,127.5,12|0,0:0|2:0,0:0:0:0:
260,358,58453,6,0,L|246:178,1,170,4|8,0:2|0:0,0:0:0:0:
312,110,59078,1,0,0:0:0:0:
412,200,59286,2,0,P|405:253|396:302,1,85,0|0,0:0|0:0,0:0:0:0:
459,366,59703,1,8,0:0:0:0:
459,366,59911,1,0,0:0:0:0:
260,358,60120,6,0,L|160:330,1,85,0|0,0:0|2:0,0:0:0:0:
399,284,60536,2,0,L|499:256,1,85,8|0,0:0|2:0,0:0:0:0:
272,140,60953,1,0,0:0:0:0:
301,237,61161,1,0,2:0:0:0:
447,140,61370,1,12,0:0:0:0:
418,43,61578,1,8,0:0:0:0:
259,40,61786,6,0,B|193:32|193:32|151:48|151:48|87:38,1,170,4|8,0:2|0:0,0:0:0:0:
17,107,62411,1,0,0:0:0:0:
103,223,62620,2,0,P|108:176|110:128,1,85,0|0,0:0|0:0,0:0:0:0:
5,267,63036,1,8,0:0:0:0:
5,267,63245,1,0,0:0:0:0:
124,356,63453,6,0,L|211:342,1,85,0|0,0:0|2:0,0:0:0:0:
336,271,63870,2,0,P|347:225|349:178,1,85,8|0,0:0|2:0,0:0:0:0:
445,113,64286,2,0,P|456:158|458:206,1,85,0|0,0:0|2:0,0:0:0:0:
411,336,64703,2,0,P|363:368|280:350,1,127.5,12|0,0:0|2:0,0:0:0:0:
254,330,65120,6,0,P|264:245|267:145,1,170,4|8,0:2|0:0,0:0:0:0:
124,38,65745,1,0,0:0:0:0:
71,140,65953,2,0,P|110:153|153:150,1,85,0|0,0:0|0:0,0:0:0:0:
250,50,66370,1,8,0:0:0:0:
250,50,66578,1,0,0:0:0:0:
153,149,66786,6,0,L|165:246,1,85,0|0,0:0|2:0,0:0:0:0:
222,343,67203,2,0,P|180:361|128:355,1,85,8|0,0:0|2:0,0:0:0:0:
299,254,67620,1,0,0:0:0:0:
329,156,67828,1,0,0:0:0:0:
481,240,68036,1,12,0:0:0:0:
451,338,68245,1,0,0:0:0:0:
512,134,68453,6,0,P|463:127|364:56,1,170,4|8,0:2|0:0,0:0:0:0:
453,6,69078,1,0,0:0:0:0:
273,0,69286,2,0,P|258:38|259:85,1,85,0|0,0:0|0:0,0:0:0:0:
342,169,69703,1,8,0:0:0:0:
342,169,69911,1,0,0:0:0:0:
194,236,70120,6,0,P|122:224|86:223,1,85,0|0,0:0|2:0,0:0:0:0:
0,113,70536,2,0,P|72:101|108:100,1,85,8|0,0:0|2:0,0:0:0:0:
186,46,70953,2,0,L|191:130,1,85,0|0,0:0|2:0,0:0:0:0:
110,223,71370,2,0,L|97:365,1,127.5,12|0,0:0|2:0,0:0:0:0:
138,381,71786,6,0,P|190:378|231:358,1,85,4|0,0:2|0:0,0:0:0:0:
266,274,72203,1,8,0:0:0:0:
106,138,72411,1,0,0:0:0:0:
106,138,72515,1,0,0:0:0:0:
106,138,72620,2,0,L|110:236,1,85,4|0,0:2|0:0,0:0:0:0:
168,305,73036,1,8,0:0:0:0:
353,192,73245,1,0,0:0:0:0:
353,192,73349,1,0,0:0:0:0:
353,192,73453,2,0,P|305:180|263:171,1,85,4|0,0:2|0:0,0:0:0:0:
252,315,73870,5,8,0:0:0:0:
454,256,74078,1,4,0:2:0:0:
270,172,74286,5,0,0:0:0:0:
415,167,74495,1,0,0:0:0:0:
315,47,74703,5,4,1:2:0:0:
412,79,74911,1,8,0:0:0:0:
270,172,75120,6,0,B|173:202|189:134|81:167,1,191.250007295609,0|0,0:0|0:0,0:0:0:0:
39,245,75953,2,0,P|30:295|30:333,1,63.7500024318696,0|0,3:0|3:0,0:0:0:0:
171,364,76578,1,0,3:0:0:0:
171,364,76786,2,0,P|168:332|161:301,1,63.7500024318696,0|0,0:0|3:0,0:0:0:0:
247,230,77203,2,0,P|249:198|256:167,1,63.7500024318696,0|0,3:0|0:0,0:0:0:0:
394,315,77620,2,0,P|362:312|331:305,1,63.7500024318696,0|0,3:0|3:0,0:0:0:0:
491,242,78036,1,0,0:0:0:0:
508,248,78245,1,0,3:0:0:0:
326,162,78453,6,0,P|320:88|423:49,1,191.250007295609,0|0,0:0|0:0,0:0:0:0:
512,0,79286,2,0,P|511:38|507:93,1,63.7500024318696,0|0,3:0|3:0,0:0:0:0:
403,232,79911,1,0,3:0:0:0:
403,232,80120,2,0,P|404:194|408:139,1,63.7500024318696,0|0,0:0|0:0,0:0:0:0:
387,31,80536,2,0,P|352:41|315:43,1,63.7500024318696,0|0,3:0|0:0,0:0:0:0:
234,186,80953,2,0,P|269:176|306:174,1,63.7500024318696,0|0,3:0|3:0,0:0:0:0:
170,86,81370,1,0,0:0:0:0:
151,80,81578,1,0,3:0:0:0:
72,215,81786,6,0,B|79:279|51:341|51:341|60:374|102:393,1,191.250007295609,0|0,0:0|0:0,0:0:0:0:
220,322,82620,2,0,P|177:315|133:319,1,63.7500024318696,0|0,3:0|3:0,0:0:0:0:
9,222,83245,1,0,3:0:0:0:
9,222,83453,2,0,P|52:215|96:219,1,63.7500024318696,0|0,0:0|3:0,0:0:0:0:
159,87,83870,2,0,P|175:127|181:171,1,63.7500024318696,0|0,3:0|0:0,0:0:0:0:
317,183,84286,2,0,P|292:219|259:248,1,63.7500024318696,0|0,3:0|3:0,0:0:0:0:
152,298,84703,1,0,0:0:0:0:
136,286,84911,1,0,3:0:0:0:
349,343,85120,6,0,B|427:344|471:376|471:376|493:349|493:300,1,191.250007295609,0|0,0:0|0:0,0:0:0:0:
381,191,85953,2,0,P|377:246|379:282,1,63.7500024318696,0|0,3:0|3:0,0:0:0:0:
470,83,86370,2,0,P|438:85|409:99,1,63.7500024318696,0|0,0:0|0:0,0:0:0:0:
292,186,86786,2,0,P|263:199|231:201,1,63.7500024318696
134,28,87203,2,0,P|174:35|209:51,1,63.7500024318696,8|0,0:1|0:0,0:0:0:0:
312,84,87620,1,0,0:0:0:0:
195,43,87828,1,0,0:0:0:0:
231,201,88036,1,8,0:1:0:0:
89,216,88245,5,0,0:0:0:0:
89,216,88349,1,0,0:0:0:0:
89,216,88453,2,0,L|80:119,1,85,4|0,0:2|0:0,0:0:0:0:
8,280,88870,1,8,0:0:0:0:
150,376,89078,1,0,0:0:0:0:
150,376,89286,2,0,B|228:361|328:355,1,170,0|8,0:0|0:0,0:0:0:0:
387,247,89911,1,0,0:0:0:0:
175,197,90120,6,0,P|185:246|195:295,1,85,0|0,0:0|2:0,0:0:0:0:
323,178,90536,2,0,P|339:129|343:89,1,85,8|0,0:0|2:0,0:0:0:0:
256,19,90953,2,0,P|192:36|153:33,1,85,0|0,0:0|2:0,0:0:0:0:
10,96,91370,2,0,P|98:110|132:137,1,127.5,12|0,0:0|2:0,0:0:0:0:
157,172,91786,6,0,P|130:253|117:340,1,170,4|8,0:2|0:0,0:0:0:0:
3,238,92411,1,0,0:0:0:0:
3,238,92620,2,0,P|42:249|104:249,1,85,0|0,0:0|0:0,0:0:0:0:
222,373,93036,2,0,P|183:362|121:362,1,85,8|0,0:0|0:0,0:0:0:0:
258,234,93453,5,0,0:0:0:0:
258,234,93661,1,0,0:0:0:0:
406,296,93870,2,0,P|390:351|382:407,1,85,8|0,0:0|2:0,0:0:0:0:
356,163,94286,2,0,P|396:149|439:144,1,85,0|0,0:0|2:0,0:0:0:0:
319,11,94703,1,12,0:0:0:0:
512,53,94911,1,0,1:0:0:0:
253,141,95120,6,0,P|240:188|231:235,1,85,4|0,0:2|0:0,0:0:0:0:
156,292,95536,1,8,0:0:0:0:
22,185,95745,1,0,0:0:0:0:
22,185,95953,2,0,P|24:143|23:89,1,85,0|0,0:0|0:0,0:0:0:0:
253,141,96370,1,8,0:0:0:0:
131,67,96578,1,0,0:0:0:0:
167,265,96786,6,0,P|126:277|83:279,1,85,0|0,0:0|2:0,0:0:0:0:
332,238,97203,2,0,P|382:250|437:251,1,85,8|0,0:0|2:0,0:0:0:0:
497,315,97620,1,0,0:0:0:0:
396,360,97828,1,0,0:0:0:0:
512,219,98036,2,0,P|514:164|524:90,1,127.5,12|0,0:0|2:0,0:0:0:0:
490,52,98453,6,0,P|407:94|449:167,1,170,4|8,0:2|0:0,0:0:0:0:
496,258,99078,1,0,0:0:0:0:
496,258,99286,2,0,P|448:249|404:248,1,85,4|0,1:2|0:0,0:0:0:0:
290,258,99703,1,8,0:0:0:0:
366,91,99911,1,0,0:0:0:0:
247,162,100120,6,0,P|204:159|162:151,1,85,4|0,0:2|2:0,0:0:0:0:
54,209,100536,5,8,0:0:0:0:
122,15,100745,1,0,2:0:0:0:
196,248,100953,5,4,0:2:0:0:
215,82,101161,1,0,2:0:0:0:
339,243,101370,5,8,0:0:0:0:
315,126,101578,1,0,0:0:0:0:
226,377,101786,6,0,P|304:351|422:343,1,191.250007295609,0|0,0:0|0:0,0:0:0:0:
502,276,102620,2,0,P|451:266|423:257,1,63.7500024318696,0|0,3:0|3:0,0:0:0:0:
263,182,103245,1,0,3:0:0:0:
263,182,103453,2,0,P|314:172|342:163,1,63.7500024318696,0|0,0:0|3:0,0:0:0:0:
441,101,103870,2,0,P|449:67|451:33,1,63.7500024318696,0|0,3:0|0:0,0:0:0:0:
325,168,104286,2,0,P|327:199|335:230,1,63.7500024318696,0|0,3:0|3:0,0:0:0:0:
425,309,104703,1,0,0:0:0:0:
442,316,104911,1,0,3:0:0:0:
289,336,105120,6,0,B|175:365|220:298|95:330,1,191.250007295609
20,220,105953,2,0,P|10:267|9:300,1,63.7500024318696,0|0,3:0|3:0,0:0:0:0:
167,326,106578,1,0,3:0:0:0:
167,326,106786,2,0,P|163:294|155:263,1,63.7500024318696,0|0,0:0|3:0,0:0:0:0:
70,134,107203,2,0,P|120:150|155:151,1,63.7500024318696,0|0,3:0|0:0,0:0:0:0:
284,76,107620,2,0,P|234:60|199:59,1,63.7500024318696,0|0,3:0|3:0,0:0:0:0:
243,181,108036,1,0,0:0:0:0:
247,199,108245,1,0,3:0:0:0:
429,117,108453,6,0,P|403:208|388:320,1,191.250007295609
498,371,109286,2,0,P|493:329|482:290,1,63.7500024318696,0|0,3:0|3:0,0:0:0:0:
311,204,109911,1,0,3:0:0:0:
311,204,110120,2,0,P|365:217|395:218,1,63.7500024318696,0|0,0:0|3:0,0:0:0:0:
512,101,110536,2,0,P|497:152|478:184,1,63.7500024318696,0|0,3:0|0:0,0:0:0:0:
299,80,110953,2,0,P|331:88|362:95,1,63.7500024318696,0|0,3:0|3:0,0:0:0:0:
462,26,111370,1,0,0:0:0:0:
470,8,111578,1,0,3:0:0:0:
299,80,111786,6,0,B|232:84|176:56|176:56|167:85|133:119,1,191.250007295609
25,41,112620,2,0,L|109:38,1,63.7500024318696,0|0,3:0|3:0,0:0:0:0:
42,168,113036,2,0,P|35:224|39:259,1,63.7500024318696,0|0,0:0|0:0,0:0:0:0:
220,171,113453,1,0,0:0:0:0:
141,109,113661,1,0,0:0:0:0:
111,296,113870,6,0,P|145:288|193:283,1,63.7500024318696,8|0,0:1|0:0,0:0:0:0:
263,371,114286,2,0,P|273:337|292:293,1,63.7500024318696,0|0,0:0|0:0,0:0:0:0:
418,342,114703,1,8,0:1:0:0:
301,202,114911,1,0,1:0:0:0:
301,202,115015,1,0,1:0:0:0:
301,202,115120,6,0,P|350:217|403:219,1,85,4|0,0:2|0:0,0:0:0:0:
484,167,115536,1,8,0:0:0:0:
441,19,115745,1,0,0:0:0:0:
441,19,115953,2,0,P|425:65|391:102,1,85,0|0,0:0|0:0,0:0:0:0:
232,82,116370,1,8,0:0:0:0:
343,13,116578,1,0,0:0:0:0:
130,53,116786,6,0,P|141:117|145:160,1,85,0|0,0:0|0:0,0:0:0:0:
89,306,117203,2,0,P|78:242|74:199,1,85,8|0,0:0|0:0,0:0:0:0:
254,159,117620,2,0,P|233:206|190:242,1,85,0|0,0:0|0:0,0:0:0:0:
143,136,118036,1,8,0:0:0:0:
323,67,118245,1,0,0:0:0:0:
209,229,118453,6,0,P|205:290|207:335,1,85,0|0,0:0|0:0,0:0:0:0:
110,383,118870,1,8,0:0:0:0:
0,227,119078,1,0,0:0:0:0:
0,227,119286,2,0,P|55:250|86:285,1,85,0|0,0:0|0:0,0:0:0:0:
205,312,119703,2,0,P|264:304|308:319,1,85,8|0,0:0|0:0,0:0:0:0:
481,373,120120,6,0,P|435:340|415:288,1,85,0|0,0:0|0:0,0:0:0:0:
366,140,120536,2,0,L|353:239,1,85,8|0,0:0|0:0,0:0:0:0:
512,280,120953,2,0,L|500:195,1,85,0|0,0:0|0:0,0:0:0:0:
512,73,121370,1,8,0:0:0:0:
362,0,121578,1,0,0:0:0:0:
281,150,121786,6,0,P|324:147|366:139,1,85,0|0,0:0|0:0,0:0:0:0:
169,37,122203,1,8,0:0:0:0:
295,62,122411,1,0,0:0:0:0:
162,197,122620,2,0,P|149:251|147:298,1,85,0|0,0:0|0:0,0:0:0:0:
97,80,123036,2,0,P|143:60|181:19,1,85,8|0,0:0|0:0,0:0:0:0:
0,89,123453,6,0,P|20:142|28:188,1,85,0|0,0:0|0:0,0:0:0:0:
1,289,123870,1,8,0:0:0:0:
162,196,124078,1,0,0:0:0:0:
162,196,124182,1,0,0:0:0:0:
162,196,124286,2,0,P|223:192|269:189,1,85,0|0,0:0|0:0,0:0:0:0:
289,317,124703,2,0,P|352:322|403:324,1,85,8|0,0:0|0:0,0:0:0:0:
495,185,125120,5,4,0:2:0:0:
354,235,125328,1,0,0:0:0:0:
478,296,125536,1,8,0:0:0:0:
355,99,125745,2,0,P|268:87|183:48,1,170,4|0,0:2|0:0,0:0:0:0:
78,158,126370,1,4,0:2:0:0:
78,158,126786,5,0,0:0:0:0:
132,254,126995,1,0,0:0:0:0:
194,55,127203,5,0,0:0:0:0:
218,214,127411,1,0,0:0:0:0:
352,25,127620,5,8,0:0:0:0:
307,223,127828,1,8,0:0:0:0:
512,40,128036,5,8,0:0:0:0:
512,40,128140,1,0,0:0:0:0:
512,40,128245,2,0,L|516:103,1,42.5,8|0,0:0|0:0,0:0:0:0:
506,224,128453,6,0,B|391:260|419:186|290:228,1,203.999993774414,4|8,0:0|0:0,0:0:0:0:
202,111,129078,1,0,0:0:0:0:
117,283,129286,2,0,P|122:355|132:405,1,101.999996887207,0|0,0:0|0:0,0:0:0:0:
232,332,129703,1,8,0:0:0:0:
28,157,129911,1,0,0:0:0:0:
202,111,130120,5,0,0:0:0:0:
202,111,130224,1,0,0:0:0:0:
202,111,130328,1,0,0:0:0:0:
116,282,130536,2,0,P|67:287|15:286,1,101.999996887207,8|0,0:0|0:0,0:0:0:0:
232,332,130953,2,0,P|282:333|333:327,1,101.999996887207,0|0,0:0|0:0,0:0:0:0:
447,371,131370,1,8,0:0:0:0:
512,210,131578,1,0,0:0:0:0:
512,210,131682,1,0,0:0:0:0:
512,210,131786,6,0,L|494:98,1,101.999996887207,0|0,0:0|0:0,0:0:0:0:
334,6,132203,1,8,0:0:0:0:
491,22,132411,1,0,0:0:0:0:
350,190,132620,2,0,P|336:238|326:308,1,101.999996887207,0|0,0:0|0:0,0:0:0:0:
121,281,133036,2,0,P|172:278|218:257,1,101.999996887207,8|0,0:0|0:0,0:0:0:0:
125,47,133453,6,0,L|149:174,1,101.999996887207,0|0,0:0|0:0,0:0:0:0:
0,281,133870,1,8,0:0:0:0:
50,141,134078,1,0,0:0:0:0:
152,353,134286,2,0,P|205:332|262:316,1,101.999996887207,0|0,0:0|0:0,0:0:0:0:
431,277,134703,1,8,0:0:0:0:
385,272,134807,1,0,0:0:0:0:
340,261,134911,1,4,0:0:0:0:
300,237,135015,1,0,0:0:0:0:
263,209,135120,5,4,0:2:0:0:
460,152,135328,1,0,0:0:0:0:
293,6,135536,2,0,P|290:58|294:120,1,101.999996887207,8|0,0:0|0:0,0:0:0:0:
377,320,135953,2,0,P|380:268|376:206,1,101.999996887207,0|0,0:0|0:0,0:0:0:0:
164,131,136370,1,8,0:0:0:0:
292,107,136578,1,0,0:0:0:0:
122,237,136786,5,0,0:0:0:0:
7,63,136995,1,0,0:0:0:0:
235,1,137203,1,8,0:0:0:0:
164,131,137411,1,0,0:0:0:0:
7,63,137620,2,0,P|19:107|29:169,1,101.999996887207,0|0,0:0|0:0,0:0:0:0:
25,317,138036,1,8,0:0:0:0:
164,131,138245,1,0,0:0:0:0:
296,251,138453,6,0,B|419:243|419:243|379:284,1,152.999995330811
461,166,138870,2,0,P|498:239|476:306,1,152.999995330811,8|0,0:0|0:0,0:0:0:0:
421,377,139286,2,0,P|381:360|313:359,1,101.999996887207,0|0,0:0|0:0,0:0:0:0:
219,290,139599,1,0,0:0:0:0:
219,290,139703,2,0,P|169:303|110:302,1,101.999996887207,8|0,0:0|0:0,0:0:0:0:
85,100,140120,5,0,0:0:0:0:
158,214,140328,1,0,0:0:0:0:
16,214,140536,1,8,0:0:0:0:
87,17,140745,1,0,0:0:0:0:
87,17,140849,1,0,0:0:0:0:
87,17,140953,1,0,0:0:0:0:
16,214,141161,1,0,0:0:0:0:
213,111,141370,1,8,0:0:0:0:
7,79,141578,1,0,0:0:0:0:
163,273,141786,6,0,P|253:231|358:220,1,203.999993774414,4|8,0:2|0:0,0:0:0:0:
423,135,142411,1,0,0:0:0:0:
213,111,142620,2,0,P|222:167|240:212,1,101.999996887207,0|0,0:0|0:0,0:0:0:0:
354,311,143036,2,0,P|406:294|470:292,1,101.999996887207,8|0,0:0|0:0,0:0:0:0:
270,375,143453,5,0,0:0:0:0:
270,375,143557,1,0,0:0:0:0:
270,375,143661,1,0,0:0:0:0:
179,282,143870,2,0,P|127:265|63:263,1,101.999996887207,8|0,0:0|0:0,0:0:0:0:
0,156,144286,1,0,0:0:0:0:
170,109,144495,1,0,0:0:0:0:
81,262,144703,1,8,0:0:0:0:
0,44,144911,1,0,0:0:0:0:
0,44,145015,1,0,0:0:0:0:
0,44,145120,6,0,P|53:54|110:55,1,101.999996887207,0|0,0:0|0:0,0:0:0:0:
228,6,145536,1,8,0:0:0:0:
135,189,145745,1,0,0:0:0:0:
355,237,145953,2,0,P|342:182|317:134,1,101.999996887207,0|0,0:0|0:0,0:0:0:0:
205,283,146370,2,0,L|198:400,1,101.999996887207,8|0,0:0|0:0,0:0:0:0:
415,331,146786,5,0,0:0:0:0:
291,224,146995,1,0,0:0:0:0:
438,105,147203,1,8,0:0:0:0:
393,231,147411,1,0,0:0:0:0:
421,25,147620,2,0,P|481:34|516:82,1,101.999996887207,0|0,0:0|0:0,0:0:0:0:
357,123,148036,1,8,0:0:0:0:
317,112,148140,1,0,0:0:0:0:
277,99,148245,1,4,0:0:0:0:
237,88,148349,1,0,0:0:0:0:
197,78,148453,5,4,0:2:0:0:
341,13,148661,1,0,0:0:0:0:
217,177,148870,2,0,P|203:220|193:292,1,101.999996887207,8|0,0:0|0:0,0:0:0:0:
0,116,149286,1,0,0:0:0:0:
128,140,149495,1,0,0:0:0:0:
0,116,149703,1,8,0:0:0:0:
152,8,149911,1,0,0:0:0:0:
41,233,150120,5,0,0:0:0:0:
256,182,150328,1,0,0:0:0:0:
152,8,150536,1,8,0:0:0:0:
152,8,150640,1,0,0:0:0:0:
152,8,150745,1,0,0:0:0:0:
124,254,150953,2,0,P|118:338|116:370,1,101.999996887207,0|0,0:0|0:0,0:0:0:0:
327,248,151370,2,0,P|297:203|234:178,1,101.999996887207,8|0,0:0|0:0,0:0:0:0:
305,367,151786,6,0,P|385:342|472:338,1,152.999995330811,0|0,0:0|0:0,0:0:0:0:
482,233,152203,2,0,P|432:171|341:164,1,152.999995330811,8|0,0:0|0:0,0:0:0:0:
255,181,152620,2,0,P|247:234|244:297,1,101.999996887207,0|0,0:0|0:0,0:0:0:0:
127,371,152932,1,0,0:0:0:0:
127,371,153036,2,0,P|123:320|116:269,1,101.999996887207,8|0,0:0|0:0,0:0:0:0:
0,131,153453,5,0,0:0:0:0:
255,181,153661,1,0,0:0:0:0:
33,259,153870,1,8,0:0:0:0:
256,192,153974,12,0,154911,2:0:0:0:
256,320,155120,5,4,0:0:0:0:
256,128,156786,1,4,0:0:0:0:
256,224,157620,1,4,0:0:0:0:
256,32,158453,5,0,0:0:0:0:
62,115,165120,6,0,P|144:82|230:133,1,191.250007295609,4|0,0:2|2:0,0:0:0:0:
215,260,165953,2,0,P|128:292|49:245,1,191.250007295609,4|0,0:2|2:0,0:0:0:0:
355,113,166786,2,0,P|329:194|313:312,1,191.250007295609,4|0,0:2|2:0,0:0:0:0:
180,384,167620,2,0,P|166:289|138:198,1,191.250007295609,4|0,0:2|2:0,0:0:0:0:
108,102,168453,6,0,B|175:80|221:139|221:139|278:121|278:121|303:143|352:137,1,255.000009727478,4|4,0:2|0:0,0:0:0:0:
244,27,169703,1,0,0:0:0:0:
108,102,170120,5,4,0:2:0:0:
44,181,170328,1,0,0:0:0:0:
138,198,170536,1,0,0:0:0:0:
70,77,170745,5,4,0:2:0:0:
23,218,170953,1,0,0:0:0:0:
172,181,171161,1,0,0:0:0:0:
0,130,171370,5,4,0:2:0:0:
111,261,171578,1,0,0:0:0:0:
250,136,171786,6,0,L|250:67,2,63.7500024318696,0|0|8,0:0|0:0|0:0,0:0:0:0:
250,136,172620,2,0,P|308:130|374:146,1,127.500004863739,0|8,0:0|0:0,0:0:0:0:
497,44,173245,2,0,P|440:57|344:43,2,127.500004863739,0|8|0,0:0|0:0|0:0,0:0:0:0:
375,146,174286,2,0,L|375:210,1,63.7500024318696,8|0,0:0|0:0,0:0:0:0:
137,210,174703,2,0,L|137:146,1,63.7500024318696,0|0,0:0|0:0,0:0:0:0:
262,248,175120,6,0,L|262:337,2,63.7500024318696,0|0|8,0:0|0:0|0:0,0:0:0:0:
262,248,175953,2,0,P|204:254|138:238,1,127.500004863739,0|8,0:0|0:0,0:0:0:0:
15,340,176578,2,0,P|72:327|168:341,2,127.500004863739,0|8|0,0:0|0:0|0:0,0:0:0:0:
137,237,177620,2,0,L|137:174,1,63.7500024318696,8|0,0:0|0:0,0:0:0:0:
375,174,178036,2,0,L|375:237,1,63.7500024318696,0|0,0:0|0:0,0:0:0:0:
254,44,178453,6,0,L|155:22,1,85,8|0,0:0|0:0,0:0:0:0:
75,4,178870,1,0,0:0:0:0:
75,4,179078,1,0,0:0:0:0:
0,160,179286,6,0,L|99:138,1,85,8|0,0:0|0:0,0:0:0:0:
179,120,179703,1,0,0:0:0:0:
179,120,179911,1,0,0:0:0:0:
256,272,180120,6,0,L|157:250,1,85,4|0,0:0|0:0,0:0:0:0:
77,232,180536,1,0,0:0:0:0:
77,232,180745,1,0,0:0:0:0:
0,384,180953,6,0,L|99:362,1,85,4|0,0:0|0:0,0:0:0:0:
179,344,181370,1,0,0:0:0:0:
179,344,181578,1,0,0:0:0:0:
320,352,181786,6,0,P|323:285|316:242,1,85,4|0,0:2|0:0,0:0:0:0:
256,192,182203,1,0,0:0:0:0:
85,167,182411,2,0,P|141:203|182:218,1,85,4|0,0:2|0:0,0:0:0:0:
256,192,182828,1,0,0:0:0:0:
362,56,183036,2,0,P|303:87|269:115,1,85,4|4,0:2|0:0,0:0:0:0:
256,192,183453,5,0,0:0:0:0:
324,263,183661,1,0,0:0:0:0:
353,172,183870,1,8,0:0:0:0:
242,232,184078,5,8,0:0:0:0:
364,263,184286,1,8,0:0:0:0:
332,139,184495,1,8,0:0:0:0:
288,308,184703,5,8,0:0:0:0:
412,183,184911,1,8,0:0:0:0:
237,139,185120,6,0,P|162:115|89:103,1,140.25000428009,4|0,0:2|2:0,0:0:0:0:
70,106,185536,1,8,0:0:0:0:
193,24,185745,1,0,0:0:0:0:
39,0,185953,1,0,0:0:0:0:
178,210,186161,1,0,0:0:0:0:
178,210,186370,2,0,P|187:258|189:311,1,93.5000028533936,8|0,0:0|0:0,0:0:0:0:
0,379,186786,5,0,0:0:0:0:
190,303,186995,1,0,0:0:0:0:
28,220,187203,1,8,0:0:0:0:
90,370,187411,1,0,0:0:0:0:
178,210,187620,1,0,0:0:0:0:
28,220,187828,1,0,0:0:0:0:
190,303,188036,2,0,P|233:290|298:288,1,93.5000028533936,8|0,0:0|0:0,0:0:0:0:
507,170,188453,6,0,B|463:174|463:174|412:155|412:155|355:158,1,140.25000428009,0|0,0:0|2:0,0:0:0:0:
289,196,188870,2,0,P|275:245|290:307,1,93.5000028533936,8|0,0:0|0:0,0:0:0:0:
379,348,189286,1,0,0:0:0:0:
507,170,189495,1,0,0:0:0:0:
507,170,189599,1,0,0:0:0:0:
507,170,189703,2,0,P|497:114|486:67,1,93.5000028533936,8|0,0:0|0:0,0:0:0:0:
296,29,190120,5,0,0:0:0:0:
406,162,190328,1,0,0:0:0:0:
512,8,190536,1,8,0:0:0:0:
348,97,190745,1,0,0:0:0:0:
511,145,190953,1,0,0:0:0:0:
398,6,191161,1,0,0:0:0:0:
330,193,191370,1,8,0:0:0:0:
431,107,191578,1,4,0:0:0:0:
229,143,191786,6,0,P|223:224|225:290,1,140.25000428009,4|0,0:2|2:0,0:0:0:0:
229,312,192203,1,8,0:0:0:0:
353,210,192411,1,0,0:0:0:0:
229,143,192620,1,0,0:0:0:0:
354,341,192828,1,0,0:0:0:0:
354,341,193036,2,0,P|399:349|446:350,1,93.5000028533936,8|0,0:0|0:0,0:0:0:0:
512,159,193453,5,0,0:0:0:0:
447,350,193661,1,0,0:0:0:0:
368,198,193870,1,8,0:0:0:0:
512,250,194078,1,0,0:0:0:0:
354,341,194286,1,0,0:0:0:0:
368,198,194495,1,0,0:0:0:0:
170,288,194703,2,0,P|115:274|79:269,1,93.5000028533936,8|0,0:0|0:0,0:0:0:0:
210,141,195120,6,0,P|267:218|240:280,1,140.25000428009,0|0,0:0|2:0,0:0:0:0:
242,351,195536,2,0,P|297:337|333:332,1,93.5000028533936,8|0,0:0|0:0,0:0:0:0:
493,261,195953,1,0,0:0:0:0:
352,198,196161,1,0,0:0:0:0:
501,50,196370,2,0,P|492:113|480:159,1,93.5000028533936,8|0,0:0|0:0,0:0:0:0:
358,63,196786,5,0,0:0:0:0:
485,142,196995,1,0,0:0:0:0:
281,221,197203,1,8,0:0:0:0:
265,54,197411,1,0,0:0:0:0:
265,54,197515,1,0,0:0:0:0:
265,54,197620,5,4,0:0:0:0:
285,84,197724,1,0,0:0:0:0:
291,120,197828,1,0,0:0:0:0:
284,156,197932,1,0,0:0:0:0:
265,188,198036,2,0,P|253:225|250:249,3,46.7500014266968,0|0|0|0,0:0|0:0|0:0|0:0,0:0:0:0:
278,329,198453,6,0,P|213:305|138:303,1,140.25000428009,4|0,0:2|2:0,0:0:0:0:
25,226,198870,2,0,P|69:220|125:200,1,93.5000028533936,8|0,0:0|0:0,0:0:0:0:
203,129,199286,1,0,0:0:0:0:
31,18,199495,1,0,0:0:0:0:
31,18,199703,2,0,L|44:126,1,93.5000028533936,8|0,0:0|0:0,0:0:0:0:
246,34,200120,5,0,0:0:0:0:
42,110,200328,1,0,0:0:0:0:
161,0,200536,1,8,0:0:0:0:
195,159,200745,1,0,0:0:0:0:
65,29,200953,1,0,0:0:0:0:
246,34,201161,1,0,0:0:0:0:
87,189,201370,2,0,P|78:252|79:304,1,93.5000028533936,8|0,0:0|0:0,0:0:0:0:
309,347,201786,6,0,P|236:308|169:321,1,140.25000428009,0|0,0:0|2:0,0:0:0:0:
300,246,202203,2,0,P|322:205|333:158,1,93.5000028533936,8|0,0:0|0:0,0:0:0:0:
329,51,202620,1,0,0:0:0:0:
512,164,202828,1,0,0:0:0:0:
512,164,202932,1,0,0:0:0:0:
512,164,203036,2,0,P|459:159|398:148,1,93.5000028533936,8|0,0:0|0:0,0:0:0:0:
329,51,203453,5,0,0:0:0:0:
374,248,203661,1,0,0:0:0:0:
245,117,203870,1,8,0:0:0:0:
419,152,204078,1,0,0:0:0:0:
271,224,204286,1,0,0:0:0:0:
329,51,204495,1,0,0:0:0:0:
374,248,204703,1,8,0:0:0:0:
245,117,204911,1,4,0:0:0:0:
496,126,205120,6,0,P|482:196|482:281,1,140.25000428009,4|0,0:2|2:0,0:0:0:0:
506,361,205536,2,0,P|463:344|412:341,1,93.5000028533936,8|0,0:0|0:0,0:0:0:0:
301,266,205953,1,0,0:0:0:0:
158,362,206161,1,0,0:0:0:0:
158,362,206370,2,0,P|163:315|163:260,1,93.5000028533936,8|0,0:0|0:0,0:0:0:0:
23,124,206786,5,0,0:0:0:0:
162,267,206995,1,0,0:0:0:0:
165,104,207203,1,8,0:0:0:0:
69,213,207411,1,0,0:0:0:0:
247,187,207620,1,0,0:0:0:0:
165,104,207828,1,0,0:0:0:0:
387,13,208036,2,0,P|370:72|343:117,1,93.5000028533936,8|0,0:0|0:0,0:0:0:0:
247,187,208453,6,0,P|299:257|306:323,1,140.25000428009
189,374,208870,2,0,P|207:306|237:266,1,93.5000028533936,8|0,0:0|0:0,0:0:0:0:
426,222,209286,1,0,0:0:0:0:
307,307,209495,1,0,0:0:0:0:
407,138,209703,2,0,P|476:146|513:145,1,93.5000028533936,8|0,0:0|0:0,0:0:0:0:
277,58,210120,5,8,0:0:0:0:
122,170,210328,1,4,0:2:0:0:
234,325,210536,1,8,0:0:0:0:
389,213,210745,1,0,0:0:0:0:
176,82,210953,5,4,0:2:0:0:
146,271,211161,1,0,0:0:0:0:
335,301,211370,1,0,0:0:0:0:
365,112,211578,1,0,0:0:0:0:
365,112,211682,1,0,0:0:0:0:
365,112,211786,1,0,0:0:0:0:
315,90,218245,5,0,0:0:0:0:
315,90,218453,2,0,P|362:35|431:51,1,127.500004863739,0|2,0:0|0:0,0:0:0:0:
507,170,219286,2,0,P|485:245|477:309,1,127.500004863739,0|2,0:0|0:0,0:0:0:0:
414,365,219911,1,0,0:0:0:0:
357,287,220120,2,0,P|320:284|275:269,1,63.7500024318696,0|0,0:0|0:0,0:0:0:0:
230,334,220536,2,0,P|205:305|184:263,1,63.7500024318696,2|0,0:0|0:0,0:0:0:0:
109,268,220953,2,0,P|112:231|127:186,1,63.7500024318696,0|0,0:0|0:0,0:0:0:0:
60,140,221370,2,0,P|88:115|130:94,1,63.7500024318696,2|0,0:0|0:0,0:0:0:0:
328,177,221786,6,0,P|402:180|472:156,1,127.500004863739,0|2,0:0|0:0,0:0:0:0:
499,82,222411,1,0,0:0:0:0:
353,24,222620,2,0,L|361:106,1,63.7500024318696,0|0,0:0|0:0,0:0:0:0:
446,228,223036,2,0,L|454:146,1,63.7500024318696,2|0,0:0|0:0,0:0:0:0:
345,291,223453,5,0,0:0:0:0:
249,325,223661,1,0,1:0:0:0:
156,281,223870,1,0,0:0:0:0:
122,185,224078,1,0,0:0:0:0:
166,92,224286,1,8,0:0:0:0:
262,58,224495,1,0,0:0:0:0:
355,102,224703,1,8,0:0:0:0:
389,198,224911,1,8,0:0:0:0:
352,283,225120,6,0,P|457:259|472:159,1,203.999993774414,4|8,0:2|0:0,0:0:0:0:
448,77,225745,1,0,0:0:0:0:
257,214,225953,2,0,P|266:272|270:332,1,101.999996887207,0|0,0:0|0:0,0:0:0:0:
190,380,226370,1,8,0:0:0:0:
190,380,226578,1,0,0:0:0:0:
371,384,226786,6,0,P|376:338|389:272,1,101.999996887207,0|0,0:0|0:0,0:0:0:0:
477,175,227203,2,0,P|420:173|363:136,1,101.999996887207,8|0,0:0|0:0,0:0:0:0:
302,37,227620,1,0,0:0:0:0:
460,64,227828,1,0,0:0:0:0:
460,64,227932,1,0,0:0:0:0:
460,64,228036,1,8,0:0:0:0:
302,37,228245,1,0,0:0:0:0:
256,192,228453,6,0,P|257:257|261:318,1,101.999996887207,0|0,0:0|0:0,0:0:0:0:
44,346,228870,1,8,0:0:0:0:
148,253,229078,1,0,0:0:0:0:
0,109,229286,2,0,P|45:125|102:132,1,101.999996887207,0|0,0:0|0:0,0:0:0:0:
277,38,229703,1,8,0:0:0:0:
146,0,229911,1,0,0:0:0:0:
233,191,230120,6,0,P|270:157|340:144,1,101.999996887207,0|0,0:0|0:0,0:0:0:0:
473,95,230536,2,0,P|422:83|382:40,1,101.999996887207,8|0,0:0|0:0,0:0:0:0:
512,14,230953,1,0,0:0:0:0:
318,143,231161,1,0,0:0:0:0:
487,208,231370,1,8,0:0:0:0:
508,248,231474,1,0,0:0:0:0:
511,293,231578,1,4,0:0:0:0:
495,336,231682,1,0,0:0:0:0:
460,363,231786,6,0,P|411:346|343:337,1,101.999996887207,4|0,0:2|0:0,0:0:0:0:
304,227,232203,1,8,0:0:0:0:
487,208,232411,1,0,0:0:0:0:
335,31,232620,2,0,L|323:148,1,101.999996887207,0|0,0:0|0:0,0:0:0:0:
220,304,233036,2,0,L|212:202,1,101.999996887207,8|0,0:0|0:0,0:0:0:0:
64,379,233453,5,0,0:0:0:0:
221,305,233661,1,0,0:0:0:0:
36,155,233870,1,8,0:0:0:0:
115,271,234078,1,0,0:0:0:0:
115,271,234182,1,0,0:0:0:0:
115,271,234286,1,0,0:0:0:0:
182,150,234495,1,0,0:0:0:0:
100,40,234703,2,0,P|49:55|-9:57,1,101.999996887207,8|0,0:0|0:0,0:0:0:0:
204,0,235120,6,0,P|190:62|183:178,1,152.999995330811,0|0,0:0|0:0,0:0:0:0:
138,231,235536,2,0,B|223:266|207:205|291:240,1,152.999995330811,8|0,0:1|0:0,0:0:0:0:
390,95,235953,2,0,P|341:101|296:131,1,101.999996887207,0|0,0:3|0:3,0:0:0:0:
388,203,236265,1,0,0:0:0:0:
388,203,236370,2,0,P|402:253|406:317,1,101.999996887207,8|0,0:0|0:0,0:0:0:0:
484,222,236786,5,0,0:0:0:0:
338,368,236995,1,0,0:0:0:0:
151,275,237203,1,8,0:0:0:0:
297,129,237411,1,0,0:0:0:0:
297,129,237515,1,0,0:0:0:0:
297,129,237620,1,0,0:0:0:0:
151,275,237828,1,0,0:0:0:0:
301,255,238036,1,8,0:0:0:0:
110,151,238245,1,4,0:0:0:0:
60,383,238453,6,0,P|130:357|261:340,1,203.999993774414,4|8,0:2|0:0,0:0:0:0:
348,363,239078,1,0,0:0:0:0:
416,246,239286,2,0,P|363:250|302:242,1,101.999996887207,0|0,0:0|0:0,0:0:0:0:
136,159,239703,2,0,P|189:155|250:163,1,101.999996887207,8|0,0:0|0:0,0:0:0:0:
60,13,240120,5,0,0:0:0:0:
196,58,240328,1,0,0:0:0:0:
0,137,240536,2,0,P|12:188|17:245,1,101.999996887207,8|0,0:0|0:0,0:0:0:0:
0,374,240953,2,0,P|46:349|97:335,1,101.999996887207,0|0,0:0|0:0,0:0:0:0:
276,324,241370,1,8,0:0:0:0:
118,176,241578,1,0,0:0:0:0:
118,176,241682,1,0,0:0:0:0:
118,176,241786,5,0,0:0:0:0:
168,297,241995,1,0,0:0:0:0:
302,151,242203,2,0,P|353:130|406:130,1,101.999996887207,8|0,0:0|0:0,0:0:0:0:
505,204,242620,1,0,0:0:0:0:
361,270,242828,1,0,0:0:0:0:
313,35,243036,1,8,0:0:0:0:
399,128,243245,1,0,0:0:0:0:
219,179,243453,6,0,P|168:174|117:175,1,101.999996887207,0|0,0:0|0:0,0:0:0:0:
40,13,243870,2,0,P|90:18|140:56,1,101.999996887207,8|0,0:0|0:0,0:0:0:0:
117,174,244286,1,0,0:0:0:0:
20,302,244495,1,0,0:0:0:0:
20,302,244599,1,0,0:0:0:0:
20,302,244703,2,0,P|14:350|13:362,1,50.9999984436036,8|0,0:0|0:0,0:0:0:0:
123,224,244911,2,0,P|120:198|116:173,1,50.9999984436036,4|0,0:0|0:0,0:0:0:0:
247,282,245120,6,0,P|259:336|258:383,1,101.999996887207,4|0,0:2|0:0,0:0:0:0:
105,313,245536,1,8,0:0:0:0:
259,200,245745,1,0,0:0:0:0:
148,106,245953,2,0,P|213:107|259:96,1,101.999996887207,0|0,0:0|0:0,0:0:0:0:
448,154,246370,2,0,P|398:163|348:161,1,101.999996887207,8|0,0:0|0:0,0:0:0:0:
512,30,246786,5,0,0:0:0:0:
451,256,246995,1,0,0:0:0:0:
366,67,247203,1,8,0:0:0:0:
366,67,247307,1,0,0:0:0:0:
366,67,247411,1,0,0:0:0:0:
448,154,247620,1,0,0:0:0:0:
279,265,247828,1,0,0:0:0:0:
167,118,248036,2,0,P|226:117|283:133,1,101.999996887207,8|0,0:0|0:0,0:0:0:0:
58,210,248453,6,0,B|40:284|74:301|56:364,1,152.999995330811,0|0,0:0|0:0,0:0:0:0:
278,264,248870,2,0,P|206:240|131:248,1,152.999995330811,8|0,0:0|0:0,0:0:0:0:
252,139,249286,2,0,P|299:141|355:121,1,101.999996887207,0|0,0:0|0:0,0:0:0:0:
452,50,249599,1,0,0:0:0:0:
452,50,249703,2,0,L|436:166,1,101.999996887207,8|0,0:0|0:0,0:0:0:0:
500,257,250120,5,0,0:0:0:0:
288,270,250328,1,0,0:0:0:0:
438,151,250536,1,8,0:0:0:0:
476,357,250745,1,0,0:0:0:0:
476,357,250849,1,0,0:0:0:0:
476,357,250953,5,0,0:0:0:0:
436,380,251057,1,0,0:0:0:0:
390,384,251161,1,0,0:0:0:0:
347,365,251265,1,0,0:0:0:0:
315,330,251370,1,8,0:0:0:0:
276,305,251474,1,0,0:0:0:0:
230,301,251578,1,0,0:0:0:0:
189,323,251682,1,0,0:0:0:0:
165,362,251786,6,0,P|112:353|62:349,1,101.999996887207,4|2,0:0|0:2,0:0:0:0:
0,232,252099,1,0,0:0:0:0:
0,232,252203,2,0,P|55:227|113:216,1,101.999996887207,8|2,0:0|0:2,0:0:0:0:
22,0,252620,2,0,P|28:53|32:116,1,101.999996887207,0|2,0:0|0:2,0:0:0:0:
101,218,253036,1,8,0:0:0:0:
194,80,253245,1,2,0:2:0:0:
331,231,253453,6,0,P|281:229|220:214,1,101.999996887207,0|2,0:0|0:2,2:2:0:0:
386,347,253870,2,0,P|443:313|501:312,1,101.999996887207,8|2,0:0|0:2,2:2:0:0:
331,231,254286,1,0,0:0:0:0:
500,174,254495,1,2,0:2:0:0:
500,174,254599,1,0,0:0:0:0:
500,174,254703,1,8,0:0:0:0:
448,0,254911,1,2,0:2:0:0:
448,0,255015,1,0,0:0:0:0:
448,0,255120,6,0,P|432:56|425:117,1,101.999996887207,0|0,0:0|0:0,0:0:0:0:
270,189,255536,1,8,0:0:0:0:
423,212,255745,1,2,0:2:0:0:
267,61,255953,1,0,0:0:0:0:
228,35,256057,1,0,0:0:0:0:
182,29,256161,1,0,0:0:0:0:
138,43,256265,1,0,0:0:0:0:
113,82,256370,2,0,P|105:132|106:158,3,50.9999984436036,8|0|2|0,0:0|0:0|0:2|0:0,2:2:0:0:
27,175,256786,6,0,L|39:294,1,101.999996887207,0|2,0:0|0:2,2:2:0:0:
208,180,257203,1,8,0:0:0:0:
37,276,257411,1,0,0:0:0:0:
214,353,257620,1,0,0:0:0:0:
391,251,257828,2,0,P|349:241|323:239,1,50.9999984436036,0|0,0:0|2:0,0:0:0:0:
208,180,258036,2,0,P|250:170|276:168,1,50.9999984436036,8|0,0:0|2:0,2:2:0:0:
224,303,258245,2,0,P|214:345|212:371,1,50.9999984436036,4|0,0:0|2:0,2:2:0:0:
111,250,258453,6,0,P|96:219|87:149,1,101.999996887207,4|2,0:2|0:2,0:0:0:0:
234,29,258765,1,0,0:0:0:0:
234,29,258870,2,0,L|220:143,1,101.999996887207,8|2,0:0|0:2,0:0:0:0:
11,62,259286,2,0,L|112:60,1,101.999996887207,0|2,0:0|0:2,0:0:0:0:
221,130,259599,1,0,0:0:0:0:
221,130,259703,2,0,L|330:126,1,101.999996887207,8|2,0:0|0:2,0:0:0:0:
449,40,260120,5,0,0:0:0:0:
269,16,260328,1,2,0:2:0:0:
381,193,260536,1,8,0:0:0:0:
196,291,260745,1,2,0:2:0:0:
196,291,260849,1,0,0:0:0:0:
196,291,260953,2,0,P|195:231|214:178,1,101.999996887207,0|2,0:0|0:2,0:0:0:0:
307,102,261370,2,0,P|241:100|176:77,1,101.999996887207,8|2,0:0|0:2,0:0:0:0:
411,16,261786,6,0,P|461:13|520:24,1,101.999996887207,0|2,0:0|0:2,0:0:0:0:
416,209,262203,1,8,0:0:0:0:
459,102,262411,1,2,0:2:0:0:
488,297,262620,1,0,0:0:0:0:
452,325,262724,1,0,0:0:0:0:
406,327,262828,1,2,0:2:0:0:
363,310,262932,1,0,0:0:0:0:
328,280,263036,2,0,P|303:273|263:271,3,50.9999984436036,8|0|2|0,0:0|0:0|0:2|0:0,0:0:0:0:
203,210,263453,5,0,0:0:0:0:
101,324,263661,1,2,0:2:0:0:
32,111,263870,2,0,P|67:119|149:126,1,101.999996887207,8|2,0:0|0:2,0:0:0:0:
297,43,264286,1,0,0:0:0:0:
222,235,264495,2,0,P|213:274|209:302,1,50.9999984436036,2|0,0:2|0:0,0:0:0:0:
318,217,264703,1,8,0:0:0:0:
355,245,264807,1,2,0:2:0:0:
400,256,264911,1,2,0:2:0:0:
446,252,265015,1,2,0:2:0:0:
485,227,265120,5,4,0:2:0:0:
265,159,265328,1,0,0:0:0:0:
408,345,265536,1,4,0:2:0:0:
403,116,265745,1,0,0:0:0:0:
262,299,265953,2,0,P|215:303|152:274,1,101.999996887207,4|0,0:0|0:0,0:0:0:0:
81,176,266370,1,8,0:0:0:0:
100,345,266578,6,0,P|196:383|299:375,1,203.999993774414
370,221,267203,1,8,0:0:0:0:
408,345,267411,1,0,0:0:0:0:
230,214,267620,2,0,L|254:84,1,101.999996887207,0|0,0:0|0:0,0:0:0:0:
360,67,268036,1,8,0:0:0:0:
166,55,268245,6,0,L|125:271,1,203.999993774414
30,224,268870,1,8,0:0:0:0:
113,140,269078,1,0,0:0:0:0:
230,214,269286,2,0,P|235:271|213:324,1,101.999996887207,0|0,0:0|0:0,0:0:0:0:
108,363,269703,1,8,0:0:0:0:
295,380,269911,6,0,P|327:278|315:172,1,203.999993774414
243,46,270536,1,8,0:0:0:0:
394,71,270745,1,0,0:0:0:0:
216,154,270953,2,0,L|224:269,1,101.999996887207,0|0,0:0|0:0,0:0:0:0:
93,334,271370,2,0,L|100:232,1,101.999996887207,8|4,0:0|0:2,0:0:0:0:
23,114,271786,5,4,0:0:0:0:
243,46,271995,1,0,0:0:0:0:
100,232,272203,1,8,0:0:0:0:
105,3,272411,1,0,0:0:0:0:
246,186,272620,2,0,P|293:190|371:207,1,101.999996887207,0|0,0:0|0:0,0:0:0:0:
436,284,273036,1,8,0:0:0:0:
410,121,273245,6,0,P|309:101|206:92,1,203.999993774414
23,114,273870,1,8,0:0:0:0:
105,3,274078,1,0,0:0:0:0:
139,198,274286,2,0,B|136:247|136:247|119:314,1,101.999996887207
14,355,274703,1,8,0:0:0:0:
207,366,274911,6,0,B|232:263|232:263|238:166,1,203.999993774414,4|0,1:2|0:0,0:0:0:0:
171,62,275536,1,8,0:0:0:0:
327,9,275745,1,0,0:0:0:0:
238,164,275953,2,0,P|286:181|337:183,1,101.999996887207
449,133,276370,1,8,0:0:0:0:
372,271,276578,6,0,P|269:268|172:234,1,203.999993774414,4|0,1:2|0:0,0:0:0:0:
61,129,277203,1,4,1:2:0:0:
198,33,277411,1,0,0:0:0:0:
340,136,277620,2,0,B|355:187|355:187|338:233,1,101.999996887207
174,235,278036,2,0,B|157:187|157:187|171:128,1,101.999996887207,8|0,0:0|0:0,0:0:0:0:
255,184,278453,5,4,0:0:0:0:
19,39,285120,6,0,P|48:11|97:6,1,85,0|0,0:0|0:0,0:0:0:0:
177,85,285536,2,0,L|201:267,1,170,8|0,0:0|0:0,0:0:0:0:
153,346,286161,2,0,P|114:334|59:337,1,85,0|8,0:0|0:0,0:0:0:0:
284,314,286578,6,0,P|334:336|452:345,1,170,0|0,0:0|0:0,0:0:0:0:
505,241,287203,1,8,0:0:0:0:
361,250,287411,1,0,0:0:0:0:
431,96,287620,2,0,P|438:147|430:201,1,85,0|0,0:0|0:0,0:0:0:0:
361,250,288036,1,8,0:0:0:0:
164,157,288245,6,0,B|117:156|80:176|80:176|42:154|-11:156,1,170,0|0,0:0|0:0,0:0:0:0:
125,0,288870,2,0,P|177:26|184:72,1,85,8|0,0:0|0:0,0:0:0:0:
164,157,289286,1,0,0:0:0:0:
197,281,289495,1,0,0:0:0:0:
53,312,289703,1,8,0:0:0:0:
198,366,289911,6,0,P|195:299|202:256,1,85,4|0,0:2|0:0,0:0:0:0:
256,192,290328,1,0,0:0:0:0:
427,167,290536,2,0,P|371:203|330:218,1,85,4|0,0:2|0:0,0:0:0:0:
256,192,290953,1,0,0:0:0:0:
150,56,291161,2,0,P|209:87|243:115,1,85,4|0,0:0|0:0,0:0:0:0:
