osu file format v14

[General]
AudioFilename: audio.mp3
AudioLeadIn: 0
PreviewTime: 128140
Countdown: 0
SampleSet: Normal
StackLeniency: 0.7
Mode: 0
LetterboxInBreaks: 0
WidescreenStoryboard: 1

[Editor]
DistanceSpacing: 1.25
BeatDivisor: 4
GridSize: 32
TimelineZoom: 1

[Metadata]
Title:Escapist
TitleUnicode:Escapist
Artist:Nightwish
ArtistUnicode:Nightwish
Creator:pw384
Version:Normal
Source:
Tags:Dark Passion Play symphonic metal tm1209 encorew ametrin 384059043
BeatmapID:1282653
BeatmapSetID:604273

[Difficulty]
HPDrainRate:4
CircleSize:4
OverallDifficulty:4.5
ApproachRate:5
SliderMultiplier:1.2
SliderTickRate:1

[Events]
//Background and Video events
0,0,"bg2.jpg",0,0
//Break Periods
2,88473,100140
2,158652,163920
2,211986,217253
2,279903,283920
//Storyboard Layer 0 (Background)
//Storyboard Layer 1 (Fail)
//Storyboard Layer 2 (Pass)
//Storyboard Layer 3 (Foreground)
//Storyboard Sound Samples

[TimingPoints]
120,416.666666666667,4,2,0,40,1,0
48453,-100,4,1,1,75,0,0
68453,-100,4,1,1,80,0,0
71786,-100,4,1,1,85,0,0
75120,-100,4,3,1,60,0,0
88453,-100,4,1,1,75,0,0
101786,-100,4,3,1,60,0,0
115120,-100,4,1,1,60,0,0
125745,-100,4,1,1,60,0,0
126370,-100,4,1,1,60,0,0
126995,-100,4,1,1,60,0,0
127620,-100,4,1,1,70,0,0
128453,-100,4,1,1,75,0,1
141370,-100,4,1,1,75,0,0
141786,-100,4,1,1,75,0,1
155120,-100,4,1,1,75,0,0
178453,-100,4,1,1,60,0,0
180120,-100,4,1,1,60,0,0
181786,-100,4,1,1,60,0,0
183453,-100,4,1,1,50,0,0
183661,-100,4,1,1,55,0,0
183870,-100,4,1,1,60,0,0
184286,-100,4,1,1,65,0,0
184703,-100,4,1,1,70,0,0
185120,-100,4,1,1,75,0,0
197620,-100,4,2,1,60,0,0
198453,-100,4,1,1,75,0,0
210953,-100,4,1,1,60,0,0
211786,-100,4,1,1,60,0,0
218453,-100,4,2,0,60,0,0
223453,-100,4,2,0,70,0,0
224286,-100,4,1,1,80,0,0
225120,-100,4,1,1,80,0,1
238036,-100,4,1,1,80,0,0
238453,-100,4,1,1,80,0,1
251370,-100,4,1,1,80,0,0
251786,-100,4,1,1,80,0,1
264703,-100,4,1,1,80,0,0
265120,-100,4,1,1,80,0,1
278453,-100,4,1,1,80,0,0
285120,-100,4,1,1,80,0,0
289911,-100,4,1,1,80,0,1
291578,-100,4,1,1,80,0,0

[Colours]
Combo1 : 207,187,118
Combo2 : 170,105,74
Combo3 : 120,89,54

[HitObjects]
40,96,48453,6,0,L|160:88,1,120,4|8,0:2|0:0,0:0:0:0:
219,42,49078,1,0,0:0:0:0:
219,42,49286,1,0,0:0:0:0:
347,119,49703,2,0,L|407:115,1,60,8|0,0:0|0:0,0:0:0:0:
459,61,50120,5,0,0:0:0:0:
386,192,50536,1,8,0:0:0:0:
459,323,50953,2,0,L|471:261,2,60,0|0|12,0:0|2:0|0:0,0:0:0:0:
309,306,51786,6,0,P|257:300|184:326,1,120,4|8,0:2|0:0,0:0:0:0:
122,295,52411,1,0,0:0:0:0:
122,295,52620,1,0,0:0:0:0:
149,147,53036,2,0,L|159:87,1,60,8|0,0:0|0:0,0:0:0:0:
176,17,53453,6,0,L|48:29,1,120,0|8,0:0|0:0,0:0:0:0:
149,147,54286,2,0,L|268:135,1,120,0|12,0:0|0:0,0:0:0:0:
320,81,54911,1,0,0:0:0:0:
320,81,55120,6,0,P|341:118|316:196,1,120,4|8,0:2|0:0,0:0:0:0:
251,214,55745,2,0,L|191:219,1,60,0|0,0:0|0:0,0:0:0:0:
97,337,56370,2,0,L|156:342,1,60,8|0,0:0|0:0,0:0:0:0:
230,352,56786,5,0,0:0:0:0:
354,268,57203,1,8,0:0:0:0:
354,116,57620,1,0,0:0:0:0:
230,32,58036,1,12,0:0:0:0:
88,81,58453,6,0,P|62:127|69:204,1,120,4|8,0:2|0:0,0:0:0:0:
89,263,59078,1,0,0:0:0:0:
89,263,59286,1,0,0:0:0:0:
197,160,59703,2,0,L|266:153,1,60,8|0,0:0|0:0,0:0:0:0:
332,145,60120,5,0,0:0:0:0:
244,266,60536,1,8,0:0:0:0:
364,356,60953,1,0,0:0:0:0:
455,230,61370,2,0,L|464:167,1,60,12|8,0:0|0:0,0:0:0:0:
472,96,61786,6,0,L|352:88,1,120,4|8,0:2|0:0,0:0:0:0:
293,42,62411,1,0,0:0:0:0:
293,42,62620,1,0,0:0:0:0:
165,119,63036,2,0,L|105:115,1,60,8|0,0:0|0:0,0:0:0:0:
53,61,63453,5,0,0:0:0:0:
126,192,63870,1,8,0:0:0:0:
53,323,64286,2,0,L|41:261,2,60,0|0|12,0:0|2:0|0:0,0:0:0:0:
203,306,65120,6,0,P|255:300|328:326,1,120,4|8,0:2|0:0,0:0:0:0:
390,295,65745,1,0,0:0:0:0:
390,295,65953,1,0,0:0:0:0:
363,147,66370,2,0,L|352:87,1,60,8|0,0:0|0:0,0:0:0:0:
336,17,66786,6,0,L|464:29,1,120,0|8,0:0|0:0,0:0:0:0:
363,147,67620,2,0,L|243:135,1,120,0|12,0:0|0:0,0:0:0:0:
192,81,68245,1,0,2:0:0:0:
192,81,68453,6,0,P|171:118|196:196,1,120,4|8,0:2|0:0,0:0:0:0:
261,214,69078,2,0,L|320:219,1,60,0|0,0:0|0:0,0:0:0:0:
415,337,69703,2,0,L|355:342,1,60,8|0,0:0|0:0,0:0:0:0:
282,352,70120,5,0,0:0:0:0:
158,268,70536,1,8,0:0:0:0:
158,116,70953,1,0,0:0:0:0:
282,32,71370,1,12,0:0:0:0:
406,116,71786,6,0,L|396:246,1,120,4|8,0:2|0:0,0:0:0:0:
424,305,72411,1,0,0:0:0:0:
371,358,72620,2,0,P|324:350|251:350,1,120,4|8,0:2|0:0,0:0:0:0:
140,249,73453,2,0,P|188:239|331:229,2,180,4|4|4,0:2|0:2|1:2,0:0:0:0:
27,348,75120,6,0,L|97:356,2,60,0|0|0,0:0|0:0|0:0,0:0:0:0:
59,201,75953,2,0,L|54:137,1,60,0|0,0:0|0:0,0:0:0:0:
133,13,76578,1,0,0:0:0:0:
271,70,76995,2,0,L|339:64,1,60
439,168,77620,2,0,L|433:227,1,60
362,251,78036,2,0,L|367:310,1,60
256,209,78661,5,0,0:0:0:0:
256,209,78870,1,0,0:0:0:0:
145,310,79286,2,0,L|151:251,1,60
40,148,79911,1,0,0:0:0:0:
189,119,80328,2,0,L|249:115,1,60,0|0,0:0|0:0,0:0:0:0:
294,257,80953,2,0,L|354:253,1,60,0|0,0:0|0:0,0:0:0:0:
417,211,81370,2,0,L|477:215,1,60,0|0,0:0|0:0,0:0:0:0:
456,66,81995,5,0,0:0:0:0:
456,66,82203,1,0,0:0:0:0:
316,9,82620,2,0,L|311:70,1,60,0|0,0:0|0:0,0:0:0:0:
178,138,83245,1,0,0:0:0:0:
28,139,83661,2,0,L|33:200,1,60,0|0,0:0|0:0,0:0:0:0:
182,216,84286,2,0,L|187:277,1,60,0|0,0:0|0:0,0:0:0:0:
256,304,84703,2,0,L|251:365,1,60,0|0,0:0|0:0,0:0:0:0:
399,344,85328,5,0,0:0:0:0:
399,344,85536,1,0,0:0:0:0:
411,194,85953,2,0,L|416:133,1,60,0|0,0:0|0:0,0:0:0:0:
304,33,86578,1,0,0:0:0:0:
234,60,86786,6,0,L|109:57,1,120,0|8,0:0|0:1,0:0:0:0:
156,201,87620,2,0,L|31:198,1,120,0|8,0:0|0:1,0:0:0:0:
485,348,101786,6,0,L|415:356,2,60,0|0|0,0:0|0:0|0:0,0:0:0:0:
453,201,102620,2,0,L|458:137,1,60,0|0,0:0|0:0,0:0:0:0:
379,13,103245,1,0,0:0:0:0:
241,70,103661,2,0,L|173:64,1,60
73,168,104286,2,0,L|79:227,1,60
150,251,104703,2,0,L|145:310,1,60
256,209,105328,5,0,0:0:0:0:
256,209,105536,1,0,0:0:0:0:
367,310,105953,2,0,L|361:251,1,60
472,148,106578,1,0,0:0:0:0:
323,119,106995,2,0,L|263:115,1,60,0|0,0:0|0:0,0:0:0:0:
218,257,107620,2,0,L|158:253,1,60,0|0,0:0|0:0,0:0:0:0:
95,211,108036,2,0,L|35:215,1,60,0|0,0:0|0:0,0:0:0:0:
56,66,108661,5,0,0:0:0:0:
56,66,108870,1,0,0:0:0:0:
196,9,109286,2,0,L|201:70,1,60,0|0,0:0|0:0,0:0:0:0:
334,138,109911,1,0,0:0:0:0:
484,139,110328,2,0,L|479:200,1,60,0|0,0:0|0:0,0:0:0:0:
330,216,110953,2,0,L|325:277,1,60,0|0,0:0|0:0,0:0:0:0:
256,304,111370,2,0,L|261:365,1,60,0|0,0:0|0:0,0:0:0:0:
113,344,111995,5,0,0:0:0:0:
113,344,112203,1,0,0:0:0:0:
101,194,112620,2,0,L|96:133,1,60,0|0,0:0|0:0,0:0:0:0:
208,33,113245,1,0,0:0:0:0:
278,60,113453,6,0,L|403:57,1,120,0|8,0:0|0:1,0:0:0:0:
377,129,114078,1,0,0:0:0:0:
356,201,114286,2,0,L|481:198,1,120,0|8,0:0|0:1,0:0:0:0:
422,338,115120,6,0,L|297:335,1,120,4|8,0:2|0:0,0:0:0:0:
184,241,115953,2,0,L|117:245,1,60,0|0,0:0|0:0,0:0:0:0:
60,285,116370,2,0,L|-7:281,1,60,8|0,0:0|0:0,0:0:0:0:
31,134,116995,1,0,0:0:0:0:
31,134,117203,1,8,0:0:0:0:
145,37,117620,2,0,L|212:41,1,60,0|0,0:0|0:0,0:0:0:0:
269,81,118036,2,0,L|336:77,1,60,8|0,0:0|0:0,0:0:0:0:
389,33,118453,6,0,P|404:72|360:144,1,120,0|8,0:0|0:0,0:0:0:0:
254,233,119286,2,0,P|258:267|273:292,1,60,0|0,0:0|0:0,0:0:0:0:
338,321,119703,2,0,P|334:355|319:380,1,60,8|0,0:0|0:0,0:0:0:0:
172,356,120328,1,0,0:0:0:0:
172,356,120536,1,8,0:0:0:0:
254,233,120953,2,0,L|321:229,1,60,0|0,0:0|0:0,0:0:0:0:
378,189,121370,2,0,L|445:193,1,60,8|0,0:0|0:0,0:0:0:0:
495,144,121786,6,0,P|509:90|489:19,1,120,0|8,0:0|0:0,0:0:0:0:
354,83,122620,2,0,L|287:79,1,60,0|0,0:0|0:0,0:0:0:0:
217,79,123036,2,0,L|158:83,1,60,8|0,0:0|0:0,0:0:0:0:
87,55,123453,6,0,P|74:111|75:181,1,120,0|8,0:0|0:0,0:0:0:0:
120,232,124078,1,0,0:0:0:0:
120,306,124286,2,0,P|176:293|246:294,1,120,0|8,0:0|0:0,0:0:0:0:
386,319,125120,6,0,L|395:379,2,60,4|0|8,0:2|0:0|0:0,0:0:0:0:
315,288,125745,2,0,P|387:242|457:290,1,180,4|4,0:2|0:2,0:0:0:0:
413,90,128245,1,8,0:0:0:0:
413,90,128453,6,0,P|349:101|293:93,1,120,4|8,0:2|0:0,0:0:0:0:
153,43,129286,2,0,P|93:35|34:46,1,120,0|8,0:0|0:0,0:0:0:0:
3,115,129911,1,0,0:0:0:0:
56,168,130120,6,0,L|49:227,2,60,0|0|8,0:0|0:0|0:0,0:0:0:0:
192,230,130953,2,0,L|178:352,1,120,0|8,0:0|0:0,0:0:0:0:
333,349,131786,6,0,L|320:230,1,120,0|8,0:0|0:0,0:0:0:0:
364,169,132411,2,0,P|403:165|438:170,1,60
370,26,133036,2,0,P|331:22|296:27,1,60,8|0,0:0|0:0,0:0:0:0:
260,80,133453,6,0,P|214:88|139:81,1,120,0|8,0:0|0:0,0:0:0:0:
89,26,134078,1,0,0:0:0:0:
89,26,134286,1,0,0:0:0:0:
35,168,134703,2,0,L|37:228,1,60,8|4,0:0|0:0,0:0:0:0:
73,293,135120,6,0,L|195:302,2,120,4|8|0,0:2|0:0|0:0,0:0:0:0:
161,172,136370,2,0,L|222:176,1,60,8|0,0:0|0:0,0:0:0:0:
291,207,136786,6,0,L|351:212,2,60,0|0|8,0:0|0:0|0:0,0:0:0:0:
256,61,137620,1,0,0:0:0:0:
400,100,138036,2,0,L|461:104,1,60,8|0,0:0|0:0,0:0:0:0:
505,164,138453,6,0,P|512:227|497:285,1,120,0|8,0:0|0:0,0:0:0:0:
353,243,139286,2,0,P|290:236|232:251,1,120,0|8,0:0|0:0,0:0:0:0:
126,352,140120,6,0,L|58:361,2,60,0|0|8,0:0|0:0|0:0,0:0:0:0:
32,234,140953,2,0,P|21:170|29:114,1,120,0|8,0:0|0:0,0:0:0:0:
99,90,141578,1,0,0:0:0:0:
99,90,141786,6,0,P|163:101|219:93,1,120,4|8,0:2|0:0,0:0:0:0:
359,43,142620,2,0,P|418:35|477:46,1,120,0|8,0:0|0:0,0:0:0:0:
509,115,143245,1,0,0:0:0:0:
456,168,143453,6,0,L|463:227,2,60,0|0|8,0:0|0:0|0:0,0:0:0:0:
320,230,144286,2,0,L|334:352,1,120,0|8,0:0|0:0,0:0:0:0:
178,349,145120,6,0,L|192:230,1,120,0|8,0:0|0:0,0:0:0:0:
148,169,145745,2,0,P|109:165|74:170,1,60
142,26,146370,2,0,P|181:22|216:27,1,60,8|0,0:0|0:0,0:0:0:0:
252,80,146786,6,0,P|298:88|373:81,1,120,0|8,0:0|0:0,0:0:0:0:
423,26,147411,1,0,0:0:0:0:
423,26,147620,1,0,0:0:0:0:
477,168,148036,2,0,L|475:228,1,60,8|4,0:0|0:0,0:0:0:0:
439,293,148453,6,0,L|317:302,2,120,4|8|0,0:2|0:0|0:0,0:0:0:0:
351,172,149703,2,0,L|290:176,1,60,8|0,0:0|0:0,0:0:0:0:
220,207,150120,6,0,L|161:212,2,60,0|0|8,0:0|0:0|0:0,0:0:0:0:
256,61,150953,1,0,0:0:0:0:
112,100,151370,2,0,L|51:104,1,60,8|0,0:0|0:0,0:0:0:0:
7,164,151786,6,0,P|0:227|15:285,1,120,0|8,0:0|0:0,0:0:0:0:
159,243,152620,2,0,P|222:236|280:251,1,120,0|8,0:0|0:0,0:0:0:0:
386,352,153453,6,0,L|454:361,1,60,0|0,0:0|0:0,0:0:0:0:
507,317,153870,2,0,P|523:258|508:182,1,120,8|0,0:0|0:0,0:0:0:0:
458,151,154495,1,0,0:0:0:0:
383,162,154703,2,0,P|323:169|265:155,1,120,8|4,0:0|0:0,0:0:0:0:
269,159,155953,5,0,0:0:0:0:
269,159,156786,2,0,P|172:150|73:257,2,240,4|4|0,0:0|0:0|0:0,0:0:0:0:
299,91,165120,6,0,B|331:112|329:154|329:154|327:191|343:228|395:234,1,180,4|0,0:2|2:0,0:0:0:0:
454,263,165953,2,0,B|434:297|398:315|363:302|363:302|327:287|289:309,1,180,4|0,0:2|2:0,0:0:0:0:
218,306,166786,6,0,B|185:287|149:302|149:302|114:315|78:297|58:263,1,180,4|0,0:2|2:0,0:0:0:0:
126,232,167620,2,0,B|169:228|185:191|183:154|183:154|181:112|213:91,1,180,4|0,0:2|2:0,0:0:0:0:
282,63,168453,6,0,B|343:70|352:93|389:155|499:102|479:30,2,240,4|4|4,0:2|0:0|0:2,0:0:0:0:
258,211,170536,6,0,L|259:276,1,60,0|4,0:0|0:2,0:0:0:0:
322,311,170953,2,0,L|321:376,2,60,0|0|4,0:0|0:0|0:2,0:0:0:0:
184,250,171786,6,0,L|122:255,1,60,0|0,0:0|0:0,0:0:0:0:
50,239,172203,1,8,0:0:0:0:
140,358,172620,1,0,0:0:0:0:
258,270,173036,2,0,L|258:211,1,60,8|0,0:0|0:0,0:0:0:0:
175,85,173661,2,0,L|304:96,1,120,8|0,0:0|0:0,0:0:0:0:
369,100,174286,2,0,L|368:40,2,60,8|0|0,0:0|0:0|0:0,0:0:0:0:
328,250,175120,6,0,L|390:255,1,60,0|0,0:0|0:0,0:0:0:0:
462,239,175536,1,8,0:0:0:0:
372,358,175953,1,0,0:0:0:0:
253,270,176370,2,0,L|254:211,1,60,8|0,0:0|0:0,0:0:0:0:
337,85,176995,2,0,L|208:96,1,120,8|0,0:0|0:0,0:0:0:0:
143,100,177620,2,0,L|143:40,2,60,8|0|0,0:0|0:0|0:0,0:0:0:0:
23,184,178453,6,0,B|55:205|53:247|53:247|51:284|67:321|119:327,1,180,8|0,0:0|0:0,0:0:0:0:
130,253,179286,2,0,B|163:230|199:248|199:248|232:257|270:243|290:209,1,180,8|0,0:0|0:0,0:0:0:0:
222,175,180120,6,0,B|242:141|280:127|313:136|313:136|349:154|382:131,1,180,4|0,0:0|0:0,0:0:0:0:
402,58,180953,2,0,B|445:63|461:100|459:137|459:137|457:179|489:200,1,180,4|0,0:0|0:0,0:0:0:0:
506,272,181786,6,0,L|323:284,1,180,4|4,0:2|0:2,0:0:0:0:
256,70,183036,1,4,0:2:0:0:
256,70,183245,1,4,0:0:0:0:
192,110,183453,6,0,L|70:117,1,120,0|8,0:0|0:0,0:0:0:0:
72,266,184286,2,0,L|192:274,1,120,8|8,0:0|0:0,0:0:0:0:
325,343,185120,6,0,P|339:285|334:220,1,120,4|8,0:2|0:0,0:0:0:0:
460,141,185953,2,0,L|470:205,2,60,0|0|8,0:0|0:0|0:0,0:0:0:0:
356,32,186786,6,0,P|298:46|233:41,1,120,0|8,0:0|0:0,0:0:0:0:
88,28,187620,2,0,P|73:86|77:145,1,120,0|8,0:0|0:0,0:0:0:0:
89,295,188453,6,0,P|147:309|206:305,1,120,0|8,0:0|0:0,0:0:0:0:
256,248,189078,1,0,0:0:0:0:
305,305,189286,2,0,P|364:309|423:295,1,120,0|8,0:0|0:0,0:0:0:0:
455,227,189911,2,0,L|460:165,1,60,0|0,0:0|0:0,0:0:0:0:
330,91,190536,6,0,L|325:29,2,60,8|0|0,0:0|0:0|0:0,0:0:0:0:
186,31,191370,2,0,L|182:91,1,60,8|4,0:0|0:0,0:0:0:0:
120,134,191786,6,0,P|108:191|120:250,1,120,4|8,0:2|0:0,0:0:0:0:
182,293,192411,2,0,L|186:352,1,60,0|0,0:0|0:0,0:0:0:0:
330,293,193036,1,8,0:0:0:0:
330,293,193245,1,0,0:0:0:0:
388,339,193453,6,0,L|507:321,1,120,0|8,0:0|0:0,0:0:0:0:
445,183,194286,2,0,L|326:165,1,120,0|8,0:0|0:0,0:0:0:0:
256,192,194911,1,0,0:0:0:0:
186,219,195120,6,0,L|67:201,1,120,0|8,0:0|0:0,0:0:0:0:
5,63,195953,2,0,L|124:45,1,120,0|8,0:0|0:0,0:0:0:0:
245,133,196786,6,0,P|304:136|362:122,1,120,0|8,0:0|0:0,0:0:0:0:
465,232,197620,1,4,0:0:0:0:
187,343,198453,6,0,P|173:285|178:220,1,120,4|8,0:2|0:0,0:0:0:0:
52,141,199286,2,0,L|42:205,2,60,0|0|8,0:0|0:0|0:0,0:0:0:0:
156,32,200120,6,0,P|214:46|279:41,1,120,0|8,0:0|0:0,0:0:0:0:
424,28,200953,2,0,P|438:86|434:145,1,120,0|8,0:0|0:0,0:0:0:0:
423,295,201786,6,0,P|364:309|305:305,1,120,0|8,0:0|0:0,0:0:0:0:
256,248,202411,1,0,0:0:0:0:
206,305,202620,2,0,P|147:309|89:295,1,120,0|8,0:0|0:0,0:0:0:0:
57,227,203245,2,0,L|52:165,1,60,0|0,0:0|0:0,0:0:0:0:
182,91,203870,6,0,L|187:29,2,60,8|0|0,0:0|0:0|0:0,0:0:0:0:
325,31,204703,2,0,L|330:91,1,60,8|4,0:0|0:0,0:0:0:0:
392,134,205120,6,0,P|404:191|392:250,1,120,4|8,0:2|0:0,0:0:0:0:
330,293,205745,2,0,L|325:352,1,60,0|0,0:0|0:0,0:0:0:0:
182,293,206370,1,8,0:0:0:0:
182,293,206578,1,0,0:0:0:0:
124,339,206786,6,0,L|5:321,1,120,0|8,0:0|0:0,0:0:0:0:
67,183,207620,2,0,L|186:165,1,120,0|8,0:0|0:0,0:0:0:0:
256,192,208245,1,0,0:0:0:0:
326,219,208453,6,0,L|445:201,1,120,0|8,0:0|0:0,0:0:0:0:
477,133,209078,1,0,0:0:0:0:
507,63,209286,2,0,L|388:45,1,120,0|8,0:0|0:0,0:0:0:0:
330,91,209911,1,0,0:0:0:0:
256,83,210120,6,0,P|251:54|253:21,2,60,0|4|8,0:0|0:2|0:0,0:0:0:0:
365,192,210953,1,4,0:2:0:0:
256,301,211370,1,8,0:0:0:0:
147,192,211786,1,0,0:0:0:0:
85,137,218453,6,0,B|114:131|114:131|144:138|144:138|174:132|174:132|203:139,1,120,0|2,0:0|0:0,0:0:0:0:
309,245,219286,2,0,B|338:252|338:252|368:246|368:246|398:253|398:253|427:247,1,120,0|2,0:0|0:0,0:0:0:0:
309,139,220120,6,0,B|316:110|316:110|310:80|310:80|317:50|317:50|311:21,2,120,0|2|0,0:0|0:0|0:0,0:0:0:0:
203,245,221370,2,0,B|196:274|196:274|202:304|202:304|195:334|195:334|201:363,1,120,2|0,0:0|0:0,0:0:0:0:
319,277,222203,5,2,0:0:0:0:
341,129,222620,1,0,0:0:0:0:
193,107,223036,1,2,0:0:0:0:
171,255,223453,6,0,B|196:249|196:249|203:251|203:251|231:245,2,60,0|0|0,0:0|1:0|0:0,0:0:0:0:
47,341,224286,2,0,B|29:319|29:319|20:291|20:291|18:265|18:265|25:229,1,120,8|8,0:0|0:0,0:0:0:0:
72,171,224911,1,8,0:0:0:0:
41,102,225120,6,0,L|165:91,1,120,4|8,0:2|0:0,0:0:0:0:
220,228,225953,2,0,L|96:239,1,120,0|8,0:0|0:0,0:0:0:0:
72,171,226578,1,0,0:0:0:0:
146,163,226786,6,0,L|270:152,1,120,0|8,0:0|0:0,0:0:0:0:
251,301,227620,2,0,L|189:306,2,60,0|0|8,0:0|0:0|0:0,0:0:0:0:
389,359,228453,5,0,0:0:0:0:
460,224,228870,2,0,P|474:253|479:284,2,60,8|0|0,0:0|0:0|0:0,0:0:0:0:
377,90,229703,2,0,P|354:110|338:135,1,60,8|0,0:0|0:0,0:0:0:0:
314,206,230120,6,0,P|328:235|333:266,2,60,0|0|8,0:0|0:0|0:0,0:0:0:0:
183,131,230953,2,0,P|137:152|43:149,1,120,0|8,0:0|0:0,0:0:0:0:
8,110,231578,1,4,0:0:0:0:
8,110,231786,5,4,0:2:0:0:
131,24,232203,1,8,0:0:0:0:
256,106,232620,1,0,0:0:0:0:
381,24,233036,1,8,0:0:0:0:
442,67,233245,1,0,0:0:0:0:
504,110,233453,6,0,P|509:142|508:179,2,60,0|0|8,0:0|0:0|0:0,0:0:0:0:
362,161,234286,2,0,P|358:208|368:282,1,120,0|8,0:0|0:0,0:0:0:0:
373,354,234911,1,0,0:0:0:0:
303,326,235120,6,0,P|243:316|184:320,1,120,0|8,0:0|0:1,0:0:0:0:
48,256,235953,2,0,P|57:196|53:137,1,120,0|8,0:3|0:0,0:0:0:0:
158,29,236786,2,0,L|223:36,2,60,0|0|8,0:0|0:0|0:0,0:0:0:0:
246,152,237620,6,0,L|366:163,1,120,0|8,0:0|0:0,0:0:0:0:
440,171,238245,1,4,0:0:0:0:
471,102,238453,6,0,L|347:91,1,120,4|8,0:2|0:0,0:0:0:0:
292,228,239286,2,0,L|416:239,1,120,0|8,0:0|0:0,0:0:0:0:
440,171,239911,1,0,0:0:0:0:
366,163,240120,6,0,L|242:152,1,120,0|8,0:0|0:0,0:0:0:0:
261,301,240953,2,0,L|323:306,2,60,0|0|8,0:0|0:0|0:0,0:0:0:0:
123,359,241786,5,0,0:0:0:0:
52,224,242203,2,0,P|38:253|33:284,2,60,8|0|0,0:0|0:0|0:0,0:0:0:0:
134,90,243036,2,0,P|157:110|174:135,1,60,8|0,0:0|0:0,0:0:0:0:
198,206,243453,6,0,P|184:235|179:266,2,60,0|0|8,0:0|0:0|0:0,0:0:0:0:
329,131,244286,2,0,P|375:152|469:149,1,120,0|8,0:0|0:0,0:0:0:0:
504,110,244911,1,4,0:0:0:0:
504,110,245120,5,4,0:2:0:0:
381,24,245536,1,8,0:0:0:0:
256,106,245953,1,0,0:0:0:0:
131,24,246370,1,8,0:0:0:0:
70,67,246578,1,0,0:0:0:0:
8,110,246786,6,0,P|3:142|4:179,2,60,0|0|8,0:0|0:0|0:0,0:0:0:0:
150,161,247620,2,0,P|154:208|144:282,1,120,0|8,0:0|0:0,0:0:0:0:
139,354,248245,1,0,0:0:0:0:
209,326,248453,6,0,P|268:316|327:320,1,120,0|8,0:0|0:0,0:0:0:0:
464,256,249286,2,0,P|454:196|458:137,1,120,0|8,0:0|0:0,0:0:0:0:
337,50,250120,2,0,L|341:114,2,60,0|0|8,0:0|0:0|0:0,0:0:0:0:
196,104,250953,6,0,P|138:116|79:108,1,120,0|8,0:0|0:0,0:0:0:0:
11,79,251578,1,0,0:0:0:0:
20,153,251786,6,0,L|8:274,1,120,4|8,0:0|0:0,0:0:0:0:
138,347,252620,1,0,0:0:0:0:
256,256,253036,2,0,L|256:188,2,60,8|2|0,0:0|0:2|0:0,0:0:0:0:
374,347,253870,5,8,0:0:0:0:
503,272,254286,2,0,L|492:153,1,120,0|8,0:0|0:0,0:0:0:0:
501,79,254911,1,2,0:2:0:0:
432,108,255120,6,0,P|373:116|315:104,1,120,0|8,0:0|0:0,0:0:0:0:
256,58,255745,2,0,P|217:49|194:46,1,60,2|0,0:2|0:0,0:0:0:0:
54,92,256370,2,0,P|49:121|42:150,1,60,8|2,0:0|0:2,0:0:0:0:
1,213,256786,6,0,P|5:242|12:271,2,60,0|2|8,0:0|0:2|0:0,0:0:0:0:
99,326,257620,2,0,P|158:334|216:322,1,120,0|8,0:0|0:0,0:0:0:0:
256,258,258245,1,4,0:0:0:0:
295,322,258453,6,0,P|353:334|413:326,1,120,4|8,0:2|0:0,0:0:0:0:
511,213,259286,1,0,0:0:0:0:
379,140,259703,2,0,P|343:140|312:138,1,60,8|2,0:0|0:2,0:0:0:0:
255,97,260120,5,0,0:0:0:0:
192,138,260328,2,0,P|162:140|133:140,1,60,2|8,0:2|0:0,0:0:0:0:
1,213,260953,1,0,0:0:0:0:
113,312,261370,1,8,0:0:0:0:
256,269,261786,5,0,0:0:0:0:
256,115,262203,1,8,0:0:0:0:
399,72,262620,1,0,0:0:0:0:
511,171,263036,1,8,0:0:0:0:
379,244,263453,6,0,P|349:243|319:245,2,60,0|2|8,0:0|0:2|0:0,0:0:0:0:
279,356,264286,2,0,P|220:356|144:359,1,120,0|8,0:0|0:0,0:0:0:0:
92,322,264911,2,0,P|62:321|32:323,1,60,2|4,0:2|0:2,0:0:0:0:
144,224,265536,5,4,0:2:0:0:
64,104,265953,2,0,P|264:32|448:104,1,420,4|0,0:0|0:0,0:0:0:0:
472,176,267620,2,0,B|488:208|488:240|488:240|448:264|432:296|424:344,1,180,2|0,0:2|0:0,0:0:0:0:
352,352,268453,6,0,P|280:232|160:352,1,360,2|8,0:2|0:0,0:0:0:0:
85,330,269911,2,0,B|80:296|64:264|24:240|24:240|24:208|40:176,1,180,0|8,0:0|0:0,0:0:0:0:
180,120,270953,1,0,0:0:0:0:
332,120,271370,2,0,P|358:129|392:136,1,60,8|4,0:0|0:2,0:0:0:0:
456,104,271786,6,0,P|480:232|256:240,1,420,4|0,0:0|0:0,0:0:0:0:
199,192,273453,2,0,P|107:256|134:366,1,240,2|0,0:2|0:0,0:0:0:0:
198,327,274495,2,0,P|256:315|314:328,1,120,8|8,0:0|0:0,0:0:0:0:
377,366,275120,6,0,P|404:256|312:192,1,240,4|8,0:2|0:0,0:0:0:0:
256,142,276161,2,0,L|256:78,1,60,0|8,0:0|0:0,0:0:0:0:
201,28,276578,2,0,P|255:7|310:28,1,120,8|8,0:0|0:0,0:0:0:0:
366,81,277203,5,4,0:2:0:0:
256,192,277411,12,0,279703,2:0:0:0:
216,144,285120,6,0,L|224:24,1,120,0|8,0:0|0:0,0:0:0:0:
304,152,285953,2,0,L|424:160,1,120,0|8,0:0|0:0,0:0:0:0:
296,240,286786,2,0,L|288:360,1,120,0|8,0:0|0:0,0:0:0:0:
208,232,287620,2,0,L|88:224,1,120,0|8,0:0|0:0,0:0:0:0:
168,351,288453,6,0,L|288:359,1,120,0|8,0:0|0:0,0:0:0:0:
415,280,289286,2,0,L|423:160,1,120,0|8,0:0|0:0,0:0:0:0:
428,85,289911,5,4,0:2:0:0:
282,121,290328,1,0,0:0:0:0:
282,121,290536,1,4,0:2:0:0:
143,62,290953,1,0,0:0:0:0:
143,62,291161,1,4,0:0:0:0:
