osu file format v14

[General]
AudioFilename: audio.mp3
AudioLeadIn: 0
PreviewTime: 128140
Countdown: 0
SampleSet: None
StackLeniency: 0.7
Mode: 0
LetterboxInBreaks: 0
WidescreenStoryboard: 1

[Editor]
DistanceSpacing: 1.25
BeatDivisor: 4
GridSize: 32
TimelineZoom: 1

[Metadata]
Title:Escapist
TitleUnicode:Escapist
Artist:Nightwish
ArtistUnicode:Nightwish
Creator:pw384
Version:Hard
Source:
Tags:Dark Passion Play symphonic metal tm1209 encorew ametrin 384059043
BeatmapID:1297625
BeatmapSetID:604273

[Difficulty]
HPDrainRate:6
CircleSize:4
OverallDifficulty:6
ApproachRate:8
SliderMultiplier:1.5
SliderTickRate:1

[Events]
//Background and Video events
0,0,"bg2.jpg",0,0
//Break Periods
2,158653,164370
2,211986,217495
2,279903,284370
//Storyboard Layer 0 (Background)
//Storyboard Layer 1 (Fail)
//Storyboard Layer 2 (Pass)
//Storyboard Layer 3 (Foreground)
//Storyboard Sound Samples

[TimingPoints]
120,416.666666666667,4,2,0,40,1,0
48453,-100,4,1,1,75,0,0
68453,-100,4,1,1,80,0,0
71786,-100,4,1,1,85,0,0
75120,-133.333333333333,4,3,1,60,0,0
88453,-100,4,1,1,75,0,0
101786,-133.333333333333,4,3,1,60,0,0
115120,-100,4,1,1,60,0,0
125745,-100,4,1,1,60,0,0
126370,-100,4,1,1,60,0,0
126995,-100,4,1,1,60,0,0
127620,-100,4,1,1,70,0,0
128453,-100,4,1,1,75,0,1
141370,-100,4,1,1,75,0,0
141786,-100,4,1,1,75,0,1
155120,-133.333333333333,4,1,1,75,0,0
165120,-156.25,4,1,1,75,0,0
166786,-125,4,1,1,75,0,0
168453,-100,4,1,1,75,0,0
178453,-133.333333333333,4,1,1,60,0,0
180120,-100,4,1,1,60,0,0
181786,-100,4,1,1,60,0,0
183453,-100,4,1,1,50,0,0
183661,-100,4,1,1,55,0,0
183870,-100,4,1,1,60,0,0
184286,-100,4,1,1,65,0,0
184703,-100,4,1,1,70,0,0
185120,-100,4,1,1,75,0,0
197620,-100,4,2,1,60,0,0
198453,-100,4,1,1,75,0,0
210953,-100,4,1,1,60,0,0
211786,-100,4,1,1,60,0,0
218245,-100,4,2,0,60,0,0
218453,-100,4,2,0,60,0,0
223453,-100,4,2,0,70,0,0
224286,-100,4,1,1,80,0,0
225120,-83.3333333333333,4,1,1,80,0,1
238036,-83.3333333333333,4,1,1,80,0,0
238453,-83.3333333333333,4,1,1,80,0,1
251370,-83.3333333333333,4,1,1,80,0,0
251786,-83.3333333333333,4,1,1,80,0,1
264703,-83.3333333333333,4,1,1,80,0,0
265120,-83.3333333333333,4,1,1,80,0,1
278453,-100,4,1,1,80,0,0
285120,-100,4,1,1,80,0,0
289911,-83.3333333333333,4,1,1,80,0,1
291578,-83.3333333333333,4,1,1,80,0,0

[Colours]
Combo1 : 207,187,118
Combo2 : 170,105,74
Combo3 : 120,89,54

[HitObjects]
241,43,48453,6,0,L|257:196,1,150,4|8,0:2|0:0,0:0:0:0:
168,158,49078,1,0,0:0:0:0:
329,77,49286,6,0,L|345:230,1,150,0|8,0:0|0:0,0:0:0:0:
256,192,49911,1,0,0:0:0:0:
417,111,50120,6,0,L|433:264,1,150,0|8,0:0|0:0,0:0:0:0:
95,273,50953,2,0,L|79:120,1,150,0|12,0:0|0:0,0:0:0:0:
256,277,51786,6,0,L|405:261,1,150,4|8,0:2|0:0,0:0:0:0:
365,346,52411,1,0,0:0:0:0:
296,192,52620,6,0,L|445:176,1,150,0|8,0:0|0:0,0:0:0:0:
405,261,53245,1,0,0:0:0:0:
336,107,53453,6,0,L|485:91,1,150,0|8,0:0|0:0,0:0:0:0:
176,107,54286,2,0,L|26:91,1,150,0|12,0:0|0:0,0:0:0:0:
136,22,54911,1,0,0:0:0:0:
216,192,55120,6,0,L|66:176,1,150,4|8,0:2|0:0,0:0:0:0:
176,107,55745,1,0,0:0:0:0:
256,277,55953,6,0,L|106:261,1,150,0|8,0:0|0:0,0:0:0:0:
216,192,56578,1,0,0:0:0:0:
296,362,56786,6,0,L|146:346,1,150,0|8,0:0|0:0,0:0:0:0:
216,22,57620,2,0,L|366:38,1,150,0|12,0:0|0:0,0:0:0:0:
271,341,58453,6,0,L|255:188,1,150,4|8,0:2|0:0,0:0:0:0:
344,226,59078,1,0,0:0:0:0:
183,307,59286,6,0,L|167:154,1,150,0|8,0:0|0:0,0:0:0:0:
256,192,59911,1,0,0:0:0:0:
95,273,60120,6,0,L|79:120,1,150,0|8,0:0|0:0,0:0:0:0:
417,111,60953,2,0,L|433:264,1,150,0|12,0:0|0:0,0:0:0:0:
298,229,61578,1,8,0:0:0:0:
187,299,61786,6,0,P|119:365|69:367,1,150,4|8,0:2|0:0,0:0:0:0:
95,273,62411,1,0,0:0:0:0:
121,179,62620,6,0,P|48:189|3:247,1,150,0|8,0:0|0:0,0:0:0:0:
95,273,63245,1,0,0:0:0:0:
187,299,63453,6,0,P|119:365|69:367,1,150,0|8,0:0|0:0,0:0:0:0:
121,179,64286,2,0,P|48:189|3:247,1,150,0|12,0:0|0:0,0:0:0:0:
325,299,65120,6,0,P|392:365|442:367,1,150,4|8,0:2|0:0,0:0:0:0:
417,273,65745,1,0,0:0:0:0:
390,179,65953,6,0,P|463:189|509:247,1,150,0|8,0:0|0:0,0:0:0:0:
417,273,66578,1,0,0:0:0:0:
325,299,66786,6,0,P|392:365|442:367,1,150,0|8,0:0|0:0,0:0:0:0:
390,179,67620,2,0,P|463:189|509:247,1,150,0|12,0:0|0:0,0:0:0:0:
417,273,68245,1,0,2:0:0:0:
324,300,68453,6,0,P|232:324|188:300,1,150,4|8,0:2|0:0,0:0:0:0:
256,232,69078,1,0,0:0:0:0:
324,164,69286,2,0,P|232:140|188:164,1,150,0|8,0:0|0:0,0:0:0:0:
256,232,69911,1,0,0:0:0:0:
324,300,70120,6,0,P|232:324|188:300,1,150,0|8,0:0|0:0,0:0:0:0:
324,164,70953,2,0,P|232:140|188:164,1,150,0|12,0:0|0:0,0:0:0:0:
392,96,71786,6,0,P|208:48|120:96,2,300,4|4|4,0:2|0:2|0:2,0:0:0:0:
256,232,73870,1,8,0:0:0:0:
188,164,74078,2,0,P|280:140|324:164,1,150,4|0,0:2|0:0,0:0:0:0:
392,232,74703,1,4,1:2:0:0:
120,232,75120,6,0,L|128:296,2,56.2500021457673
30,89,75953,1,0,0:0:0:0:
100,42,76161,2,0,P|134:57|216:60,1,112.500004291535,0|0,0:0|0:0,0:0:0:0:
443,105,76995,5,0,0:0:0:0:
373,152,77203,2,0,P|339:137|257:134,1,112.500004291535,0|0,0:0|0:0,0:0:0:0:
190,173,77828,2,0,L|178:292,1,112.500004291535
53,136,78661,5,0,0:0:0:0:
53,136,78870,1,0,0:0:0:0:
179,286,79286,1,0,0:0:0:0:
144,363,79495,2,0,L|263:357,1,112.500004291535,0|0,0:0|0:0,0:0:0:0:
395,221,80328,5,0,0:0:0:0:
430,298,80536,2,0,L|311:292,1,112.500004291535,0|0,0:0|0:0,0:0:0:0:
256,227,81161,2,0,L|144:233,1,112.500004291535,0|0,0:0|0:0,0:0:0:0:
338,46,81995,5,0,0:0:0:0:
338,46,82203,1,0,0:0:0:0:
174,46,82620,1,0,0:0:0:0:
174,46,82828,2,0,L|53:55,1,112.500004291535,0|0,0:0|0:0,0:0:0:0:
97,219,83661,5,0,0:0:0:0:
97,219,83870,2,0,L|218:210,1,112.500004291535,0|0,0:0|0:0,0:0:0:0:
302,210,84495,2,0,L|415:219,1,112.500004291535,0|0,0:0|0:0,0:0:0:0:
123,345,85328,5,0,0:0:0:0:
200,302,85536,2,0,P|257:296|312:302,1,112.500004291535,0|0,0:0|0:0,0:0:0:0:
389,345,86161,1,0,0:0:0:0:
481,155,86578,5,0,0:0:0:0:
424,82,86786,2,0,P|367:88|312:82,1,112.500004291535,0|8,0:0|0:1,0:0:0:0:
88,302,87620,2,0,P|145:296|200:302,1,112.500004291535,0|8,0:0|0:1,0:0:0:0:
255,191,88245,1,0,0:0:0:0:
255,191,88349,1,0,0:0:0:0:
255,191,88453,1,4,0:2:0:0:
255,191,88870,6,0,P|207:186|178:177,1,75,8|0,0:0|0:0,0:0:0:0:
351,148,89286,2,0,P|408:169|497:129,1,150,0|8,0:0|0:0,0:0:0:0:
416,79,89911,1,0,0:0:0:0:
351,148,90120,6,0,P|341:184|338:221,1,75,0|0,0:0|2:0,0:0:0:0:
420,367,90536,2,0,P|429:330|432:293,1,75,8|0,0:0|2:0,0:0:0:0:
276,292,90953,2,0,P|312:301|349:304,1,75,0|0,0:0|2:0,0:0:0:0:
495,223,91370,2,0,P|458:213|421:210,1,75,12|0,0:0|2:0,0:0:0:0:
257,191,91786,5,4,0:2:0:0:
257,191,92203,2,0,P|305:186|334:177,1,75,8|0,0:0|0:0,0:0:0:0:
161,148,92620,2,0,P|104:169|15:129,1,150,0|8,0:0|0:0,0:0:0:0:
96,79,93245,1,0,0:0:0:0:
161,148,93453,6,0,P|170:184|173:221,1,75,0|0,0:0|2:0,0:0:0:0:
92,367,93870,2,0,P|82:330|79:293,1,75,8|0,0:0|2:0,0:0:0:0:
236,292,94286,2,0,P|199:301|162:304,1,75,0|0,0:0|2:0,0:0:0:0:
17,223,94703,2,0,P|53:213|90:210,1,75,12|0,0:0|2:0,0:0:0:0:
236,292,95120,6,0,P|283:301|399:283,1,150,4|8,0:2|0:0,0:0:0:0:
435,210,95745,1,0,0:0:0:0:
497,279,95953,2,0,P|477:203|481:124,1,150,0|8,0:0|0:0,0:0:0:0:
509,42,96578,1,0,0:0:0:0:
380,134,96786,6,0,L|286:126,1,75,0|0,0:0|2:0,0:0:0:0:
149,56,97203,2,0,L|224:63,1,75,8|0,0:0|2:0,0:0:0:0:
327,214,97620,2,0,L|233:206,1,75,0|0,0:0|2:0,0:0:0:0:
96,136,98036,2,0,L|170:142,1,75,12|0,0:0|2:0,0:0:0:0:
276,292,98453,6,0,P|229:301|113:283,1,150,4|8,0:2|0:0,0:0:0:0:
77,210,99078,1,0,0:0:0:0:
15,279,99286,2,0,P|35:203|31:124,1,150,4|8,0:2|0:0,0:0:0:0:
3,42,99911,1,0,0:0:0:0:
132,134,100120,6,0,L|226:126,1,75,4|0,0:2|2:0,0:0:0:0:
362,56,100536,2,0,L|288:63,1,75,8|0,0:0|2:0,0:0:0:0:
185,214,100953,2,0,L|279:206,1,75,4|0,0:2|2:0,0:0:0:0:
416,136,101370,2,0,L|341:142,1,75,8|0,0:0|0:0,0:0:0:0:
236,292,101786,5,0,0:0:0:0:
236,292,101995,1,0,0:0:0:0:
305,339,102203,2,0,P|354:349|431:341,1,112.500004291535,0|0,0:0|0:0,0:0:0:0:
489,303,102828,1,0,0:0:0:0:
229,372,103245,5,0,0:0:0:0:
341,141,103661,1,0,0:0:0:0:
393,207,103870,2,0,P|337:221|281:198,1,112.500004291535
254,124,104495,2,0,P|201:105|148:119,1,112.500004291535
189,299,105328,5,0,0:0:0:0:
189,299,105536,2,0,L|197:184,1,112.500004291535,0|0,0:0|0:0,0:0:0:0:
117,216,106161,2,0,L|-2:222,1,112.500004291535
267,303,106995,5,0,0:0:0:0:
267,303,107203,2,0,L|386:297,1,112.500004291535
459,270,107828,2,0,L|451:382,1,112.500004291535,0|0,0:0|0:0,0:0:0:0:
394,99,108661,5,0,0:0:0:0:
394,99,108870,2,0,L|386:211,1,112.500004291535,0|0,0:0|0:0,0:0:0:0:
310,123,109495,2,0,L|317:10,1,112.500004291535,0|0,0:0|0:0,0:0:0:0:
202,261,110328,5,0,0:0:0:0:
202,261,110536,2,0,L|194:373,1,112.500004291535,0|0,0:0|0:0,0:0:0:0:
118,285,111161,2,0,L|125:172,1,112.500004291535,0|0,0:0|0:0,0:0:0:0:
245,81,111995,5,0,0:0:0:0:
245,81,112203,2,0,L|125:86,1,112.500004291535,0|0,0:0|0:0,0:0:0:0:
53,114,112828,1,0,0:0:0:0:
118,285,113245,1,0,0:0:0:0:
200,301,113453,6,0,P|255:292|310:301,1,112.500004291535,0|8,0:0|0:1,0:0:0:0:
394,285,114078,1,0,0:0:0:0:
461,335,114286,2,0,P|474:271|449:219,1,112.500004291535,0|8,0:0|0:1,0:0:0:0:
412,85,114911,1,0,1:0:0:0:
412,85,115015,1,0,1:0:0:0:
412,85,115120,6,0,L|402:167,1,75,4|0,0:2|0:0,0:0:0:0:
332,39,115536,6,0,L|312:203,1,150,8|0,0:0|0:0,0:0:0:0:
242,66,116161,2,0,L|233:141,1,75,0|8,0:0|0:0,0:0:0:0:
153,95,116578,1,0,0:0:0:0:
313,187,116995,5,0,0:0:0:0:
313,187,117203,1,8,0:0:0:0:
180,345,117620,5,0,0:0:0:0:
180,345,117828,1,0,0:0:0:0:
100,299,118036,1,8,0:0:0:0:
20,253,118245,1,0,0:0:0:0:
109,224,118453,6,0,L|100:299,1,75,0|0,0:0|0:0,0:0:0:0:
198,196,118870,2,0,L|180:345,1,150,8|0,0:0|0:0,0:0:0:0:
279,243,119495,2,0,L|270:318,1,75,0|8,0:0|0:0,0:0:0:0:
359,289,119911,1,0,0:0:0:0:
199,197,120328,5,0,0:0:0:0:
199,197,120536,1,8,0:0:0:0:
332,39,120953,5,0,0:0:0:0:
332,39,121161,1,0,0:0:0:0:
412,85,121370,1,8,0:0:0:0:
492,131,121578,1,0,0:0:0:0:
402,159,121786,6,0,L|412:85,1,75,0|0,0:0|0:0,0:0:0:0:
313,187,122203,2,0,L|332:39,1,150,8|0,0:0|0:0,0:0:0:0:
233,141,122828,2,0,L|242:66,1,75,0|8,0:0|0:0,0:0:0:0:
153,95,123245,1,0,0:0:0:0:
313,187,123661,5,0,0:0:0:0:
313,187,123870,1,8,0:0:0:0:
100,299,124286,6,0,L|109:224,1,75,0|0,0:0|0:0,0:0:0:0:
180,345,124703,2,0,L|198:196,1,150,8|4,0:0|0:2,0:0:0:0:
270,318,125328,6,0,L|279:243,1,75,0|8,0:0|0:0,0:0:0:0:
359,289,125745,1,4,0:2:0:0:
153,95,126161,5,0,0:0:0:0:
153,95,126370,1,4,0:2:0:0:
153,95,128245,1,0,0:0:0:0:
153,95,128453,6,0,L|231:90,1,75,4|0,0:0|0:0,0:0:0:0:
400,149,128870,2,0,P|329:145|252:171,1,150,8|0,0:0|0:0,0:0:0:0:
95,192,129495,1,0,0:0:0:0:
95,192,129599,1,0,0:0:0:0:
95,192,129703,2,0,P|148:199|171:207,1,75,8|0,0:0|0:0,0:0:0:0:
243,261,130120,6,0,P|278:250|316:247,1,75,0|0,0:0|0:0,0:0:0:0:
402,284,130536,1,8,0:0:0:0:
402,284,130745,1,0,0:0:0:0:
488,179,130953,2,0,L|490:259,1,75,0|0,0:0|0:0,0:0:0:0:
400,149,131370,2,0,L|398:69,1,75,8|0,0:0|0:0,0:0:0:0:
297,14,131786,6,0,L|301:174,1,150,0|8,0:0|0:0,0:0:0:0:
228,224,132411,1,0,0:0:0:0:
158,161,132620,2,0,P|82:147|23:182,1,150,0|8,0:0|0:0,0:0:0:0:
169,330,133453,5,0,0:0:0:0:
169,330,133661,1,0,0:0:0:0:
262,322,133870,2,0,L|346:316,1,75,8|0,0:0|0:0,0:0:0:0:
386,237,134286,2,0,P|425:289|412:372,1,150,0|8,0:0|0:0,0:0:0:0:
294,238,134911,1,4,0:0:0:0:
294,238,135120,6,0,L|300:160,1,75,4|0,0:2|0:0,0:0:0:0:
213,47,135536,2,0,L|207:125,1,75,8|0,0:0|0:0,0:0:0:0:
99,228,135953,2,0,L|110:78,1,150,0|8,0:0|0:0,0:0:0:0:
15,147,136578,1,0,0:0:0:0:
99,228,136786,6,0,P|140:218|189:224,1,75,0|0,0:0|0:0,0:0:0:0:
228,294,137203,2,0,P|269:284|318:290,1,75,8|0,0:0|0:0,0:0:0:0:
357,360,137620,2,0,P|398:350|501:379,1,150,0|8,0:0|0:0,0:0:0:0:
474,134,138453,6,0,P|467:180|466:210,1,75,0|0,0:0|0:0,0:0:0:0:
368,81,138870,2,0,P|361:127|360:157,1,75,8|0,0:0|0:0,0:0:0:0:
254,135,139286,2,0,P|247:181|246:211,1,75,0|0,0:0|0:0,0:0:0:0:
148,82,139703,2,0,P|141:128|140:158,1,75,8|0,0:0|0:0,0:0:0:0:
118,267,140120,5,0,0:0:0:0:
118,267,140328,1,0,0:0:0:0:
25,210,140536,2,0,P|27:172|33:136,1,75,8|0,0:0|0:0,0:0:0:0:
66,28,140953,2,0,P|137:24|214:50,1,150,0|8,0:0|0:0,0:0:0:0:
359,95,141578,1,0,0:0:0:0:
359,95,141786,6,0,L|281:90,1,75,4|0,0:2|0:0,0:0:0:0:
112,149,142203,2,0,P|183:145|260:171,1,150,8|0,0:0|0:0,0:0:0:0:
417,192,142828,1,0,0:0:0:0:
417,192,142932,1,0,0:0:0:0:
417,192,143036,2,0,P|364:199|341:207,1,75,8|0,0:0|0:0,0:0:0:0:
269,261,143453,6,0,P|234:250|196:247,1,75,0|0,0:0|0:0,0:0:0:0:
110,284,143870,1,8,0:0:0:0:
110,284,144078,1,0,0:0:0:0:
24,179,144286,2,0,L|22:259,1,75,0|0,0:0|0:0,0:0:0:0:
112,149,144703,2,0,L|114:69,1,75,8|0,0:0|0:0,0:0:0:0:
215,14,145120,6,0,L|211:174,1,150,0|8,0:0|0:0,0:0:0:0:
284,224,145745,1,0,0:0:0:0:
354,161,145953,2,0,P|430:147|489:182,1,150,0|8,0:0|0:0,0:0:0:0:
343,330,146786,5,0,0:0:0:0:
343,330,146995,1,0,0:0:0:0:
250,322,147203,2,0,L|166:316,1,75,8|0,0:0|0:0,0:0:0:0:
126,237,147620,2,0,P|87:289|100:372,1,150,0|8,0:0|0:0,0:0:0:0:
218,238,148245,1,4,0:0:0:0:
218,238,148453,6,0,L|212:160,1,75,4|0,0:2|0:0,0:0:0:0:
299,47,148870,2,0,L|305:125,1,75,8|0,0:0|0:0,0:0:0:0:
413,228,149286,2,0,L|402:78,1,150,0|8,0:0|0:0,0:0:0:0:
497,147,149911,1,0,0:0:0:0:
413,228,150120,6,0,P|372:218|323:224,1,75,0|0,0:0|0:0,0:0:0:0:
284,294,150536,2,0,P|243:284|194:290,1,75,8|0,0:0|0:0,0:0:0:0:
155,360,150953,2,0,P|114:350|11:379,1,150,0|8,0:0|0:0,0:0:0:0:
38,134,151786,6,0,P|45:180|46:210,1,75,0|0,0:0|0:0,0:0:0:0:
144,81,152203,2,0,P|151:127|152:157,1,75,8|0,0:0|0:0,0:0:0:0:
258,135,152620,2,0,P|265:181|266:211,1,75,0|0,0:0|0:0,0:0:0:0:
364,82,153036,2,0,P|371:128|372:158,1,75,8|0,0:0|0:0,0:0:0:0:
394,267,153453,5,0,0:0:0:0:
394,267,153661,1,0,0:0:0:0:
486,210,153870,2,0,P|484:172|478:136,1,75,8|0,0:0|0:0,0:0:0:0:
371,156,154286,2,0,P|329:175|234:143,1,150,0|8,0:0|0:0,0:0:0:0:
308,85,154911,1,0,0:0:0:0:
308,85,155120,5,4,0:0:0:0:
29,314,155953,1,0,0:0:0:0:
204,85,156786,1,4,0:0:0:0:
483,314,157620,1,4,0:0:0:0:
332,256,158036,1,0,0:0:0:0:
256,256,158245,1,0,0:0:0:0:
180,256,158453,1,0,0:0:0:0:
79,173,165120,6,0,L|223:171,1,144,4|0,0:2|2:0,0:0:0:0:
289,213,165953,2,0,L|432:210,1,144,4|0,0:2|2:0,0:0:0:0:
487,125,166786,6,0,L|307:128,1,180,4|0,0:2|2:0,0:0:0:0:
204,255,167620,2,0,L|24:258,1,180,4|0,0:2|2:0,0:0:0:0:
111,173,168453,6,0,B|233:173|233:173|280:212|280:212|401:210,2,300,4|4|4,0:2|0:0|0:2,0:0:0:0:
328,91,170536,5,0,0:0:0:0:
328,91,170745,1,4,0:2:0:0:
262,157,170953,2,0,B|259:191|259:191|254:193|254:193|250:230,1,75,0|0,0:0|0:0,0:0:0:0:
184,293,171370,1,4,0:2:0:0:
184,293,171578,1,0,0:0:0:0:
334,260,171786,6,0,P|377:253|412:253,1,75,0|0,0:0|0:0,0:0:0:0:
493,292,172203,1,8,0:0:0:0:
328,91,172620,1,0,0:0:0:0:
184,293,173036,5,8,0:0:0:0:
184,293,173245,1,0,0:0:0:0:
19,92,173661,1,8,0:0:0:0:
254,26,174078,1,0,0:0:0:0:
328,91,174286,6,0,P|335:134|335:169,1,75,8|0,0:0|0:0,0:0:0:0:
289,284,174703,2,0,P|326:283|363:276,1,75,0|0,0:0|0:0,0:0:0:0:
178,260,175120,6,0,P|135:253|100:253,1,75,0|0,0:0|0:0,0:0:0:0:
19,292,175536,1,8,0:0:0:0:
184,91,175953,1,0,0:0:0:0:
328,293,176370,5,8,0:0:0:0:
328,293,176578,1,0,0:0:0:0:
493,92,176995,1,8,0:0:0:0:
258,26,177411,1,0,0:0:0:0:
184,91,177620,6,0,P|177:134|177:169,1,75,8|0,0:0|0:0,0:0:0:0:
223,284,178036,2,0,P|185:283|148:276,1,75,0|0,0:0|0:0,0:0:0:0:
334,260,178453,6,0,P|377:253|504:273,1,168.750006437302,8|0,0:0|0:0,0:0:0:0:
334,260,179286,2,0,P|327:217|347:90,1,168.750006437302,8|0,0:0|0:0,0:0:0:0:
175,26,180120,6,0,P|193:90|80:181,1,225,4|0,0:0|0:0,0:0:0:0:
8,244,180953,2,0,P|-10:180|103:89,1,225,4|0,0:0|0:0,0:0:0:0:
85,181,181786,6,0,B|91:331|91:331|28:370,2,225,4|4|4,0:2|0:2|0:2,0:0:0:0:
97,88,183245,1,4,0:0:0:0:
171,144,183453,5,0,0:0:0:0:
171,144,183661,1,0,0:0:0:0:
263,128,183870,1,8,0:0:0:0:
263,128,184078,1,8,0:0:0:0:
337,184,184286,5,8,0:0:0:0:
429,168,184495,1,8,0:0:0:0:
503,224,184703,2,0,L|493:312,1,75,8|8,0:0|0:0,0:0:0:0:
429,168,185120,6,0,P|421:98|472:31,1,150,4|8,0:2|0:0,0:0:0:0:
334,92,185745,1,0,0:0:0:0:
334,92,185849,1,0,0:0:0:0:
334,92,185953,2,0,L|260:89,1,75,0|0,0:0|0:0,0:0:0:0:
105,136,186370,2,0,L|179:139,1,75,8|0,0:0|0:0,0:0:0:0:
71,52,186786,6,0,P|20:105|26:178,1,150,0|8,0:0|0:0,0:0:0:0:
98,301,187411,1,0,0:0:0:0:
98,301,187515,1,0,0:0:0:0:
98,301,187620,2,0,L|101:227,1,75,0|0,0:0|0:0,0:0:0:0:
260,281,188036,2,0,L|186:278,1,75,8|0,0:0|0:0,0:0:0:0:
293,364,188453,6,0,P|343:311|337:238,1,150,0|8,0:0|0:0,0:0:0:0:
256,192,189078,1,0,0:0:0:0:
174,145,189286,2,0,P|168:72|219:20,1,150,0|8,0:0|0:0,0:0:0:0:
326,106,189911,1,0,0:0:0:0:
326,106,190120,6,0,L|252:103,1,75,0|0,0:0|0:0,0:0:0:0:
56,65,190536,2,0,L|130:68,1,75,8|0,0:0|0:0,0:0:0:0:
369,183,190953,2,0,L|295:180,1,75,0|0,0:0|0:0,0:0:0:0:
99,142,191370,2,0,L|173:145,1,75,8|4,0:0|0:0,0:0:0:0:
412,260,191786,6,0,L|262:253,1,150,4|8,0:2|0:0,0:0:0:0:
142,219,192411,1,0,0:0:0:0:
142,219,192515,1,0,0:0:0:0:
142,219,192620,2,0,P|135:260|142:297,1,75,0|0,0:0|0:0,0:0:0:0:
294,179,193036,2,0,P|301:138|294:101,1,75,8|0,0:0|0:0,0:0:0:0:
99,142,193453,6,0,L|173:145,1,75,0|0,0:0|0:0,0:0:0:0:
295,105,193870,1,8,0:0:0:0:
295,105,194078,1,0,0:0:0:0:
193,229,194286,2,0,L|267:232,1,75,0|0,0:0|0:0,0:0:0:0:
389,192,194703,1,8,0:0:0:0:
389,192,194911,1,0,0:0:0:0:
287,316,195120,6,0,L|436:322,1,150,0|8,0:0|0:0,0:0:0:0:
475,237,195745,1,0,0:0:0:0:
389,192,195953,2,0,P|384:149|391:110,1,75,0|0,0:0|0:0,0:0:0:0:
479,9,196370,2,0,P|484:52|477:91,1,75,8|0,0:0|0:0,0:0:0:0:
389,192,196786,6,0,L|239:185,1,150,0|8,0:0|0:0,0:0:0:0:
239,185,197620,2,0,P|186:259|37:227,1,225,4|0,0:0|0:0,0:0:0:0:
83,168,198453,6,0,P|91:98|40:31,1,150,4|8,0:2|0:0,0:0:0:0:
178,92,199078,1,0,0:0:0:0:
178,92,199182,1,0,0:0:0:0:
178,92,199286,2,0,L|252:89,1,75,0|0,0:0|0:0,0:0:0:0:
407,136,199703,2,0,L|333:139,1,75,8|0,0:0|0:0,0:0:0:0:
440,52,200120,6,0,P|491:105|485:178,1,150,0|8,0:0|0:0,0:0:0:0:
414,301,200745,1,0,0:0:0:0:
414,301,200849,1,0,0:0:0:0:
414,301,200953,2,0,L|411:227,1,75,0|0,0:0|0:0,0:0:0:0:
252,281,201370,2,0,L|326:278,1,75,8|0,0:0|0:0,0:0:0:0:
219,364,201786,6,0,P|168:311|174:238,1,150,0|8,0:0|0:0,0:0:0:0:
256,192,202411,1,0,0:0:0:0:
337,145,202620,2,0,P|343:72|293:20,1,150,0|8,0:0|0:0,0:0:0:0:
186,106,203245,1,0,0:0:0:0:
186,106,203453,6,0,L|260:103,1,75,0|0,0:0|0:0,0:0:0:0:
456,65,203870,2,0,L|382:68,1,75,8|0,0:0|0:0,0:0:0:0:
143,183,204286,2,0,L|217:180,1,75,0|0,0:0|0:0,0:0:0:0:
413,142,204703,2,0,L|339:145,1,75,8|4,0:0|0:0,0:0:0:0:
100,260,205120,6,0,L|249:253,1,150,4|8,0:2|0:0,0:0:0:0:
370,219,205745,1,0,0:0:0:0:
370,219,205849,1,0,0:0:0:0:
370,219,205953,2,0,P|377:260|370:297,1,75,0|0,0:0|0:0,0:0:0:0:
218,179,206370,2,0,P|211:138|218:101,1,75,8|0,0:0|0:0,0:0:0:0:
413,142,206786,6,0,L|339:145,1,75,0|0,0:0|0:0,0:0:0:0:
217,105,207203,1,8,0:0:0:0:
217,105,207411,1,0,0:0:0:0:
319,229,207620,2,0,L|245:232,1,75,0|0,0:0|0:0,0:0:0:0:
123,192,208036,1,8,0:0:0:0:
123,192,208245,1,0,0:0:0:0:
225,316,208453,6,0,L|75:322,1,150,0|8,0:0|0:0,0:0:0:0:
37,237,209078,1,0,0:0:0:0:
123,192,209286,2,0,P|128:149|121:110,1,75,0|0,0:0|0:0,0:0:0:0:
33,9,209703,2,0,P|28:52|35:91,1,75,8|0,0:0|0:0,0:0:0:0:
123,192,210120,6,0,L|197:188,1,75,0|4,0:0|0:2,0:0:0:0:
342,296,210536,2,0,L|417:293,1,75,8|0,0:0|0:0,0:0:0:0:
296,376,210953,2,0,B|249:344|244:280|270:242|270:242|295:204|290:140|244:108,1,300,4|0,0:2|0:0,0:0:0:0:
91,131,218245,5,0,0:0:0:0:
91,131,218453,2,0,B|85:163|85:163|92:189|92:189|112:212|112:212|138:222|138:222|171:221,1,150,0|2,0:0|0:0,0:0:0:0:
420,252,219286,2,0,B|427:221|427:221|420:195|420:195|400:172|400:172|374:162|374:162|341:163,1,150,0|2,0:0|0:0,0:0:0:0:
256,192,219911,1,0,0:0:0:0:
170,220,220120,6,0,B|187:265|187:265|182:292|182:292|192:315|192:315|216:328|216:328|245:326,1,150,0|2,0:0|0:0,0:0:0:0:
341,163,220953,2,0,B|325:119|325:119|330:92|330:92|320:69|320:69|296:56|296:56|267:58,1,150,0|2,0:0|0:0,0:0:0:0:
91,131,221786,6,0,B|85:163|85:163|92:189|92:189|112:212|112:212|138:222|138:222|171:221,1,150,0|2,0:0|0:0,0:0:0:0:
256,192,222411,1,0,0:0:0:0:
341,163,222620,2,0,B|374:162|374:162|400:172|400:172|420:195|420:195|427:221|427:221|420:256,1,150,0|2,0:0|0:0,0:0:0:0:
170,220,223453,5,0,0:0:0:0:
256,192,223661,1,0,1:0:0:0:
341,163,223870,1,0,0:0:0:0:
227,106,224286,5,8,0:0:0:0:
227,106,224703,1,8,0:0:0:0:
256,192,224911,1,8,0:0:0:0:
284,277,225120,6,0,P|364:254|441:303,1,179.999994506836,4|8,0:2|0:0,0:0:0:0:
349,369,225745,1,0,0:0:0:0:
349,369,225849,1,0,0:0:0:0:
349,369,225953,2,0,L|253:376,1,89.9999972534181,0|0,0:0|0:0,0:0:0:0:
97,293,226370,2,0,L|193:286,1,89.9999972534181,8|0,0:0|0:0,0:0:0:0:
25,337,226786,6,0,P|14:274|98:209,1,179.999994506836,0|8,0:0|0:0,0:0:0:0:
185,66,227411,1,0,0:0:0:0:
185,66,227515,1,0,0:0:0:0:
185,66,227620,2,0,P|193:110|183:160,1,89.9999972534181,0|0,0:0|0:0,0:0:0:0:
7,112,228036,2,0,P|51:104|101:114,1,89.9999972534181,8|0,0:0|0:0,0:0:0:0:
275,196,228453,6,0,L|266:379,1,179.999994506836,0|8,0:0|0:0,0:0:0:0:
187,245,229078,1,0,0:0:0:0:
363,147,229286,2,0,L|354:330,1,179.999994506836,0|8,0:0|0:0,0:0:0:0:
275,196,229911,1,0,0:0:0:0:
451,98,230120,6,0,L|446:189,1,89.9999972534181,0|0,0:0|0:0,0:0:0:0:
280,106,230536,2,0,L|283:16,1,89.9999972534181,8|0,0:0|0:0,0:0:0:0:
442,277,230953,2,0,L|438:369,1,89.9999972534181,0|0,0:0|0:0,0:0:0:0:
271,285,231370,2,0,L|274:195,1,89.9999972534181,8|4,0:0|0:0,0:0:0:0:
354,326,231786,6,0,P|291:372|197:336,1,179.999994506836,4|8,0:2|0:0,0:0:0:0:
115,231,232411,1,0,0:0:0:0:
115,231,232515,1,0,0:0:0:0:
115,231,232620,2,0,L|111:323,1,89.9999972534181,0|0,0:0|0:0,0:0:0:0:
47,164,233036,2,0,P|89:139|137:138,1,89.9999972534181,8|0,0:0|0:0,0:0:0:0:
300,72,233453,6,0,P|250:81|213:72,1,89.9999972534181,0|0,0:0|0:0,0:0:0:0:
382,136,233870,2,0,P|427:140|465:164,1,89.9999972534181,8|0,0:0|0:0,0:0:0:0:
320,230,234286,2,0,P|275:155|299:71,1,179.999994506836,0|8,0:0|0:0,0:0:0:0:
401,21,234911,1,0,0:0:0:0:
465,164,235120,6,0,P|420:160|382:136,1,89.9999972534181,0|0,0:0|0:0,0:0:0:0:
338,315,235536,2,0,P|319:274|320:230,1,89.9999972534181,8|0,0:1|0:3,0:0:0:0:
174,315,235953,2,0,P|192:274|191:230,1,89.9999972534181,0|0,0:3|0:3,0:0:0:0:
47,164,236370,2,0,P|91:160|129:136,1,89.9999972534181,8|0,0:0|0:0,0:0:0:0:
323,52,236786,5,0,0:0:0:0:
256,112,236995,1,0,0:0:0:0:
189,52,237203,1,8,0:0:0:0:
383,136,237411,1,0,0:0:0:0:
383,136,237515,1,0,0:0:0:0:
383,136,237620,2,0,L|387:230,1,89.9999972534181,0|0,0:0|0:0,0:0:0:0:
327,321,238036,1,8,0:0:0:0:
228,277,238245,1,4,0:0:0:0:
228,277,238453,6,0,P|148:254|71:303,1,179.999994506836,4|8,0:2|0:0,0:0:0:0:
163,369,239078,1,0,0:0:0:0:
163,369,239182,1,0,0:0:0:0:
163,369,239286,2,0,L|259:376,1,89.9999972534181,0|0,0:0|0:0,0:0:0:0:
415,293,239703,2,0,L|319:286,1,89.9999972534181,8|0,0:0|0:0,0:0:0:0:
487,337,240120,6,0,P|498:274|414:209,1,179.999994506836,0|8,0:0|0:0,0:0:0:0:
327,66,240745,1,0,0:0:0:0:
327,66,240849,1,0,0:0:0:0:
327,66,240953,2,0,P|319:110|329:160,1,89.9999972534181,0|0,0:0|0:0,0:0:0:0:
505,112,241370,2,0,P|461:104|411:114,1,89.9999972534181,8|0,0:0|0:0,0:0:0:0:
237,196,241786,6,0,L|246:379,1,179.999994506836,0|8,0:0|0:0,0:0:0:0:
325,245,242411,1,0,0:0:0:0:
149,147,242620,2,0,L|158:330,1,179.999994506836,0|8,0:0|0:0,0:0:0:0:
237,196,243245,1,0,0:0:0:0:
61,98,243453,6,0,L|66:189,1,89.9999972534181,0|0,0:0|0:0,0:0:0:0:
232,106,243870,2,0,L|228:16,1,89.9999972534181,8|0,0:0|0:0,0:0:0:0:
70,277,244286,2,0,L|74:369,1,89.9999972534181,0|0,0:0|0:0,0:0:0:0:
241,285,244703,2,0,L|237:195,1,89.9999972534181,8|4,0:0|0:0,0:0:0:0:
157,326,245120,6,0,P|221:372|315:336,1,179.999994506836,4|8,0:2|0:0,0:0:0:0:
397,231,245745,1,0,0:0:0:0:
397,231,245849,1,0,0:0:0:0:
397,231,245953,2,0,L|401:323,1,89.9999972534181,0|0,0:0|0:0,0:0:0:0:
465,164,246370,2,0,P|423:139|375:138,1,89.9999972534181,8|0,0:0|0:0,0:0:0:0:
212,72,246786,6,0,P|261:81|299:72,1,89.9999972534181
129,136,247203,2,0,P|84:140|47:164,1,89.9999972534181,8|0,0:0|0:0,0:0:0:0:
191,230,247620,2,0,P|236:155|212:71,1,179.999994506836,0|8,0:0|0:0,0:0:0:0:
111,21,248245,1,0,0:0:0:0:
47,164,248453,6,0,P|91:160|129:136,1,89.9999972534181,0|0,0:0|0:0,0:0:0:0:
174,315,248870,2,0,P|192:274|191:230,1,89.9999972534181,8|0,0:0|0:0,0:0:0:0:
338,315,249286,2,0,P|319:274|320:230,1,89.9999972534181,0|0,0:0|0:0,0:0:0:0:
465,164,249703,2,0,P|420:160|382:136,1,89.9999972534181,8|0,0:0|0:0,0:0:0:0:
189,52,250120,5,0,0:0:0:0:
256,112,250328,1,0,0:0:0:0:
323,52,250536,1,8,0:0:0:0:
129,136,250745,1,0,0:0:0:0:
129,136,250849,1,0,0:0:0:0:
129,136,250953,2,0,L|125:230,1,89.9999972534181,0|0,0:0|0:0,0:0:0:0:
185,321,251370,5,8,0:0:0:0:
207,325,251474,1,0,0:0:0:0:
229,329,251578,1,0,0:0:0:0:
251,333,251682,1,0,0:0:0:0:
273,337,251786,6,0,P|339:314|436:365,1,179.999994506836,4|8,0:0|0:0,0:0:0:0:
487,200,252411,1,2,0:2:0:0:
487,200,252515,1,0,0:0:0:0:
487,200,252620,2,0,P|495:248|491:295,1,89.9999972534181,0|2,0:0|0:2,0:0:0:0:
389,155,253036,2,0,P|386:110|394:65,1,89.9999972534181,8|2,0:0|0:2,0:0:0:0:
305,214,253453,6,0,L|303:264,2,44.999998626709,0|0|2,0:0|0:0|0:2,0:0:0:0:
207,169,253870,2,0,L|209:119,2,44.999998626709,8|0|2,0:0|0:0|0:2,0:0:0:0:
123,229,254286,1,0,0:0:0:0:
25,184,254495,1,2,0:2:0:0:
79,23,254703,2,0,P|88:75|85:115,1,89.9999972534181,8|2,0:0|0:2,0:0:0:0:
79,23,255120,6,0,P|154:68|239:46,1,179.999994506836,0|8,0:0|0:0,0:0:0:0:
298,126,255745,1,2,0:2:0:0:
298,126,255849,1,0,0:0:0:0:
298,126,255953,2,0,P|306:177|303:217,1,89.9999972534181,0|2,0:0|0:2,0:0:0:0:
129,317,256370,2,0,P|120:265|123:225,1,89.9999972534181,8|2,0:0|0:2,0:0:0:0:
309,306,256786,6,0,P|257:314|217:311,1,89.9999972534181,0|2,0:0|0:2,0:0:0:0:
118,137,257203,2,0,P|169:128|209:131,1,89.9999972534181,8|2,0:0|0:2,0:0:0:0:
379,60,257620,2,0,L|368:240,1,179.999994506836,0|8,0:0|0:0,0:0:0:0:
256,224,258245,1,4,0:0:0:0:
239,337,258453,6,0,P|173:314|76:365,1,179.999994506836,4|8,0:2|0:0,0:0:0:0:
25,200,259078,1,2,0:2:0:0:
25,200,259182,1,0,0:0:0:0:
25,200,259286,2,0,P|17:248|21:295,1,89.9999972534181,0|2,0:0|0:2,0:0:0:0:
123,155,259703,2,0,P|125:110|117:65,1,89.9999972534181,8|2,0:0|0:2,0:0:0:0:
207,214,260120,6,0,L|209:264,2,44.999998626709,0|0|2,0:0|0:0|0:2,0:0:0:0:
305,169,260536,2,0,L|303:119,2,44.999998626709,8|0|2,0:0|0:0|0:2,0:0:0:0:
389,229,260953,1,0,0:0:0:0:
487,184,261161,1,2,0:2:0:0:
432,23,261370,2,0,P|424:75|427:115,1,89.9999972534181,8|2,0:0|0:2,0:0:0:0:
432,23,261786,6,0,P|357:68|273:46,1,179.999994506836,0|8,0:0|0:0,0:0:0:0:
214,126,262411,1,2,2:0:0:0:
214,126,262515,1,0,0:0:0:0:
214,126,262620,2,0,P|205:177|208:217,1,89.9999972534181,0|2,0:0|2:0,0:0:0:0:
383,317,263036,2,0,P|391:265|388:225,1,89.9999972534181,8|2,0:0|2:0,0:0:0:0:
203,306,263453,6,0,P|254:314|294:311,1,89.9999972534181,0|2,0:0|0:2,0:0:0:0:
207,214,263870,2,0,P|119:202|27:214,2,179.999994506836,8|0|8,0:0|0:0|0:0,0:0:0:0:
292,311,264911,1,2,0:2:0:0:
292,311,265120,5,4,0:2:0:0:
341,101,265536,1,4,0:2:0:0:
134,163,265953,6,0,B|198:117|256:111|261:226|360:296|496:200|536:64|424:-48|288:-32|248:72,1,629.999980773926,4|0,0:0|0:0,0:0:0:0:
341,101,267620,2,0,B|309:157|353:249|393:188|441:274|418:342,1,269.999991760254,2|0,1:2|0:0,0:0:0:0:
333,383,268453,6,0,B|274:400|225:351|225:351|168:256|76:284|80:400|174:420|224:323|224:323|275:277|332:298,1,539.999983520508,2|8,1:2|0:0,0:0:0:0:
420,338,269911,2,0,P|366:257|493:220,1,269.999991760254,2|8,1:2|0:0,0:0:0:0:
439,14,270953,1,0,0:0:0:0:
319,229,271370,2,0,P|364:252|418:242,1,89.9999972534181,8|4,0:0|1:2,0:0:0:0:
378,163,271786,6,0,B|314:117|256:111|251:226|152:296|16:200|-24:64|88:-48|224:-32|264:72,1,629.999980773926,4|0,0:0|0:0,0:0:0:0:
171,101,273453,2,0,B|202:157|158:249|118:188|70:274|93:342,1,269.999991760254
180,301,274286,2,0,L|275:296,1,89.9999972534181
350,217,274703,1,8,0:0:0:0:
378,322,274911,6,0,P|431:142|247:180,1,449.99998626709,4|8,1:2|0:0,0:0:0:0:
140,184,276161,2,0,L|45:179,1,89.9999972534181,0|8,0:0|0:0,0:0:0:0:
177,99,276578,6,0,P|140:184|176:278,1,179.999994506836,8|8,0:0|0:0,0:0:0:0:
261,320,277203,1,4,1:2:0:0:
256,192,277411,12,0,279703,2:0:0:0:
268,125,285120,6,0,P|321:111|408:160,1,150,0|8,0:0|0:0,0:0:0:0:
323,204,285745,1,0,0:0:0:0:
244,259,285953,2,0,P|191:273|104:224,1,150,0|8,0:0|0:0,0:0:0:0:
323,204,286786,6,0,P|337:257|288:344,1,150,0|8,0:0|0:0,0:0:0:0:
244,259,287411,1,0,0:0:0:0:
189,180,287620,2,0,P|175:127|224:40,1,150,0|8,0:0|0:0,0:0:0:0:
402,152,288453,5,0,0:0:0:0:
295,338,288870,1,8,0:0:0:0:
202,285,289078,1,0,0:0:0:0:
109,231,289286,1,0,0:0:0:0:
216,45,289703,5,8,0:0:0:0:
216,45,289911,1,4,0:2:0:0:
256,192,290328,1,0,0:0:0:0:
256,192,290536,1,4,0:2:0:0:
295,338,290953,1,0,0:0:0:0:
295,338,291161,1,4,0:0:0:0:
