osu file format v14

[General]
AudioFilename: audio.mp3
AudioLeadIn: 0
PreviewTime: 128140
Countdown: 0
SampleSet: Normal
StackLeniency: 0.7
Mode: 0
LetterboxInBreaks: 0
WidescreenStoryboard: 1

[Editor]
DistanceSpacing: 0.6
BeatDivisor: 4
GridSize: 32
TimelineZoom: 1

[Metadata]
Title:Escapist
TitleUnicode:Escapist
Artist:Nightwish
ArtistUnicode:Nightwish
Creator:pw384
Version:Extrication
Source:
Tags:Dark Passion Play symphonic metal tm1209 encorew ametrin 384059043
BeatmapID:1276770
BeatmapSetID:604273

[Difficulty]
HPDrainRate:7
CircleSize:4
OverallDifficulty:8.2
ApproachRate:9.2
SliderMultiplier:2.4
SliderTickRate:1

[Events]
//Background and Video events
0,0,"bg2.jpg",0,0
//Break Periods
2,2403,5383
2,8236,11216
2,211986,217675
2,279903,284550
//Storyboard Layer 0 (Background)
//Storyboard Layer 1 (Fail)
//Storyboard Layer 2 (Pass)
//Storyboard Layer 3 (Foreground)
//Storyboard Sound Samples

[TimingPoints]
120,416.666666666667,4,2,0,40,1,0
120,-200,4,2,0,40,0,0
11786,-200,4,2,0,10,0,0
15953,-200,4,2,0,20,0,0
16370,-200,4,2,0,30,0,0
16786,-200,4,2,0,40,0,0
17203,-200,4,2,0,50,0,0
17620,-200,4,2,0,45,0,0
29286,-166.666666666667,4,2,0,50,0,0
37411,-166.666666666667,4,2,0,20,0,0
38661,-166.666666666667,4,2,0,50,0,0
41370,-143.884892086331,4,2,0,55,0,0
43870,-133.333333333333,4,2,0,25,0,0
45120,-133.333333333333,4,2,0,40,0,0
46995,-250,4,2,0,60,0,0
48453,-125,4,1,1,75,0,0
68453,-125,4,1,1,80,0,0
71786,-125,4,1,1,85,0,0
75120,-200,4,3,1,60,0,0
88453,-125,4,1,1,75,0,0
101786,-156.25,4,3,1,60,0,0
115120,-125,4,1,1,60,0,0
125745,-156.25,4,1,1,60,0,0
126370,-195.3125,4,1,1,60,0,0
126995,-125,4,1,1,60,0,0
127620,-125,4,1,1,70,0,0
128453,-125,4,1,1,75,0,1
141370,-125,4,1,1,75,0,0
141786,-125,4,1,1,75,0,1
155120,-125,4,1,1,75,0,0
156786,-96.1538461538461,4,1,1,75,0,0
157411,-125,4,1,1,75,0,0
157620,-112.612612612613,4,1,1,75,0,0
157828,-125,4,1,1,75,0,0
178453,-200,4,1,1,60,0,0
180120,-156.25,4,1,1,60,0,0
181786,-125,4,1,1,60,0,0
183453,-125,4,1,1,50,0,0
183661,-125,4,1,1,55,0,0
183870,-125,4,1,1,60,0,0
184286,-125,4,1,1,65,0,0
184703,-125,4,1,1,70,0,0
185120,-125,4,1,1,75,0,0
197620,-83.3333333333333,4,2,1,60,0,0
198453,-125,4,1,1,75,0,0
210953,-83.3333333333333,4,1,1,60,0,0
211786,-200,4,1,1,60,0,0
218245,-200,4,2,0,60,0,0
218453,-125,4,2,0,60,0,0
223453,-125,4,2,0,70,0,0
224286,-125,4,1,1,80,0,0
225120,-125,4,1,1,80,0,1
238036,-125,4,1,1,80,0,0
238453,-125,4,1,1,80,0,1
251370,-125,4,1,1,80,0,0
251786,-100,4,1,1,80,0,1
264703,-100,4,1,1,80,0,0
265120,-100,4,1,1,80,0,1
266161,-100,4,1,1,20,0,1
267620,-100,4,1,1,80,0,1
267828,-100,4,1,1,20,0,1
268453,-100,4,1,1,80,0,1
268661,-100,4,1,1,20,0,1
270120,-100,4,1,1,80,0,1
270328,-100,4,1,1,20,0,1
270953,-100,4,1,1,80,0,1
271995,-100,4,1,1,20,0,1
273453,-100,4,1,1,80,0,1
273661,-100,4,1,1,20,0,1
275120,-100,4,1,1,80,0,1
275328,-100,4,1,1,20,0,1
275953,-100,4,1,1,80,0,1
277411,-100,4,1,1,20,0,1
278453,-100,4,1,1,20,0,0
285120,-125,4,1,1,80,0,0
289911,-125,4,1,1,80,0,1
291161,-74.0740740740741,4,1,1,80,0,1
291578,-125,4,1,1,40,0,0

[Colours]
Combo1 : 207,187,118
Combo2 : 170,105,74
Combo3 : 120,89,54

[HitObjects]
52,167,120,5,0,0:0:0:0:
39,76,328,1,2,0:0:0:0:
120,36,536,1,2,0:0:0:0:
184,101,745,1,0,0:0:0:0:
142,182,953,1,0,0:0:0:0:
353,310,1578,5,2,0:0:0:0:
445,273,1786,1,2,0:0:0:0:
409,181,1995,1,0,0:0:0:0:
316,217,2203,1,0,0:0:0:0:
119,332,5953,5,0,0:0:0:0:
39,260,6161,1,2,0:0:0:0:
141,226,6370,1,2,0:0:0:0:
119,332,6578,1,0,0:0:0:0:
39,260,6786,1,0,0:0:0:0:
351,61,7411,5,2,0:0:0:0:
457,104,7620,1,2,0:0:0:0:
351,61,7828,1,0,0:0:0:0:
457,104,8036,1,0,0:0:0:0:
199,156,11786,6,0,L|202:125,26,30
313,228,14703,6,0,L|310:259,24,30
52,167,17620,5,0,0:0:0:0:
120,36,17828,1,2,0:0:0:0:
142,182,18036,1,2,0:0:0:0:
39,76,18245,1,2,0:0:0:0:
184,101,18453,1,2,0:0:0:0:
353,310,19078,5,2,0:0:0:0:
409,181,19286,1,2,0:0:0:0:
316,217,19495,1,2,0:0:0:0:
445,273,19703,2,0,L|451:309,3,30
456,332,20120,6,0,B|375:341|375:341|343:301|273:289|231:322,1,240
69,351,21370,1,0,0:0:0:0:
65,321,21474,1,0,0:0:0:0:
61,291,21578,1,0,0:0:0:0:
57,261,21682,1,0,0:0:0:0:
53,231,21786,6,0,L|61:201,3,30
135,181,22203,2,0,L|143:151,3,30
217,131,22620,2,0,L|225:101,3,30
299,81,23036,2,0,L|307:51,3,30
392,51,23453,5,0,0:0:0:0:
472,123,23661,1,2,0:0:0:0:
370,157,23870,1,2,0:0:0:0:
392,51,24078,1,2,0:0:0:0:
472,123,24286,1,2,0:0:0:0:
161,323,24911,5,2,0:0:0:0:
55,280,25120,1,2,0:0:0:0:
161,323,25328,1,2,0:0:0:0:
55,280,25536,2,0,B|35:238|51:197|51:197|37:171|37:171|61:157|50:109,1,180,2|0,0:0|0:0,0:0:0:0:
142,24,26370,6,0,B|162:66|146:107|146:107|160:133|160:133|113:169|98:297|185:355|393:370|401:98|224:99,1,660,2|0,0:0|0:0,0:0:0:0:
229,209,28870,2,0,L|233:175,3,30
225,99,29286,5,2,0:0:0:0:
333,146,29495,1,2,0:0:0:0:
439,90,29703,1,2,0:0:0:0:
180,292,30120,1,0,0:0:0:0:
502,360,30536,2,0,L|416:341,1,71.9999978027344,2|0,0:0|0:0,0:0:0:0:
10,24,31161,1,0,0:0:0:0:
180,292,31578,2,0,L|94:300,1,71.9999978027344,0|2,0:0|0:0,0:0:0:0:
262,70,32203,5,2,0:0:0:0:
199,152,32411,1,2,0:0:0:0:
264,312,32620,1,2,0:0:0:0:
467,21,33036,1,0,0:0:0:0:
348,332,33453,1,2,0:0:0:0:
180,292,33661,1,0,0:0:0:0:
490,157,34078,1,2,0:0:0:0:
395,145,34286,6,0,L|359:142,5,23.9999992675781
347,140,34703,2,0,L|312:136,1,35.9999989013672,2|0,0:0|0:0,0:0:0:0:
34,185,35120,5,0,0:0:0:0:
124,12,35328,1,2,0:0:0:0:
153,204,35536,1,2,0:0:0:0:
17,65,35745,1,2,0:0:0:0:
208,97,35953,1,2,0:0:0:0:
384,372,36578,5,2,0:0:0:0:
459,197,36786,1,2,0:0:0:0:
333,246,36995,1,2,0:0:0:0:
508,321,37203,1,2,0:0:0:0:
333,246,37411,6,0,L|303:241,15,23.9999992675781
184,105,38661,5,0,0:0:0:0:
41,87,38870,1,2,0:0:0:0:
97,220,39078,1,0,0:0:0:0:
117,54,39286,5,0,0:0:0:0:
30,169,39495,1,2,0:0:0:0:
173,187,39703,1,0,0:0:0:0:
50,2,39911,1,2,0:0:0:0:
19,251,40120,5,0,0:0:0:0:
249,154,40328,1,2,0:0:0:0:
41,87,40536,1,0,0:0:0:0:
97,220,40745,1,2,0:0:0:0:
184,105,40953,5,0,0:0:0:0:
150,89,41057,1,0,0:0:0:0:
112,96,41161,1,0,0:0:0:0:
79,80,41265,1,0,0:0:0:0:
41,87,41370,5,0,0:0:0:0:
97,220,41578,1,2,0:0:0:0:
184,105,41786,1,2,0:0:0:0:
19,251,41995,1,2,0:0:0:0:
249,154,42203,1,2,0:0:0:0:
249,154,42828,5,2,0:0:0:0:
19,251,43036,1,2,0:0:0:0:
173,187,43245,1,2,0:0:0:0:
19,251,43453,2,0,B|79:240|79:240|137:270,1,125.100003817749,2|0,0:0|0:0,0:0:0:0:
161,284,43870,6,0,L|190:273,15,30.0000011444092
299,175,45120,2,0,P|352:201|455:113,1,180.000006866455,2|0,0:0|0:0,0:0:0:0:
363,110,45745,2,0,B|370:156|370:156|360:192|360:192|380:253|380:253|363:288|363:288|374:338|374:338|313:292|219:302|184:371,1,450.000017166138,2|0,0:0|0:0,0:0:0:0:
113,137,46995,5,2,0:0:0:0:
256,144,47203,1,2,0:0:0:0:
191,17,47411,1,2,0:0:0:0:
113,137,47620,6,0,L|256:144,1,144,2|0,0:0|2:0,0:0:0:0:
191,225,48453,6,0,L|47:218,1,144,4|0,0:2|2:0,0:0:0:0:
30,224,48870,1,8,0:0:0:0:
124,305,49078,1,0,0:0:0:0:
257,144,49286,6,0,L|113:137,1,144,0|0,0:0|2:0,0:0:0:0:
97,143,49703,1,8,0:0:0:0:
191,225,49911,1,0,0:0:0:0:
323,63,50120,6,0,L|227:58,1,96,0|0,0:0|2:0,0:0:0:0:
389,170,50536,2,0,L|484:174,1,96,8|0,0:0|2:0,0:0:0:0:
286,229,50953,6,0,L|191:225,1,96,0|0,0:0|2:0,0:0:0:0:
34,86,51370,2,0,L|177:92,1,144,12|0,0:0|2:0,0:0:0:0:
193,82,51786,6,0,P|181:153|190:224,1,144,4|0,0:2|2:0,0:0:0:0:
201,237,52203,1,8,0:0:0:0:
287,141,52411,1,0,0:0:0:0:
210,249,52620,6,0,P|280:237|351:246,1,144,0|0,0:0|2:0,0:0:0:0:
364,256,53036,1,8,0:0:0:0:
268,342,53245,1,0,0:0:0:0:
376,265,53453,6,0,P|370:216|370:170,1,96,0|0,0:0|2:0,0:0:0:0:
261,41,53870,2,0,P|261:89|256:137,1,96,8|0,0:0|2:0,0:0:0:0:
141,167,54286,6,0,P|93:172|45:172,1,96,0|0,0:0|2:0,0:0:0:0:
61,343,54703,2,0,P|108:337|166:336,1,96,12|0,0:0|0:0,0:0:0:0:
309,298,55120,6,0,L|296:144,1,144,4|0,0:2|2:0,0:0:0:0:
307,141,55536,1,8,0:0:0:0:
402,252,55745,1,0,0:0:0:0:
214,187,55953,6,0,L|201:33,1,144,0|0,0:0|2:0,0:0:0:0:
212,30,56370,1,8,0:0:0:0:
307,141,56578,1,0,0:0:0:0:
119,76,56786,6,0,P|73:80|23:75,1,96,0|0,0:0|2:0,0:0:0:0:
118,186,57203,2,0,P|164:182|214:187,1,96,8|0,0:0|2:0,0:0:0:0:
307,45,57620,6,0,P|311:93|307:141,1,96,0|0,0:0|2:0,0:0:0:0:
205,341,58036,2,0,P|198:269|206:198,1,144,12|0,0:0|2:0,0:0:0:0:
213,186,58453,6,0,P|284:179|355:187,1,144,4|0,0:2|2:0,0:0:0:0:
367,199,58870,1,8,0:0:0:0:
297,329,59078,1,0,0:0:0:0:
221,174,59286,6,0,P|214:102|222:31,1,144,0|0,0:0|2:0,0:0:0:0:
234,20,59703,1,8,0:0:0:0:
364,90,59911,1,0,0:0:0:0:
104,112,60120,6,0,P|45:105|2:107,1,96,0|0,0:0|2:0,0:0:0:0:
173,230,60536,2,0,P|158:278|155:326,1,96,8|0,0:0|2:0,0:0:0:0:
339,230,60953,6,0,P|354:278|357:326,1,96,0|0,0:0|2:0,0:0:0:0:
408,112,61370,1,12,0:0:0:0:
256,269,61578,1,8,0:0:0:0:
408,112,61786,6,0,P|355:104|264:112,1,144,4|0,0:2|2:0,0:0:0:0:
255,125,62203,1,8,0:0:0:0:
380,199,62411,1,0,0:0:0:0:
283,38,62620,6,0,P|230:30|139:38,1,144,0|0,0:0|2:0,0:0:0:0:
130,51,63036,1,8,0:0:0:0:
255,125,63245,1,0,0:0:0:0:
120,65,63453,6,0,P|129:107|133:163,1,96,0|0,0:0|2:0,0:0:0:0:
20,321,63870,2,0,P|30:274|34:227,1,96,8|0,0:0|2:0,0:0:0:0:
144,171,64286,6,0,P|186:180|242:184,1,96,0|0,0:0|2:0,0:0:0:0:
472,78,64703,2,0,P|430:69|328:63,1,144,12|0,0:0|2:0,0:0:0:0:
320,72,65120,6,0,P|327:116|323:222,1,144,4|0,0:2|2:0,0:0:0:0:
315,228,65536,1,8,0:0:0:0:
134,166,65745,1,0,0:0:0:0:
408,143,65953,6,0,P|415:187|411:293,1,144,0|0,0:0|2:0,0:0:0:0:
403,299,66370,1,8,0:0:0:0:
222,237,66578,1,0,0:0:0:0:
408,143,66786,6,0,P|450:152|506:156,1,96,0|0,0:0|2:0,0:0:0:0:
317,250,67203,2,0,P|275:241|219:237,1,96,8|0,0:0|2:0,0:0:0:0:
402,335,67620,6,0,P|406:287|416:241,1,96,0|0,0:0|2:0,0:0:0:0:
322,55,68036,2,0,P|318:103|309:150,1,96,12|0,0:0|0:0,0:0:0:0:
224,380,68453,6,0,P|217:313|224:220,1,144,4|0,0:2|2:0,0:0:0:0:
233,220,68870,1,8,0:0:0:0:
348,276,69078,1,0,0:0:0:0:
109,324,69286,6,0,P|102:257|109:164,1,144,0|0,0:0|2:0,0:0:0:0:
118,164,69703,1,8,0:0:0:0:
233,220,69911,1,0,0:0:0:0:
0,277,70120,6,0,P|-1:229|6:181,1,96,0|0,0:0|2:0,0:0:0:0:
207,39,70536,2,0,P|214:86|212:136,1,96,8|0,0:0|2:0,0:0:0:0:
366,200,70953,6,0,P|413:201|461:194,1,96,0|0,0:0|2:0,0:0:0:0:
303,343,71370,2,0,P|231:348|160:337,1,144,12|0,0:0|2:0,0:0:0:0:
133,326,71786,5,4,0:2:0:0:
67,259,71995,1,0,0:0:0:0:
98,173,72203,1,8,0:0:0:0:
162,238,72411,1,0,0:0:0:0:
133,326,72620,5,4,0:2:0:0:
1,192,72828,1,0,0:0:0:0:
63,20,73036,1,8,0:0:0:0:
191,150,73245,1,0,0:0:0:0:
1,192,73453,6,0,L|12:145,1,48,4|0,0:2|0:0,0:0:0:0:
73,76,73661,1,0,0:0:0:0:
68,48,73765,1,0,0:0:0:0:
63,20,73870,1,8,0:0:0:0:
191,150,74078,6,0,P|267:165|382:165,1,192,4|0,0:2|0:0,0:0:0:0:
504,113,74703,2,0,P|513:166|512:219,1,96,4|8,1:2|0:0,0:0:0:0:
487,283,75015,1,8,0:0:0:0:
487,283,75120,1,0,0:0:0:0:
447,45,75328,5,0,0:0:0:0:
447,45,75536,1,0,0:0:0:0:
339,219,75953,1,0,0:0:0:0:
339,219,76161,2,0,B|287:234|273:202|220:216,1,120
78,340,76995,5,0,0:0:0:0:
152,370,77203,2,0,P|151:311|93:260,1,120
230,340,77828,2,0,L|349:336,1,120
476,146,78661,5,0,0:0:0:0:
476,146,78870,2,0,L|468:269,1,120
268,171,79495,2,0,P|315:163|381:193,2,120
310,250,80536,6,0,L|302:373,1,120
268,171,81161,1,0,0:0:0:0:
422,341,81578,1,0,0:0:0:0:
189,213,81995,5,0,0:0:0:0:
268,171,82203,2,0,L|260:294,1,120
226,92,82828,1,0,0:0:0:0:
380,262,83245,1,0,0:0:0:0:
147,134,83661,5,0,0:0:0:0:
226,92,83870,2,0,L|218:215,1,120
184,13,84495,1,0,0:0:0:0:
338,183,84911,1,0,0:0:0:0:
29,167,85328,5,0,0:0:0:0:
29,167,85536,2,0,P|88:162|150:166,1,120
89,249,86161,1,0,0:0:0:0:
196,77,86578,1,0,0:0:0:0:
196,77,86786,6,0,P|255:82|317:78,1,120,0|8,0:0|0:1,0:0:0:0:
256,191,87411,1,0,0:0:0:0:
316,307,87620,2,0,P|257:302|195:306,1,120,0|8,0:0|0:1,0:0:0:0:
63,336,88245,1,0,0:0:0:0:
63,336,88349,1,0,0:0:0:0:
63,336,88453,6,0,L|81:190,1,144,4|0,0:2|2:0,0:0:0:0:
62,215,88870,2,0,P|119:205|167:210,1,96,8|0,0:0|0:0,0:0:0:0:
146,38,89286,6,0,P|214:40|300:64,1,144,0|0,0:0|2:0,0:0:0:0:
266,38,89703,2,0,L|280:136,1,96,8|0,0:0|0:0,0:0:0:0:
448,262,90120,6,0,L|350:250,1,96,0|0,0:0|2:0,0:0:0:0:
183,121,90536,2,0,L|278:132,1,96,8|0,0:0|2:0,0:0:0:0:
327,356,90953,6,0,L|229:344,1,96,0|0,0:0|2:0,0:0:0:0:
62,215,91370,2,0,B|158:226|158:226|193:260,1,144,12|0,0:0|2:0,0:0:0:0:
266,249,91786,6,0,L|413:231,1,144,4|0,0:2|2:0,0:0:0:0:
385,246,92203,2,0,B|390:192|390:192|373:153,1,96,8|0,0:0|0:0,0:0:0:0:
231,344,92620,6,0,L|84:326,1,144,0|0,0:0|2:0,0:0:0:0:
112,341,93036,2,0,B|107:287|107:287|124:248,1,96,8|0,0:0|0:0,0:0:0:0:
181,32,93453,6,0,L|192:132,1,96,0|0,0:0|2:0,0:0:0:0:
331,352,93870,2,0,L|320:252,1,96,8|0,0:0|2:0,0:0:0:0:
320,127,94286,6,0,L|416:117,1,96,0|0,0:0|2:0,0:0:0:0:
191,256,94703,2,0,L|96:267,1,96,12|0,0:0|2:0,0:0:0:0:
48,111,95120,6,0,L|191:127,1,144,4|0,0:2|2:0,0:0:0:0:
169,146,95536,2,0,B|160:98|160:98|174:47,1,96,8|0,0:0|0:0,0:0:0:0:
320,127,95953,6,0,L|336:270,1,144,0|0,0:0|2:0,0:0:0:0:
317,248,96370,2,0,B|365:239|365:239|416:253,1,96,8|0,0:0|0:0,0:0:0:0:
233,338,96786,6,0,B|185:347|185:347|134:333,1,96,0|0,0:0|2:0,0:0:0:0:
2,193,97203,2,0,B|50:184|50:184|95:196,1,96,8|0,0:0|2:0,0:0:0:0:
45,381,97620,6,0,B|36:333|36:333|48:287,1,96,0|0,0:0|2:0,0:0:0:0:
190,150,98036,2,0,B|199:198|199:198|186:244|186:244|200:291,1,144,12|0,0:0|2:0,0:0:0:0:
139,334,98453,5,4,0:2:0:0:
48,287,98661,1,0,0:0:0:0:
186,243,98870,1,8,0:0:0:0:
95,196,99078,1,0,0:0:0:0:
233,338,99286,5,4,1:2:0:0:
45,381,99495,1,0,0:0:0:0:
190,150,99703,1,8,0:0:0:0:
2,193,99911,1,0,0:0:0:0:
233,338,100120,6,0,B|277:358|277:358|330:362,1,96,4|0,0:2|2:0,0:0:0:0:
421,216,100536,2,0,B|377:196|377:196|324:192,1,96,8|0,0:0|2:0,0:0:0:0:
91,168,100953,6,0,B|136:189|136:189|189:193,1,96,4|0,0:2|2:0,0:0:0:0:
279,46,101370,2,0,B|235:26|235:26|182:22,1,96,8|0,0:0|0:0,0:0:0:0:
91,168,101786,5,0,0:0:0:0:
117,265,101995,1,0,0:0:0:0:
9,338,102203,2,0,B|28:345|53:346|81:333|81:333|103:342|130:344|158:329,1,153.6
224,191,102828,1,0,0:0:0:0:
224,191,103245,6,0,B|205:184|180:183|152:196|152:196|130:187|103:185|75:200,1,153.6
290,241,103870,2,0,P|305:196|240:110,1,153.6
211,270,104495,1,0,0:0:0:0:
338,56,104911,1,0,0:0:0:0:
339,307,105328,5,0,0:0:0:0:
417,279,105536,2,0,P|363:228|290:240,1,153.6
402,361,106161,1,0,0:0:0:0:
325,141,106578,1,0,0:0:0:0:
90,316,106995,5,0,0:0:0:0:
49,239,107203,2,0,B|77:227|104:227|129:239|129:239|153:226|153:226|174:234|199:227,1,153.6
325,141,107828,1,0,0:0:0:0:
325,141,108245,2,0,B|297:153|270:153|244:140|244:140|221:154|221:154|200:146|175:153,1,153.6
284,64,108870,5,0,0:0:0:0:
346,222,109286,1,0,0:0:0:0:
336,306,109495,2,0,P|404:284|428:206,1,153.6
191,163,110328,1,0,0:0:0:0:
191,163,110536,6,0,P|256:197|321:162,1,153.6
321,72,111161,2,0,P|255:37|190:71,1,153.6
165,222,111995,1,0,0:0:0:0:
176,306,112203,6,0,P|108:284|84:206,1,153.6
256,287,112828,1,0,0:0:0:0:
256,287,113245,1,0,0:0:0:0:
336,306,113453,6,0,P|404:284|428:206,1,153.6,0|8,0:0|0:1,0:0:0:0:
200,114,114078,1,0,0:0:0:0:
346,222,114286,1,0,0:0:0:0:
165,220,114495,1,0,0:0:0:0:
312,115,114703,1,8,0:1:0:0:
256,287,114911,1,0,1:0:0:0:
256,287,115015,1,0,1:0:0:0:
256,287,115120,6,0,L|256:192,1,96,4|0,0:2|0:0,0:0:0:0:
256,32,115536,1,8,0:0:0:0:
36,267,115953,1,0,0:0:0:0:
118,248,116161,1,0,0:0:0:0:
198,273,116370,1,8,0:0:0:0:
256,334,116578,2,0,P|298:293|429:275,1,192
500,217,117203,6,0,P|514:267|511:317,1,96,8|0,0:0|0:0,0:0:0:0:
476,117,117620,1,0,0:0:0:0:
394,136,117828,1,0,0:0:0:0:
314,111,118036,1,8,0:0:0:0:
256,50,118245,6,0,P|214:91|83:109,1,192
12,167,118870,2,0,P|-2:117|1:67,1,96,8|0,0:0|0:0,0:0:0:0:
36,267,119286,1,0,0:0:0:0:
118,248,119495,1,0,0:0:0:0:
198,273,119703,1,8,0:0:0:0:
256,334,119911,2,0,B|313:301|313:301|372:309|372:309|429:275,1,192
492,204,120536,6,0,B|511:250|511:250|514:305,1,96,8|0,0:0|0:0,0:0:0:0:
476,117,120953,1,0,0:0:0:0:
394,136,121161,1,0,0:0:0:0:
314,111,121370,1,8,0:0:0:0:
256,50,121578,2,0,B|199:83|199:83|140:75|140:75|83:109,1,192
20,180,122203,6,0,B|1:134|1:134|-2:79,1,96,8|0,0:0|0:0,0:0:0:0:
36,267,122620,1,0,0:0:0:0:
118,248,122828,1,0,0:0:0:0:
198,273,123036,1,8,0:0:0:0:
256,334,123245,2,0,B|309:315|309:315|340:246|340:246|306:191,1,192
203,189,123870,6,0,B|172:138|172:138|203:69|203:69|256:50,1,192,8|0,0:0|0:0,0:0:0:0:
314,111,124495,1,0,0:0:0:0:
394,136,124703,1,8,0:0:0:0:
476,117,124911,1,0,0:0:0:0:
451,269,125120,6,0,L|436:369,1,96,4|0,0:2|0:0,0:0:0:0:
394,136,125536,1,8,0:0:0:0:
363,225,125745,2,0,P|317:241|211:229,1,153.6,4|0,0:2|0:0,0:0:0:0:
12,175,126370,6,0,P|52:169|141:186,1,122.88,4|0,0:2|0:0,0:0:0:0:
233,310,126995,5,0,0:0:0:0:
136,187,127203,1,0,0:0:0:0:
136,187,127411,1,0,0:0:0:0:
363,225,127620,5,8,0:0:0:0:
157,327,127828,1,8,0:0:0:0:
263,123,128036,1,8,0:0:0:0:
297,350,128245,1,8,0:0:0:0:
40,87,128453,6,0,P|107:80|194:77,1,144,4|0,0:0|2:0,0:0:0:0:
156,50,128870,2,0,L|165:149,1,96,8|0,0:0|0:0,0:0:0:0:
296,31,129286,1,0,0:0:0:0:
256,256,129495,1,0,0:0:0:0:
256,256,129599,1,0,0:0:0:0:
256,256,129703,2,0,L|247:157,1,96,8|0,0:0|0:0,0:0:0:0:
156,50,130120,5,0,0:0:0:0:
358,158,130328,1,0,0:0:0:0:
131,189,130536,1,8,0:0:0:0:
296,31,130745,1,0,0:0:0:0:
256,256,130953,6,0,P|337:250|414:250,1,144
371,276,131370,2,0,P|361:323|362:374,1,96,8|0,0:0|0:0,0:0:0:0:
512,200,131786,6,0,P|512:152|502:105,1,96
438,53,132099,1,0,0:0:0:0:
438,53,132203,2,0,L|341:63,1,96,8|0,0:0|0:0,0:0:0:0:
234,160,132620,6,0,L|329:169,1,96
391,228,132932,1,0,0:0:0:0:
391,228,133036,2,0,P|391:275|381:322,1,96,8|0,0:0|0:0,0:0:0:0:
256,256,133453,5,0,0:0:0:0:
483,225,133661,1,0,0:0:0:0:
381,323,133870,1,8,0:0:0:0:
381,323,134286,5,0,0:0:0:0:
256,256,134495,1,0,0:0:0:0:
131,323,134703,1,8,0:0:0:0:
29,225,134911,1,4,0:0:0:0:
231,117,135120,6,0,P|301:116|380:121,1,144,4|0,0:2|2:0,0:0:0:0:
158,177,135536,2,0,P|136:131|175:40,1,144,8|0,0:0|2:0,0:0:0:0:
264,26,135953,1,0,0:0:0:0:
226,248,136161,1,0,0:0:0:0:
219,270,136265,1,0,0:0:0:0:
212,292,136370,1,8,0:0:0:0:
28,109,136578,1,0,0:0:0:0:
205,314,136786,5,0,0:0:0:0:
264,26,136995,1,0,0:0:0:0:
226,248,137203,1,8,0:0:0:0:
28,109,137411,1,0,0:0:0:0:
247,182,137620,2,0,B|289:187|320:174|320:174|356:161|399:174,1,144,0|0,0:0|2:0,0:0:0:0:
351,342,138036,2,0,P|338:296|354:251,1,96,8|0,0:0|0:0,0:0:0:0:
430,298,138453,5,0,0:0:0:0:
257,330,138661,1,0,0:0:0:0:
225,324,138765,1,0,0:0:0:0:
193,318,138870,1,8,0:0:0:0:
275,101,139078,1,0,0:0:0:0:
407,335,139286,5,0,0:0:0:0:
161,312,139495,1,0,0:0:0:0:
129,306,139599,1,0,0:0:0:0:
97,300,139703,1,8,0:0:0:0:
247,182,139911,1,0,0:0:0:0:
385,376,140120,5,0,0:0:0:0:
65,294,140328,1,0,0:0:0:0:
283,260,140536,1,8,0:0:0:0:
283,260,140953,6,0,L|232:258,3,48
181,196,141370,1,8,0:0:0:0:
220,169,141474,1,0,0:0:0:0:
240,125,141578,1,0,0:0:0:0:
239,77,141682,1,0,0:0:0:0:
214,36,141786,6,0,P|301:43|360:40,1,144,4|0,0:2|2:0,0:0:0:0:
397,12,142203,2,0,P|388:62|388:117,1,96,8|0,0:0|0:0,0:0:0:0:
456,275,142620,1,0,0:0:0:0:
256,256,142828,1,0,0:0:0:0:
256,256,142932,1,0,0:0:0:0:
256,256,143036,2,0,P|306:247|361:247,1,96,8|0,0:0|0:0,0:0:0:0:
146,291,143453,6,0,P|98:289|50:281,1,96
256,256,143870,2,0,P|254:303|246:351,1,96,8|0,0:0|0:0,0:0:0:0:
111,181,144286,2,0,P|112:133|120:85,1,96
180,23,144599,1,0,0:0:0:0:
180,23,144703,2,0,P|227:31|275:32,1,96,8|0,0:0|0:0,0:0:0:0:
482,83,145120,6,0,P|434:83|386:91,1,96
330,158,145432,1,0,0:0:0:0:
330,158,145536,2,0,P|330:205|338:253,1,96,8|0,0:0|0:0,0:0:0:0:
254,110,145953,6,0,P|206:110|158:118,1,96
102,185,146265,1,0,0:0:0:0:
102,185,146370,2,0,P|102:232|110:280,1,96,8|0,0:0|0:0,0:0:0:0:
260,368,146786,6,0,P|267:320|269:272,1,96
319,170,147203,2,0,P|366:162|414:161,1,96,8|0,0:0|0:0,0:0:0:0:
254,32,147620,2,0,P|248:83|244:178,1,144,0|0,0:0|2:0,0:0:0:0:
169,116,148036,6,0,P|143:112|116:112,1,48,8|0,0:0|2:0,0:0:0:0:
319,170,148245,2,0,P|342:169|366:165,1,48,4|0,0:0|2:0,0:0:0:0:
452,41,148453,6,0,P|446:92|442:187,1,144,4|0,0:2|2:0,0:0:0:0:
434,262,148870,2,0,P|386:261|338:253,1,96,8|0,0:0|0:0,0:0:0:0:
71,304,149286,2,0,P|118:295|166:295,1,96
247,337,149599,1,0,0:0:0:0:
247,337,149703,2,0,P|247:289|255:241,1,96,8|0,0:0|0:0,0:0:0:0:
331,60,150120,5,0,0:0:0:0:
120,192,150328,2,0,P|72:191|24:183,1,96,0|8,0:0|0:0,0:0:0:0:
181,60,150745,1,0,0:0:0:0:
392,192,150953,2,0,P|439:191|487:183,1,96
312,272,151370,2,0,P|264:264|216:262,1,96
105,334,151786,6,0,P|103:289|106:231,1,96
57,164,152099,1,0,0:0:0:0:
57,164,152203,2,0,P|104:166|152:164,1,96,8|0,0:0|0:0,0:0:0:0:
304,71,152620,2,0,P|256:68|208:70,1,96
359,164,153036,2,0,P|407:166|455:164,1,96,8|0,0:0|0:0,0:0:0:0:
394,52,153453,5,0,0:0:0:0:
256,292,153661,1,0,0:0:0:0:
117,52,153870,1,8,0:0:0:0:
117,52,154286,6,0,P|177:53|208:71,1,96
256,131,154599,1,0,0:0:0:0:
304,70,154703,2,0,P|347:49|394:52,1,96,8|0,0:0|0:0,0:0:0:0:
256,207,155120,6,0,P|155:264|118:137,1,288,4|0,0:0|0:0,0:0:0:0:
332,187,155953,2,0,P|256:286|179:188,1,288
392,136,156786,6,0,B|392:143|392:143|399:144|399:144|407:147|407:147|403:154|403:154|402:162|402:162|407:165|407:165|413:170|413:170|411:178|411:178|407:183|407:183|412:187|412:187|415:193|415:193|412:198|412:198|407:202|407:202|410:207|410:207|412:214|412:214|406:218|406:218|401:220|401:220|402:227|402:227|401:235|401:235|395:237|395:237|388:239|388:239|388:245|388:245|386:252|386:252|379:252|379:252|372:251|372:251|371:258|371:258|368:264|368:264|361:262|361:262|355:260|355:260|350:266|350:266|347:272|347:272|339:268|339:268|334:262|334:262|328:267|328:267|322:271|322:271|317:266|317:266|313:260|313:260|306:263|306:263|299:265|299:265|296:258|296:258|292:250|292:250|284:252|284:252|277:251|277:251|277:244|277:244|276:235|276:235|269:235|269:235|261:234|261:234|264:226|264:226|266:219|266:219|258:218|258:218|256:207,1,374.399997714844,4|0,0:0|0:0,0:0:0:0:
208,102,157620,2,0,B|216:104|216:104|224:100|224:100|232:104|232:104|240:100|240:100|248:104|248:104|256:100|256:100|264:104|264:104|272:100|272:100|280:104|280:104|288:100|288:100|296:104|296:104|304:102,1,106.560002601563,4|0,0:0|0:0,0:0:0:0:
260,211,158036,1,0,0:0:0:0:
260,211,158245,1,0,0:0:0:0:
47,242,158453,6,0,L|143:242,1,96
95,347,158870,1,0,0:0:0:0:
256,84,159286,1,0,0:0:0:0:
465,242,159703,6,0,L|369:242,1,96
256,84,160328,1,0,0:0:0:0:
417,347,160745,1,0,0:0:0:0:
304,168,160953,6,0,L|208:168,1,96
208,261,161370,2,0,L|304:261,1,96
417,347,161786,6,0,L|321:347,1,96
95,347,162203,1,0,0:0:0:0:
417,347,162620,1,0,0:0:0:0:
95,347,163036,6,0,L|191:347,1,96
417,347,163661,1,0,0:0:0:0:
256,192,164078,1,0,0:0:0:0:
321,347,164286,6,0,L|417:347,1,96
191,347,164703,2,0,L|95:347,1,96
55,259,165120,6,0,B|4:193|63:120|147:125|151:176|166:214|222:222,1,288,4|0,0:2|2:0,0:0:0:0:
290,162,165953,2,0,B|346:170|361:208|365:259|449:264|508:191|457:125,1,288,4|0,0:2|2:0,0:0:0:0:
357,110,166786,6,0,B|331:140|312:204|380:217|416:240|379:355|308:355,1,288,4|0,0:2|2:0,0:0:0:0:
197,354,167620,2,0,B|133:355|96:240|132:217|200:204|181:140|154:110,1,288,4|0,0:2|2:0,0:0:0:0:
73,60,168453,6,0,P|140:207|250:87,2,384,4|4|4,0:2|0:0|0:2,0:0:0:0:
154,110,170328,5,0,0:0:0:0:
154,110,170536,1,0,0:0:0:0:
348,64,170745,1,4,0:2:0:0:
291,254,170953,5,0,0:0:0:0:
238,31,171161,1,0,0:0:0:0:
374,175,171370,1,4,0:2:0:0:
181,221,171578,1,0,0:0:0:0:
348,64,171786,5,0,0:0:0:0:
374,175,171995,1,0,0:0:0:0:
264,142,172203,1,8,0:0:0:0:
458,97,172620,1,0,0:0:0:0:
400,286,173036,5,8,0:0:0:0:
290,253,173245,1,0,0:0:0:0:
458,97,173661,1,8,0:0:0:0:
400,286,174078,1,0,0:0:0:0:
290,253,174286,5,8,0:0:0:0:
290,253,174495,1,0,0:0:0:0:
180,220,174703,1,0,0:0:0:0:
180,220,174911,1,0,0:0:0:0:
122,31,175120,5,0,0:0:0:0:
96,142,175328,1,0,0:0:0:0:
206,109,175536,1,8,0:0:0:0:
12,64,175953,1,0,0:0:0:0:
70,253,176370,5,8,0:0:0:0:
180,220,176578,1,0,0:0:0:0:
12,64,176995,1,8,0:0:0:0:
70,253,177411,1,0,0:0:0:0:
180,220,177620,5,8,0:0:0:0:
180,220,177828,1,0,0:0:0:0:
290,187,178036,1,0,0:0:0:0:
290,187,178245,1,0,0:0:0:0:
452,339,178453,6,0,P|396:332|270:329,1,180,8|0,0:0|0:0,0:0:0:0:
16,249,179286,2,0,P|65:265|180:219,1,180,8|0,0:0|0:0,0:0:0:0:
311,38,180120,6,0,P|246:64|291:187,1,230.4,4|0,0:0|0:0,0:0:0:0:
447,124,180953,2,0,P|483:87|386:91,1,230.4,4|0,0:0|0:0,0:0:0:0:
314,293,181786,6,0,B|354:317|412:324|461:301|461:301|448:282|434:272,1,192,4|0,0:2|0:0,0:0:0:0:
183,179,182411,2,0,B|143:203|85:210|36:187|36:187|48:168|63:158,1,192,4|0,0:2|0:0,0:0:0:0:
340,60,183036,2,0,P|381:76|438:80,1,96,4|4,0:2|0:0,0:0:0:0:
248,66,183453,5,0,0:0:0:0:
238,93,183661,1,0,0:0:0:0:
261,123,183870,1,8,0:0:0:0:
237,165,184078,1,8,0:0:0:0:
275,207,184286,1,8,0:0:0:0:
230,257,184495,1,8,0:0:0:0:
288,306,184703,1,8,0:0:0:0:
227,366,184911,1,8,0:0:0:0:
353,241,185120,6,0,P|401:231|502:226,1,144,4|0,0:2|2:0,0:0:0:0:
410,148,185536,2,0,P|358:144|316:132,1,96,8|0,0:0|0:0,0:0:0:0:
512,55,185953,1,0,0:0:0:0:
460,323,186161,2,0,P|436:321|412:316,1,48
353,241,186370,2,0,P|305:244|258:257,1,96,8|0,0:0|0:0,0:0:0:0:
118,221,186786,6,0,P|107:282|91:317,1,96
0,78,187203,1,8,0:0:0:0:
180,125,187411,1,0,0:0:0:0:
180,125,187515,1,0,0:0:0:0:
180,125,187620,1,0,0:0:0:0:
6,192,187828,1,0,0:0:0:0:
107,35,188036,1,8,0:0:0:0:
118,221,188245,1,0,0:0:0:0:
82,125,188453,6,0,P|163:127|237:112,1,144,0|0,0:0|2:0,0:0:0:0:
301,220,188870,2,0,P|253:213|203:210,1,96,8|0,0:0|0:0,0:0:0:0:
287,55,189286,2,0,P|368:57|442:42,1,144,0|0,0:0|2:0,0:0:0:0:
506,150,189703,2,0,P|458:143|408:140,1,96,8|0,0:0|0:0,0:0:0:0:
301,220,190120,6,0,P|294:268|291:318,1,96
226,116,190536,2,0,P|233:68|236:18,1,96,8|0,0:0|0:0,0:0:0:0:
410,140,190953,6,0,P|362:137|315:130,1,96
116,195,191370,2,0,P|164:198|211:205,1,96,8|4,0:0|0:0,0:0:0:0:
494,294,191786,6,0,P|418:298|341:313,1,144,4|0,0:2|2:0,0:0:0:0:
202,367,192203,2,0,P|249:370|297:376,1,96,8|0,0:0|0:0,0:0:0:0:
417,198,192620,2,0,P|341:202|264:217,1,144,0|0,0:0|2:0,0:0:0:0:
125,271,193036,2,0,P|172:274|220:280,1,96,8|0,0:0|0:0,0:0:0:0:
426,379,193453,6,0,P|418:334|413:278,1,96
384,83,193870,2,0,P|362:126|338:167,1,96,8|0,0:0|0:0,0:0:0:0:
329,305,194286,2,0,P|285:323|243:346,1,96
417,198,194703,2,0,P|464:208|512:216,1,96,8|0,0:0|0:0,0:0:0:0:
282,232,195120,6,0,P|251:196|216:163,1,96
99,114,195432,1,0,0:0:0:0:
99,114,195536,2,0,P|91:68|86:12,1,96,8|0,0:0|0:0,0:0:0:0:
119,305,195953,2,0,P|143:264|165:221,1,96
176,96,196265,1,0,0:0:0:0:
176,96,196370,2,0,P|216:74|268:52,1,96,8|0,0:0|0:0,0:0:0:0:
94,192,196786,6,0,P|48:185|-6:173,1,96
262,54,197203,2,0,P|307:60|362:72,1,96,8|0,0:0|0:0,0:0:0:0:
493,256,197620,6,0,B|473:277|464:311|464:311|441:267|441:267|423:285|411:313|411:313|393:277|393:277|375:293|361:314|361:314|343:286|343:286|328:296|314:316|314:316|302:294|302:294|286:302|271:316|271:316|260:303|260:303|243:309|231:316|231:316|216:309|216:309|204:313|196:318|196:318|186:314|186:314|173:318,1,503.999984619141,4|0,0:0|0:0,0:0:0:0:
159,241,198453,6,0,P|111:231|10:226,1,144,4|0,0:2|2:0,0:0:0:0:
102,148,198870,2,0,P|154:144|196:132,1,96,8|0,0:0|0:0,0:0:0:0:
0,55,199286,1,0,0:0:0:0:
52,323,199495,2,0,P|76:321|100:316,1,48
159,241,199703,2,0,P|207:244|254:257,1,96,8|0,0:0|0:0,0:0:0:0:
394,221,200120,6,0,P|405:282|421:317,1,96
512,78,200536,1,8,0:0:0:0:
332,125,200745,1,0,0:0:0:0:
332,125,200849,1,0,0:0:0:0:
332,125,200953,1,0,0:0:0:0:
506,192,201161,1,0,0:0:0:0:
405,35,201370,1,8,0:0:0:0:
394,221,201578,1,0,0:0:0:0:
430,125,201786,6,0,P|349:127|275:112,1,144,0|0,0:0|2:0,0:0:0:0:
211,220,202203,2,0,P|259:213|309:210,1,96,8|0,0:0|0:0,0:0:0:0:
226,55,202620,2,0,P|145:57|71:42,1,144,0|0,0:0|2:0,0:0:0:0:
7,150,203036,2,0,P|55:143|105:140,1,96,8|0,0:0|0:0,0:0:0:0:
211,220,203453,5,0,0:0:0:0:
320,296,203661,1,0,0:0:0:0:
286,116,203870,2,0,P|279:68|276:18,1,96,8|0,0:0|0:0,0:0:0:0:
102,140,204286,6,0,P|150:137|197:130,1,96
396,195,204703,2,0,P|348:198|301:205,1,96,8|4,0:0|0:0,0:0:0:0:
18,294,205120,6,0,P|94:298|171:313,1,144,4|0,0:2|2:0,0:0:0:0:
310,367,205536,2,0,P|263:370|215:376,1,96,8|0,0:0|0:0,0:0:0:0:
95,198,205953,2,0,P|171:202|248:217,1,144,0|0,0:0|2:0,0:0:0:0:
387,271,206370,2,0,P|340:274|292:280,1,96,8|0,0:0|0:0,0:0:0:0:
86,379,206786,6,0,P|94:334|99:278,1,96
128,83,207203,2,0,P|148:124|177:172,1,96,8|0,0:0|0:0,0:0:0:0:
182,305,207620,2,0,P|226:323|269:347,1,96
94,198,208036,2,0,P|47:208|0:216,1,96,8|0,0:0|0:0,0:0:0:0:
229,232,208453,6,0,P|260:196|295:163,1,96
413,114,208765,1,0,0:0:0:0:
413,114,208870,2,0,P|421:68|426:12,1,96,8|0,0:0|0:0,0:0:0:0:
392,305,209286,2,0,P|368:264|347:221,1,96
249,54,209703,2,0,P|293:72|336:96,1,96,8|0,0:0|0:0,0:0:0:0:
512,174,210120,6,0,P|465:184|418:192,1,96,8|4,0:0|0:2,0:0:0:0:
155,70,210536,2,0,P|202:60|250:54,1,96,8|0,0:0|0:0,0:0:0:0:
504,280,210953,6,0,B|464:256|408:264|384:320|384:320|344:280|280:296|256:328|256:328|232:296|168:280|128:320|128:320|104:264|48:256|8:280,1,575.999982421876,4|0,0:2|0:0,0:0:0:0:
76,113,218245,5,0,0:0:0:0:
76,113,218453,2,0,B|84:144|84:144|109:174|109:174|145:187|145:187|186:184|186:184|224:156,1,192,0|2,0:0|0:0,0:0:0:0:
436,271,219286,2,0,B|428:240|428:240|403:210|403:210|367:197|367:197|326:200|326:200|288:228,1,192,0|2,0:0|0:0,0:0:0:0:
354,286,219911,1,0,0:0:0:0:
460,153,220120,6,0,B|457:128|457:128|465:104|465:104|462:79|462:79|452:60,1,96
311,109,220536,2,0,B|320:85|320:85|339:69|339:69|349:45|349:45|350:24,1,96,2|0,0:0|0:0,0:0:0:0:
201,109,220953,2,0,B|191:85|191:85|172:69|172:69|162:45|162:45|161:24,1,96
52,153,221370,2,0,B|55:128|55:128|47:104|47:104|50:79|50:79|60:60,1,96,2|0,0:0|0:0,0:0:0:0:
38,267,221786,6,0,B|59:253|59:253|102:251|102:251|134:292|134:292|181:290|181:290|204:279,1,192,0|2,0:0|0:0,0:0:0:0:
256,192,222411,1,0,0:0:0:0:
308,279,222620,2,0,B|331:290|331:290|378:292|378:292|410:251|410:251|453:253|453:253|474:267,1,192,0|2,0:0|0:0,0:0:0:0:
256,192,223453,5,0,0:0:0:0:
172,48,223661,1,0,1:0:0:0:
340,48,223870,1,0,0:0:0:0:
172,144,224078,1,0,0:0:0:0:
256,0,224286,5,8,0:0:0:0:
339,144,224495,1,0,0:0:0:0:
172,48,224703,1,8,0:0:0:0:
214,72,224807,1,8,0:0:0:0:
256,96,224911,1,8,0:0:0:0:
298,72,225015,1,8,0:0:0:0:
340,48,225120,1,4,0:2:0:0:
256,192,225328,5,0,0:0:0:0:
484,132,225536,1,8,0:0:0:0:
400,276,225745,1,0,0:0:0:0:
400,276,225849,1,0,0:0:0:0:
400,276,225953,2,0,P|368:264|304:256,1,96
204,128,226370,2,0,P|156:123|111:107,1,96,8|0,0:0|0:0,0:0:0:0:
256,192,226786,5,0,0:0:0:0:
28,132,226995,1,0,0:0:0:0:
172,48,227203,1,8,0:0:0:0:
112,276,227411,1,0,0:0:0:0:
213,120,227620,5,0,0:0:0:0:
70,203,227828,1,0,0:0:0:0:
100,90,228036,1,8,0:0:0:0:
183,233,228245,1,0,0:0:0:0:
326,150,228453,6,0,P|401:144|474:145,1,144,0|0,0:0|2:0,0:0:0:0:
505,161,228870,1,8,0:0:0:0:
398,253,229078,1,0,0:0:0:0:
256,45,229286,6,0,P|328:39|404:40,1,144,0|0,0:0|2:0,0:0:0:0:
435,56,229703,1,8,0:0:0:0:
326,150,229911,1,0,0:0:0:0:
195,96,230120,6,0,P|147:95|93:88,1,96
435,56,230536,2,0,P|440:103|441:151,1,96,8|0,0:0|0:0,0:0:0:0:
194,239,230953,2,0,P|191:167|195:96,1,144,0|0,0:0|2:0,0:0:0:0:
280,30,231370,2,0,P|282:52|283:78,1,48,8|0,0:0|2:0,0:0:0:0:
102,136,231578,2,0,P|99:114|99:88,1,48,4|0,0:0|2:0,0:0:0:0:
345,134,231786,6,0,P|350:181|351:229,1,96,4|0,0:2|0:0,0:0:0:0:
180,257,232203,2,0,P|132:251|84:250,1,96,8|0,0:0|0:0,0:0:0:0:
417,317,232620,2,0,P|464:322|512:323,1,96
447,236,232932,1,0,0:0:0:0:
447,236,233036,2,0,P|399:230|351:229,1,96,8|0,0:0|0:0,0:0:0:0:
217,368,233453,5,0,0:0:0:0:
244,177,233661,1,0,0:0:0:0:
334,347,233870,1,8,0:0:0:0:
161,262,234078,1,0,0:0:0:0:
351,229,234286,2,0,P|398:229|446:235,1,96
161,262,234703,2,0,P|155:214|154:166,1,96,8|0,0:0|0:0,0:0:0:0:
280,30,235120,6,0,P|285:77|286:125,1,96
104,86,235536,2,0,P|152:80|200:79,1,96,8|0,0:1|0:3,0:3:0:0:
336,205,235953,2,0,P|288:211|240:212,1,96,0|0,0:3|0:3,0:3:0:0:
161,262,236265,1,0,0:0:0:0:
161,262,236370,2,0,P|155:309|154:357,1,96,8|0,0:0|0:0,0:0:0:0:
408,86,236786,5,0,0:0:0:0:
104,86,236995,1,0,0:0:0:0:
357,357,237203,2,0,P|356:309|351:262,1,96,8|0,0:0|0:0,0:0:0:0:
256,62,237620,6,0,L|256:110,3,48
294,215,238036,5,8,0:0:0:0:
279,260,238140,1,0,0:0:0:0:
232,260,238245,1,4,0:0:0:0:
217,215,238349,1,0,0:0:0:0:
256,187,238453,6,0,P|336:190|404:182,1,144,4|0,0:2|2:0,0:0:0:0:
472,221,238870,2,0,P|481:271|481:319,1,96,8|0,0:0|0:0,0:0:0:0:
504,87,239286,1,0,0:0:0:0:
364,310,239495,2,0,P|342:315|314:316,1,48
246,282,239703,2,0,P|247:234|256:187,1,96,8|0,0:0|0:0,0:0:0:0:
178,16,240120,6,0,P|177:63|168:111,1,96
174,192,240432,1,0,0:0:0:0:
174,192,240536,2,0,P|127:183|79:183,1,96,8|0,0:0|0:0,0:0:0:0:
250,105,240953,2,0,P|297:114|345:114,1,96
504,87,241370,2,0,P|501:150|502:250,1,144,8|0,0:0|2:0,0:0:0:0:
433,283,241786,6,0,P|371:280|277:279,1,144,0|0,0:0|2:0,0:0:0:0:
211,288,242203,1,8,0:0:0:0:
403,359,242411,1,0,0:0:0:0:
241,212,242620,6,0,P|179:209|85:208,1,144,0|0,0:0|2:0,0:0:0:0:
19,217,243036,1,8,0:0:0:0:
211,288,243245,1,0,0:0:0:0:
90,25,243453,5,0,0:0:0:0:
282,96,243661,1,0,0:0:0:0:
19,217,243870,1,8,0:0:0:0:
211,288,244078,1,0,0:0:0:0:
185,60,244286,5,0,0:0:0:0:
246,191,244495,1,0,0:0:0:0:
54,121,244703,1,8,0:0:0:0:
115,252,244911,1,4,0:0:0:0:
276,97,245120,6,0,P|328:95|377:97,1,96,4|0,0:2|0:0,0:0:0:0:
512,199,245536,2,0,P|460:197|411:199,1,96,8|0,0:0|0:0,0:0:0:0:
115,252,245953,6,0,P|167:250|216:252,1,96
351,354,246265,1,0,0:0:0:0:
351,354,246370,2,0,P|299:352|250:354,1,96,8|0,0:0|0:0,0:0:0:0:
167,88,246786,5,0,0:0:0:0:
394,251,246995,1,0,0:0:0:0:
115,252,247203,1,8,0:0:0:0:
341,88,247411,1,0,0:0:0:0:
255,353,247620,6,0,P|252:290|253:190,1,144,0|0,0:0|2:0,0:0:0:0:
341,88,248036,2,0,P|343:117|343:150,1,48,8|0,0:0|2:0,0:0:0:0:
162,250,248245,2,0,P|138:250|114:252,1,48,0|0,0:0|2:0,0:0:0:0:
159,357,248453,6,0,P|206:356|254:352,1,96
458,282,248870,2,0,P|410:280|362:276,1,96,8|0,0:0|0:0,0:0:0:0:
141,164,249286,6,0,P|188:162|236:158,1,96
340,87,249599,1,0,0:0:0:0:
340,87,249703,2,0,P|388:91|436:93,1,96,8|0,0:0|0:0,0:0:0:0:
241,20,250120,5,0,0:0:0:0:
275,225,250328,1,0,0:0:0:0:
436,93,250536,1,8,0:0:0:0:
271,364,250745,5,0,0:0:0:0:
271,364,250849,1,0,0:0:0:0:
271,364,250953,1,0,0:0:0:0:
76,291,251161,1,0,0:0:0:0:
237,159,251370,1,8,0:0:0:0:
256,192,251474,1,0,0:0:0:0:
275,225,251578,1,0,0:0:0:0:
294,258,251682,1,0,0:0:0:0:
359,303,251786,6,0,P|417:300|497:302,1,120,4|2,0:0|0:2,0:0:0:0:
256,192,252203,2,0,P|198:189|118:191,1,120,8|2,0:0|0:2,0:0:0:0:
406,161,252620,6,0,P|409:103|407:23,1,120,0|2,0:0|0:2,0:0:0:0:
256,192,252932,1,0,0:0:0:0:
256,192,253036,2,0,P|254:223|255:254,1,60,8|0,0:0|2:0,2:0:0:0:
488,135,253245,2,0,P|489:103|489:73,1,60,2|0,0:2|2:0,2:0:0:0:
330,29,253453,6,0,P|299:27|268:28,1,60,0|0,0:0|2:0,2:0:0:0:
190,51,253661,2,0,P|162:64|135:81,1,60,2|0,0:2|2:0,2:0:0:0:
79,140,253870,2,0,P|61:165|47:193,1,60,8|0,0:0|2:0,2:0:0:0:
27,272,254078,2,0,P|25:302|26:334,1,60,2|0,0:2|2:0,2:0:0:0:
125,362,254286,6,0,P|122:304|124:224,1,120,0|2,0:0|0:2,0:0:0:0:
190,51,254599,1,0,0:0:0:0:
190,51,254703,2,0,P|193:109|191:189,1,120,8|2,0:0|0:2,0:0:0:0:
294,120,255120,6,0,P|358:117|486:121,1,180,0|0,0:0|2:0,0:0:0:0:
416,39,255536,2,0,P|403:38|352:39,1,60,8|0,0:0|2:0,2:0:0:0:
358,198,255745,2,0,P|371:197|422:198,1,60,2|0,0:2|2:0,2:0:0:0:
480,279,255953,6,0,P|416:276|288:280,1,180,0|0,0:0|2:0,0:0:0:0:
356,356,256370,2,0,P|386:355|416:357,1,60,8|0,0:0|2:0,2:0:0:0:
417,197,256578,2,0,P|387:196|358:198,1,60,2|0,0:2|2:0,2:0:0:0:
95,357,256786,6,0,P|125:355|155:356,1,60,0|0,0:0|2:0,2:0:0:0:
154,198,256995,2,0,P|124:196|94:197,1,60,2|0,0:2|2:0,2:0:0:0:
32,279,257203,2,0,P|96:276|224:280,1,180,8|0,0:0|2:0,0:0:0:0:
256,192,257620,6,0,P|259:102|255:12,1,180,0|0,0:0|2:0,0:0:0:0:
178,69,258036,2,0,P|179:99|177:129,1,60,8|0,0:0|2:0,2:0:0:0:
337,129,258245,2,0,P|338:99|336:70,1,60,4|0,0:0|2:0,2:0:0:0:
93,43,258453,6,0,P|96:101|94:181,1,120,4|2,0:2|0:2,0:0:0:0:
32,279,258870,2,0,P|90:276|170:278,1,120,8|2,0:0|0:2,0:0:0:0:
316,201,259286,6,0,P|256:196|196:200,1,120,0|2,0:0|0:2,0:0:0:0:
360,276,259599,1,0,0:0:0:0:
359,276,259703,2,0,P|389:274|419:274,1,60,8|0,0:0|2:0,0:0:0:0:
499,178,259911,2,0,P|500:148|500:118,1,60,2|0,0:2|2:0,0:0:0:0:
396,29,260120,6,0,P|365:27|334:28,1,60,0|0,0:0|2:0,2:0:0:0:
245,55,260328,2,0,P|217:68|190:85,1,60,2|0,0:2|2:0,2:0:0:0:
55,64,260536,2,0,P|72:89|86:117,1,60,8|0,0:0|2:0,2:0:0:0:
107,207,260745,2,0,P|109:237|108:269,1,60,2|0,0:2|2:0,2:0:0:0:
235,309,260953,6,0,P|232:251|234:171,1,120,0|2,0:0|0:2,0:0:0:0:
336,27,261265,1,0,0:0:0:0:
336,27,261370,2,0,P|339:85|337:165,1,120,8|2,0:0|0:2,0:0:0:0:
312,333,261786,6,0,P|390:338|448:336,1,120,0|2,0:0|2:0,0:0:0:0:
460,243,262099,1,0,0:0:0:0:
460,243,262203,6,0,P|400:243|340:238,1,120,8|2,0:0|2:0,0:0:0:0:
200,333,262620,6,0,P|122:338|64:336,1,120,0|2,0:0|2:0,0:0:0:0:
52,243,262932,1,0,0:0:0:0:
52,243,263036,6,0,P|111:243|171:238,1,120,8|2,0:0|2:0,0:0:0:0:
372,149,263453,6,0,P|332:149|302:144,1,60,0|0,0:0|2:0,2:0:0:0:
140,149,263661,2,0,P|180:149|210:144,1,60,2|0,0:2|2:0,2:0:0:0:
458,58,263870,2,0,P|399:61|339:58,1,120,8|2,0:0|0:2,0:0:0:0:
256,32,264182,1,0,0:0:0:0:
173,57,264286,2,0,P|113:61|54:58,1,120,0|2,0:0|0:2,0:0:0:0:
256,160,264703,5,8,0:0:0:0:
256,208,264807,1,2,0:2:0:0:
256,256,264911,1,2,0:2:0:0:
256,304,265015,1,2,0:2:0:0:
256,352,265120,1,4,0:2:0:0:
256,32,265536,5,4,0:2:0:0:
256,32,265953,6,0,B|152:72|48:48|48:48|136:104|216:112|216:112|135:152|64:128|64:128|104:192|160:192|160:192|96:224|80:272|96:336,1,840,4|0,0:0|2:0,0:0:0:0:
206,256,267620,6,0,B|115:278|189:369|256:292|256:292|331:215|398:306|307:329,1,360,0|0,0:0|2:0,0:0:0:0:
417,331,268453,6,0,B|432:272|416:224|352:192|352:192|408:192|448:128|448:128|377:152|296:112|296:112|376:104|464:48|464:48|360:72|256:32,1,840,0|0,0:0|2:0,0:0:0:0:
192,88,270120,6,0,B|172:128|192:168|192:168|208:192|208:192|208:240|208:240|208:288|256:320|304:288|304:240|304:240|304:192|304:192|320:168|320:168|340:128|320:88,1,480
256,128,271370,5,0,0:0:0:0:
384,48,271578,1,4,0:2:0:0:
384,200,271786,6,0,B|368:216|368:248|368:248|360:344|416:376|512:344|480:240|424:216|352:272|336:304|336:304|320:376|256:376|256:376|192:376|176:304|176:304|160:240|232:208|256:296|256:296|272:248|304:224,1,840,4|0,0:0|2:0,0:0:0:0:
221,148,273453,6,0,B|240:136|256:88|256:88|280:176|352:144|336:80|336:80|320:8|256:8|256:8|192:8|176:80|176:80|160:112|88:168|32:144|0:40|96:8|152:40|144:136|144:136|144:168|128:184,1,840,0|0,0:0|2:0,0:0:0:0:
40,240,275120,6,0,B|128:388|344:192|168:192|384:388|472:240,1,480,4|8,0:0|0:0,0:0:0:0:
384,200,276161,2,0,P|368:168|384:88,1,120,0|8,0:0|0:0,0:0:0:0:
447,144,276578,6,0,P|338:161|302:56,1,240,8|8,0:0|0:0,0:0:0:0:
216,128,277203,6,0,B|184:152|184:152|32:168|16:64|120:4|200:80|104:192|104:192|96:208|96:208|112:216|112:216|104:232|104:232|120:240|120:240|112:256|112:256|128:264|128:264|80:304|80:304|104:344|104:344|176:280|272:320|272:320|376:376|536:344|552:72|272:64|264:208|264:208|264:232|288:232|288:232|360:232,1,1440,4|0,1:2|2:0,0:0:0:0:
233,74,285120,6,0,B|272:128|240:184|240:184|256:216|232:256,1,192,0|8,0:0|0:0,0:0:0:0:
154,137,285745,1,0,0:0:0:0:
361,224,285953,6,0,P|411:220|462:221,1,96
328,77,286370,2,0,P|277:73|227:74,1,96,8|0,0:0|0:0,0:0:0:0:
100,276,286786,5,0,0:0:0:0:
349,149,286995,1,0,0:0:0:0:
217,352,287203,5,8,0:0:0:0:
232,73,287411,1,0,0:0:0:0:
342,289,287620,5,0,0:0:0:0:
107,136,287828,1,0,0:0:0:0:
349,149,288036,5,8,0:0:0:0:
100,276,288245,1,0,0:0:0:0:
232,73,288453,5,0,0:0:0:0:
217,352,288661,1,0,0:0:0:0:
107,136,288870,6,0,P|183:142|214:144,1,96,8|0,0:0|0:0,0:0:0:0:
349,149,289286,5,0,0:0:0:0:
100,276,289495,1,0,0:0:0:0:
342,289,289703,1,8,0:0:0:0:
342,289,289911,6,0,P|294:285|246:281,1,96,4|0,0:2|0:0,0:0:0:0:
107,136,290328,5,0,0:0:0:0:
202,143,290536,2,0,P|278:149|309:151,1,96,4|0,0:2|0:0,0:0:0:0:
428,260,290953,5,0,0:0:0:0:
247,281,291161,2,0,B|213:307|152:290|131:201|202:142|202:142|133:163|107:135,1,324.000001235962,4|0,0:0|0:0,0:0:0:0:
