osu file format v14

[General]
AudioFilename: aaudio.mp3
AudioLeadIn: 0
PreviewTime: 239078
Countdown: 0
SampleSet: Normal
StackLeniency: 0.4
Mode: 0
LetterboxInBreaks: 0
WidescreenStoryboard: 1

[Editor]
Bookmarks: 16469,51252,86034,120817,141686,176469,207773,239078,266904,294825,306421
DistanceSpacing: 1
BeatDivisor: 2
GridSize: 32
TimelineZoom: 1

[Metadata]
Title:Eramaan Viimeinen
TitleUnicode:Erämaan Viimeinen
Artist:Nightwish
ArtistUnicode:Nightwish
Creator:-Zel
Version:Kaipuu
Source:
Tags:Suomi Finnish Folk Single Amaranth Last of the Wilds Jonsu Indica Dark Passion Play Tuomas Holopainen Erno Vuorinen Jukka Nevalainen Marco Hietala Troy Donockley Eraemaan DTM9 Nowa
BeatmapID:1627617
BeatmapSetID:774399

[Difficulty]
HPDrainRate:6
CircleSize:4.1
OverallDifficulty:7.5
ApproachRate:8.2
SliderMultiplier:1.4
SliderTickRate:1

[Events]
//Background and Video events
0,0,"snowy-mountains-hd.jpg",0,0
//Break Periods
//Storyboard Layer 0 (Background)
//Storyboard Layer 1 (Fail)
//Storyboard Layer 2 (Pass)
//Storyboard Layer 3 (Foreground)
//Storyboard Sound Samples

[TimingPoints]
382,434.782608695652,4,2,1,5,1,0
382,-500,4,2,1,10,0,0
3860,-500,4,2,1,15,0,0
5599,-1000,4,2,1,20,0,0
9513,434.782608695652,4,2,1,40,1,0
16469,-76.9230769230769,4,1,1,70,0,0
44295,-133.333333333333,4,1,1,50,0,0
51252,-142.857142857143,4,2,1,50,0,0
77338,-142.857142857143,4,2,1,50,0,0
79078,-100,4,2,1,60,0,0
85165,-86.9565217391304,4,2,1,60,0,0
86034,-76.9230769230769,4,1,1,70,0,1
87230,-76.9230769230769,4,1,1,60,0,1
87339,-76.9230769230769,4,1,1,70,0,1
88099,-76.9230769230769,4,1,1,60,0,1
88208,-76.9230769230769,4,1,1,70,0,1
90708,-76.9230769230769,4,1,1,60,0,1
90817,-76.9230769230769,4,1,1,70,0,1
92012,-76.9230769230769,4,1,1,60,0,1
92121,-76.9230769230769,4,1,1,70,0,1
94186,-76.9230769230769,4,1,1,60,0,1
94295,-76.9230769230769,4,1,1,70,0,1
97665,-76.9230769230769,4,1,1,60,0,1
97774,-76.9230769230769,4,1,1,70,0,1
101143,-76.9230769230769,4,1,1,60,0,1
101252,-76.9230769230769,4,1,1,70,0,1
108099,-76.9230769230769,4,1,1,60,0,1
108208,-76.9230769230769,4,1,1,70,0,1
110708,-76.9230769230769,4,1,1,60,0,1
110817,-76.9230769230769,4,1,1,70,0,1
113860,-133.333333333333,4,1,1,70,0,0
119078,-71.4285714285714,4,3,1,70,0,0
120382,-66.6666666666667,4,3,1,70,0,0
120817,-125,4,2,1,70,0,0
141686,-76.9230769230769,4,1,1,70,0,1
142882,-76.9230769230769,4,1,1,60,0,1
142991,-76.9230769230769,4,1,1,70,0,1
143752,-76.9230769230769,4,1,1,60,0,1
143861,-76.9230769230769,4,1,1,70,0,1
146360,-76.9230769230769,4,1,1,60,0,1
146469,-76.9230769230769,4,1,1,70,0,1
149839,-76.9230769230769,4,1,1,60,0,1
149948,-76.9230769230769,4,1,1,70,0,1
151578,-76.9230769230769,4,1,1,60,0,1
151687,-76.9230769230769,4,1,1,70,0,1
153317,-76.9230769230769,4,1,1,60,0,1
153426,-76.9230769230769,4,1,1,70,0,1
156795,-76.9230769230769,4,1,1,60,0,1
156904,-76.9230769230769,4,1,1,70,0,1
163752,-76.9230769230769,4,1,1,60,0,1
163861,-76.9230769230769,4,1,1,70,0,1
165491,-76.9230769230769,4,1,1,60,0,1
165600,-76.9230769230769,4,1,1,70,0,1
166360,-76.9230769230769,4,1,1,60,0,1
166469,-76.9230769230769,4,1,1,70,0,1
167665,-76.9230769230769,4,1,1,60,0,1
167774,-76.9230769230769,4,1,1,70,0,1
168969,-76.9230769230769,4,1,1,60,0,1
169078,-76.9230769230769,4,1,1,70,0,1
169512,-76.9230769230769,4,1,1,70,0,0
172556,-125,4,1,1,60,0,0
175382,-125,4,1,1,55,0,0
175599,-125,4,1,1,50,0,0
175817,-125,4,1,1,45,0,0
176034,-125,4,1,1,40,0,0
176252,-125,4,1,1,35,0,0
176469,434.782608695652,3,2,1,30,1,0
176469,-200,3,2,1,30,0,0
236469,-250,3,2,1,15,0,0
237773,-333.333333333333,3,2,1,15,0,0
238426,-500,3,2,1,15,0,0
239077,434.782608695652,4,1,1,70,1,1
239077,-76.9230769230769,4,1,1,70,0,1
240272,-76.9230769230769,4,1,1,60,0,1
240381,-76.9230769230769,4,1,1,70,0,1
241142,-76.9230769230769,4,1,1,60,0,1
241251,-76.9230769230769,4,1,1,70,0,1
243750,-76.9230769230769,4,1,1,60,0,1
243859,-76.9230769230769,4,1,1,70,0,1
245055,-76.9230769230769,4,1,1,60,0,1
245164,-76.9230769230769,4,1,1,70,0,1
247229,-76.9230769230769,4,1,1,60,0,1
247338,-76.9230769230769,4,1,1,70,0,1
250707,-76.9230769230769,4,1,1,60,0,1
250816,-76.9230769230769,4,1,1,70,0,1
254185,-76.9230769230769,4,1,1,60,0,1
254294,-76.9230769230769,4,1,1,70,0,1
261142,-76.9230769230769,4,1,1,60,0,1
261251,-76.9230769230769,4,1,1,70,0,1
263750,-76.9230769230769,4,1,1,60,0,1
263859,-76.9230769230769,4,1,1,70,0,1
266034,-68.9655172413793,4,1,1,70,0,1
266685,-76.9230769230769,4,1,1,70,0,0
266903,-74.0740740740741,4,1,1,80,0,1
268098,-76.9230769230769,4,1,1,70,0,1
268207,-76.9230769230769,4,1,1,80,0,1
268968,-76.9230769230769,4,1,1,70,0,1
269077,-76.9230769230769,4,1,1,80,0,1
271577,-76.9230769230769,4,1,1,70,0,1
271686,-76.9230769230769,4,1,1,80,0,1
275055,-76.9230769230769,4,1,1,70,0,1
275164,-76.9230769230769,4,1,1,80,0,1
276794,-76.9230769230769,4,1,1,70,0,1
276903,-76.9230769230769,4,1,1,80,0,1
278533,-76.9230769230769,4,1,1,70,0,1
278642,-76.9230769230769,4,1,1,80,0,1
282011,-76.9230769230769,4,1,1,70,0,1
282120,-76.9230769230769,4,1,1,80,0,1
288968,-76.9230769230769,4,1,1,70,0,1
289077,-76.9230769230769,4,1,1,80,0,1
290707,-76.9230769230769,4,1,1,70,0,1
290816,-76.9230769230769,4,1,1,80,0,1
291577,-76.9230769230769,4,1,1,70,0,1
291686,-76.9230769230769,4,1,1,80,0,1
292881,-76.9230769230769,4,1,1,70,0,1
292990,-76.9230769230769,4,1,1,80,0,1
294321,504.201680672269,4,1,1,80,1,1
294321,-66.6666666666667,4,1,1,90,0,1
294825,-100,4,2,1,70,0,0
295329,-100,4,2,2,65,0,0
295833,-100,4,2,1,60,0,0
296337,-100,4,2,2,55,0,0
296842,-100,4,2,1,50,0,0
297346,-100,4,2,2,45,0,0
297850,-100,4,2,1,40,0,0
298354,-100,4,2,1,35,0,0
298858,-100,4,2,1,30,0,0
299363,-100,4,2,2,25,0,0
299867,-117.647058823529,4,2,1,5,0,0
299993,-117.647058823529,4,2,1,70,0,0
306421,-117.647058823529,4,2,1,5,0,0

[Colours]
Combo1 : 247,236,111
Combo2 : 73,126,214
Combo3 : 122,101,224
Combo4 : 244,151,89

[HitObjects]
84,167,382,6,0,B|134:146|186:164|186:180|235:195|287:176,1,210
288,86,3860,6,0,P|282:131|288:177,1,91
408,176,5599,38,0,P|348:166|287:176,1,122.5
285,244,9513,6,0,P|290:209|287:175,1,70
357,134,9947,2,0,L|368:92,2,35
362,283,10382,2,0,P|367:248|362:213,1,70
437,124,10817,2,0,P|433:158|438:193,1,70
503,300,11252,37,0,0:0:0:0:
432,292,11469,1,0,0:0:0:0:
362,283,11686,2,0,L|267:274,1,70
152,259,12121,5,0,0:0:0:0:
223,267,12339,1,0,0:0:0:0:
81,251,12556,1,0,0:0:0:0:
152,259,12774,1,0,0:0:0:0:
44,176,12991,38,0,P|79:171|114:176,1,70
200,103,13426,2,0,P|166:107|131:102,1,70
228,192,13860,2,0,P|245:190|262:185,2,35
346,139,14295,2,0,P|318:117|286:104,1,70
58,177,14730,6,0,B|108:156|160:174|160:190|208:205|261:186,1,210
346,139,15599,2,0,L|357:97,3,23.3333333333333
260,280,16034,1,0,0:0:0:0:
180,135,16252,1,0,0:0:0:0:
449,222,16469,6,0,L|351:229,1,90.9999958343508,4|0,0:0|0:0,0:0:0:0:
116,244,16904,1,8,0:0:0:0:
224,206,17121,1,0,0:0:0:0:
92,339,17339,1,0,0:0:0:0:
42,181,17556,1,0,0:0:0:0:
273,298,17773,2,0,P|225:307|175:305,1,90.9999958343508,8|0,0:0|0:0,0:0:0:0:
386,150,18208,5,0,0:0:0:0:
425,367,18426,1,0,0:0:0:0:
273,201,18643,2,0,P|263:141|279:86,1,90.9999958343508,8|0,0:0|0:0,0:0:0:0:
511,250,19078,1,0,0:0:0:0:
273,298,19295,1,0,0:0:0:0:
512,178,19512,1,8,0:0:0:0:
268,111,19729,1,0,0:0:0:0:
380,276,19947,38,0,P|391:231|387:159,1,90.9999958343508
261,10,20382,1,8,0:0:0:0:
228,180,20599,1,0,0:0:0:0:
340,19,20817,1,0,0:0:0:0:
182,1,21034,1,0,0:0:0:0:
356,138,21252,2,0,L|451:133,1,90.9999958343508,8|0,0:0|0:0,0:0:0:0:
162,93,21686,5,0,0:0:0:0:
211,290,21904,1,0,0:0:0:0:
356,138,22121,2,0,L|265:142,1,90.9999958343508,8|0,0:0|0:0,0:0:0:0:
91,153,22556,2,0,L|0:157,1,90.9999958343508
280,242,22991,1,8,0:0:0:0:
88,229,23208,1,0,0:0:0:0:
234,21,23426,38,0,P|271:72|259:151,1,136.499993751526,4|0,0:0|0:0,0:0:0:0:
180,158,23860,2,0,P|224:136|277:148,1,90.9999958343508,8|0,0:0|0:0,0:0:0:0:
358,232,24295,1,0,0:0:0:0:
232,211,24512,1,0,0:0:0:0:
424,54,24730,2,0,P|432:102|411:173,1,90.9999958343508,8|0,0:0|0:0,0:0:0:0:
309,299,25165,5,0,0:0:0:0:
322,101,25382,1,0,0:0:0:0:
494,258,25599,2,0,P|442:257|383:234,1,90.9999958343508,8|0,0:0|0:0,0:0:0:0:
322,101,26034,2,0,P|347:145|356:208,1,90.9999958343508,0|0,0:0|0:0,0:0:0:0:
220,360,26469,1,8,0:0:0:0:
254,174,26686,1,0,0:0:0:0:
344,374,26904,38,0,L|335:263,1,90.9999958343508,0|0,0:0|0:0,0:0:0:0:
322,101,27339,1,8,0:0:0:0:
255,259,27556,1,0,0:0:0:0:
408,91,27773,1,0,0:0:0:0:
254,174,27991,1,0,0:0:0:0:
476,147,28208,1,8,0:0:0:0:
186,118,28426,1,0,0:0:0:0:
426,218,28643,6,0,L|320:229,1,90.9999958343508,0|0,0:0|0:0,0:0:0:0:
138,246,29078,1,8,0:0:0:0:
342,312,29295,1,0,0:0:0:0:
240,111,29512,2,0,L|225:212,1,90.9999958343508,0|0,0:0|0:0,0:0:0:0:
481,374,29947,2,0,L|466:273,1,90.9999958343508,10|0,0:0|0:0,0:0:0:0:
116,335,30382,38,0,L|242:344,1,90.9999958343508,4|0,0:0|0:0,0:0:0:0:
367,275,30817,1,8,0:0:0:0:
260,245,31034,1,0,0:0:0:0:
392,372,31252,1,0,0:0:0:0:
436,195,31469,1,0,0:0:0:0:
297,347,31686,2,0,L|206:340,1,90.9999958343508,8|0,0:0|0:0,0:0:0:0:
7,276,32121,5,0,0:0:0:0:
224,237,32339,1,0,0:0:0:0:
26,363,32556,2,0,P|10:323|10:254,1,90.9999958343508,8|0,0:0|0:0,0:0:0:0:
83,79,32991,1,0,0:0:0:0:
110,304,33208,1,0,0:0:0:0:
247,112,33426,1,8,0:0:0:0:
194,336,33643,1,0,0:0:0:0:
360,200,33860,38,0,P|324:196|269:206,1,90.9999958343508,0|0,0:0|0:0,0:0:0:0:
456,290,34295,1,8,0:0:0:0:
481,139,34512,1,0,0:0:0:0:
365,299,34730,1,0,0:0:0:0:
512,346,34947,1,0,0:0:0:0:
352,208,35165,2,0,L|366:313,1,90.9999958343508,8|0,0:0|0:0,0:0:0:0:
434,46,35599,5,0,0:0:0:0:
233,125,35817,1,0,0:0:0:0:
442,209,36034,2,0,L|351:207,1,90.9999958343508,8|0,0:0|0:0,0:0:0:0:
186,201,36469,2,0,L|95:199,1,90.9999958343508
378,283,36904,1,8,0:0:0:0:
175,297,37121,1,0,0:0:0:0:
336,71,37339,38,0,L|354:243,1,136.499993751526,4|0,0:0|0:0,0:0:0:0:
306,276,37773,2,0,L|317:166,1,90.9999958343508,8|0,0:0|0:0,0:0:0:0:
414,83,38208,1,0,0:0:0:0:
428,218,38425,1,0,0:0:0:0:
246,85,38643,2,0,P|289:70|335:69,1,90.9999958343508,8|0,0:0|0:0,0:0:0:0:
496,150,39078,5,0,0:0:0:0:
336,176,39295,1,0,0:0:0:0:
503,59,39512,1,8,0:0:0:0:
428,218,39730,1,0,0:0:0:0:
288,106,39947,1,0,0:0:0:0:
496,150,40165,1,0,0:0:0:0:
235,229,40382,1,8,0:0:0:0:
390,88,40599,1,0,0:0:0:0:
323,276,40817,38,0,L|314:165,1,90.9999958343508,4|0,0:0|0:0,0:0:0:0:
301,3,41252,2,0,L|315:184,1,181.999991668702,8|0,0:0|0:0,0:0:0:0:
22,362,42121,2,0,L|31:241,1,90.9999958343508,12|0,0:0|0:0,0:0:0:0:
213,171,42556,6,0,P|172:187|107:182,1,90.9999958343508
0,67,42991,2,0,P|45:66|87:83,1,90.9999958343508,8|0,0:0|0:0,0:0:0:0:
207,272,43426,2,0,L|220:181,1,90.9999958343508,4|0,0:0|0:0,0:0:0:0:
383,13,43860,2,0,L|396:103,1,90.9999958343508,12|0,0:0|0:0,0:0:0:0:
444,335,44295,38,0,P|417:295|360:313,2,105.000004005432,4|0|0,0:0|0:0|0:0,0:0:0:0:
382,377,45382,1,0,0:0:0:0:
351,169,45599,2,0,L|360:230,1,52.5000020027161,8|0,0:0|0:0,0:0:0:0:
342,69,46034,5,0,0:0:0:0:
342,69,46252,2,0,P|388:99|440:63,2,105.000004005432
396,10,47339,1,8,0:0:0:0:
351,235,47556,1,2,0:0:0:0:
293,182,47773,37,0,0:0:0:0:
293,182,47991,2,0,P|254:224|283:262,2,105.000004005432
419,134,49078,2,0,L|349:123,1,52.5000020027161,8|0,0:0|0:0,0:0:0:0:
154,85,49512,6,0,L|224:96,1,52.5000020027161,8|0,0:0|0:0,0:0:0:0:
289,110,49947,1,0,0:0:0:0:
219,21,50165,1,8,0:3:0:0:
235,160,50382,1,8,0:3:0:0:
343,60,50599,37,8,0:3:0:0:
206,93,50817,1,8,0:3:0:0:
193,91,50925,1,0,0:0:0:0:
180,89,51034,1,8,0:3:0:0:
167,87,51143,1,0,0:0:0:0:
154,85,51252,22,0,P|130:89|108:100,1,48.9999985046387,4|0,0:0|0:0,0:0:0:0:
2,116,51686,2,0,P|17:134|37:148,1,48.9999985046387,8|0,0:0|0:0,0:0:0:0:
104,231,52121,2,0,P|112:209|114:184,1,48.9999985046387
108,99,52556,1,8,0:0:0:0:
37,148,52773,1,0,0:0:0:0:
190,229,52991,6,0,L|238:231,1,48.9999985046387
385,187,53426,1,8,0:0:0:0:
385,187,53643,1,0,0:0:0:0:
296,156,53860,1,0,0:0:0:0:
296,156,54077,1,0,0:0:0:0:
384,282,54295,1,8,0:0:0:0:
238,231,54512,1,0,0:0:0:0:
294,310,54730,38,0,P|271:319|247:322,1,48.9999985046387,0|0,0:0|0:0,0:0:0:0:
204,197,55165,2,0,P|223:211|238:231,1,48.9999985046387,8|0,0:0|0:0,0:0:0:0:
152,332,55599,2,0,P|154:307|164:285,1,48.9999985046387,0|0,0:0|0:0,0:0:0:0:
279,222,56034,1,8,0:0:0:0:
229,362,56252,1,0,0:0:0:0:
139,249,56469,6,0,L|141:200,1,48.9999985046387
133,116,56904,1,8,0:0:0:0:
133,116,57121,1,0,0:0:0:0:
216,143,57339,2,0,L|264:145,1,48.9999985046387
395,146,57773,1,8,0:0:0:0:
325,211,57990,1,0,0:0:0:0:
330,76,58208,38,0,P|306:80|284:91,1,48.9999985046387
177,106,58642,2,0,P|192:124|212:138,1,48.9999985046387,8|0,0:0|0:0,0:0:0:0:
279,222,59077,2,0,P|287:199|289:174,1,48.9999985046387
284,90,59512,1,8,0:0:0:0:
213,139,59729,1,0,0:0:0:0:
338,177,59947,6,0,L|290:175,1,48.9999985046387
143,187,60382,1,8,0:0:0:0:
143,187,60599,1,0,0:0:0:0:
213,139,60817,1,0,0:0:0:0:
213,139,61034,1,0,0:0:0:0:
191,257,61252,1,8,0:0:0:0:
261,209,61469,1,0,0:0:0:0:
166,126,61686,38,0,P|188:136|213:139,1,48.9999985046387
306,148,62121,2,0,P|304:124|295:102,1,48.9999985046387,8|0,0:0|0:0,0:0:0:0:
255,13,62556,2,0,P|235:28|222:48,1,48.9999985046387
166,126,62991,1,8,0:0:0:0:
307,148,63208,1,0,0:0:0:0:
255,13,63426,6,0,L|303:15,1,48.9999985046387
460,22,63860,1,8,0:0:0:0:
460,22,64078,1,0,0:0:0:0:
374,205,64295,38,0,L|376:156,1,48.9999985046387
383,0,64729,1,8,0:0:0:0:
496,92,64947,1,0,0:0:0:0:
339,85,65165,6,0,P|315:89|293:100,1,48.9999985046387
187,116,65599,2,0,P|202:134|222:148,1,48.9999985046387,8|0,0:0|0:0,0:0:0:0:
289,231,66034,2,0,P|297:209|299:184,1,48.9999985046387
254,57,66469,1,8,0:0:0:0:
204,203,66686,1,0,0:0:0:0:
138,118,66904,38,0,L|186:116,1,48.9999985046387
333,160,67339,1,8,0:0:0:0:
333,160,67556,1,0,0:0:0:0:
244,191,67773,1,0,0:0:0:0:
244,191,67990,1,0,0:0:0:0:
332,65,68208,1,8,0:0:0:0:
187,115,68425,1,0,0:0:0:0:
242,37,68643,6,0,P|219:28|195:25,1,48.9999985046387
152,150,69078,2,0,P|171:136|186:116,1,48.9999985046387,8|0,0:0|0:0,0:0:0:0:
100,15,69512,1,0,0:0:0:0:
100,15,69730,1,0,0:0:0:0:
152,150,69947,1,8,0:0:0:0:
242,37,70165,1,0,0:0:0:0:
229,119,70382,38,0,L|277:117,1,48.9999985046387
304,242,70818,2,0,L|278:201,1,48.9999985046387,8|0,0:0|0:0,0:0:0:0:
374,115,71252,2,0,L|351:157,1,48.9999985046387
304,242,71686,1,8,0:0:0:0:
229,119,71904,1,0,0:0:0:0:
304,242,72121,6,0,P|288:260|268:274,1,48.9999985046387
198,228,72556,1,8,0:0:0:0:
198,228,72773,1,0,0:0:0:0:
200,358,72991,2,0,P|191:335|189:310,1,48.9999985046387
198,228,73426,1,8,0:0:0:0:
268,273,73643,1,0,0:0:0:0:
198,228,73860,38,0,L|150:226,1,48.9999985046387
3,270,74295,1,8,0:0:0:0:
3,270,74512,1,0,0:0:0:0:
92,301,74729,1,0,0:0:0:0:
92,301,74946,1,0,0:0:0:0:
4,175,75164,1,8,0:0:0:0:
149,225,75381,1,0,0:0:0:0:
94,147,75599,6,0,P|117:138|141:135,1,48.9999985046387
149,225,76034,2,0,P|145:249|135:271,1,48.9999985046387,8|0,0:0|0:0,0:0:0:0:
53,233,76469,2,0,P|33:217|19:198,1,48.9999985046387
94,147,76904,1,8,0:0:0:0:
149,225,77121,1,0,0:0:0:0:
94,147,77339,38,0,L|142:149,1,48.9999985046387
337,146,77773,5,8,0:0:0:0:
273,260,77991,1,0,0:0:0:0:
247,171,78208,1,0,0:0:0:0:
362,235,78426,1,0,0:0:0:0:
426,120,78643,1,8,0:0:0:0:
273,260,78860,1,0,0:0:0:0:
214,11,79078,38,0,P|222:46|218:88,1,70,4|0,0:0|0:0,0:0:0:0:
96,160,79512,2,0,L|165:164,1,70,8|0,0:0|0:0,0:0:0:0:
247,171,79947,1,0,0:0:0:0:
247,171,80165,1,0,0:0:0:0:
124,251,80382,2,0,L|193:246,1,70,8|0,0:0|0:0,0:0:0:0:
316,240,80817,1,0,0:0:0:0:
467,251,81252,6,0,L|397:246,1,70,8|0,0:0|0:0,0:0:0:0:
316,240,81687,1,0,0:0:0:0:
316,240,81905,1,0,0:0:0:0:
439,160,82122,2,0,L|369:164,1,70,8|0,0:0|0:0,0:0:0:0:
246,170,82556,38,0,P|239:136|241:102,1,70,4|0,0:0|0:0,0:0:0:0:
267,21,82991,1,8,0:0:0:0:
267,21,83208,1,0,0:0:0:0:
324,214,83426,6,0,P|331:180|329:145,1,70,0|0,0:0|0:0,0:0:0:0:
267,21,83861,1,8,0:0:0:0:
179,204,84078,1,8,0:0:0:0:
107,99,84295,38,0,P|140:107|175:103,1,70,4|0,0:0|0:0,0:0:0:0:
391,218,84730,2,0,P|357:209|322:211,1,70,10|0,0:0|0:0,0:0:0:0:
179,203,85165,6,0,P|168:243|171:284,1,80.5000015354157,4|0,0:0|0:0,0:0:0:0:
338,81,85599,2,0,P|348:42|344:1,1,80.5000015354157,12|0,0:0|0:0,0:0:0:0:
58,208,86034,5,0,0:0:0:0:
250,241,86252,1,0,0:0:0:0:
188,20,86469,2,0,P|173:64|178:118,1,90.9999958343508,8|0,0:0|0:0,0:0:0:0:
311,188,86904,2,0,P|258:166|171:206,1,136.499993751526
147,255,87339,1,8,0:0:0:0:
81,131,87556,1,0,0:0:0:0:
73,345,87773,6,0,L|81:168,1,136.499993751526
81,131,88208,1,8,0:0:0:0:
147,255,88426,1,0,0:0:0:0:
118,61,88643,1,0,0:0:0:0:
214,304,88860,1,0,0:0:0:0:
277,47,89078,1,8,0:0:0:0:
79,208,89295,1,0,0:0:0:0:
284,179,89512,38,0,P|244:164|191:166,1,90.9999958343508
379,356,89947,2,0,L|368:245,1,90.9999958343508,8|0,0:0|0:0,0:0:0:0:
309,115,90382,2,0,L|295:256,1,136.499993751526
287,330,90817,1,8,0:0:0:0:
427,212,91034,1,0,0:0:0:0:
259,45,91252,6,0,P|237:85|229:137,1,90.9999958343508
287,330,91686,2,0,P|274:260|240:198,1,136.499993751526,8|0,0:0|0:0,0:0:0:0:
171,175,92121,2,0,L|78:185,1,90.9999958343508
384,206,92556,2,0,L|474:196,1,90.9999958343508,8|0,0:0|0:0,0:0:0:0:
207,330,92991,38,0,P|180:280|179:224,1,90.9999958343508,0|0,0:0|0:0,0:0:0:0:
279,60,93426,1,8,0:0:0:0:
268,174,93643,1,0,0:0:0:0:
83,180,93860,2,0,P|131:145|240:147,1,136.499993751526
268,174,94295,1,8,0:0:0:0:
55,334,94730,6,0,L|41:203,1,90.9999958343508
21,25,95165,1,8,0:0:0:0:
91,152,95382,1,0,0:0:0:0:
206,51,95599,2,0,P|154:65|117:92,1,90.9999958343508
95,156,95926,1,0,0:0:0:0:
95,156,96034,2,0,L|103:247,1,90.9999958343508,8|0,0:0|0:0,0:0:0:0:
294,138,96469,38,0,L|203:144,1,90.9999958343508
373,329,96904,1,8,0:0:0:0:
403,198,97121,1,0,0:0:0:0:
216,360,97339,2,0,L|199:195,1,136.499993751526
204,148,97773,2,0,L|214:245,1,90.9999958343508,8|0,0:0|0:0,0:0:0:0:
395,41,98208,5,0,0:0:0:0:
365,172,98425,1,0,0:0:0:0:
225,32,98643,2,0,P|267:52|301:88,1,90.9999958343508,8|0,0:0|0:0,0:0:0:0:
300,266,99078,1,0,0:0:0:0:
203,140,99295,1,0,0:0:0:0:
455,166,99512,2,0,L|350:172,1,90.9999958343508,10|0,0:0|0:0,0:0:0:0:
98,204,99947,37,4,0:0:0:0:
300,266,100165,1,0,0:0:0:0:
212,49,100382,2,0,L|202:147,1,90.9999958343508,8|0,0:0|0:0,0:0:0:0:
300,266,100817,2,0,L|313:130,1,136.499993751526
374,69,101252,2,0,P|354:109|314:128,1,90.9999958343508,8|0,0:0|0:0,0:0:0:0:
212,49,101686,6,0,L|302:57,1,90.9999958343508
141,152,102121,1,8,0:0:0:0:
119,8,102339,1,0,0:0:0:0:
217,213,102556,1,0,0:0:0:0:
49,50,102773,1,0,0:0:0:0:
312,214,102991,1,8,0:0:0:0:
43,134,103208,1,0,0:0:0:0:
253,55,103425,38,0,L|266:159,1,90.9999958343508
38,310,103860,2,0,L|51:206,1,90.9999958343508,8|0,0:0|0:0,0:0:0:0:
264,317,104295,1,0,0:0:0:0:
142,338,104512,1,0,0:0:0:0:
280,234,104730,1,8,0:0:0:0:
324,384,104947,1,0,0:0:0:0:
462,282,105165,6,0,P|481:240|490:196,1,90.9999958343508
408,8,105599,1,8,0:0:0:0:
350,180,105817,1,0,0:0:0:0:
512,71,106034,2,0,P|466:71|423:86,1,90.9999958343508
261,164,106469,2,0,P|303:178|349:179,1,90.9999958343508,8|0,0:0|0:0,0:0:0:0:
111,35,106904,38,0,L|123:148,1,90.9999958343508,4|0,0:0|0:0,0:0:0:0:
135,291,107339,1,8,0:0:0:0:
189,156,107556,1,0,0:0:0:0:
0,280,107773,2,0,L|162:294,1,136.499993751526
208,301,108208,1,8,0:0:0:0:
512,332,108643,6,0,L|420:322,1,90.9999958343508
208,301,109078,1,8,0:0:0:0:
352,361,109295,1,0,0:0:0:0:
359,193,109512,1,0,0:0:0:0:
265,372,109730,1,0,0:0:0:0:
399,284,109947,2,0,P|355:275|310:281,1,90.9999958343508,8|0,0:0|0:0,0:0:0:0:
112,345,110382,38,0,L|99:234,1,90.9999958343508,4|0,0:0|0:0,0:0:0:0:
86,169,110708,1,0,0:0:0:0:
86,169,110817,1,8,0:0:0:0:
209,284,111034,2,0,L|230:98,1,181.999991668702
383,342,111686,2,0,P|354:354|295:353,1,90.9999958343508,12|0,0:0|0:0,0:0:0:0:
311,181,112121,2,0,L|333:294,1,90.9999958343508
177,365,112556,2,0,L|183:269,1,90.9999958343508,10|0,0:0|0:0,0:0:0:0:
233,18,112991,6,0,P|245:57|239:114,1,90.9999958343508,4|0,0:0|0:0,0:0:0:0:
91,262,113426,2,0,P|111:218|153:187,1,90.9999958343508,12|0,0:0|0:0,0:0:0:0:
412,245,113860,37,4,0:0:0:0:
256,192,113969,12,0,116686,0:0:0:0:
337,173,116904,37,8,0:0:0:0:
185,155,117121,1,2,0:0:0:0:
264,210,117338,37,0,0:0:0:0:
264,210,117556,2,0,L|253:95,2,105.000004005432
322,343,118643,2,0,L|328:285,1,52.5000020027161,8|0,0:0|0:0,0:0:0:0:
53,267,119078,38,0,P|96:288|170:283,1,97.9999970092775,8|0,0:0|0:0,0:0:0:0:
218,270,119512,1,0,0:0:0:0:
49,105,119730,38,0,P|28:148|33:222,1,97.9999970092775,8|0,0:0|0:0,0:0:0:0:
53,267,120164,1,0,0:0:0:0:
234,129,120382,6,0,B|211:28|211:28|209:81,1,157.500006008148,4|0,0:0|0:0,0:0:0:0:
202,197,120817,6,0,P|231:204|261:200,1,56,4|0,0:0|0:0,0:0:0:0:
332,113,121252,1,8,0:0:0:0:
113,96,121686,2,0,L|124:165,1,56
202,197,122121,2,0,L|191:266,1,56,8|0,0:0|0:0,0:0:0:0:
64,292,122556,6,0,P|85:253|139:240,1,84
193,252,122991,1,8,0:0:0:0:
95,362,123208,1,0,0:0:0:0:
4,243,123426,2,0,L|10:170,1,56
43,71,123860,2,0,L|47:126,1,56,8|0,0:0|0:0,0:0:0:0:
120,238,124295,38,0,P|157:242|207:232,1,84
261,185,124730,2,0,L|265:120,1,56,8|0,0:0|0:0,0:0:0:0:
183,52,125165,2,0,L|187:117,1,56
261,185,125599,1,8,0:0:0:0:
288,45,125817,1,0,0:0:0:0:
186,107,126034,6,0,P|241:114|318:115,1,112,0|8,0:0|0:0,0:0:0:0:
403,84,126686,1,0,0:0:0:0:
335,184,126904,2,0,L|342:249,1,56,0|0,0:0|0:0,0:0:0:0:
402,349,127339,2,0,L|407:293,1,56,8|0,0:0|0:0,0:0:0:0:
423,181,127773,37,0,0:0:0:0:
249,332,128208,2,0,P|206:341|156:324,1,84,8|0,0:0|0:0,0:0:0:0:
99,312,128643,2,0,P|92:279|96:245,1,56,0|0,0:0|0:0,0:0:0:0:
148,110,129078,1,8,0:0:0:0:
167,204,129295,1,0,0:0:0:0:
33,178,129512,6,0,L|103:166,1,56,0|0,0:0|0:0,0:0:0:0:
247,134,129947,1,8,0:0:0:0:
148,110,130165,1,0,0:0:0:0:
255,231,130382,2,0,L|265:103,1,112,0|8,0:0|0:0,0:0:0:0:
275,10,131034,1,0,0:0:0:0:
181,125,131252,38,0,P|223:129|276:113,1,84
329,78,131686,2,0,P|356:79|387:90,1,56,8|0,0:0|0:0,0:0:0:0:
452,178,132121,2,0,L|441:313,1,112,0|8,0:0|0:0,0:0:0:0:
268,362,132991,6,0,L|263:306,1,56
204,194,133426,2,0,L|199:249,1,56,8|0,0:0|0:0,0:0:0:0:
183,358,133860,1,0,0:0:0:0:
276,231,134078,1,0,0:0:0:0:
95,346,134295,1,8,0:0:0:0:
263,306,134512,1,0,0:0:0:0:
49,205,134730,37,4,0:0:0:0:
276,231,135165,2,0,P|213:242|159:239,1,112,8|0,0:0|0:0,0:0:0:0:
49,205,135817,1,0,0:0:0:0:
139,87,136034,2,0,P|148:118|147:168,1,56,8|0,0:0|0:0,0:0:0:0:
85,282,136469,5,0,0:0:0:0:
85,282,136904,2,0,L|145:278,1,56,8|0,0:0|0:0,0:0:0:0:
203,348,137339,2,0,L|263:352,1,56
366,263,137773,1,8,0:0:0:0:
286,273,137991,1,0,0:0:0:0:
487,361,138208,38,0,L|497:261,1,84,4|0,0:0|0:0,0:0:0:0:
451,222,138643,2,0,L|443:145,1,56,8|0,0:0|0:0,0:0:0:0:
512,56,139078,2,0,L|504:132,1,56
451,222,139512,1,8,0:0:0:0:
370,47,139730,1,8,0:0:0:0:
506,111,139947,54,0,P|474:123|447:125,1,56
198,81,140382,2,0,P|230:69|257:67,1,56,12|0,0:0|0:0,0:0:0:0:
352,254,140817,21,8,0:0:0:0:
349,219,140925,1,8,0:0:0:0:
346,184,141034,1,8,0:0:0:0:
344,149,141143,1,8,0:0:0:0:
341,114,141252,21,8,0:3:0:0:
344,100,141360,1,0,0:0:0:0:
347,86,141469,1,0,0:0:0:0:
351,73,141578,1,0,0:0:0:0:
354,59,141686,22,0,P|305:71|252:60,1,90.9999958343508,4|0,0:0|0:0,0:0:0:0:
160,4,142121,1,8,0:0:0:0:
201,221,142339,1,0,0:0:0:0:
104,99,142556,2,0,P|167:115|231:86,1,136.499993751526
246,16,142991,1,8,0:0:0:0:
326,141,143208,1,0,0:0:0:0:
201,221,143426,6,0,L|234:71,1,136.499993751526
246,16,143860,1,8,0:0:0:0:
115,205,144078,1,0,0:0:0:0:
112,64,144295,1,0,0:0:0:0:
252,246,144512,1,0,0:0:0:0:
246,16,144730,1,8,0:0:0:0:
50,137,144947,1,0,0:0:0:0:
333,128,145165,38,0,P|344:172|339:217,1,90.9999958343508
426,377,145599,2,0,P|420:332|432:288,1,90.9999958343508,8|0,0:0|0:0,0:0:0:0:
469,140,146034,6,0,L|315:128,1,136.499993751526
258,123,146469,1,12,0:0:0:0:
348,314,146686,1,0,0:0:0:0:
358,192,146904,37,0,0:0:0:0:
137,297,147121,1,12,0:0:0:0:
240,357,147339,2,0,P|251:313|246:268,1,90.9999958343508,8|0,0:0|0:0,0:0:0:0:
55,179,147773,2,0,P|98:190|143:185,1,90.9999958343508,12|0,0:0|0:0,0:0:0:0:
314,88,148208,1,10,0:0:0:0:
240,357,148426,1,8,0:0:0:0:
411,259,148643,6,0,P|455:253|499:265,1,90.9999958343508
326,308,149078,1,8,0:0:0:0:
376,137,149295,1,0,0:0:0:0:
239,152,149512,2,0,P|312:160|372:139,1,136.499993751526
376,137,149947,1,8,0:0:0:0:
204,274,150382,38,0,P|159:268|115:280,1,90.9999958343508
289,323,150817,1,8,0:0:0:0:
239,152,151034,1,0,0:0:0:0:
376,167,151252,2,0,P|303:175|243:154,1,136.499993751526
148,148,151686,2,0,L|238:151,1,90.9999958343508,8|0,0:0|0:0,0:0:0:0:
57,237,152121,6,0,P|68:193|63:148,1,90.9999958343508
245,63,152556,2,0,P|233:106|238:151,1,90.9999958343508,8|0,0:0|0:0,0:0:0:0:
375,161,152991,2,0,P|310:140|243:148,1,136.499993751526
238,151,153426,1,8,0:0:0:0:
311,87,153643,1,0,0:0:0:0:
256,245,153860,37,0,0:0:0:0:
147,120,154078,1,0,0:0:0:0:
329,181,154295,1,8,0:0:0:0:
238,151,154512,1,0,0:0:0:0:
126,339,154730,6,0,P|170:344|214:332,1,90.9999958343508
367,259,155165,2,0,P|322:264|278:252,1,90.9999958343508,8|0,0:0|0:0,0:0:0:0:
139,38,155599,38,0,L|145:128,1,90.9999958343508,4|0,0:0|0:0,0:0:0:0:
328,190,156034,1,8,0:0:0:0:
185,300,156252,1,0,0:0:0:0:
226,65,156469,6,0,L|236:217,1,136.499993751526
147,194,156904,2,0,P|191:189|235:201,1,90.9999958343508,8|0,0:0|0:0,0:0:0:0:
399,92,157339,2,0,P|354:87|310:99,1,90.9999958343508
214,323,157773,37,8,0:0:0:0:
100,226,157991,1,0,0:0:0:0:
345,246,158208,1,0,0:0:0:0:
159,85,158426,1,0,0:0:0:0:
214,323,158643,1,8,0:0:0:0:
310,98,158860,1,0,0:0:0:0:
214,323,159078,6,0,P|170:328|126:316,1,90.9999958343508
0,198,159512,2,0,P|44:202|88:190,1,90.9999958343508,8|0,0:0|0:0,0:0:0:0:
265,148,159947,1,0,0:0:0:0:
214,323,160165,1,0,0:0:0:0:
164,118,160382,1,8,0:0:0:0:
188,220,160599,1,0,0:0:0:0:
343,69,160817,38,0,P|388:75|432:63,1,90.9999958343508
276,214,161252,2,0,P|231:208|187:220,1,90.9999958343508,8|0,0:0|0:0,0:0:0:0:
237,108,161686,1,0,0:0:0:0:
382,175,161904,1,0,0:0:0:0:
343,69,162121,1,8,0:0:0:0:
276,214,162339,1,0,0:0:0:0:
421,281,162556,6,0,P|376:285|332:274,1,90.9999958343508,4|0,0:0|0:0,0:0:0:0:
195,234,162991,1,8,0:0:0:0:
300,134,163208,1,0,0:0:0:0:
61,223,163426,2,0,P|126:239|194:233,1,136.499993751526
283,227,163860,2,0,P|238:222|194:233,1,90.9999958343508,8|0,0:0|0:0,0:0:0:0:
405,327,164295,38,0,P|410:282|399:238,1,90.9999958343508
300,134,164730,1,8,0:0:0:0:
260,270,164947,1,0,0:0:0:0:
289,0,165165,2,0,P|305:65|299:133,1,136.499993751526
292,222,165599,2,0,P|288:177|299:133,1,90.9999958343508,8|0,0:0|0:0,0:0:0:0:
208,135,166034,6,0,L|328:133,1,90.9999958343508,4|0,0:0|0:0,0:0:0:0:
292,43,166360,1,0,0:0:0:0:
292,43,166469,2,0,P|287:87|298:131,1,90.9999958343508,8|0,0:0|0:0,0:0:0:0:
380,276,166904,2,0,P|384:231|373:187,1,90.9999958343508
510,189,167339,38,0,L|360:187,1,136.499993751526,12|0,0:0|0:0,0:0:0:0:
379,98,167773,2,0,P|383:142|372:186,1,90.9999958343508
224,361,168208,2,0,P|219:316|230:272,1,90.9999958343508,8|0,0:0|0:0,0:0:0:0:
93,273,168643,6,0,P|165:272|243:271,1,136.499993751526,4|0,0:0|0:0,0:0:0:0:
87,185,169078,2,0,P|82:229|93:273,1,90.9999958343508,8|0,0:0|0:0,0:0:0:0:
447,322,169512,37,4,0:0:0:0:
256,192,169621,12,0,172339,0:0:0:0:
244,266,172556,37,8,0:0:0:0:
270,121,172773,1,10,0:0:0:0:
383,207,172991,37,0,0:0:0:0:
383,207,173208,2,0,L|309:201,1,56
270,121,173643,2,0,L|344:115,1,56
403,109,174078,5,0,0:0:0:0:
243,265,174295,2,0,L|169:259,1,56,8|0,0:0|0:0,0:0:0:0:
139,167,174730,37,0,0:0:0:0:
139,167,174947,2,0,L|213:161,1,56,8|0,0:3|0:0,0:0:0:0:
336,150,175382,1,0,0:0:0:0:
247,227,175599,37,8,0:3:0:0:
364,214,175817,1,8,0:3:0:0:
311,263,176034,1,8,0:3:0:0:
262,156,176252,1,8,0:3:0:0:
336,150,176469,22,0,L|413:142,1,70
485,223,177339,1,0,0:0:0:0:
488,226,177773,2,0,L|411:218,1,70
336,150,178643,1,0,0:0:0:0:
298,211,178933,38,0,L|300:230,2,11.6666666666667
298,211,179729,1,0,0:0:0:0:
227,186,179947,1,0,0:0:0:0:
153,200,180165,1,0,0:0:0:0:
96,249,180382,2,0,L|91:322,2,70
153,200,181541,2,0,L|155:180,1,11.6666666666667
163,180,181686,6,0,L|157:107,1,70
80,27,182556,1,0,0:0:0:0:
83,31,182991,2,0,L|77:104,1,70
153,200,183860,1,0,0:0:0:0:
156,203,184295,38,0,L|232:195,1,70
283,142,184947,1,0,0:0:0:0:
358,149,185165,1,0,0:0:0:0:
433,157,185382,1,0,0:0:0:0:
509,165,185599,2,0,L|499:86,2,70
456,260,186903,6,0,L|441:371,1,105
367,269,187773,1,0,0:0:0:0:
372,344,187991,1,0,0:0:0:0:
286,291,188208,2,0,L|295:338,2,35
186,222,189077,38,0,P|161:219|137:227,1,35
100,345,189512,2,0,P|110:294|105:268,1,70
38,179,190165,1,0,0:0:0:0:
38,179,190382,2,0,P|54:182|73:184,1,35
143,158,190817,2,0,L|148:83,2,70
200,244,192121,6,0,P|249:213|306:215,1,105
353,265,192990,1,0,0:0:0:0:
368,192,193208,1,0,0:0:0:0:
382,118,193426,2,0,L|398:11,1,105
318,38,194295,2,0,P|295:41|271:41,1,35
199,14,194730,2,0,P|214:60|215:92,1,70
200,155,195382,1,0,0:0:0:0:
105,94,195599,38,0,P|122:97|138:103,1,35
200,155,196034,1,0,0:0:0:0:
142,263,196469,2,0,P|142:315|165:376,1,105
247,358,197338,6,0,B|369:308|356:414|469:391|510:305|436:231|353:262|362:321,1,350
361,308,199947,38,0,B|397:167|266:191|298:84|347:51|347:51|384:83|377:122,1,350
273,263,202556,6,0,B|173:260|133:175|133:175|173:260|113:344,1,350
17,311,205165,38,0,P|80:288|116:342,1,140
191,345,206252,1,0,0:0:0:0:
191,345,206469,2,0,P|254:368|290:314,1,140
447,275,207773,6,0,B|407:270|370:309|370:309|356:258|316:243,1,175
289,316,209078,2,0,P|255:324|221:316,1,70
148,332,209730,1,0,0:0:0:0:
148,332,209947,2,0,P|148:315|150:298,1,35
221,316,210382,38,0,P|284:339|320:285,1,140
395,282,211469,1,0,0:0:0:0:
395,282,211686,2,0,P|458:259|494:313,1,140
327,321,212991,6,0,B|309:278|325:235|338:235|351:195|334:151,1,175
268,188,214295,2,0,P|231:195|192:187,1,70
128,171,214947,1,0,0:0:0:0:
128,171,215164,2,0,P|126:188|126:205,1,35
199,189,215599,38,0,B|242:171|287:187|287:200|329:213|374:197|374:197|419:181|434:142|434:142|388:113|340:130,1,350
351,126,218208,6,0,P|366:184|358:235,1,105
350,261,219078,2,0,P|357:245|360:228,1,35
351,126,219512,2,0,P|293:111|242:119,1,105
216,126,220382,2,0,P|232:119|249:116,1,35
216,261,220817,38,0,P|201:203|209:152,1,105
216,126,221687,2,0,P|209:142|206:159,1,35
216,261,222121,2,0,P|288:279|351:269,1,140
350,134,223426,6,0,P|335:192|343:243,1,105
351,269,224296,2,0,P|344:252|341:235,1,35
350,134,224730,2,0,P|260:157|181:144,1,175
176,76,226034,38,0,P|185:111|180:143,1,70
146,205,226686,1,0,0:0:0:0:
76,198,226904,2,0,L|30:193,1,35
146,205,227339,2,0,L|287:220,1,140
284,85,228643,6,0,P|269:143|277:194,1,105
285,220,229513,2,0,P|278:203|275:186,1,35
284,85,229947,2,0,P|233:98|181:92,1,105
148,82,230816,38,0,P|164:88|181:91,1,35
143,151,231252,2,0,P|151:117|147:83,1,70
121,17,231904,1,0,0:0:0:0:
190,25,232121,1,0,0:0:0:0:
259,34,232339,1,0,0:0:0:0:
328,43,232555,2,0,L|466:60,1,140
317,128,233860,6,0,P|256:102|182:120,1,140
114,173,235165,38,0,P|181:157|244:183,1,140
303,235,236469,6,0,P|249:222|199:243,1,112
168,280,237773,38,0,P|188:279|208:286,1,41.9999987182618
260,355,238425,38,0,P|269:351|280:351,2,20.9999993591309
296,263,239077,38,0,P|320:248|370:285,1,90.9999958343508,4|0,0:0|0:0,0:0:0:0:
155,323,239511,2,0,P|145:288|145:225,1,90.9999958343508,8|0,0:0|0:0,0:0:0:0:
309,148,239946,2,0,L|167:159,1,136.499993751526
95,163,240381,1,8,0:0:0:0:
239,84,240599,1,0,0:0:0:0:
182,291,240816,6,0,P|164:239|175:154,1,136.499993751526
239,84,241251,1,8,0:0:0:0:
264,218,241469,1,0,0:0:0:0:
159,77,241686,1,0,0:0:0:0:
271,251,241903,1,0,0:0:0:0:
349,34,242121,1,8,0:0:0:0:
257,285,242338,1,0,0:0:0:0:
85,148,242555,38,0,P|132:162|179:157,1,90.9999958343508
277,0,242990,2,0,P|243:31|222:76,1,90.9999958343508,8|0,0:0|0:0,0:0:0:0:
390,167,243425,2,0,P|319:154|226:152,1,136.499993751526
173,158,243860,1,8,0:0:0:0:
256,243,244077,1,0,0:0:0:0:
400,76,244295,6,0,L|386:196,1,90.9999958343508
337,331,244729,2,0,L|316:155,1,136.499993751526,8|0,0:0|0:0,0:0:0:0:
255,151,245164,2,0,P|206:144|156:160,1,90.9999958343508
39,275,245598,2,0,P|88:282|138:266,1,90.9999958343508,8|0,0:0|0:0,0:0:0:0:
155,64,246034,38,0,L|167:157,1,90.9999958343508
196,339,246469,1,8,0:0:0:0:
261,199,246686,1,0,0:0:0:0:
149,263,246903,2,0,L|319:276,1,136.499993751526
360,282,247338,1,8,0:0:0:0:
492,70,247772,6,0,L|384:78,1,90.9999958343508
176,92,248207,1,8,0:0:0:0:
318,156,248425,1,0,0:0:0:0:
282,0,248642,2,0,P|265:45|253:96,1,90.9999958343508
205,178,248968,1,0,0:0:0:0:
205,178,249077,2,0,P|194:130|176:92,1,90.9999958343508,8|0,0:0|0:0,0:0:0:0:
6,126,249511,38,0,L|97:132,1,90.9999958343508
295,146,249947,1,8,0:0:0:0:
87,236,250164,1,0,0:0:0:0:
300,224,250381,2,0,L|154:233,1,136.499993751526
87,236,250816,1,8,0:0:0:0:
213,153,251033,1,0,0:0:0:0:
175,322,251249,5,0,0:0:0:0:
133,157,251467,1,0,0:0:0:0:
267,281,251685,2,0,P|268:324|260:374,1,90.9999958343508,8|0,0:0|0:0,0:0:0:0:
80,247,252120,1,0,0:0:0:0:
238,193,252337,1,0,0:0:0:0:
74,337,252555,2,0,L|80:230,1,90.9999958343508,10|0,0:0|0:0,0:0:0:0:
107,21,252989,37,4,0:0:0:0:
13,213,253207,1,0,0:0:0:0:
232,78,253424,2,0,P|184:79|140:87,1,90.9999958343508,8|0,0:0|0:0,0:0:0:0:
309,171,253859,2,0,P|342:107|342:33,1,136.499993751526
268,10,254294,2,0,P|316:46|361:35,1,90.9999958343508,8|0,0:0|0:0,0:0:0:0:
512,111,254728,6,0,P|467:116|427:138,1,90.9999958343508
384,293,255163,1,8,0:0:0:0:
357,123,255381,1,0,0:0:0:0:
316,314,255598,1,0,0:0:0:0:
427,138,255815,1,0,0:0:0:0:
251,339,256033,1,8,0:0:0:0:
171,80,256250,1,0,0:0:0:0:
367,212,256468,38,0,P|324:223|254:212,1,90.9999958343508
37,161,256903,2,0,P|80:150|150:161,1,90.9999958343508,8|0,0:0|0:0,0:0:0:0:
90,330,257338,1,0,0:0:0:0:
81,238,257555,1,0,0:0:0:0:
251,366,257772,1,8,0:0:0:0:
260,274,257989,1,0,0:0:0:0:
90,330,258208,6,0,L|187:321,1,90.9999958343508
421,293,258642,1,8,0:0:0:0:
260,274,258860,1,0,0:0:0:0:
417,383,259077,2,0,P|425:348|417:278,1,90.9999958343508
264,184,259511,2,0,P|256:219|264:289,1,90.9999958343508,10|0,0:0|0:0,0:0:0:0:
506,123,259947,38,0,L|409:118,1,90.9999958343508,4|0,0:0|0:0,0:0:0:0:
196,103,260382,1,8,0:0:0:0:
344,174,260599,1,0,0:0:0:0:
433,22,260816,2,0,L|266:32,1,136.499993751526
225,34,261251,1,8,0:0:0:0:
42,233,261686,6,0,L|132:242,1,90.9999958343508
351,273,262121,1,8,0:0:0:0:
201,293,262338,1,0,0:0:0:0:
360,196,262555,1,0,0:0:0:0:
277,349,262773,1,0,0:0:0:0:
190,149,262990,2,0,P|226:183|250:234,1,90.9999958343508,10|0,0:0|0:0,0:0:0:0:
425,361,263425,38,0,L|437:236,1,90.9999958343508,4|0,0:0|0:0,0:0:0:0:
466,194,263750,1,0,0:0:0:0:
466,194,263860,1,8,0:0:0:0:
328,281,264077,2,0,L|307:95,1,181.999991668702
115,236,264729,2,0,L|218:245,1,90.9999958343508,12|0,0:0|0:0,0:0:0:0:
307,100,265164,6,0,L|204:109,1,90.9999958343508
326,300,265598,2,0,P|340:258|340:204,1,90.9999958343508,10|0,0:0|0:0,0:0:0:0:
223,17,266033,38,0,L|215:125,1,90.9999958343508,4|0,0:0|0:0,0:0:0:0:
198,345,266468,2,0,L|205:243,1,101.500003097534,12|0,0:0|0:0,0:0:0:0:
223,14,266903,6,0,P|226:61|216:107,1,94.5000003604889,4|0,0:0|0:0,0:0:0:0:
46,169,267338,1,8,0:0:0:0:
134,361,267555,1,0,0:0:0:0:
257,189,267772,2,0,L|104:174,1,141.750000540733
46,169,268207,1,8,0:0:0:0:
196,275,268425,1,0,0:0:0:0:
362,198,268642,38,0,P|288:196|227:152,1,141.750000540733
212,92,269077,1,8,0:0:0:0:
301,284,269294,1,0,0:0:0:0:
405,3,269511,1,0,0:0:0:0:
256,188,269729,1,0,0:0:0:0:
370,126,269946,1,8,0:0:0:0:
141,249,270164,1,0,0:0:0:0:
443,337,270381,6,0,P|431:291|436:245,1,94.5000003604889
263,96,270816,2,0,P|269:141|256:186,1,94.5000003604889,8|0,0:0|0:0,0:0:0:0:
0,235,271251,2,0,L|153:250,1,141.750000540733
211,255,271685,1,12,0:0:0:0:
95,350,271903,1,0,0:0:0:0:
115,139,272120,37,0,0:0:0:0:
383,274,272338,1,12,0:0:0:0:
291,359,272555,2,0,P|285:312|297:266,1,94.5000003604889,8|0,0:0|0:0,0:0:0:0:
108,46,272990,2,0,P|119:91|114:138,1,94.5000003604889,12|0,0:0|0:0,0:0:0:0:
61,274,273425,5,10,0:0:0:0:
364,87,273642,1,8,0:0:0:0:
400,249,273859,38,0,P|354:255|309:242,1,94.5000003604889
183,131,274294,1,8,0:0:0:0:
150,299,274511,1,0,0:0:0:0:
308,242,274729,2,0,L|156:214,1,141.750000540733
93,204,275164,1,8,0:0:0:0:
27,285,275598,6,0,P|72:291|117:278,1,94.5000003604889
244,167,276033,1,8,0:0:0:0:
277,335,276250,1,0,0:0:0:0:
119,278,276468,2,0,L|272:247,1,141.750000540733
334,236,276903,2,0,L|429:237,1,94.5000003604889,8|0,0:0|0:0,0:0:0:0:
238,74,277338,38,0,P|249:119|244:165,1,94.5000003604889
421,328,277773,2,0,P|414:282|427:237,1,94.5000003604889,8|0,0:0|0:0,0:0:0:0:
293,239,278207,6,0,P|363:218|435:241,1,141.750000540733
495,284,278642,1,8,0:0:0:0:
359,186,278859,1,0,0:0:0:0:
261,322,279077,1,0,0:0:0:0:
378,303,279294,1,0,0:0:0:0:
144,341,279511,1,8,0:0:0:0:
261,322,279729,1,0,0:0:0:0:
89,235,279946,38,0,P|82:188|95:143,1,94.5000003604889
261,322,280381,2,0,P|273:276|267:230,1,94.5000003604889,10|0,0:0|0:0,0:0:0:0:
59,45,280816,6,0,L|160:54,1,94.5000003604889,4|0,0:0|0:0,0:0:0:0:
234,224,281251,1,8,0:0:0:0:
341,69,281468,1,0,0:0:0:0:
80,122,281685,38,0,L|248:136,1,141.750000540733
313,141,282120,2,0,P|265:146|220:133,1,94.5000003604889,8|0,0:0|0:0,0:0:0:0:
22,230,282555,2,0,P|69:224|114:237,1,94.5000003604889
180,372,282990,5,8,0:0:0:0:
221,133,283207,1,0,0:0:0:0:
328,350,283424,1,0,0:0:0:0:
368,111,283642,1,0,0:0:0:0:
114,237,283859,1,8,0:0:0:0:
328,350,284077,1,0,0:0:0:0:
114,237,284294,38,0,P|66:242|21:229,1,94.5000003604889
328,350,284729,2,0,P|376:355|421:342,1,94.5000003604889,8|0,0:0|0:0,0:0:0:0:
320,136,285163,1,0,0:0:0:0:
259,334,285382,1,0,0:0:0:0:
118,182,285599,1,8,0:0:0:0:
316,243,285816,1,0,0:0:0:0:
52,290,286033,6,0,P|98:285|144:298,1,94.5000003604889
411,143,286468,2,0,P|364:148|319:135,1,94.5000003604889,8|0,0:0|0:0,0:0:0:0:
237,47,286903,1,0,0:0:0:0:
230,216,287120,1,0,0:0:0:0:
318,135,287337,1,10,0:0:0:0:
143,297,287555,1,0,0:0:0:0:
58,121,287772,38,0,P|104:116|150:129,1,94.5000003604889,4|0,0:0|0:0,0:0:0:0:
230,216,288207,1,8,0:0:0:0:
150,129,288424,1,0,0:0:0:0:
312,304,288642,2,0,P|382:311|449:291,1,141.750000540733
456,382,289077,2,0,P|444:337|449:291,1,94.5000003604889,8|0,0:0|0:0,0:0:0:0:
325,43,289511,6,0,P|330:89|317:135,1,94.5000003604889
230,215,289946,1,8,0:0:0:0:
317,135,290163,1,0,0:0:0:0:
145,293,290381,2,0,P|74:300|7:280,1,141.750000540733
0,372,290816,2,0,P|12:326|7:280,1,94.5000003604889,8|0,0:0|0:0,0:0:0:0:
300,147,291251,38,0,L|295:250,1,90.9999958343508,4|0,0:0|0:0,0:0:0:0:
204,230,291577,1,0,0:0:0:0:
204,230,291685,2,0,P|250:224|295:237,1,94.5000003604889,8|0,0:0|0:0,0:0:0:0:
391,154,292120,2,0,P|344:159|299:146,1,94.5000003604889
201,11,292555,6,0,L|208:165,1,141.750000540733,12|0,0:0|0:0,0:0:0:0:
299,146,292989,2,0,P|252:140|207:153,1,94.5000003604889
110,18,293425,2,0,P|156:23|201:10,1,94.5000003604889,10|0,0:0|0:0,0:0:0:0:
207,152,293859,38,0,L|201:11,1,141.750000540733,4|0,0:0|0:0,0:0:0:0:
299,154,294321,38,0,L|290:347,1,157.500006008148,4|0,0:0|0:0,0:0:0:0:
290,345,294825,38,0,B|365:299|449:355|449:355|370:262|234:338|234:338|119:405|24:318|24:318|164:396|320:326|339:175|236:41|67:30|-5:123|-37:239|63:295|160:257,1,1400,4|0,0:0|0:0,0:0:0:0:
256,192,299993,12,0,306421,0:0:0:0:
