osu file format v14

[General]
AudioFilename: audio.ogg
AudioLeadIn: 0
PreviewTime: 80122
Countdown: 0
SampleSet: Soft
StackLeniency: 0.7
Mode: 0
LetterboxInBreaks: 0
WidescreenStoryboard: 0

[Editor]
Bookmarks: 79330
DistanceSpacing: 2.4
BeatDivisor: 4
GridSize: 16
TimelineZoom: 3.399998

[Metadata]
Title:Alpenglow
TitleUnicode:Alpenglow
Artist:Nightwish
ArtistUnicode:Nightwish
Creator:Nao Tomori
Version:Twilight
Source:
Tags:endless forms most beautiful english symphonic metal rock
BeatmapID:4205711
BeatmapSetID:2019548

[Difficulty]
HPDrainRate:5
CircleSize:4.5
OverallDifficulty:7.5
ApproachRate:8.7
SliderMultiplier:1.5
SliderTickRate:1

[Events]
//Background and Video events
0,0,"57718340_p0.jpg",0,0
//Break Periods
2,200756,211049
2,225484,236801
//Storyboard Layer 0 (Background)
//Storyboard Layer 1 (Fail)
//Storyboard Layer 2 (Pass)
//Storyboard Layer 3 (Foreground)
//Storyboard Layer 4 (Overlay)
//Storyboard Sound Samples

[TimingPoints]
1508,405.405405405405,4,2,1,40,1,0
1508,-133.333333333333,4,2,1,40,0,0
14176,-133.333333333333,4,2,1,55,0,0
24007,-55.5555555555556,4,2,1,65,0,0
26035,-100,4,2,1,65,0,0
26339,-100,4,2,1,70,0,0
26643,-90.9090909090909,4,2,1,70,0,0
53399,-117.647058823529,4,2,1,55,0,0
53703,-117.647058823529,4,2,1,45,0,0
66372,-100,4,2,1,65,0,0
77521,-222.222222222222,4,2,1,65,0,0
79751,-100,4,2,1,65,0,0
80967,-86.9565217391304,4,2,1,75,0,1
106913,-90.9090909090909,4,2,1,70,0,0
119886,-117.647058823529,4,2,1,55,0,0
120595,-117.647058823529,4,2,1,45,0,0
132859,-100,4,2,1,65,0,0
144007,-400,4,2,1,70,0,0
146643,-100,4,2,1,70,0,0
147453,-86.9565217391304,4,2,1,75,0,1
173394,405.405405405405,4,2,1,40,1,0
173394,-90.9090909090909,4,2,1,70,0,0
199340,-153.846153846154,4,2,1,70,0,0
211694,405.405405405405,4,2,1,60,1,0
211694,-133.333333333333,4,2,1,60,0,0
212302,405.405405405405,4,2,1,60,1,0
212617,-133.333333333333,4,2,1,50,0,0
212718,405.405405405405,4,2,1,50,1,0
212718,-133.333333333333,4,2,1,50,0,0
213934,405.405405405405,4,2,1,50,1,0
213934,-133.333333333333,4,2,1,50,0,0
218798,405.405405405405,4,2,1,50,1,0
218798,-133.333333333333,4,2,1,50,0,0
225178,-133.333333333333,4,2,1,40,0,0
237340,-133.333333333333,4,2,1,45,0,0
238556,-133.333333333333,4,2,1,55,0,0
241597,-133.333333333333,4,2,1,70,0,0
242108,-86.9565217391304,4,2,1,75,0,1
278387,-86.9565217391304,4,2,1,80,0,1
278392,-86.9565217391304,4,2,1,80,0,0
279604,-76.9230769230769,4,2,1,80,0,0

[Colours]
Combo1 : 199,210,193
Combo2 : 170,228,251
Combo3 : 247,201,185
Combo4 : 166,237,158

[HitObjects]
54,157,1508,5,2,0:0:0:0:
188,201,1710,1,0,0:0:0:0:
54,245,1913,1,2,0:0:0:0:
137,130,2116,1,0,0:0:0:0:
137,272,2318,1,2,0:0:0:0:
54,65,2724,1,2,0:0:0:0:
271,166,3129,5,0,0:0:0:0:
337,115,3332,1,2,0:0:0:0:
260,84,3535,2,0,P|205:91|144:100,2,112.500004291535,2|0|2,0:0|0:0|0:0,0:0:0:0:
317,24,4548,1,0,0:0:0:0:
386,69,4751,1,2,0:0:0:0:
304,322,5156,5,0,0:0:0:0:
298,190,5359,1,0,0:0:0:0:
431,287,5562,1,2,0:0:0:0:
269,257,5764,1,0,0:0:0:0:
428,214,5967,1,0,0:0:0:0:
377,336,6170,1,2,0:0:0:0:
368,170,6372,6,0,P|371:124|382:33,1,112.500004291535,2|0,0:0|0:0,0:0:0:0:
378,58,6980,1,0,0:0:0:0:
310,15,7183,1,2,0:0:0:0:
250,72,7386,1,0,0:0:0:0:
293,144,7589,1,0,0:0:0:0:
269,222,7791,1,0,0:0:0:0:
196,260,7994,6,0,P|144:253|117:248,1,56.2500021457673,2|0,0:0|0:0,0:0:0:0:
48,232,8399,1,2,0:0:0:0:
152,167,8602,1,0,0:0:0:0:
89,325,8805,1,2,0:0:0:0:
40,84,9210,1,2,0:0:0:0:
243,300,9616,5,0,0:0:0:0:
293,237,9818,1,2,0:0:0:0:
371,257,10021,2,0,P|445:274|503:296,2,112.500004291535,2|0|2,0:0|0:0|0:0,0:0:0:0:
327,320,11035,1,0,0:0:0:0:
398,361,11237,5,2,0:0:0:0:
300,67,11643,1,0,0:0:0:0:
76,279,12048,1,2,0:0:0:0:
375,200,12453,1,0,0:0:0:0:
297,188,12656,1,2,0:0:0:0:
455,208,13062,1,2,0:0:0:0:
364,116,13467,1,0,0:0:0:0:
375,200,13670,1,2,0:0:0:0:
178,154,13872,5,2,2:3:0:0:
342,36,14075,2,0,L|417:45,2,56.2500021457673,2|8|4,2:3|2:3|0:3,0:0:0:0:
276,1,14683,5,2,0:0:0:0:
228,58,14886,1,2,0:0:0:0:
159,33,15089,1,0,0:0:0:0:
98,68,15291,1,2,0:0:0:0:
97,80,15494,1,0,0:0:0:0:
80,152,15697,1,2,0:0:0:0:
87,164,15899,1,0,0:0:0:0:
194,246,16102,5,0,0:0:0:0:
158,320,16305,1,2,0:0:0:0:
83,353,16507,1,2,0:0:0:0:
67,354,16710,1,0,0:0:0:0:
22,271,16913,1,2,0:0:0:0:
13,255,17116,1,0,0:0:0:0:
154,157,17318,5,2,0:0:0:0:
84,100,17521,1,0,0:0:0:0:
122,16,17724,1,2,0:0:0:0:
134,3,17926,1,0,0:0:0:0:
269,89,18129,5,2,0:0:0:0:
350,28,18332,1,0,0:0:0:0:
441,70,18535,1,0,0:0:0:0:
441,170,18737,1,2,0:0:0:0:
360,232,18940,1,2,0:0:0:0:
364,333,19143,1,0,0:0:0:0:
454,377,19345,1,2,0:0:0:0:
472,366,19548,1,0,0:0:0:0:
502,222,19751,5,2,0:0:0:0:
404,166,19953,1,2,0:0:0:0:
312,231,20156,1,0,0:0:0:0:
204,196,20359,1,2,0:0:0:0:
177,86,20562,1,2,0:0:0:0:
253,4,20764,1,0,0:0:0:0:
365,13,20967,1,2,0:0:0:0:
383,36,21170,1,0,0:0:0:0:
311,177,21372,5,2,3:2:0:0:
203,123,21575,1,0,3:0:0:0:
170,261,21778,1,0,3:0:0:0:
162,289,21980,1,0,3:0:0:0:
51,196,22183,1,2,3:2:0:0:
62,170,22386,1,0,3:0:0:0:
16,18,22589,5,2,3:2:0:0:
123,92,22791,1,2,3:2:0:0:
253,37,22994,1,2,3:2:0:0:
282,23,23197,1,0,3:2:0:0:
423,137,23399,1,2,3:2:0:0:
457,146,23602,1,0,3:2:0:0:
267,254,23805,5,2,3:2:0:0:
413,337,24007,2,0,B|501:371|501:371|447:303,1,134.999995880127,12|0,0:0|0:0,0:0:0:0:
490,356,24616,1,0,0:0:0:0:
490,356,25021,1,0,0:0:0:0:
490,356,25426,1,2,0:0:0:0:
490,356,25629,1,2,0:0:0:0:
490,356,26035,2,0,P|496:314|473:262,1,75,2|0,0:0|0:0,0:0:0:0:
394,176,26440,1,8,0:3:0:0:
393,185,26507,1,8,0:3:0:0:
388,194,26575,1,4,0:3:0:0:
382,201,26643,6,0,P|342:211|280:189,1,82.5000025177003,4|12,0:3|0:0,0:0:0:0:
147,68,27048,2,0,B|160:131|160:131|158:136|158:136|176:221,1,123.75000377655,12|0,0:0|0:0,0:0:0:0:
121,260,27453,5,6,3:2:0:0:
250,132,27656,1,0,0:0:0:0:
65,83,27859,1,8,0:0:0:0:
169,188,28062,1,2,0:0:0:0:
300,68,28264,2,0,P|380:45|432:87,1,123.75000377655,2|0,3:2|0:0,0:0:0:0:
458,116,28670,2,0,B|443:149|443:149|458:180|469:218,1,82.5000025177003,8|0,0:0|0:0,0:0:0:0:
322,351,29075,5,2,3:2:0:0:
379,218,29278,1,0,3:0:0:0:
477,316,29480,2,0,P|425:311|373:300,1,82.5000025177003,8|0,0:0|0:0,0:0:0:0:
201,286,29886,2,0,P|258:279|307:274,1,82.5000025177003,2|0,3:2|0:0,0:0:0:0:
168,197,30291,1,8,0:0:0:0:
32,337,30494,1,2,0:0:0:0:
0,248,30698,2,0,B|-11:204|-19:180|-19:180|11:111,1,123.75000377655,2|0,3:2|0:0,0:0:0:0:
68,98,31102,5,8,0:0:0:0:
228,162,31305,1,2,0:0:0:0:
110,35,31507,1,2,3:2:0:0:
160,200,31710,1,0,3:0:0:0:
187,29,31913,1,8,0:0:0:0:
90,171,32116,1,0,3:0:0:0:
238,86,32318,6,0,B|287:80|326:94|320:102|374:114|427:111,1,165.000005035401,2|8,3:2|0:0,0:0:0:0:
491,31,32926,1,0,0:0:0:0:
430,195,33129,1,8,0:3:0:0:
359,27,33332,1,4,0:3:0:0:
238,86,33535,2,0,P|185:95|135:94,1,82.5000025177003,8|0,0:0|0:0,0:0:0:0:
348,205,33940,6,0,P|405:196|445:194,1,82.5000025177003,6|0,3:2|0:0,0:0:0:0:
325,296,34345,1,8,0:0:0:0:
236,173,34548,1,2,0:0:0:0:
94,274,34751,2,0,P|169:319|219:283,1,123.75000377655,2|0,3:2|0:0,0:0:0:0:
244,249,35156,2,0,B|255:225|255:225|224:143,1,82.5000025177003,8|0,0:0|0:0,0:0:0:0:
108,30,35562,5,2,3:2:0:0:
161,173,35764,1,0,3:0:0:0:
284,58,35967,2,0,P|240:63|180:78,1,82.5000025177003,8|0,0:0|0:0,0:0:0:0:
369,151,36372,1,2,3:2:0:0:
424,33,36575,1,2,0:0:0:0:
454,220,36778,1,8,0:0:0:0:
488,112,36980,1,2,0:0:0:0:
308,231,37183,6,0,P|298:278|320:366,1,123.75000377655,6|0,3:2|0:0,0:0:0:0:
312,351,37589,2,0,L|410:334,1,82.5000025177003,8|0,0:0|0:0,0:0:0:0:
198,238,37994,2,0,L|87:224,1,82.5000025177003,2|0,3:2|0:0,0:0:0:0:
116,227,38399,1,8,0:0:0:0:
315,154,38602,2,0,L|426:134,1,82.5000025177003,0|0,3:2|0:0,0:0:0:0:
125,108,39007,2,0,L|236:88,1,82.5000025177003,2|8,0:2|0:0,0:0:0:0:
206,93,39413,1,2,0:0:0:0:
53,48,39616,1,0,3:0:0:0:
195,199,39818,5,12,2:2:0:0:
50,368,40021,2,0,P|29:320|88:250,1,123.75000377655,12|0,0:0|0:0,0:0:0:0:
136,267,40426,5,6,3:2:0:0:
68,153,40629,1,0,0:0:0:0:
211,211,40832,1,8,0:0:0:0:
311,94,41035,1,2,0:0:0:0:
370,218,41237,2,0,P|425:236|429:294,1,123.75000377655,2|0,3:2|0:0,0:0:0:0:
383,352,41643,2,0,B|355:367|355:367|306:350,1,82.5000025177003,8|0,0:0|0:0,0:0:0:0:
252,130,42048,5,2,3:2:0:0:
370,218,42251,1,0,3:0:0:0:
252,130,42453,2,0,P|174:129|135:125,1,82.5000025177003,8|0,0:0|0:0,0:0:0:0:
369,49,42859,2,0,P|447:50|486:54,1,82.5000025177003,2|0,3:2|0:0,0:0:0:0:
451,50,43264,1,8,0:0:0:0:
389,146,43467,1,2,0:0:0:0:
423,245,43670,2,0,P|361:253|299:257,1,123.75000377655,2|0,3:2|0:0,0:0:0:0:
237,215,44075,5,8,0:0:0:0:
97,260,44278,1,2,0:0:0:0:
184,142,44480,1,2,3:2:0:0:
184,289,44683,1,0,0:0:0:0:
97,170,44886,1,8,0:0:0:0:
237,215,45089,1,0,3:0:0:0:
367,117,45291,2,0,B|382:67|347:26|347:26|333:46|337:71,1,123.75000377655,2|0,3:2|0:0,0:0:0:0:
336,49,45697,2,0,P|396:61|434:39,1,82.5000025177003,8|2,0:0|0:0,0:0:0:0:
409,210,46102,5,0,3:0:0:0:
356,283,46305,1,0,3:0:0:0:
409,357,46507,1,8,0:0:0:0:
496,328,46710,1,2,0:0:0:0:
496,238,46913,2,0,P|496:184|504:133,1,82.5000025177003,6|0,3:2|0:0,0:0:0:0:
183,38,47318,5,8,0:0:0:0:
279,77,47521,1,2,0:0:0:0:
194,141,47724,2,0,P|146:159|73:101,1,123.75000377655,2|0,3:2|0:0,0:0:0:0:
36,78,48129,2,0,P|39:132|43:178,1,82.5000025177003,8|0,0:0|0:0,0:0:0:0:
26,358,48535,5,2,3:2:0:0:
193,289,48737,1,0,3:2:0:0:
109,230,48940,2,0,P|104:285|104:327,1,82.5000025177003,8|0,0:0|0:0,0:0:0:0:
331,361,49345,2,0,P|336:306|336:264,1,82.5000025177003,2|0,3:2|0:0,0:0:0:0:
279,195,49751,1,8,0:0:0:0:
359,124,49953,1,0,3:0:0:0:
287,32,50156,6,0,P|200:14|162:51,1,123.75000377655,6|0,3:2|0:0,0:0:0:0:
123,82,50562,2,0,B|111:112|111:112|127:146|123:183,1,82.5000025177003,8|0,0:0|0:0,0:0:0:0:
89,365,50967,2,0,P|56:319|69:275,1,82.5000025177003,2|0,3:2|0:0,0:0:0:0:
58,295,51372,1,8,0:0:0:0:
220,236,51575,2,0,P|216:289|207:337,1,82.5000025177003,2|0,0:0|3:0,0:0:0:0:
430,263,51980,5,8,0:3:0:0:
382,151,52183,1,4,0:3:0:0:
321,262,52386,1,4,0:3:0:0:
399,377,52589,2,0,P|410:323|421:279,1,82.5000025177003,6|0,3:2|0:0,0:0:0:0:
204,154,52994,2,0,P|218:226|223:264,1,82.5000025177003,6|0,3:2|0:0,0:0:0:0:
152,348,53399,6,0,P|108:365|48:302,1,127.50000243187,6|8,3:2|0:0,0:0:0:0:
50,319,54210,2,0,P|57:271|60:250,1,63.7500012159348,0|0,3:2|0:0,0:0:0:0:
107,190,54616,2,0,P|100:142|97:121,1,63.7500012159348,8|0,0:0|0:0,0:0:0:0:
50,64,55021,2,0,P|92:21|152:36,1,127.50000243187,0|8,3:0|0:0,0:0:0:0:
152,36,55629,1,2,0:0:0:0:
239,91,55832,2,0,P|281:85|316:67,1,63.7500012159348,2|0,3:2|0:0,0:0:0:0:
365,23,56237,2,0,P|394:34|426:37,1,63.7500012159348,8|0,0:0|0:0,0:0:0:0:
500,155,56643,5,0,3:0:0:0:
500,155,56845,1,0,3:0:0:0:
409,113,57048,2,0,L|397:205,1,63.7500012159348,8|0,0:0|0:0,0:0:0:0:
327,213,57453,2,0,P|332:272|340:360,1,127.50000243187,0|8,3:0|0:0,0:0:0:0:
417,372,58062,2,0,P|423:334|405:291,1,63.7500012159348,2|0,3:2|0:0,0:0:0:0:
259,309,58467,2,0,P|253:347|271:390,1,63.7500012159348,0|8,3:0|0:0,0:0:0:0:
259,370,58872,1,2,3:2:0:0:
132,303,59075,6,0,L|43:319,1,63.7500012159348,2|0,3:2|3:0,0:0:0:0:
182,224,59480,2,0,L|30:204,1,127.50000243187,8|0,0:0|3:0,0:0:0:0:
200,204,60291,5,8,0:0:0:0:
164,96,60494,1,2,0:0:0:0:
266,138,60697,2,0,P|346:143|402:123,1,127.50000243187,2|8,3:2|0:0,0:0:0:0:
411,51,61305,1,2,0:0:0:0:
499,135,61507,2,0,P|492:178|488:220,1,63.7500012159348,0|0,3:0|0:0,0:0:0:0:
417,235,61913,2,0,P|441:302|458:366,2,127.50000243187,8|2|8,0:0|3:2|0:0,0:0:0:0:
417,235,63129,6,0,P|376:239|326:247,1,63.7500012159348,2|0,3:2|3:0,0:0:0:0:
274,289,63535,2,0,P|233:285|183:277,1,63.7500012159348,8|0,0:0|0:0,0:0:0:0:
127,315,63940,2,0,P|120:274|154:176,1,127.50000243187,0|8,3:0|2:0,0:0:0:0:
218,124,64548,2,0,P|209:78|194:40,1,63.7500012159348,2|0,3:2|2:0,0:0:0:0:
127,130,64953,2,0,P|136:176|151:214,1,63.7500012159348,2|8,3:2|0:0,0:0:0:0:
220,245,65359,1,2,0:0:0:0:
291,187,65562,1,2,3:2:0:0:
401,195,65764,5,8,0:3:0:0:
341,337,65967,1,8,0:3:0:0:
291,187,66170,1,4,0:3:0:0:
431,296,66372,5,6,3:2:0:0:
251,263,66575,1,2,0:0:0:0:
431,296,66778,2,0,P|468:299|505:302,1,75,8|0,0:0|0:0,0:0:0:0:
177,337,67183,2,0,P|242:343|332:350,2,150,2|8|2,3:2|0:0|3:2,0:0:0:0:
16,262,68197,2,0,P|53:265|90:268,1,75,2|8,3:2|0:0,0:0:0:0:
180,223,68602,2,0,P|245:229|335:236,1,150,2|0,0:0|0:0,0:0:0:0:
474,301,69210,1,8,0:0:0:0:
364,376,69413,1,0,3:2:0:0:
405,161,69616,6,0,L|509:144,1,75,6|0,3:2|0:0,0:0:0:0:
255,248,70021,2,0,L|359:231,1,75,8|0,0:0|0:0,0:0:0:0:
103,169,70426,2,0,L|222:149,1,112.5,2|0,3:2|0:0,0:0:0:0:
276,110,70832,2,0,L|201:122,1,75,8|0,0:0|0:0,0:0:0:0:
60,254,71237,2,0,L|134:241,1,75,2|0,3:2|0:0,0:0:0:0:
334,71,71643,2,0,L|259:83,1,75,8|0,0:0|0:0,0:0:0:0:
374,266,72048,5,4,0:3:0:0:
268,227,72251,1,0,3:2:0:0:
393,376,72453,1,8,0:0:0:0:
460,192,72656,1,8,0:3:0:0:
268,331,72859,6,0,P|207:330|179:307,1,75,6|0,3:2|3:0,0:0:0:0:
374,266,73264,2,0,P|435:267|463:290,1,75,8|0,0:0|3:0,0:0:0:0:
248,249,73670,2,0,L|255:158,1,75,8|0,0:0|3:0,0:0:0:0:
113,368,74075,2,0,L|106:277,1,75,8|0,0:0|3:0,0:0:0:0:
33,98,74480,5,8,2:0:0:0:
208,149,74683,1,0,3:0:0:0:
55,182,74886,5,8,2:0:0:0:
232,142,75089,1,0,3:0:0:0:
145,47,75291,5,8,2:2:0:0:
355,109,75494,1,0,3:0:0:0:
259,139,75697,5,8,2:3:0:0:
386,106,75899,1,4,0:3:0:0:
306,343,76102,5,8,2:0:0:0:
253,216,76305,1,0,3:0:0:0:
210,361,76507,5,8,0:0:0:0:
256,231,76710,1,0,3:0:0:0:
253,216,76812,1,0,3:0:0:0:
250,201,76913,1,8,0:3:0:0:
374,306,77116,1,6,0:3:0:0:
139,267,77318,1,4,3:0:0:0:
66,313,77521,6,0,B|112:337|229:274|149:257|332:213|373:315,1,337.499989700318,6|0,3:2|3:0,0:0:0:0:
414,164,79751,1,8,0:0:0:0:
326,379,79953,1,4,0:3:0:0:
166,198,80156,6,0,P|151:142|185:85,1,112.5,6|0,3:2|0:0,0:0:0:0:
236,52,80562,2,0,P|287:86|344:68,1,112.5,6|0,3:2|0:0,0:0:0:0:
387,18,80967,2,0,B|355:120|406:73|372:213,1,172.500003290176,6|8,3:2|0:0,0:0:0:0:
478,366,81575,6,0,P|485:312|400:263,1,129.375002467632,2|0,3:2|0:0,0:0:0:0:
373,303,81980,1,0,3:0:0:0:
256,195,82183,1,8,0:0:0:0:
205,353,82386,1,2,3:2:0:0:
138,313,82589,2,0,P|120:279|123:210,1,86.2500016450882,2|0,3:2|3:0,0:0:0:0:
265,65,82994,2,0,L|254:211,1,129.375002467632,8|0,0:0|0:0,0:0:0:0:
316,244,83399,2,0,P|380:247|416:217,1,86.2500016450882,2|0,3:2|0:0,0:0:0:0:
175,97,83805,2,0,P|121:114|27:51,2,172.500003290176,8|0|8,0:0|3:0|0:0,0:0:0:0:
81,331,84818,6,0,P|117:292|218:290,1,129.375002467632,2|0,3:2|0:0,0:0:0:0:
241,338,85224,1,0,3:0:0:0:
405,251,85426,2,0,P|400:188|389:124,1,86.2500016450882,8|0,0:0|0:0,0:0:0:0:
329,339,85832,1,2,3:2:0:0:
499,251,86035,1,0,3:2:0:0:
289,167,86237,2,0,P|227:183|152:203,1,129.375002467632,8|0,0:0|0:0,0:0:0:0:
90,197,86643,2,0,P|77:130|70:87,1,86.2500016450882,2|0,3:2|3:0,0:0:0:0:
18,332,87048,2,0,P|64:377|139:356,1,129.375002467632,8|0,0:0|0:0,0:0:0:0:
190,308,87453,6,0,B|203:265|203:265|197:222|187:182|187:182|202:128,1,172.500003290176,6|8,3:2|0:0,0:0:0:0:
338,44,88062,2,0,P|392:18|464:48,1,129.375002467632,2|0,3:2|0:0,0:0:0:0:
501,102,88467,1,0,3:0:0:0:
382,206,88670,2,0,P|339:215|285:218,1,86.2500016450882,10|0,0:0|0:0,0:0:0:0:
396,366,89075,2,0,P|410:327|434:275,1,86.2500016450882,2|0,3:2|3:0,0:0:0:0:
247,305,89480,2,0,P|280:344|305:383,1,86.2500016450882,10|0,0:0|0:0,0:0:0:0:
164,296,89886,2,0,B|170:242|212:208|215:235|242:193|241:119,1,172.500003290176,2|8,3:2|0:0,0:0:0:0:
239,146,90494,1,8,0:3:0:0:
185,41,90697,6,0,L|12:72,1,172.500003290176,6|8,3:2|0:0,0:0:0:0:
183,253,91305,2,0,L|352:222,1,172.500003290176,2|0,3:2|3:0,0:0:0:0:
491,345,91913,2,0,B|453:363|453:363|396:330,1,86.2500016450882,8|8,0:0|0:3,0:0:0:0:
325,41,92318,5,4,0:3:0:0:
394,118,92521,1,4,0:3:0:0:
352,222,92724,1,4,0:3:0:0:
283,145,92927,1,4,0:3:0:0:
18,285,93129,6,0,B|63:296|81:302|81:302|107:282|135:262,1,129.375002467632,6|0,3:2|0:0,0:0:0:0:
203,297,93535,2,0,B|217:255|206:222|200:236|186:199|214:138,1,129.375002467632,6|0,3:2|0:0,0:0:0:0:
142,123,93940,2,0,P|121:54|15:62,1,172.500003290176,6|8,3:2|0:0,0:0:0:0:
202,169,94548,6,0,P|281:156|348:148,1,129.375002467632,2|0,3:2|0:0,0:0:0:0:
386,94,94953,1,0,3:0:0:0:
497,176,95156,2,0,P|452:183|407:189,1,86.2500016450882,8|0,0:0|0:0,0:0:0:0:
219,253,95562,1,0,3:0:0:0:
311,302,95764,1,0,3:0:0:0:
202,169,95967,2,0,P|210:211|219:253,1,86.2500016450882,8|0,0:0|0:0,0:0:0:0:
115,330,96372,2,0,B|72:370|21:341|21:341|0:285,1,129.375002467632,2|0,3:2|0:0,0:0:0:0:
46,252,96778,2,0,B|60:220|60:220|24:152,1,86.2500016450882,8|0,0:0|3:0,0:0:0:0:
235,87,97183,5,2,3:2:0:0:
87,9,97386,1,8,0:0:0:0:
87,9,97487,1,8,0:0:0:0:
87,9,97589,1,4,0:3:0:0:
221,177,97791,6,0,B|281:183|308:157|290:147|354:120|400:132,1,172.500003290176,6|0,3:2|3:0,0:0:0:0:
512,201,98399,1,8,0:0:0:0:
471,60,98602,1,0,3:2:0:0:
333,274,98805,6,0,P|283:266|222:259,1,86.2500016450882,6|0,3:2|0:0,0:0:0:0:
357,368,99210,2,0,P|307:360|246:353,1,86.2500016450882,8|0,0:0|3:0,0:0:0:0:
53,322,99616,2,0,P|99:342|173:276,1,129.375002467632,6|0,3:2|0:0,0:0:0:0:
128,240,100021,1,8,2:0:0:0:
206,146,100224,1,0,3:0:0:0:
213,137,100325,1,0,3:0:0:0:
222,125,100426,6,0,P|149:137|25:164,1,172.500003290176,6|8,3:2|0:0,0:0:0:0:
319,115,101035,2,0,P|234:97|149:82,1,172.500003290176,2|0,3:2|3:2,0:0:0:0:
243,15,101643,1,8,0:0:0:0:
330,198,101845,1,2,0:0:0:0:
437,40,102048,5,0,3:0:0:0:
319,115,102251,1,0,3:0:0:0:
427,247,102453,2,0,P|438:189|383:144,1,129.375002467632,8|0,0:0|0:0,0:0:0:0:
330,198,102859,2,0,B|308:255|321:298|321:298|342:304|359:313,1,129.375002467632,2|2,3:2|0:0,0:0:0:0:
402,359,103264,1,8,0:0:0:0:
237,285,103467,1,8,0:3:0:0:
330,198,103670,6,0,B|377:195|412:219|412:219|463:193|465:154,1,172.500003290176,2|8,3:2|0:0,0:0:0:0:
190,93,104278,2,0,L|-9:128,1,172.500003290176,6|2,3:2|0:0,0:0:0:0:
92,10,104886,1,8,0:0:0:0:
126,198,105089,1,2,0:0:0:0:
56,271,105291,5,2,3:2:0:0:
240,338,105494,1,8,0:3:0:0:
434,248,105697,1,4,0:3:0:0:
250,181,105900,1,4,0:3:0:0:
337,266,106102,5,8,0:3:0:0:
360,117,106305,1,8,0:3:0:0:
502,187,106507,1,4,0:3:0:0:
479,336,106710,1,4,0:3:0:0:
426,196,106913,6,0,P|435:130|438:89,1,82.5000025177003,6|0,3:2|0:0,0:0:0:0:
303,20,107318,1,8,0:0:0:0:
239,77,107521,1,2,0:0:0:0:
69,16,107724,2,0,P|130:-4|181:45,1,123.75000377655,2|0,3:2|0:0,0:0:0:0:
149,96,108129,2,0,B|132:129|132:129|146:161|161:200,1,82.5000025177003,8|0,0:0|0:0,0:0:0:0:
96,381,108535,5,2,3:2:0:0:
190,254,108737,1,2,0:0:0:0:
45,231,108940,2,0,P|87:267|202:241,1,165.000005035401,8|0,0:0|3:0,0:0:0:0:
235,165,109548,1,0,3:0:0:0:
327,128,109751,1,8,0:0:0:0:
410,179,109953,1,0,3:0:0:0:
416,280,110156,6,0,P|401:341|397:381,1,82.5000025177003,2|0,3:2|0:0,0:0:0:0:
493,336,110562,1,8,0:0:0:0:
315,295,110764,1,2,0:0:0:0:
487,184,110967,1,2,3:2:0:0:
289,148,111170,1,0,3:0:0:0:
389,104,111372,1,8,0:0:0:0:
371,213,111575,1,2,0:0:0:0:
191,123,111778,6,0,B|104:126|117:166|12:161,1,165.000005035401,2|8,3:2|0:0,0:0:0:0:
161,39,112386,1,2,0:0:0:0:
104,235,112589,1,0,3:0:0:0:
16,58,112791,1,2,0:0:0:0:
191,123,112994,2,0,P|198:161|199:228,1,82.5000025177003,12|0,0:0|0:0,0:0:0:0:
446,188,113399,6,0,P|451:133|465:64,1,123.75000377655,6|0,3:2|0:0,0:0:0:0:
464,65,113805,1,8,0:0:0:0:
384,11,114007,1,2,0:0:0:0:
299,158,114210,2,0,P|261:102|207:102,1,123.75000377655,2|0,3:2|0:0,0:0:0:0:
159,160,114616,2,0,L|175:252,1,82.5000025177003,8|0,0:0|0:0,0:0:0:0:
39,381,115021,5,2,3:2:0:0:
99,227,115224,1,0,3:0:0:0:
226,348,115426,2,0,P|282:358|334:331,1,82.5000025177003,8|0,0:0|0:0,0:0:0:0:
489,245,115832,2,0,P|433:235|381:262,1,82.5000025177003,2|0,3:2|0:0,0:0:0:0:
508,346,116237,5,8,0:0:0:0:
365,138,116440,1,0,3:0:0:0:
226,348,116643,2,0,B|180:375|140:370|140:370|108:342,1,123.75000377655,6|0,3:2|0:0,0:0:0:0:
68,290,117048,2,0,P|77:230|81:189,1,82.5000025177003,8|0,0:0|0:0,0:0:0:0:
222,34,117453,2,0,P|213:94|209:135,1,82.5000025177003,2|0,3:2|0:0,0:0:0:0:
400,258,117859,1,8,0:0:0:0:
305,292,118062,6,0,P|309:251|316:210,1,82.5000025177003,2|0,3:2|0:0,0:0:0:0:
486,236,118467,2,0,P|481:276|474:317,1,82.5000025177003,2|8,3:2|0:0,0:0:0:0:
390,367,118872,1,2,0:0:0:0:
268,147,119075,6,0,P|208:139|159:175,1,123.75000377655,6|0,3:2|0:0,0:0:0:0:
106,229,119480,2,0,B|102:272|122:291|130:279|156:306|143:359,1,123.75000377655,6|0,3:2|0:0,0:0:0:0:
145,340,119886,2,0,P|223:350|294:363,1,127.50000243187,6|8,3:2|0:0,0:0:0:0:
445,290,120697,5,0,3:0:0:0:
485,216,120899,1,0,3:0:0:0:
445,290,121102,2,0,P|451:339|456:363,1,63.7500012159348,8|0,0:0|0:0,0:0:0:0:
365,250,121507,2,0,P|369:204|356:114,1,127.50000243187,2|8,3:2|0:0,0:0:0:0:
300,65,122116,1,2,0:0:0:0:
365,13,122318,2,0,P|400:5|439:12,1,63.7500012159348,2|0,3:2|0:0,0:0:0:0:
300,65,122724,2,0,P|247:77|198:52,1,95.6250018239022,8|0,0:0|0:0,0:0:0:0:
154,16,123129,5,0,3:0:0:0:
129,104,123332,1,0,3:0:0:0:
173,186,123535,1,8,0:0:0:0:
173,186,123940,2,0,P|111:177|59:211,1,127.50000243187,0|8,3:2|0:0,0:0:0:0:
230,257,124548,2,0,P|282:222|343:231,1,127.50000243187,0|0,3:0|3:0,0:0:0:0:
411,287,125156,2,0,L|402:372,1,63.7500012159348,8|0,0:0|0:0,0:0:0:0:
489,188,125562,5,2,3:2:0:0:
403,130,125764,1,0,3:2:0:0:
472,47,125967,2,0,B|494:17|494:17|489:65,1,63.7500012159348,10|0,0:0|0:0,0:0:0:0:
403,130,126372,6,0,B|361:132|332:110|352:111|312:91|256:108,1,127.50000243187,2|8,3:2|0:0,0:0:0:0:
172,187,126980,1,2,0:0:0:0:
116,121,127183,2,0,P|123:68|128:32,1,63.7500012159348,2|0,3:2|0:0,0:0:0:0:
41,157,127589,2,0,L|60:280,1,95.6250018239022,8|0,0:0|0:0,0:0:0:0:
55,251,127994,6,0,P|84:287|118:297,1,63.7500012159348,2|0,3:2|0:0,0:0:0:0:
175,260,128399,2,0,P|191:215|182:181,1,63.7500012159348,8|0,0:0|0:0,0:0:0:0:
126,146,128805,2,0,P|79:152|53:177,1,63.7500012159348,0|0,3:0|0:0,0:0:0:0:
175,260,129210,2,0,L|256:267,1,63.7500012159348,8|0,0:0|0:0,0:0:0:0:
336,291,129616,6,0,L|400:297,1,63.7500012159348,2|0,3:2|0:0,0:0:0:0:
482,244,130021,2,0,P|498:198|485:106,2,127.50000243187,8|0|8,0:0|3:0|0:0,0:0:0:0:
400,297,131035,2,0,P|388:330|386:360,1,63.7500012159348,2|0,0:0|3:0,0:0:0:0:
132,215,131440,5,8,0:3:0:0:
62,285,131643,1,8,0:3:0:0:
159,312,131845,1,4,0:3:0:0:
230,246,132048,1,8,0:3:0:0:
328,215,132251,1,8,0:3:0:0:
398,285,132454,1,4,0:3:0:0:
301,312,132656,1,4,0:3:0:0:
180,91,132859,5,6,3:2:0:0:
321,135,133062,1,2,3:2:0:0:
180,91,133264,2,0,L|64:105,1,112.5,8|0,0:0|0:0,0:0:0:0:
44,178,133670,2,0,L|155:164,1,112.5,0|0,3:0|0:0,0:0:0:0:
176,193,134075,2,0,L|101:201,1,75,8|0,0:0|0:0,0:0:0:0:
208,346,134480,5,2,3:2:0:0:
304,283,134683,2,0,L|378:274,1,75,2|8,0:0|0:0,0:0:0:0:
83,233,135089,2,0,L|231:215,1,150,2|0,0:0|0:0,0:0:0:0:
369,138,135697,1,8,0:0:0:0:
231,215,135899,1,0,3:0:0:0:
30,112,136102,6,0,L|141:125,1,112.5,6|0,3:2|0:0,0:0:0:0:
194,72,136507,2,0,L|305:85,1,112.5,8|0,0:0|0:0,0:0:0:0:
333,59,136913,2,0,L|258:50,1,75,0|0,3:2|0:0,0:0:0:0:
443,146,137318,2,0,L|368:137,1,75,8|0,0:0|0:0,0:0:0:0:
155,205,137724,2,0,L|229:213,1,75,2|0,3:2|0:0,0:0:0:0:
265,292,138129,2,0,L|340:301,1,75,8|0,0:0|0:0,0:0:0:0:
44,192,138535,2,0,L|155:205,1,112.5,2|0,3:2|0:0,0:0:0:0:
218,163,138940,1,8,0:3:0:0:
265,292,139143,1,4,0:3:0:0:
479,121,139345,6,0,P|469:56|463:23,1,75,6|0,3:2|0:0,0:0:0:0:
218,163,139751,2,0,P|228:98|234:65,1,75,8|0,0:0|3:0,0:0:0:0:
450,277,140156,2,0,P|440:212|434:179,1,75,8|0,0:0|3:0,0:0:0:0:
117,293,140562,2,0,P|127:228|133:195,1,75,8|0,0:0|3:0,0:0:0:0:
388,335,140967,5,10,2:0:0:0:
224,283,141170,1,0,3:0:0:0:
457,228,141372,5,10,0:0:0:0:
219,312,141575,1,0,3:0:0:0:
455,192,141778,5,10,0:0:0:0:
225,158,141980,1,0,3:0:0:0:
435,81,142183,5,10,0:0:0:0:
210,134,142386,1,0,3:0:0:0:
460,57,142589,5,10,0:0:0:0:
315,173,142791,1,0,3:0:0:0:
200,38,142994,1,8,0:0:0:0:
97,169,143197,1,0,3:0:0:0:
98,181,143298,1,0,3:0:0:0:
100,195,143399,1,8,0:3:0:0:
53,252,143602,1,8,0:3:0:0:
151,304,143805,1,4,0:3:0:0:
192,364,144007,1,6,3:2:0:0:
256,192,144109,12,0,146541,0:0:0:0:
158,113,146643,6,0,B|140:137|125:156|125:156|138:187|150:236,1,112.5,6|0,3:2|0:0,0:0:0:0:
108,277,147048,2,0,B|48:276|65:312|-28:309,1,112.5,6|0,3:2|0:0,0:0:0:0:
165,330,147453,2,0,B|278:324|226:371|356:367,1,172.500003290176,6|8,3:2|0:0,0:0:0:0:
473,184,148062,6,0,P|486:104|426:62,1,129.375002467632,2|0,3:2|0:0,0:0:0:0:
396,107,148467,1,0,3:0:0:0:
231,29,148670,1,8,0:0:0:0:
158,201,148872,1,2,0:0:0:0:
41,149,149075,2,0,P|40:88|55:60,1,86.2500016450882,2|0,3:2|3:0,0:0:0:0:
253,172,149480,2,0,P|265:235|235:320,1,129.375002467632,8|0,0:0|0:0,0:0:0:0:
249,297,149886,2,0,L|149:306,1,86.2500016450882,0|0,3:0|0:0,0:0:0:0:
357,237,150291,2,0,L|510:254,1,129.375002467632,8|0,0:0|0:0,0:0:0:0:
485,251,150697,6,0,P|510:205|497:83,1,172.500003290176,2|8,3:2|0:0,0:0:0:0:
251,0,151305,2,0,P|256:47|262:109,1,86.2500016450882,2|0,3:2|0:0,0:0:0:0:
272,171,151710,1,2,3:2:0:0:
74,96,151913,2,0,P|4:107|-26:122,1,86.2500016450882,8|0,0:0|0:0,0:0:0:0:
154,311,152318,5,2,3:2:0:0:
198,209,152521,1,0,3:0:0:0:
154,311,152724,2,0,P|112:319|71:305,1,86.2500016450882,8|0,0:0|0:0,0:0:0:0:
374,360,153129,5,2,3:2:0:0:
327,193,153332,1,0,3:0:0:0:
375,359,153535,2,0,B|417:373|417:373|457:329,1,86.2500016450882,10|0,0:0|3:0,0:0:0:0:
202,241,153940,6,0,P|111:261|35:191,1,172.500003290176,6|8,3:2|0:0,0:0:0:0:
237,156,154548,2,0,P|328:176|404:106,1,172.500003290176,2|0,3:2|3:0,0:0:0:0:
180,10,155156,2,0,L|173:103,1,86.2500016450882,8|0,0:0|0:0,0:0:0:0:
271,26,155562,1,2,3:2:0:0:
93,68,155764,1,0,3:0:0:0:
237,156,155967,2,0,P|244:204|255:269,1,86.2500016450882,10|0,0:0|0:0,0:0:0:0:
36,367,156372,2,0,P|0:319|29:245,1,129.375002467632,2|0,3:2|0:0,0:0:0:0:
90,229,156778,2,0,B|121:260|121:260|114:301,1,86.2500016450882,8|0,0:0|3:0,0:0:0:0:
333,260,157183,6,0,L|507:284,1,172.500003290176,6|8,3:2|0:0,0:0:0:0:
171,140,157791,2,0,L|0:163,1,172.500003290176,0|2,3:0|3:2,0:0:0:0:
79,63,158399,1,8,0:0:0:0:
102,239,158602,1,0,0:0:0:0:
265,149,158805,5,8,0:3:0:0:
259,137,158906,1,8,0:3:0:0:
293,63,159109,1,4,0:3:0:0:
295,52,159210,1,4,0:3:0:0:
377,10,159413,1,4,0:3:0:0:
476,43,159616,6,0,B|491:74|511:106|511:106|491:136|480:185,1,129.375002467632,6|0,3:2|0:0,0:0:0:0:
422,192,160021,2,0,B|413:236|426:259|434:242|456:272|439:352,1,129.375002467632,6|0,3:2|0:0,0:0:0:0:
384,362,160426,2,0,P|305:325|205:356,1,172.500003290176,6|8,3:2|0:0,0:0:0:0:
3,160,161035,6,0,P|56:192|132:176,1,129.375002467632,2|0,3:2|0:0,0:0:0:0:
182,138,161440,1,0,3:0:0:0:
467,220,161643,2,0,P|408:226|345:166,1,129.375002467632,8|0,0:0|0:0,0:0:0:0:
311,127,162048,1,2,3:2:0:0:
416,54,162251,1,2,2:2:0:0:
221,109,162453,2,0,P|241:195|245:232,1,86.2500016450882,8|0,0:0|0:0,0:0:0:0:
51,374,162859,2,0,P|31:312|24:261,1,86.2500016450882,2|0,3:2|0:0,0:0:0:0:
89,220,163264,1,8,0:0:0:0:
170,270,163467,1,0,3:0:0:0:
469,110,163670,6,0,L|383:100,1,86.2500016450882,2|8,3:2|0:0,0:0:0:0:
321,62,163974,1,8,0:0:0:0:
303,43,164075,1,8,0:0:0:0:
3,224,164278,2,0,B|52:244|87:215|87:215|100:169|174:156,1,172.500003290176,6|0,2:2|3:0,2:0:0:0:
292,238,164886,1,8,0:0:0:0:
429,142,165089,1,2,3:2:0:0:
258,0,165291,6,0,P|233:53|248:110,1,86.2500016450882,2|0,3:2|0:0,0:0:0:0:
386,234,165697,2,0,L|480:222,1,86.2500016450882,8|0,0:0|3:0,0:0:0:0:
181,342,166102,2,0,B|103:358|55:301|55:301|65:281|88:254,1,172.500003290176,2|8,3:2|0:0,0:0:0:0:
207,187,166710,1,8,0:3:0:0:
217,203,166812,1,8,0:3:0:0:
221,221,166913,6,0,P|216:165|247:40,1,172.500003290176,6|8,3:2|0:0,0:0:0:0:
479,211,167521,2,0,P|484:267|453:392,1,172.500003290176,2|0,3:2|3:0,0:0:0:0:
261,279,168129,1,8,0:0:0:0:
395,245,168332,1,2,0:0:0:0:
343,308,168535,5,2,3:2:0:0:
297,167,168737,1,0,3:0:0:0:
388,48,168940,2,0,P|436:36|492:52,1,86.2500016450882,8|0,0:0|3:0,0:0:0:0:
297,167,169345,2,0,B|244:172|207:153|221:147|166:139|116:148,1,172.500003290176,2|8,3:2|0:0,0:0:0:0:
44,194,169953,1,2,3:2:0:0:
309,304,170156,6,0,P|363:317|451:243,1,172.500003290176,6|8,3:2|0:0,0:0:0:0:
231,71,170764,2,0,L|59:45,1,172.500003290176,6|0,3:2|3:0,0:0:0:0:
305,3,171372,1,8,0:0:0:0:
198,167,171575,1,2,0:0:0:0:
426,160,171778,5,2,3:2:0:0:
358,106,171980,1,8,0:3:0:0:
335,276,172183,1,4,0:3:0:0:
413,244,172386,1,8,0:3:0:0:
279,139,172589,1,8,0:3:0:0:
267,223,172791,1,4,0:3:0:0:
66,201,172994,1,4,0:3:0:0:
116,285,173197,1,4,0:3:0:0:
183,59,173394,6,0,B|125:61|92:84|9:92,1,165.000005035401,6|8,3:2|0:0,0:0:0:0:
21,90,174002,1,2,0:0:0:0:
48,5,174205,1,0,3:0:0:0:
326,218,174611,5,8,0:0:0:0:
378,90,174813,1,2,0:0:0:0:
492,227,175016,2,0,P|437:269|371:252,1,123.75000377655,2|0,3:2|0:0,0:0:0:0:
326,218,175421,2,0,L|231:229,1,82.5000025177003,8|0,0:0|0:0,0:0:0:0:
0,308,175827,2,0,P|55:350|121:333,1,123.75000377655,2|0,3:2|0:0,0:0:0:0:
174,367,176232,2,0,L|255:357,1,82.5000025177003,8|0,0:0|0:0,0:0:0:0:
479,226,176638,6,0,P|458:183|504:73,2,165.000005035401,2|8|0,3:2|0:0|3:0,0:0:0:0:
479,226,177854,1,10,0:0:0:0:
391,346,178057,1,0,0:0:0:0:
273,264,178259,6,0,P|266:215|256:158,1,82.5000025177003,2|0,3:2|0:0,0:0:0:0:
206,130,178563,2,0,P|211:89|218:48,1,82.5000025177003,2|0,0:0|0:0,0:0:0:0:
276,0,178867,1,2,0:0:0:0:
152,185,179070,2,0,B|52:159|103:143|1:120,1,165.000005035401,2|8,3:2|0:0,0:0:0:0:
356,328,179881,6,0,P|408:282|519:287,2,165.000005035401,2|8|0,3:2|0:0|3:0,0:0:0:0:
356,328,181097,1,8,0:0:0:0:
228,244,181300,1,2,0:0:0:0:
86,342,181502,2,0,P|95:261|108:152,1,165.000005035401,2|8,3:2|0:0,0:0:0:0:
0,233,182111,1,2,0:0:0:0:
179,364,182313,2,0,P|256:365|280:351,1,82.5000025177003,2|0,3:2|0:0,0:0:0:0:
382,238,182719,2,0,P|422:233|476:249,1,82.5000025177003,8|2,0:0|0:0,0:0:0:0:
180,116,183124,6,0,P|113:118|90:229,3,165.000005035401,2|8|0|8,3:2|0:0|3:0|0:0,0:0:0:0:
132,337,184543,1,2,0:0:0:0:
127,348,184644,1,2,0:0:0:0:
118,360,184746,2,0,B|59:381|59:381|-15:337,2,123.75000377655,0|2|0,3:0|0:0|3:0,0:0:0:0:
246,292,185557,2,0,P|237:252|232:192,1,82.5000025177003,6|0,3:2|0:0,0:0:0:0:
410,272,185962,2,0,P|419:312|424:372,1,82.5000025177003,6|0,3:2|0:0,0:0:0:0:
308,96,186367,6,0,B|367:88|385:134|393:120|415:165|489:147,1,165.000005035401,6|8,3:2|0:0,0:0:0:0:
249,27,186975,2,0,P|194:89|109:66,1,165.000005035401,2|2,0:0|0:0,0:0:0:0:
29,140,187584,2,0,L|16:41,1,82.5000025177003,8|0,0:0|0:0,0:0:0:0:
12,301,187989,6,0,P|71:337|112:326,1,82.5000025177003,2|0,3:2|0:0,0:0:0:0:
173,287,188394,1,8,0:0:0:0:
202,269,188530,1,2,0:0:0:0:
238,269,188665,1,2,0:0:0:0:
268,286,188800,2,0,P|271:329|278:374,1,82.5000025177003,0|0,3:2|0:0,0:0:0:0:
409,378,189205,2,0,P|406:302|388:227,1,123.75000377655,8|0,0:0|0:0,0:0:0:0:
359,190,189611,5,4,2:3:0:0:
448,29,189813,1,8,0:0:0:0:
269,79,190016,1,8,0:0:0:0:
459,124,190219,6,0,P|402:111|265:77,1,165.000005035401,6|0,3:2|3:0,2:0:0:0:
188,169,190827,1,8,0:0:0:0:
63,100,191030,1,0,3:0:0:0:
137,0,191232,2,0,P|149:57|155:88,1,82.5000025177003,2|0,3:2|0:0,0:0:0:0:
14,266,191638,2,0,P|23:212|29:174,1,82.5000025177003,8|0,0:0|3:0,0:0:0:0:
220,272,192043,5,6,3:2:0:0:
70,339,192246,1,2,0:0:0:0:
145,174,192448,1,8,2:0:0:0:
232,359,192651,1,0,3:0:0:0:
460,279,192854,6,0,P|463:207|407:122,1,165.000005035401,6|8,3:2|0:0,0:2:0:0:
142,267,193462,2,0,P|139:195|195:110,1,165.000005035401,0|0,3:2|3:0,0:0:0:0:
293,268,194070,2,0,P|283:361|279:377,1,82.5000025177003,8|2,0:0|0:0,0:0:0:0:
279,361,194374,1,2,0:0:0:0:
268,366,194475,6,0,L|158:350,1,82.5000025177003,0|0,3:2|3:0,0:0:0:0:
385,188,194881,2,0,L|221:211,2,165.000005035401,8|0|8,0:0|3:0|0:0,0:0:0:0:
409,113,195894,1,2,0:0:0:0:
343,302,196097,5,0,3:0:0:0:
222,124,196300,1,8,0:3:0:0:
196,98,196401,1,0,0:0:0:0:
160,83,196502,1,0,3:0:0:0:
120,87,196604,1,0,0:0:0:0:
89,110,196705,6,0,L|106:181,1,41.2500012588501,6|0,3:2|0:0,0:0:0:0:
145,317,196908,1,2,0:0:0:0:
124,348,197009,1,2,0:0:0:0:
82,358,197111,1,0,3:0:0:0:
48,338,197212,1,0,0:0:0:0:
34,298,197313,1,8,0:0:0:0:
40,290,197415,1,0,0:0:0:0:
47,280,197516,1,0,3:0:0:0:
56,269,197617,1,0,0:0:0:0:
68,256,197719,5,2,0:0:0:0:
90,224,197820,1,2,0:0:0:0:
85,181,197921,1,8,0:3:0:0:
52,154,198023,1,8,0:3:0:0:
41,109,198124,1,4,0:3:0:0:
65,62,198225,1,2,0:0:0:0:
109,44,198327,1,8,0:3:0:0:
155,54,198428,1,0,0:0:0:0:
176,99,198530,5,4,0:3:0:0:
177,111,198631,1,4,0:3:0:0:
173,124,198732,1,8,0:3:0:0:
162,134,198834,1,8,0:3:0:0:
161,170,198935,1,8,0:3:0:0:
191,206,199036,1,8,0:3:0:0:
239,206,199138,2,0,L|293:190,1,41.2500012588501,4|0,3:3|0:0,0:0:0:0:
374,210,199340,6,0,B|290:188|203:289|279:279|214:357|123:353,1,292.499986610413,6|0,3:2|0:0,0:0:0:0:
203,100,211694,5,8,0:3:0:0:
38,137,211897,1,4,0:3:0:0:
119,180,212100,1,4,0:3:0:0:
269,248,212302,1,6,3:2:0:0:
269,248,212719,5,2,3:2:0:0:
331,197,212921,1,0,0:0:0:0:
403,238,213124,2,0,P|439:232|504:285,2,112.500004291535,2|0|0,3:2|3:0|3:0,0:0:0:0:
195,358,214340,5,2,0:0:0:0:
128,312,214543,1,2,0:0:0:0:
173,232,214744,2,0,P|164:187|182:115,1,112.500004291535,2|0,3:2|3:0,0:0:0:0:
177,122,215352,1,2,0:0:0:0:
123,60,215555,1,0,3:0:0:0:
383,133,215961,5,0,3:0:0:0:
436,71,216164,1,2,0:0:0:0:
361,32,216366,2,0,P|314:27|238:13,1,112.500004291535,0|0,3:0|3:0,0:0:0:0:
249,15,216975,1,2,0:0:0:0:
184,79,217178,2,0,P|111:86|57:106,2,112.500004291535,2|0|0,3:2|3:0|3:0,0:0:0:0:
243,130,218190,1,2,0:0:0:0:
190,191,218394,2,2,P|183:229|175:285,1,84.3750032186509,2|0,3:2|0:3,0:2:0:0:
178,289,218798,1,2,3:2:0:0:
415,369,219203,5,0,3:2:0:0:
466,299,219406,1,2,0:0:0:0:
408,241,219609,2,0,P|359:240|328:251,1,56.2500021457673,2|0,3:2|0:0,0:0:0:0:
286,294,220014,2,0,P|237:307|165:286,1,112.500004291535,2|0,3:2|3:0,0:0:0:0:
121,233,220622,1,2,0:0:0:0:
198,195,220825,2,0,P|200:159|192:130,1,56.2500021457673,2|0,3:2|0:0,0:0:0:0:
118,177,221230,2,0,P|116:213|124:242,1,56.2500021457673,2|0,3:2|0:0,0:0:0:0:
215,187,221636,2,0,P|217:151|209:122,1,56.2500021457673,2|0,3:2|0:0,0:0:0:0:
118,40,222041,5,6,3:2:0:0:
425,91,224473,5,0,3:0:0:0:
478,229,224879,1,0,3:0:0:0:
375,334,225284,1,6,3:2:0:0:
16,271,237446,6,0,L|120:286,1,84.3750032186509,0|0,3:0|0:0,0:0:0:0:
147,333,237852,2,0,L|244:324,1,84.3750032186509,0|0,3:0|0:0,0:0:0:0:
271,266,238257,2,0,L|402:283,1,112.500004291535,6|8,3:2|0:3,0:0:0:0:
493,220,238865,2,0,P|499:176|494:142,1,56.2500021457673,0|0,3:2|0:0,0:0:0:0:
498,164,239271,1,4,0:3:0:0:
423,43,239473,2,0,P|417:87|422:121,1,56.2500021457673,8|0,0:3|0:0,0:0:0:0:
417,98,239879,5,0,3:0:0:0:
334,159,240082,1,0,3:0:0:0:
244,101,240284,2,0,L|118:91,1,112.500004291535,8|4,0:3|2:3,0:0:0:0:
131,92,240892,1,0,0:0:0:0:
67,153,241095,2,0,L|-6:164,2,56.2500021457673,8|0|0,0:3|3:0|3:0,0:0:0:0:
404,308,241703,5,8,0:0:0:0:
125,219,241906,1,8,0:0:0:0:
404,308,242109,2,0,P|413:220|375:117,1,172.500003290176,6|0,3:2|3:0,0:0:0:0:
234,71,242717,1,8,0:0:0:0:
297,239,242919,1,2,0:0:0:0:
365,31,243122,5,6,3:2:0:0:
214,158,243325,1,0,3:0:0:0:
44,86,243528,2,0,P|37:39|33:-1,1,86.2500016450882,8|0,0:0|0:0,0:0:0:0:
215,154,243933,2,0,P|203:251|193:314,1,129.375002467632,6|0,3:2|0:0,0:0:0:0:
137,328,244338,2,0,P|91:338|34:354,1,86.2500016450882,8|0,0:0|3:0,0:0:0:0:
330,177,244744,6,0,P|430:224|492:180,1,172.500003290176,6|8,3:2|0:0,0:0:0:0:
181,113,245352,2,0,L|4:143,1,172.500003290176,2|0,3:2|3:0,0:0:0:0:
149,19,245960,1,8,0:0:0:0:
116,217,246163,1,2,0:0:0:0:
24,34,246365,1,2,3:2:0:0:
238,148,246568,1,0,3:0:0:0:
7,270,246771,5,8,0:0:0:0:
486,168,247176,1,0,3:0:0:0:
147,76,247582,1,8,0:0:0:0:
326,43,247784,1,2,0:0:0:0:
168,263,247987,6,0,P|172:212|179:170,1,86.2500016450882,2|0,3:2|3:0,0:0:0:0:
237,108,248392,1,8,0:0:0:0:
474,366,248595,2,0,P|462:312|432:205,1,129.375002467632,6|0,3:2|0:0,0:0:0:0:
388,184,249000,1,0,3:0:0:0:
486,49,249203,1,8,0:0:0:0:
316,11,249406,1,2,0:0:0:0:
201,148,249609,5,2,3:2:0:0:
308,110,249811,1,0,3:0:0:0:
125,250,250014,2,0,P|99:196|142:118,1,129.375002467632,8|0,0:0|0:0,0:0:0:0:
201,148,250419,2,0,B|268:148|259:187|339:184,1,129.375002467632,2|0,3:2|0:0,0:0:0:0:
393,154,250825,1,8,0:0:0:0:
492,267,251028,1,0,3:0:0:0:
497,275,251129,1,0,3:0:0:0:
502,283,251230,5,8,0:3:0:0:
476,317,251331,1,8,0:3:0:0:
436,332,251432,1,4,0:3:0:0:
394,326,251534,1,4,0:3:0:0:
362,298,251636,5,8,0:3:0:0:
314,269,251737,1,8,0:3:0:0:
258,268,251838,1,4,0:3:0:0:
209,296,251940,1,4,0:3:0:0:
192,349,252041,6,0,B|198:304|190:275|168:294|164:266|175:214,1,129.375002467632,14|0,0:0|0:0,0:0:0:0:
103,187,252446,2,0,B|96:153|84:125|84:125|111:104|130:67,1,129.375002467632,6|0,3:2|0:0,0:0:0:0:
78,12,252852,2,0,P|169:37|258:51,1,172.500003290176,6|8,3:2|0:0,0:0:0:0:
481,206,253460,6,0,P|387:215|285:231,1,172.500003290176,2|0,3:2|3:0,0:0:0:0:
419,306,254068,1,8,0:0:0:0:
360,120,254271,1,2,0:0:0:0:
170,270,254473,1,2,3:2:0:0:
269,296,254676,1,0,3:2:0:0:
93,197,254879,2,0,P|68:258|53:328,1,129.375002467632,8|0,0:0|0:0,0:0:0:0:
54,319,255285,6,0,P|36:269|9:220,1,86.2500016450882,2|0,3:2|0:0,0:0:0:0:
155,64,255690,2,0,P|173:114|200:163,1,86.2500016450882,10|0,0:0|0:0,0:0:0:0:
206,155,255994,1,2,0:0:0:0:
230,163,256095,2,0,P|280:149|331:148,2,86.2500016450882,0|0|8,3:0|3:0|0:0,0:0:0:0:
495,273,256703,6,0,P|416:244|303:229,1,172.500003290176,2|0,3:2|3:0,0:0:0:0:
81,304,257311,2,0,P|155:331|179:333,1,86.2500016450882,8|0,0:0|0:0,0:0:0:0:
340,311,257717,1,2,3:2:0:0:
166,224,257919,1,0,3:0:0:0:
260,371,258122,2,0,P|246:307|234:262,1,86.2500016450882,8|0,0:0|0:0,0:0:0:0:
131,73,258528,2,0,P|110:135|101:176,1,86.2500016450882,2|0,3:2|3:0,0:0:0:0:
480,146,258933,2,0,B|447:121|447:121|389:134,1,86.2500016450882,12|8,0:0|0:3,0:0:0:0:
357,179,259237,1,4,0:3:0:0:
351,187,259338,6,0,P|371:292|382:370,1,172.500003290176,6|8,3:2|0:0,0:0:0:0:
57,203,259946,2,0,P|82:109|103:40,1,129.375002467632,2|0,3:2|0:0,0:0:0:0:
143,28,260352,1,2,3:2:0:0:
251,216,260555,1,12,0:0:0:0:
58,283,260757,1,8,0:3:0:0:
211,129,260960,5,2,3:2:0:0:
268,324,261163,1,2,0:0:0:0:
447,199,261365,2,0,P|433:149|417:111,1,86.2500016450882,8|0,0:0|0:0,0:0:0:0:
156,273,261771,2,0,P|168:322|189:380,1,86.2500016450882,0|0,3:2|3:0,0:0:0:0:
349,273,262176,1,8,0:0:0:0:
136,196,262379,1,6,3:2:0:0:
309,66,262581,6,0,P|387:78|499:93,1,172.500003290176,6|8,3:2|0:0,0:0:0:0:
224,109,263190,2,0,P|217:49|198:6,1,86.2500016450882,0|0,3:0|0:0,0:0:0:0:
49,132,263595,2,0,P|35:90|33:48,1,86.2500016450882,0|8,3:0|0:0,0:0:0:0:
140,72,264000,1,8,0:3:0:0:
136,85,264102,1,8,0:3:0:0:
176,193,264305,1,8,0:3:0:0:
172,205,264406,1,8,0:3:0:0:
105,315,264609,1,8,0:3:0:0:
85,305,264710,1,4,0:3:0:0:
65,296,264811,1,4,0:3:0:0:
43,290,264913,1,4,0:3:0:0:
25,308,265014,6,0,P|5:260|27:171,1,129.375002467632,6|0,3:2|0:0,0:0:0:0:
74,127,265419,2,0,B|119:146|144:169|144:169|172:146|218:121,1,129.375002467632,6|0,3:2|0:0,0:0:0:0:
234,78,265825,2,0,B|274:47|327:58|327:58|341:96|398:108,1,172.500003290176,6|8,3:2|0:0,0:0:0:0:
468,275,266433,6,0,P|479:192|490:163,1,86.2500016450882,2|0,3:2|0:0,0:0:0:0:
479,189,266838,1,0,3:0:0:0:
328,360,267041,2,0,P|302:298|285:263,1,86.2500016450882,8|0,0:0|0:0,0:0:0:0:
120,154,267446,5,2,3:2:0:0:
91,330,267649,1,0,3:0:0:0:
216,237,267852,2,0,P|125:254|96:262,1,86.2500016450882,8|0,0:0|0:0,0:0:0:0:
289,93,268257,2,0,P|372:106|391:107,1,86.2500016450882,2|0,3:2|0:0,0:0:0:0:
194,21,268663,2,0,P|135:41|67:49,1,129.375002467632,8|0,0:0|0:0,0:0:0:0:
0,15,269068,5,8,0:0:0:0:
137,148,269271,1,8,0:3:0:0:
147,152,269338,1,8,0:3:0:0:
157,156,269406,1,4,0:3:0:0:
166,159,269473,1,4,0:3:0:0:
99,226,269676,6,0,P|142:200|279:183,1,172.500003290176,6|0,3:2|3:0,0:0:0:0:
404,238,270284,1,8,0:0:0:0:
502,132,270487,1,2,3:2:0:0:
342,336,270690,6,0,P|337:286|325:227,1,86.2500016450882,6|0,3:2|0:0,0:0:0:0:
180,19,271095,2,0,P|185:69|197:128,1,86.2500016450882,8|0,0:0|0:0,0:0:0:0:
92,371,271500,2,0,P|25:301|50:252,1,129.375002467632,6|0,3:2|0:0,0:0:0:0:
74,219,271906,2,0,B|114:203|114:203|165:233,1,86.2500016450882,8|0,0:0|3:0,0:0:0:0:
470,160,272311,6,0,P|418:187|330:153,1,129.375002467632,6|0,3:2|0:0,0:0:0:0:
299,119,272717,1,8,0:0:0:0:
151,224,272919,2,0,P|164:122|173:54,1,129.375002467632,2|0,3:2|0:0,0:0:0:0:
181,23,273325,1,0,3:0:0:0:
38,173,273528,1,8,0:0:0:0:
230,248,273730,1,2,0:0:0:0:
237,260,273832,1,2,0:0:0:0:
244,273,273933,5,0,3:0:0:0:
287,128,274136,1,0,3:3:0:0:
427,186,274338,2,0,P|481:187|521:153,1,86.2500016450882,8|0,0:0|0:0,0:0:0:0:
244,273,274744,2,0,P|206:292|163:288,1,86.2500016450882,2|0,3:2|3:0,0:0:0:0:
67,235,275149,1,8,0:0:0:0:
122,359,275352,1,2,0:0:0:0:
287,128,275555,6,0,L|117:96,1,172.500003290176,6|8,3:2|0:0,0:0:0:0:
343,272,276163,2,0,B|391:259|425:284|425:284|441:236|518:221,1,172.500003290176,6|2,3:2|0:0,0:0:0:0:
373,354,276771,1,8,0:0:0:0:
389,158,276973,1,2,0:0:0:0:
510,314,277176,5,6,3:2:0:0:
257,256,277379,1,0,3:0:0:0:
487,136,277582,1,8,0:0:0:0:
412,245,277784,1,8,0:3:0:0:
312,67,277987,1,4,0:3:0:0:
386,134,278190,1,4,0:3:0:0:
101,81,278392,5,12,0:0:0:0:
101,81,279203,5,14,2:2:0:0:
45,204,279406,1,0,0:0:0:0:
144,290,279609,2,2,B|201:291|235:324|301:321,1,146.249993305207,0|0,0:0|0:0,0:1:0:0:
359,311,280014,1,8,0:0:0:0:
48,361,280419,5,2,0:0:0:0:
5,199,280622,1,0,0:0:0:0:
128,82,280825,2,2,L|302:115,1,146.249993305207,14|0,0:0|0:0,0:1:0:0:
271,109,281230,1,2,0:0:0:0:
488,319,281636,5,6,3:2:0:0:
245,218,281838,1,0,0:0:0:0:
411,94,282041,2,2,P|397:171|377:313,1,194.999991073609,6|0,3:2|0:0,0:1:0:0:
