osu file format v14

[General]
AudioFilename: audio.mp3
AudioLeadIn: 0
PreviewTime: 236
Countdown: 0
SampleSet: Normal
StackLeniency: 0.7
Mode: 1
LetterboxInBreaks: 0
WidescreenStoryboard: 0

[Editor]
DistanceSpacing: 0.1
BeatDivisor: 4
GridSize: 32
TimelineZoom: 1

[Metadata]
Title:The Tower
TitleUnicode:The Tower
Artist:Nightmargin (Casey Gu), feat. Eliza Velasquez and Michael Shirt
ArtistUnicode:Nightmargin (Casey Gu), feat. Eliza Velasquez and Michael Shirt
Creator:Horiiizon
Version:The World Below
Source:OneShot
Tags:one shot ost original soundtrack vgm video game music piano ambient instrumental niko little cat feet
BeatmapID:2594556
BeatmapSetID:1248355

[Difficulty]
HPDrainRate:8
CircleSize:5
OverallDifficulty:4
ApproachRate:5
SliderMultiplier:1.6
SliderTickRate:1

[Events]
//Background and Video events
0,0,"refuge.jpg",0,-120
//Break Periods
//Storyboard Layer 0 (Background)
//Storyboard Layer 1 (Fail)
//Storyboard Layer 2 (Pass)
//Storyboard Layer 3 (Foreground)
//Storyboard Layer 4 (Overlay)
//Storyboard Sound Samples

[TimingPoints]
236,811.578520221831,7,1,0,35,1,0
5917,811.578520221831,9,1,0,35,1,0
27829,811.578520221831,4,1,0,35,1,0
34321,811.578520221831,5,1,0,35,1,8
38378,811.578520221831,9,1,0,34,1,0
38378,-125,7,1,0,34,0,0
38783,-125,7,1,0,33,0,0
39189,-125,7,1,0,32,0,0
39595,-125,7,1,0,31,0,0
40001,-125,7,1,0,30,0,0
40406,-125,7,1,0,29,0,0
40609,-125,7,1,0,28,0,0
40812,-125,7,1,0,27,0,0
41015,-125,7,1,0,26,0,0
41218,-125,7,1,0,25,0,0
41421,-125,7,1,0,24,0,0
41624,-125,7,1,0,23,0,0
41827,-125,7,1,0,22,0,0
42030,-125,7,1,0,21,0,0
42232,-125,7,1,0,20,0,0
42435,-125,7,1,0,19,0,0
42638,-125,7,1,0,18,0,0
42841,-125,7,1,0,17,0,0
43044,-125,7,1,0,16,0,0
43247,-125,7,1,0,15,0,0
43450,-125,7,1,0,14,0,0
43653,-125,7,1,0,13,0,0
43856,-125,7,1,0,12,0,0
44059,-125,7,1,0,11,0,0
44261,-125,7,1,0,10,0,0
44464,-125,7,1,0,9,0,0
44667,-125,7,1,0,8,0,0
44870,-125,7,1,0,7,0,0

[HitObjects]
215,272,236,5,0,0:0:0:0:
268,304,438,1,0,0:0:0:0:
240,300,641,1,8,0:0:0:0:
253,257,844,1,8,0:0:0:0:
237,231,1047,1,8,0:0:0:0:
217,234,1250,1,0,0:0:0:0:
243,300,5917,1,0,0:0:0:0:
269,276,6119,1,8,0:0:0:0:
243,300,6322,1,8,0:0:0:0:
246,303,6525,1,0,0:0:0:0:
246,303,6728,1,8,0:0:0:0:
246,303,6931,1,8,0:0:0:0:
246,281,7540,1,0,0:0:0:0:
246,281,7743,1,0,0:0:0:0:
246,281,7945,1,8,0:0:0:0:
227,249,8148,1,8,0:0:0:0:
245,231,8351,1,8,0:0:0:0:
256,273,8554,1,0,0:0:0:0:
220,263,13221,1,0,0:0:0:0:
221,242,13424,1,0,0:0:0:0:
221,242,13626,1,8,0:0:0:0:
221,242,13829,1,8,0:0:0:0:
221,242,14032,1,0,0:0:0:0:
221,242,14235,1,8,0:0:0:0:
221,242,14844,1,0,0:0:0:0:
221,242,15047,1,0,0:0:0:0:
221,242,15250,1,8,0:0:0:0:
221,242,15453,1,0,0:0:0:0:
237,241,15655,1,8,0:0:0:0:
221,242,15858,1,0,0:0:0:0:
229,291,20525,1,0,0:0:0:0:
298,273,20728,1,0,0:0:0:0:
229,254,20931,1,8,0:0:0:0:
236,257,21134,1,0,0:0:0:0:
236,257,21336,1,0,0:0:0:0:
236,257,21539,1,8,0:0:0:0:
222,236,22148,1,0,0:0:0:0:
222,236,22351,1,0,0:0:0:0:
239,230,22554,1,0,0:0:0:0:
226,216,22757,1,8,0:0:0:0:
239,230,22960,1,8,0:0:0:0:
241,230,23163,1,0,0:0:0:0:
226,244,27829,1,0,0:0:0:0:
264,257,28031,1,0,0:0:0:0:
264,257,28234,1,8,0:0:0:0:
264,257,28437,1,0,0:0:0:0:
264,257,28640,1,0,0:0:0:0:
264,257,28843,1,8,0:0:0:0:
212,245,29452,1,0,0:0:0:0:
208,230,29655,1,0,0:0:0:0:
246,263,29857,1,0,0:0:0:0:
242,247,30060,1,8,0:0:0:0:
208,230,30263,1,8,0:0:0:0:
208,230,30466,1,0,0:0:0:0:
235,231,31075,1,0,0:0:0:0:
286,241,31278,1,0,0:0:0:0:
286,241,31481,1,0,0:0:0:0:
286,241,31683,1,0,0:0:0:0:
246,225,31886,1,8,0:0:0:0:
252,224,32089,1,0,0:0:0:0:
233,206,32698,1,0,0:0:0:0:
263,236,32901,1,8,0:0:0:0:
233,206,33104,1,0,0:0:0:0:
233,206,33307,1,0,0:0:0:0:
233,206,33510,1,8,0:0:0:0:
0,155,38378,5,0,0:0:0:0:
279,257,38783,5,0,0:0:0:0:
279,257,39189,1,8,0:0:0:0:
277,263,39595,1,0,0:0:0:0:
277,263,40001,1,8,0:0:0:0:
256,192,40406,12,0,44870,0:0:0:0:
