osu file format v14

[General]
AudioFilename: Epileptic Crisis.mp3
AudioLeadIn: 1500
PreviewTime: -1
Countdown: 1
SampleSet: Normal
StackLeniency: 0.7
Mode: 1
LetterboxInBreaks: 1
WidescreenStoryboard: 0

[Editor]
DistanceSpacing: 0.8
BeatDivisor: 4
GridSize: 8
TimelineZoom: 3.099999

[Metadata]
Title:Epileptic Crisis
TitleUnicode:Epileptic Crisis
Artist:Nightmare
ArtistUnicode:Nightmare
Creator:Xay
Version:Xay's Taiko
Source:
Tags:dnb drumcore
BeatmapID:1174827
BeatmapSetID:555021

[Difficulty]
HPDrainRate:7
CircleSize:5
OverallDifficulty:5
ApproachRate:7
SliderMultiplier:1.6
SliderTickRate:1

[Events]
//Background and Video events
0,0,"wallup-227596.jpg",0,0
//Break Periods
//Storyboard Layer 0 (Background)
//Storyboard Layer 1 (Fail)
//Storyboard Layer 2 (Pass)
//Storyboard Layer 3 (Foreground)
//Storyboard Sound Samples

[TimingPoints]
33,315.789473684211,4,1,0,100,1,0
29085,315.789473684211,5,1,0,100,1,0
30664,315.789473684211,4,1,0,100,1,0
54664,-25,4,1,0,100,0,0
64769,-100,4,1,0,100,0,0
96348,-25,4,1,0,100,0,0
96664,-100,4,1,0,100,0,0

[HitObjects]
144,128,33,5,0,0:0:0:0:
144,128,348,5,2,0:0:0:0:
144,128,506,1,2,0:0:0:0:
144,128,664,5,0,0:0:0:0:
144,128,980,5,2,0:0:0:0:
144,128,1296,5,0,0:0:0:0:
144,128,1611,5,2,0:0:0:0:
144,128,1769,1,2,0:0:0:0:
144,128,1927,5,0,0:0:0:0:
144,128,2085,5,2,0:0:0:0:
144,128,2243,1,2,0:0:0:0:
144,128,2559,5,4,0:0:0:0:
144,128,2875,1,4,0:0:0:0:
144,128,3190,1,4,0:0:0:0:
144,128,3348,1,4,0:0:0:0:
144,128,3506,1,4,0:0:0:0:
144,128,3664,1,4,0:0:0:0:
144,128,3980,1,4,0:0:0:0:
144,128,4138,1,4,0:0:0:0:
144,128,4454,1,4,0:0:0:0:
144,128,4611,1,4,0:0:0:0:
144,128,4769,1,4,0:0:0:0:
144,128,5085,1,0,0:0:0:0:
144,128,5243,1,0,0:0:0:0:
144,128,5401,5,2,0:0:0:0:
144,128,5559,1,2,0:0:0:0:
144,128,5717,5,0,0:0:0:0:
144,128,5875,1,0,0:0:0:0:
144,128,6033,5,2,0:0:0:0:
144,128,6190,5,0,0:0:0:0:
144,128,6348,5,2,0:0:0:0:
144,128,6506,1,2,0:0:0:0:
144,128,6664,5,0,0:0:0:0:
144,128,6822,5,2,0:0:0:0:
144,128,6980,1,2,0:0:0:0:
144,128,7138,5,0,0:0:0:0:
144,128,7296,5,2,0:0:0:0:
144,128,7454,1,2,0:0:0:0:
144,128,7611,5,4,0:0:0:0:
144,128,7927,1,4,0:0:0:0:
144,128,8243,1,4,0:0:0:0:
144,128,8480,1,4,0:0:0:0:
144,128,8717,1,4,0:0:0:0:
144,128,9033,5,6,0:0:0:0:
144,128,9190,5,4,0:0:0:0:
144,128,9506,1,8,0:0:0:0:
144,128,9559,1,8,0:0:0:0:
144,128,9611,1,8,0:0:0:0:
144,128,9664,1,0,0:0:0:0:
144,128,9743,1,0,0:0:0:0:
144,128,9822,1,0,0:0:0:0:
144,128,9901,1,0,0:0:0:0:
144,128,9980,1,0,0:0:0:0:
144,128,10059,1,0,0:0:0:0:
144,128,10138,1,0,0:0:0:0:
144,128,10296,1,0,0:0:0:0:
144,128,10375,1,0,0:0:0:0:
144,128,10454,1,0,0:0:0:0:
144,128,10611,1,0,0:0:0:0:
144,128,10769,5,6,0:0:0:0:
144,128,10927,5,0,0:0:0:0:
144,128,11243,1,0,0:0:0:0:
144,128,11322,1,0,0:0:0:0:
144,128,11401,1,0,0:0:0:0:
144,128,11559,5,2,0:0:0:0:
144,128,11875,5,0,0:0:0:0:
144,128,12033,5,6,0:0:0:0:
144,128,12348,5,0,0:0:0:0:
144,128,12506,1,0,0:0:0:0:
144,128,12664,1,4,0:0:0:0:
144,128,12980,1,0,0:0:0:0:
144,128,13138,1,0,0:0:0:0:
144,128,13296,5,6,0:0:0:0:
144,128,13611,5,0,0:0:0:0:
144,128,13769,1,0,0:0:0:0:
144,128,13927,1,0,0:0:0:0:
144,128,14085,5,6,0:0:0:0:
144,128,14243,5,0,0:0:0:0:
144,128,14322,1,0,0:0:0:0:
144,128,14401,1,0,0:0:0:0:
144,128,14480,1,0,0:0:0:0:
144,128,14559,5,2,0:0:0:0:
144,128,15033,5,0,0:0:0:0:
144,128,15138,5,2,0:0:0:0:
144,128,15190,5,0,0:0:0:0:
144,128,15348,5,2,0:0:0:0:
144,128,15506,5,0,0:0:0:0:
144,128,15585,1,0,0:0:0:0:
144,128,15664,1,0,0:0:0:0:
144,128,15743,1,0,0:0:0:0:
144,128,15822,5,2,0:0:0:0:
144,128,16138,5,0,0:0:0:0:
144,128,16190,1,0,0:0:0:0:
144,128,16243,1,0,0:0:0:0:
144,128,16296,1,0,0:0:0:0:
144,128,16375,5,2,0:0:0:0:
144,128,16454,5,0,0:0:0:0:
144,128,16611,1,0,0:0:0:0:
144,128,16717,5,2,0:0:0:0:
144,128,16769,5,0,0:0:0:0:
144,128,16927,5,2,0:0:0:0:
144,128,16980,1,2,0:0:0:0:
144,128,17033,1,2,0:0:0:0:
144,128,17085,1,0,0:0:0:0:
144,128,17190,5,8,0:0:0:0:
144,128,17296,1,8,0:0:0:0:
144,128,17401,5,0,0:0:0:0:
144,128,17506,5,8,0:0:0:0:
144,128,17611,1,0,0:0:0:0:
144,128,17717,5,0,0:0:0:0:
144,128,17796,5,0,0:0:0:0:
144,128,17875,1,0,0:0:0:0:
144,128,17954,1,8,0:0:0:0:
144,128,18033,5,0,0:0:0:0:
144,128,18085,1,0,0:0:0:0:
144,128,18138,1,0,0:0:0:0:
144,128,18190,1,2,0:0:0:0:
144,128,18348,5,0,0:0:0:0:
144,128,18401,1,0,0:0:0:0:
144,128,18454,1,0,0:0:0:0:
144,128,18506,5,2,0:0:0:0:
144,128,18585,1,0,0:0:0:0:
144,128,18664,1,2,0:0:0:0:
144,128,18717,1,0,0:0:0:0:
144,128,18769,1,0,0:0:0:0:
144,128,18822,5,8,0:0:0:0:
144,128,18980,5,6,0:0:0:0:
144,128,19138,1,6,0:0:0:0:
144,128,19296,1,6,0:0:0:0:
144,128,19454,1,6,0:0:0:0:
144,128,19611,1,2,0:0:0:0:
144,128,19690,5,0,0:0:0:0:
144,128,19769,5,2,0:0:0:0:
144,128,19848,5,0,0:0:0:0:
144,128,19927,5,2,0:0:0:0:
144,128,20006,1,2,0:0:0:0:
144,128,20085,5,0,0:0:0:0:
144,128,20164,1,0,0:0:0:0:
144,128,20243,1,0,0:0:0:0:
144,128,20401,1,0,0:0:0:0:
144,128,20559,5,2,0:0:0:0:
144,128,20717,5,0,0:0:0:0:
144,128,20796,1,0,0:0:0:0:
144,128,20875,1,0,0:0:0:0:
144,128,21033,5,2,0:0:0:0:
144,128,21190,5,0,0:0:0:0:
144,128,21348,5,2,0:0:0:0:
144,128,21401,1,2,0:0:0:0:
144,128,21454,5,0,0:0:0:0:
144,128,21506,1,0,0:0:0:0:
144,128,21664,5,2,0:0:0:0:
144,128,21822,5,0,0:0:0:0:
144,128,21901,1,0,0:0:0:0:
144,128,21980,5,2,0:0:0:0:
144,128,22138,5,0,0:0:0:0:
144,128,22296,5,2,0:0:0:0:
144,128,22348,1,2,0:0:0:0:
144,128,22401,1,2,0:0:0:0:
144,128,22454,5,0,0:0:0:0:
144,128,22533,5,2,0:0:0:0:
144,128,22690,1,2,0:0:0:0:
144,128,22769,5,0,0:0:0:0:
144,128,22927,1,0,0:0:0:0:
144,128,23085,5,2,0:0:0:0:
144,128,23243,5,0,0:0:0:0:
144,128,23322,1,0,0:0:0:0:
144,128,23401,1,0,0:0:0:0:
144,128,23559,5,2,0:0:0:0:
144,128,23717,5,0,0:0:0:0:
144,128,23875,5,2,0:0:0:0:
144,128,23927,1,2,0:0:0:0:
144,128,23980,1,2,0:0:0:0:
144,128,24033,1,2,0:0:0:0:
144,128,24190,5,0,0:0:0:0:
144,128,24348,5,2,0:0:0:0:
144,128,24506,5,0,0:0:0:0:
144,128,24559,5,2,0:0:0:0:
144,128,24611,1,2,0:0:0:0:
144,128,24664,5,0,0:0:0:0:
144,128,24743,1,0,0:0:0:0:
144,128,24822,1,8,0:0:0:0:
144,128,24901,1,0,0:0:0:0:
144,128,24980,5,2,0:0:0:0:
144,128,25033,1,8,0:0:0:0:
144,128,25085,1,0,0:0:0:0:
144,128,25138,1,2,0:0:0:0:
144,128,25217,1,2,0:0:0:0:
144,128,25296,5,0,0:0:0:0:
144,128,25454,1,0,0:0:0:0:
144,128,25533,1,0,0:0:0:0:
144,128,25611,5,2,0:0:0:0:
144,128,25769,1,2,0:0:0:0:
144,128,25822,5,0,0:0:0:0:
144,128,25875,1,0,0:0:0:0:
144,128,25927,1,0,0:0:0:0:
144,128,26085,5,2,0:0:0:0:
144,128,26138,1,2,0:0:0:0:
144,128,26190,1,2,0:0:0:0:
144,128,26243,5,0,0:0:0:0:
144,128,26401,5,0,0:0:0:0:
144,128,26454,5,0,0:0:0:0:
144,128,26506,5,0,0:0:0:0:
144,128,26559,5,8,0:0:0:0:
144,128,26717,5,2,0:0:0:0:
144,128,26875,5,0,0:0:0:0:
144,128,26954,5,2,0:0:0:0:
144,128,27085,1,2,0:0:0:0:
144,128,27138,1,2,0:0:0:0:
144,128,27348,5,0,0:0:0:0:
144,128,27401,5,2,0:0:0:0:
144,128,27454,1,2,0:0:0:0:
144,128,27585,1,2,0:0:0:0:
144,128,27743,1,2,0:0:0:0:
144,128,27822,5,0,0:0:0:0:
144,128,27980,5,2,0:0:0:0:
144,128,28059,1,0,0:0:0:0:
144,128,28138,5,0,0:0:0:0:
144,128,28296,1,0,0:0:0:0:
144,128,28375,1,8,0:0:0:0:
144,128,28454,1,0,0:0:0:0:
144,128,28611,1,8,0:0:0:0:
144,128,28769,1,0,0:0:0:0:
144,128,28927,1,0,0:0:0:0:
144,128,29085,1,0,0:0:0:0:
144,128,29164,1,8,0:0:0:0:
144,128,29243,1,0,0:0:0:0:
144,128,29296,5,0,0:0:0:0:
144,128,29348,1,2,0:0:0:0:
144,128,29401,1,2,0:0:0:0:
144,128,29480,5,0,0:0:0:0:
144,128,29559,1,8,0:0:0:0:
144,128,29638,1,0,0:0:0:0:
144,128,29717,1,8,0:0:0:0:
144,128,29796,5,0,0:0:0:0:
144,128,29927,1,2,0:0:0:0:
144,128,29980,1,2,0:0:0:0:
144,128,30085,1,2,0:0:0:0:
144,128,30138,1,2,0:0:0:0:
144,128,30243,1,2,0:0:0:0:
144,128,30296,1,2,0:0:0:0:
144,128,30664,1,6,0:0:0:0:
144,128,30980,1,6,0:0:0:0:
144,128,31138,1,2,0:0:0:0:
144,128,31190,1,2,0:0:0:0:
144,128,31243,1,2,0:0:0:0:
144,128,31296,5,0,0:0:0:0:
144,128,31454,1,0,0:0:0:0:
144,128,31533,1,0,0:0:0:0:
144,128,31611,1,0,0:0:0:0:
144,128,31769,1,0,0:0:0:0:
144,128,31822,1,0,0:0:0:0:
144,128,31875,1,8,0:0:0:0:
144,128,31927,1,8,0:0:0:0:
144,128,32085,1,4,0:0:0:0:
144,128,32243,5,2,0:0:0:0:
144,128,32401,5,0,0:0:0:0:
144,128,32480,1,0,0:0:0:0:
144,128,32559,1,0,0:0:0:0:
144,128,32638,1,0,0:0:0:0:
144,128,32717,1,0,0:0:0:0:
144,128,32796,1,0,0:0:0:0:
144,128,32875,5,2,0:0:0:0:
144,128,32927,1,8,0:0:0:0:
144,128,32980,1,8,0:0:0:0:
144,128,33033,1,0,0:0:0:0:
144,128,33190,1,6,0:0:0:0:
144,128,33506,1,2,0:0:0:0:
144,128,33585,5,0,0:0:0:0:
144,128,33664,1,0,0:0:0:0:
144,128,33743,1,0,0:0:0:0:
144,128,33822,1,0,0:0:0:0:
144,128,33980,1,0,0:0:0:0:
144,128,34059,1,0,0:0:0:0:
144,128,34138,1,0,0:0:0:0:
144,128,34217,1,0,0:0:0:0:
144,128,34296,5,2,0:0:0:0:
144,128,34348,1,0,0:0:0:0:
144,128,34401,1,0,0:0:0:0:
144,128,34454,1,0,0:0:0:0:
144,128,34559,1,0,0:0:0:0:
144,128,34611,5,0,0:0:0:0:
144,128,34664,1,0,0:0:0:0:
144,128,34717,1,8,0:0:0:0:
144,128,34927,5,0,0:0:0:0:
144,128,35085,5,2,0:0:0:0:
144,128,35164,1,2,0:0:0:0:
144,128,35243,1,2,0:0:0:0:
144,128,35322,1,2,0:0:0:0:
144,128,35401,5,0,0:0:0:0:
144,128,35559,5,2,0:0:0:0:
144,128,35638,1,2,0:0:0:0:
144,128,35717,5,0,0:0:0:0:
144,128,35769,1,0,0:0:0:0:
144,128,35822,1,0,0:0:0:0:
144,128,36033,5,2,0:0:0:0:
144,128,36085,1,2,0:0:0:0:
144,128,36190,1,2,0:0:0:0:
144,128,36243,1,2,0:0:0:0:
144,128,36348,5,0,0:0:0:0:
144,128,36506,5,2,0:0:0:0:
144,128,36585,1,2,0:0:0:0:
144,128,36664,5,0,0:0:0:0:
144,128,36822,1,0,0:0:0:0:
144,128,36875,1,0,0:0:0:0:
144,128,36927,1,0,0:0:0:0:
144,128,36980,1,8,0:0:0:0:
144,128,37138,5,2,0:0:0:0:
144,128,37190,1,2,0:0:0:0:
144,128,37243,1,2,0:0:0:0:
144,128,37296,5,0,0:0:0:0:
144,128,37454,1,0,0:0:0:0:
144,128,37611,1,0,0:0:0:0:
144,128,37690,1,0,0:0:0:0:
144,128,37769,5,2,0:0:0:0:
144,128,37848,1,2,0:0:0:0:
144,128,37927,5,0,0:0:0:0:
144,128,37980,1,0,0:0:0:0:
144,128,38033,1,0,0:0:0:0:
144,128,38243,1,0,0:0:0:0:
144,128,38296,1,0,0:0:0:0:
144,128,38348,1,0,0:0:0:0:
144,128,38559,5,2,0:0:0:0:
144,128,38717,1,2,0:0:0:0:
144,128,38796,1,2,0:0:0:0:
144,128,38875,1,0,0:0:0:0:
144,128,38927,1,0,0:0:0:0:
144,128,38980,1,0,0:0:0:0:
144,128,39033,5,2,0:0:0:0:
144,128,39111,1,2,0:0:0:0:
144,128,39190,1,2,0:0:0:0:
144,128,39269,1,2,0:0:0:0:
144,128,39348,5,0,0:0:0:0:
144,128,39401,1,0,0:0:0:0:
144,128,39664,1,0,0:0:0:0:
144,128,39743,1,0,0:0:0:0:
144,128,39822,5,2,0:0:0:0:
144,128,39901,1,2,0:0:0:0:
144,128,39980,1,2,0:0:0:0:
144,128,40059,1,2,0:0:0:0:
144,128,40138,1,2,0:0:0:0:
144,128,40217,1,2,0:0:0:0:
144,128,40296,1,2,0:0:0:0:
144,128,40375,1,2,0:0:0:0:
144,128,40454,1,2,0:0:0:0:
144,128,40533,1,2,0:0:0:0:
144,128,40611,1,2,0:0:0:0:
144,128,40690,1,2,0:0:0:0:
144,128,40769,5,0,0:0:0:0:
144,128,40848,1,0,0:0:0:0:
144,128,40927,1,0,0:0:0:0:
144,128,41006,1,0,0:0:0:0:
144,128,41085,5,2,0:0:0:0:
144,128,41243,5,0,0:0:0:0:
144,128,41322,1,0,0:0:0:0:
144,128,41401,1,0,0:0:0:0:
144,128,41480,1,0,0:0:0:0:
144,128,41559,5,2,0:0:0:0:
144,128,41717,5,0,0:0:0:0:
144,128,41796,1,0,0:0:0:0:
144,128,41875,5,2,0:0:0:0:
144,128,42033,5,0,0:0:0:0:
144,128,42111,1,0,0:0:0:0:
144,128,42190,1,0,0:0:0:0:
144,128,42269,1,0,0:0:0:0:
144,128,42348,5,2,0:0:0:0:
144,128,42506,5,0,0:0:0:0:
144,128,42585,1,0,0:0:0:0:
144,128,42664,1,0,0:0:0:0:
144,128,42743,1,0,0:0:0:0:
144,128,42822,5,2,0:0:0:0:
144,128,42980,5,0,0:0:0:0:
144,128,43059,1,0,0:0:0:0:
144,128,43138,5,2,0:0:0:0:
144,128,43296,5,0,0:0:0:0:
144,128,43375,1,0,0:0:0:0:
144,128,43454,1,0,0:0:0:0:
144,128,43533,1,0,0:0:0:0:
144,128,43611,5,2,0:0:0:0:
144,128,43769,5,0,0:0:0:0:
144,128,43848,1,0,0:0:0:0:
144,128,43927,1,0,0:0:0:0:
144,128,44006,1,0,0:0:0:0:
144,128,44085,5,2,0:0:0:0:
144,128,44243,5,0,0:0:0:0:
144,128,44322,1,0,0:0:0:0:
144,128,44401,5,2,0:0:0:0:
144,128,44559,5,0,0:0:0:0:
144,128,44638,1,0,0:0:0:0:
144,128,44717,1,0,0:0:0:0:
144,128,44796,1,0,0:0:0:0:
144,128,44875,5,2,0:0:0:0:
144,128,45033,5,0,0:0:0:0:
144,128,45111,1,0,0:0:0:0:
144,128,45190,1,0,0:0:0:0:
144,128,45269,1,0,0:0:0:0:
144,128,45348,5,2,0:0:0:0:
144,128,45506,1,2,0:0:0:0:
144,128,45611,1,0,0:0:0:0:
144,128,45717,1,0,0:0:0:0:
144,128,45822,5,0,0:0:0:0:
144,128,45901,1,0,0:0:0:0:
144,128,45980,1,0,0:0:0:0:
144,128,46059,1,0,0:0:0:0:
144,128,46138,5,2,0:0:0:0:
144,128,46296,5,0,0:0:0:0:
144,128,46375,1,0,0:0:0:0:
144,128,46454,1,0,0:0:0:0:
144,128,46533,1,0,0:0:0:0:
144,128,46611,5,2,0:0:0:0:
144,128,46769,1,2,0:0:0:0:
144,128,46875,1,0,0:0:0:0:
144,128,46980,1,0,0:0:0:0:
144,128,47085,5,0,0:0:0:0:
144,128,47164,1,0,0:0:0:0:
144,128,47243,1,0,0:0:0:0:
144,128,47322,1,0,0:0:0:0:
144,128,47401,5,2,0:0:0:0:
144,128,47559,5,0,0:0:0:0:
144,128,47638,1,0,0:0:0:0:
144,128,47717,1,0,0:0:0:0:
144,128,47796,1,0,0:0:0:0:
144,128,47875,5,2,0:0:0:0:
144,128,48033,1,2,0:0:0:0:
144,128,48138,1,0,0:0:0:0:
144,128,48243,1,0,0:0:0:0:
144,128,48348,5,0,0:0:0:0:
144,128,48427,1,0,0:0:0:0:
144,128,48506,1,0,0:0:0:0:
144,128,48585,1,0,0:0:0:0:
144,128,48664,5,2,0:0:0:0:
144,128,48822,5,0,0:0:0:0:
144,128,48901,1,0,0:0:0:0:
144,128,48980,1,0,0:0:0:0:
144,128,49059,1,0,0:0:0:0:
144,128,49138,5,2,0:0:0:0:
144,128,49296,1,2,0:0:0:0:
144,128,49454,1,2,0:0:0:0:
144,128,49611,5,0,0:0:0:0:
144,128,49690,1,0,0:0:0:0:
144,128,49769,1,0,0:0:0:0:
144,128,49848,1,0,0:0:0:0:
144,128,49927,5,2,0:0:0:0:
144,128,50085,5,0,0:0:0:0:
144,128,50164,1,0,0:0:0:0:
144,128,50243,1,0,0:0:0:0:
144,128,50322,1,0,0:0:0:0:
144,128,50401,5,2,0:0:0:0:
144,128,50559,1,6,0:0:0:0:
144,128,50717,1,6,0:0:0:0:
144,128,50875,1,6,0:0:0:0:
144,128,51033,1,6,0:0:0:0:
144,128,51190,1,6,0:0:0:0:
144,128,51348,1,6,0:0:0:0:
144,128,51506,1,6,0:0:0:0:
144,128,51664,1,6,0:0:0:0:
144,128,51822,1,6,0:0:0:0:
144,128,51980,1,6,0:0:0:0:
144,128,52138,1,6,0:0:0:0:
144,128,52296,1,6,0:0:0:0:
144,128,52454,1,6,0:0:0:0:
144,128,52611,1,6,0:0:0:0:
144,128,52769,1,2,0:0:0:0:
144,128,52822,1,2,0:0:0:0:
144,128,52927,1,2,0:0:0:0:
144,128,52980,1,2,0:0:0:0:
144,128,53085,1,2,0:0:0:0:
144,128,53138,1,2,0:0:0:0:
144,128,53243,1,2,0:0:0:0:
144,128,53296,1,2,0:0:0:0:
144,128,53401,5,0,0:0:0:0:
144,128,53480,1,0,0:0:0:0:
144,128,53559,5,2,0:0:0:0:
144,128,53638,5,0,0:0:0:0:
144,128,53717,5,2,0:0:0:0:
144,128,53796,5,0,0:0:0:0:
144,128,53875,5,2,0:0:0:0:
144,128,53954,1,2,0:0:0:0:
144,128,54033,5,0,0:0:0:0:
144,128,54111,5,2,0:0:0:0:
144,128,54190,1,2,0:0:0:0:
144,128,54269,5,0,0:0:0:0:
144,128,54348,5,2,0:0:0:0:
144,128,54427,5,0,0:0:0:0:
144,128,54506,5,2,0:0:0:0:
144,128,54585,5,0,0:0:0:0:
144,128,54664,6,8,L|288:216,108,160
144,136,64769,5,2,0:0:0:0:
144,136,64927,5,0,0:0:0:0:
144,136,65006,1,0,0:0:0:0:
144,136,65085,1,0,0:0:0:0:
144,136,65243,1,0,0:0:0:0:
144,136,65401,5,6,0:0:0:0:
144,136,65559,5,0,0:0:0:0:
144,136,65638,1,0,0:0:0:0:
144,136,65717,1,0,0:0:0:0:
144,136,65875,5,2,0:0:0:0:
144,136,66033,5,0,0:0:0:0:
144,136,66190,1,0,0:0:0:0:
144,136,66269,1,0,0:0:0:0:
144,136,66348,1,0,0:0:0:0:
144,136,66506,1,0,0:0:0:0:
144,136,66664,5,6,0:0:0:0:
144,136,66822,5,0,0:0:0:0:
144,136,66901,1,0,0:0:0:0:
144,136,66980,1,0,0:0:0:0:
144,136,67138,5,2,0:0:0:0:
144,136,67217,1,2,0:0:0:0:
144,136,67296,5,0,0:0:0:0:
144,136,67454,1,0,0:0:0:0:
144,136,67533,1,0,0:0:0:0:
144,136,67611,1,0,0:0:0:0:
144,136,67769,1,0,0:0:0:0:
144,136,67927,5,2,0:0:0:0:
144,136,68006,1,2,0:0:0:0:
144,136,68164,5,0,0:0:0:0:
144,136,68243,1,0,0:0:0:0:
144,136,68401,1,0,0:0:0:0:
144,136,68480,5,2,0:0:0:0:
144,136,68559,5,0,0:0:0:0:
144,136,68717,5,2,0:0:0:0:
144,136,68875,5,0,0:0:0:0:
144,136,68954,1,0,0:0:0:0:
144,136,69033,1,0,0:0:0:0:
144,136,69111,1,0,0:0:0:0:
144,136,69190,5,2,0:0:0:0:
144,136,69348,5,0,0:0:0:0:
144,136,69427,1,0,0:0:0:0:
144,136,69506,1,0,0:0:0:0:
144,136,69664,5,2,0:0:0:0:
144,136,69743,1,8,0:0:0:0:
144,136,69822,1,0,0:0:0:0:
144,136,69980,5,0,0:0:0:0:
144,136,70059,1,2,0:0:0:0:
144,136,70138,5,0,0:0:0:0:
144,136,70296,1,0,0:0:0:0:
144,136,70375,1,0,0:0:0:0:
144,136,70454,5,2,0:0:0:0:
144,136,70611,5,0,0:0:0:0:
144,136,70769,1,0,0:0:0:0:
144,136,70822,1,0,0:0:0:0:
144,136,70875,1,0,0:0:0:0:
144,136,70927,5,2,0:0:0:0:
144,136,71085,5,0,0:0:0:0:
144,136,71164,1,0,0:0:0:0:
144,136,71322,5,2,0:0:0:0:
144,136,71401,5,0,0:0:0:0:
144,136,71559,5,2,0:0:0:0:
144,136,71611,1,2,0:0:0:0:
144,136,71664,1,2,0:0:0:0:
144,136,71717,1,2,0:0:0:0:
144,136,71822,1,0,0:0:0:0:
144,136,71927,1,2,0:0:0:0:
144,136,72033,5,0,0:0:0:0:
144,136,72138,5,2,0:0:0:0:
144,136,72243,1,2,0:0:0:0:
144,136,72348,5,0,0:0:0:0:
144,136,72427,1,0,0:0:0:0:
144,136,72506,1,0,0:0:0:0:
144,136,72664,5,2,0:0:0:0:
144,136,72822,5,0,0:0:0:0:
144,136,72875,1,0,0:0:0:0:
144,136,72927,1,0,0:0:0:0:
144,136,72980,1,0,0:0:0:0:
144,136,73059,5,2,0:0:0:0:
144,136,73138,1,2,0:0:0:0:
144,136,73217,5,0,0:0:0:0:
144,136,73296,5,2,0:0:0:0:
144,136,73611,1,6,0:0:0:0:
144,136,73769,1,6,0:0:0:0:
144,136,73927,1,6,0:0:0:0:
144,136,74085,1,6,0:0:0:0:
144,136,74243,1,2,0:0:0:0:
144,136,74322,1,2,0:0:0:0:
144,136,74401,5,0,0:0:0:0:
144,136,74480,5,2,0:0:0:0:
144,136,74559,1,2,0:0:0:0:
144,136,74638,5,0,0:0:0:0:
144,136,74717,1,0,0:0:0:0:
144,136,74796,5,2,0:0:0:0:
144,136,74875,5,0,0:0:0:0:
144,136,75033,1,0,0:0:0:0:
144,136,75190,5,2,0:0:0:0:
144,136,75348,5,0,0:0:0:0:
144,136,75506,1,0,0:0:0:0:
144,136,75664,5,2,0:0:0:0:
144,136,75822,5,0,0:0:0:0:
144,136,75980,1,0,0:0:0:0:
144,136,76033,5,0,0:0:0:0:
144,136,76085,1,2,0:0:0:0:
144,136,76138,1,2,0:0:0:0:
144,136,76296,1,2,0:0:0:0:
144,136,76454,5,0,0:0:0:0:
144,136,76611,5,2,0:0:0:0:
144,136,76769,5,0,0:0:0:0:
144,136,76927,5,2,0:0:0:0:
144,136,76980,1,2,0:0:0:0:
144,136,77033,1,2,0:0:0:0:
144,136,77085,5,0,0:0:0:0:
144,136,77164,5,2,0:0:0:0:
144,136,77322,1,2,0:0:0:0:
144,136,77401,5,0,0:0:0:0:
144,136,77717,5,2,0:0:0:0:
144,136,77875,5,0,0:0:0:0:
144,136,77954,1,8,0:0:0:0:
144,136,78033,1,0,0:0:0:0:
144,136,78190,1,0,0:0:0:0:
144,136,78348,1,0,0:0:0:0:
144,136,78506,5,2,0:0:0:0:
144,136,78559,1,2,0:0:0:0:
144,136,78611,1,2,0:0:0:0:
144,136,78664,5,8,0:0:0:0:
144,136,78822,5,2,0:0:0:0:
144,136,78980,5,0,0:0:0:0:
144,136,79138,1,8,0:0:0:0:
144,136,79190,5,2,0:0:0:0:
144,136,79243,1,2,0:0:0:0:
144,136,79296,5,0,0:0:0:0:
144,136,79375,1,8,0:0:0:0:
144,136,79454,1,0,0:0:0:0:
144,136,79506,1,0,0:0:0:0:
144,136,79559,1,0,0:0:0:0:
144,136,79611,5,2,0:0:0:0:
144,136,79690,1,2,0:0:0:0:
144,136,79769,1,0,0:0:0:0:
144,136,79848,1,2,0:0:0:0:
144,136,79927,5,0,0:0:0:0:
144,136,80085,1,0,0:0:0:0:
144,136,80164,1,0,0:0:0:0:
144,136,80243,5,2,0:0:0:0:
144,136,80322,1,8,0:0:0:0:
144,136,80401,1,0,0:0:0:0:
144,136,80454,1,2,0:0:0:0:
144,136,80506,1,2,0:0:0:0:
144,136,80559,5,0,0:0:0:0:
144,136,80717,5,2,0:0:0:0:
144,136,80769,5,0,0:0:0:0:
144,136,80822,1,0,0:0:0:0:
144,136,80875,5,2,0:0:0:0:
144,136,81033,1,0,0:0:0:0:
144,136,81085,1,8,0:0:0:0:
144,136,81138,1,8,0:0:0:0:
144,136,81348,1,6,0:0:0:0:
144,136,81585,1,6,0:0:0:0:
144,136,81743,1,6,0:0:0:0:
144,136,81980,1,6,0:0:0:0:
144,136,82217,1,6,0:0:0:0:
144,136,82375,1,2,0:0:0:0:
144,136,82454,5,0,0:0:0:0:
144,136,82506,1,0,0:0:0:0:
144,136,82559,1,0,0:0:0:0:
144,136,82611,1,8,0:0:0:0:
144,136,82690,1,0,0:0:0:0:
144,136,82769,5,2,0:0:0:0:
144,136,82927,5,0,0:0:0:0:
144,136,83006,1,8,0:0:0:0:
144,136,83085,1,0,0:0:0:0:
144,136,83243,1,8,0:0:0:0:
144,136,83401,1,0,0:0:0:0:
144,136,83559,1,0,0:0:0:0:
144,136,83717,1,8,0:0:0:0:
144,136,83796,1,0,0:0:0:0:
144,136,83875,1,0,0:0:0:0:
144,136,83927,5,0,0:0:0:0:
144,136,83980,1,2,0:0:0:0:
144,136,84033,1,2,0:0:0:0:
144,136,84111,5,0,0:0:0:0:
144,136,84190,1,8,0:0:0:0:
144,136,84269,1,0,0:0:0:0:
144,136,84348,5,8,0:0:0:0:
144,136,84427,5,0,0:0:0:0:
144,136,84506,5,8,0:0:0:0:
144,136,84585,5,0,0:0:0:0:
144,136,84743,1,0,0:0:0:0:
144,136,84901,5,2,0:0:0:0:
144,136,84980,5,0,0:0:0:0:
144,136,85138,5,2,0:0:0:0:
144,136,85217,5,0,0:0:0:0:
144,136,85296,1,0,0:0:0:0:
144,136,85375,1,0,0:0:0:0:
144,136,85454,5,2,0:0:0:0:
144,136,85533,5,2,0:0:0:0:
144,136,85611,5,2,0:0:0:0:
144,136,85690,1,0,0:0:0:0:
144,136,85769,1,2,0:0:0:0:
144,136,85848,5,0,0:0:0:0:
144,136,85927,5,0,0:0:0:0:
144,136,86006,5,2,0:0:0:0:
144,136,86085,5,0,0:0:0:0:
144,136,86164,5,2,0:0:0:0:
144,136,86243,5,0,0:0:0:0:
144,136,86401,1,2,0:0:0:0:
144,136,86480,5,0,0:0:0:0:
144,136,86559,1,0,0:0:0:0:
144,136,86638,5,2,0:0:0:0:
144,136,86717,5,0,0:0:0:0:
144,136,86796,1,0,0:0:0:0:
144,136,86875,5,2,0:0:0:0:
144,136,87033,1,0,0:0:0:0:
144,136,87111,5,0,0:0:0:0:
144,136,87190,1,0,0:0:0:0:
144,136,87348,5,0,0:0:0:0:
144,136,87427,5,8,0:0:0:0:
144,136,87506,1,0,0:0:0:0:
144,136,87664,1,0,0:0:0:0:
144,136,87743,1,0,0:0:0:0:
144,136,87822,1,0,0:0:0:0:
144,136,87901,5,2,0:0:0:0:
144,136,88059,5,0,0:0:0:0:
144,136,88138,1,0,0:0:0:0:
144,136,88296,5,2,0:0:0:0:
144,136,88375,1,2,0:0:0:0:
144,136,88454,5,0,0:0:0:0:
144,136,88533,5,2,0:0:0:0:
144,136,88611,5,0,0:0:0:0:
144,136,88690,5,2,0:0:0:0:
144,136,88769,5,0,0:0:0:0:
144,136,88927,1,0,0:0:0:0:
144,136,89085,5,2,0:0:0:0:
144,136,89164,5,0,0:0:0:0:
144,136,89243,5,2,0:0:0:0:
144,136,89322,5,0,0:0:0:0:
144,136,89401,5,2,0:0:0:0:
144,136,89559,1,2,0:0:0:0:
144,136,89638,1,2,0:0:0:0:
144,136,89717,1,2,0:0:0:0:
144,136,89796,1,2,0:0:0:0:
144,136,89875,1,2,0:0:0:0:
144,136,89954,1,2,0:0:0:0:
144,136,90033,5,0,0:0:0:0:
144,136,90190,1,0,0:0:0:0:
144,136,90348,1,0,0:0:0:0:
144,136,90427,1,0,0:0:0:0:
144,136,90506,5,2,0:0:0:0:
144,136,90585,5,0,0:0:0:0:
144,136,90664,1,0,0:0:0:0:
144,136,90822,1,0,0:0:0:0:
144,136,90980,1,0,0:0:0:0:
144,136,91059,5,2,0:0:0:0:
144,136,91138,5,0,0:0:0:0:
144,136,91217,5,2,0:0:0:0:
144,136,91296,5,0,0:0:0:0:
144,136,91454,1,0,0:0:0:0:
144,136,91533,1,0,0:0:0:0:
144,136,91611,1,0,0:0:0:0:
144,136,91690,5,2,0:0:0:0:
144,136,91769,5,0,0:0:0:0:
144,136,91848,1,0,0:0:0:0:
144,136,91927,5,2,0:0:0:0:
144,136,92006,1,2,0:0:0:0:
144,136,92085,1,2,0:0:0:0:
144,136,92164,5,0,0:0:0:0:
144,136,92243,1,0,0:0:0:0:
144,136,92322,5,2,0:0:0:0:
144,136,92401,5,0,0:0:0:0:
144,136,92480,5,2,0:0:0:0:
144,136,92559,5,0,0:0:0:0:
144,136,92717,1,0,0:0:0:0:
144,136,92796,1,0,0:0:0:0:
144,136,92875,1,0,0:0:0:0:
144,136,93033,5,0,0:0:0:0:
144,136,93111,5,8,0:0:0:0:
144,136,93190,1,0,0:0:0:0:
144,136,93348,5,2,0:0:0:0:
144,136,93427,1,2,0:0:0:0:
144,136,93506,5,0,0:0:0:0:
144,136,93664,1,0,0:0:0:0:
144,136,93743,1,0,0:0:0:0:
144,136,93822,5,2,0:0:0:0:
144,136,93980,1,6,0:0:0:0:
144,136,94138,1,6,0:0:0:0:
144,136,94296,1,6,0:0:0:0:
144,136,94454,1,2,0:0:0:0:
144,136,94533,1,2,0:0:0:0:
144,136,94611,1,2,0:0:0:0:
144,136,94690,1,2,0:0:0:0:
144,136,94769,5,0,0:0:0:0:
144,136,94848,1,0,0:0:0:0:
144,136,94927,5,2,0:0:0:0:
144,136,95006,1,2,0:0:0:0:
144,136,95085,5,0,0:0:0:0:
144,136,96348,5,4,0:0:0:0:
144,136,96664,5,0,0:0:0:0:
144,136,96822,1,0,0:0:0:0:
144,136,96980,1,0,0:0:0:0:
144,136,97059,1,8,0:0:0:0:
144,136,97138,1,0,0:0:0:0:
144,136,97217,1,8,0:0:0:0:
144,136,97296,1,0,0:0:0:0:
144,136,97454,5,2,0:0:0:0:
144,136,97506,5,0,0:0:0:0:
144,136,97559,1,0,0:0:0:0:
144,136,97611,1,0,0:0:0:0:
144,136,97690,5,2,0:0:0:0:
144,136,97927,1,2,0:0:0:0:
144,136,98085,5,0,0:0:0:0:
144,136,98164,1,0,0:0:0:0:
144,136,98243,1,0,0:0:0:0:
144,136,98322,1,0,0:0:0:0:
144,136,98401,5,2,0:0:0:0:
144,136,98480,5,0,0:0:0:0:
144,136,98559,5,8,0:0:0:0:
144,136,98611,1,8,0:0:0:0:
144,136,98664,1,8,0:0:0:0:
144,136,98717,1,0,0:0:0:0:
144,136,98875,5,4,0:0:0:0:
144,136,99190,5,8,0:0:0:0:
144,136,99348,1,0,0:0:0:0:
144,136,99427,1,0,0:0:0:0:
144,136,99506,5,2,0:0:0:0:
144,136,99664,5,0,0:0:0:0:
144,136,99743,1,0,0:0:0:0:
144,136,99822,1,0,0:0:0:0:
144,136,99901,1,0,0:0:0:0:
144,136,99980,5,2,0:0:0:0:
144,136,100296,1,0,0:0:0:0:
144,136,100454,5,0,0:0:0:0:
144,136,100559,1,0,0:0:0:0:
144,136,100664,1,0,0:0:0:0:
144,136,100769,5,2,0:0:0:0:
144,136,100822,1,8,0:0:0:0:
144,136,100875,1,8,0:0:0:0:
144,136,101085,5,0,0:0:0:0:
144,136,101138,1,0,0:0:0:0:
144,136,101190,1,0,0:0:0:0:
144,136,101401,1,4,0:0:0:0:
144,136,101717,5,2,0:0:0:0:
144,136,101769,1,2,0:0:0:0:
144,136,101875,5,0,0:0:0:0:
144,136,101954,1,0,0:0:0:0:
144,136,102033,1,8,0:0:0:0:
144,136,102085,1,8,0:0:0:0:
144,136,102138,1,8,0:0:0:0:
144,136,102190,1,0,0:0:0:0:
144,136,102269,1,0,0:0:0:0:
144,136,102348,1,0,0:0:0:0:
144,136,102427,5,2,0:0:0:0:
144,136,102506,1,0,0:0:0:0:
144,136,102585,1,2,0:0:0:0:
144,136,102664,1,2,0:0:0:0:
144,136,102822,1,2,0:0:0:0:
144,136,102980,5,0,0:0:0:0:
144,136,103033,1,0,0:0:0:0:
144,136,103085,1,0,0:0:0:0:
144,136,103138,1,8,0:0:0:0:
144,136,103190,1,8,0:0:0:0:
144,136,103243,1,0,0:0:0:0:
144,136,103296,1,0,0:0:0:0:
144,136,103769,5,0,0:0:0:0:
144,136,103927,5,8,0:0:0:0:
144,136,103980,1,8,0:0:0:0:
144,136,104033,1,8,0:0:0:0:
144,136,104243,5,0,0:0:0:0:
144,136,104322,1,0,0:0:0:0:
144,136,104401,1,0,0:0:0:0:
144,136,104480,1,0,0:0:0:0:
144,136,104559,5,8,0:0:0:0:
144,136,104611,1,8,0:0:0:0:
144,136,104664,1,8,0:0:0:0:
144,136,104875,5,0,0:0:0:0:
144,136,104954,1,0,0:0:0:0:
144,136,105033,1,0,0:0:0:0:
144,136,105111,1,0,0:0:0:0:
144,136,105190,1,8,0:0:0:0:
176,160,105296,1,0,0:0:0:0:
160,152,105348,1,0,0:0:0:0:
136,152,105401,1,8,0:0:0:0:
176,160,105559,1,0,0:0:0:0:
144,136,105611,1,0,0:0:0:0:
144,136,105664,5,2,0:0:0:0:
160,152,105822,1,0,0:0:0:0:
144,136,105875,1,0,0:0:0:0:
136,152,105927,1,8,0:0:0:0:
136,152,106085,1,0,0:0:0:0:
136,152,106138,1,0,0:0:0:0:
160,152,106190,1,8,0:0:0:0:
144,136,106296,1,2,0:0:0:0:
144,136,106348,1,2,0:0:0:0:
144,136,106401,1,2,0:0:0:0:
144,136,106454,5,0,0:0:0:0:
144,136,106559,1,0,0:0:0:0:
144,136,106664,1,0,0:0:0:0:
144,136,106769,1,0,0:0:0:0:
144,136,106875,5,2,0:0:0:0:
144,136,106980,5,0,0:0:0:0:
144,136,107085,1,0,0:0:0:0:
144,136,107190,1,0,0:0:0:0:
144,136,107296,1,0,0:0:0:0:
144,136,107401,5,2,0:0:0:0:
144,136,107506,5,0,0:0:0:0:
144,136,107611,1,0,0:0:0:0:
144,136,107717,5,2,0:0:0:0:
144,136,107822,5,0,0:0:0:0:
144,136,107927,1,0,0:0:0:0:
144,136,108033,5,2,0:0:0:0:
144,136,108111,1,2,0:0:0:0:
144,136,108190,1,2,0:0:0:0:
144,136,108269,1,2,0:0:0:0:
144,136,108348,5,0,0:0:0:0:
144,136,108454,1,0,0:0:0:0:
144,136,108559,1,0,0:0:0:0:
144,136,108664,5,2,0:0:0:0:
144,136,108769,5,0,0:0:0:0:
144,136,108875,1,0,0:0:0:0:
144,136,108980,1,0,0:0:0:0:
144,136,109085,1,0,0:0:0:0:
144,136,109190,1,0,0:0:0:0:
144,136,109296,5,2,0:0:0:0:
144,136,109375,1,2,0:0:0:0:
144,136,109454,1,2,0:0:0:0:
144,136,109533,1,2,0:0:0:0:
144,136,109611,5,0,0:0:0:0:
144,136,109717,1,0,0:0:0:0:
144,136,109822,5,2,0:0:0:0:
144,136,109927,5,0,0:0:0:0:
144,136,110033,1,0,0:0:0:0:
144,136,110138,1,0,0:0:0:0:
144,136,110243,5,2,0:0:0:0:
144,136,110322,1,2,0:0:0:0:
144,136,110401,1,2,0:0:0:0:
144,136,110480,1,2,0:0:0:0:
144,136,110559,5,0,0:0:0:0:
144,136,110664,5,2,0:0:0:0:
144,136,110769,5,0,0:0:0:0:
144,136,110875,1,0,0:0:0:0:
144,136,110980,1,0,0:0:0:0:
144,136,111085,1,0,0:0:0:0:
144,136,111190,5,2,0:0:0:0:
144,136,111269,1,2,0:0:0:0:
144,136,111348,1,2,0:0:0:0:
144,136,111427,1,2,0:0:0:0:
144,136,111506,5,0,0:0:0:0:
144,136,111611,1,0,0:0:0:0:
144,136,111717,1,0,0:0:0:0:
144,136,111822,5,2,0:0:0:0:
144,136,111927,5,0,0:0:0:0:
144,136,112033,1,0,0:0:0:0:
144,136,112138,5,2,0:0:0:0:
144,136,112243,5,0,0:0:0:0:
144,136,112348,1,0,0:0:0:0:
144,136,112454,5,2,0:0:0:0:
144,136,112533,1,2,0:0:0:0:
144,136,112611,1,2,0:0:0:0:
144,136,112690,1,2,0:0:0:0:
144,136,112769,5,0,0:0:0:0:
144,136,112875,1,0,0:0:0:0:
144,136,112980,1,0,0:0:0:0:
144,136,113085,5,2,0:0:0:0:
144,136,113190,5,0,0:0:0:0:
144,136,113296,1,0,0:0:0:0:
144,136,113401,5,2,0:0:0:0:
144,136,113506,5,0,0:0:0:0:
144,136,113611,1,0,0:0:0:0:
144,136,113717,5,2,0:0:0:0:
144,136,113796,1,2,0:0:0:0:
144,136,113875,1,2,0:0:0:0:
144,136,113954,1,2,0:0:0:0:
144,136,114033,5,0,0:0:0:0:
144,136,114138,1,0,0:0:0:0:
144,136,114243,1,0,0:0:0:0:
144,136,114348,5,2,0:0:0:0:
144,136,114427,1,2,0:0:0:0:
144,136,114506,1,2,0:0:0:0:
144,136,114585,1,2,0:0:0:0:
144,136,114664,5,0,0:0:0:0:
144,136,114769,1,0,0:0:0:0:
144,136,114875,1,0,0:0:0:0:
144,136,114980,5,2,0:0:0:0:
144,136,115059,1,2,0:0:0:0:
144,136,115138,1,2,0:0:0:0:
144,136,115217,1,2,0:0:0:0:
144,136,115296,5,0,0:0:0:0:
144,136,115454,5,2,0:0:0:0:
144,136,115533,5,0,0:0:0:0:
144,136,115690,5,2,0:0:0:0:
144,136,115769,5,0,0:0:0:0:
144,136,115927,5,2,0:0:0:0:
144,136,116006,5,0,0:0:0:0:
144,136,116164,1,8,0:0:0:0:
144,136,116243,1,2,0:0:0:0:
144,136,116322,1,2,0:0:0:0:
144,136,116401,1,2,0:0:0:0:
144,136,116479,1,8,0:0:0:0:
144,136,116558,1,0,0:0:0:0:
