osu file format v14

[General]
AudioFilename: audio.mp3
AudioLeadIn: 0
PreviewTime: 75544
Countdown: 0
SampleSet: Normal
StackLeniency: 0.7
Mode: 3
LetterboxInBreaks: 0
SpecialStyle: 0
WidescreenStoryboard: 1

[Editor]
DistanceSpacing: 0.9
BeatDivisor: 4
GridSize: 8
TimelineZoom: 2.640001

[Metadata]
Title:Dream to Nightmare
TitleUnicode:Dream to Nightmare
Artist:Nightmare
ArtistUnicode:Nightmare
Creator:_Stan
Version:MX
Source:PUMP IT UP - 2013 FIESTA 2 -
Tags:itg itg3 rebirth breakcore In The Groove HXJ_Crafter
BeatmapID:1127426
BeatmapSetID:527728

[Difficulty]
HPDrainRate:8.5
CircleSize:4
OverallDifficulty:8.5
ApproachRate:5
SliderMultiplier:1.4
SliderTickRate:1

[Events]
//Background and Video events
0,0,"bg.jpg",0,0
//Break Periods
//Storyboard Layer 0 (Background)
//Storyboard Layer 1 (Fail)
//Storyboard Layer 2 (Pass)
//Storyboard Layer 3 (Foreground)
//Storyboard Sound Samples

[TimingPoints]
56,337.078651685393,4,1,0,30,1,0
10505,-62.5,4,1,0,30,0,0
10589,-83.3333333333333,4,1,0,30,0,0
10673,-125,4,1,0,30,0,0
10758,-250,4,1,0,30,0,0
10842,-100,4,1,0,30,0,0
13202,-62.5,4,1,0,30,0,0
13286,-83.3333333333333,4,1,0,30,0,0
13370,-125,4,1,0,30,0,0
13454,-250,4,1,0,30,0,0
13539,-100,4,1,0,30,0,0
14044,-250,4,1,0,30,0,0
14129,-100,4,1,0,30,0,0
14213,-62.5,4,1,0,30,0,0
14297,-100,4,1,0,30,0,0
15898,-62.5,4,1,0,30,0,0
15982,-83.3333333333333,4,1,0,30,0,0
16067,-125,4,1,0,30,0,0
16151,-250,4,1,0,30,0,0
16235,-100,4,1,0,30,0,0
18595,-62.5,4,1,0,30,0,0
18679,-83.3333333333333,4,1,0,30,0,0
18763,-125,4,1,0,30,0,0
18848,-250,4,1,0,30,0,0
18932,-100,4,1,0,30,0,0
20954,-111.111111111111,4,1,0,30,0,0
21039,-90.9090909090909,4,1,0,30,0,0
21123,-142.857142857143,4,1,0,30,0,0
21207,-76.9230769230769,4,1,0,30,0,0
21291,-200,4,1,0,30,0,0
21376,-66.6666666666667,4,1,0,30,0,0
21460,-333.333333333333,4,1,0,30,0,0
21544,-58.8235294117647,4,1,0,30,0,0
21629,-500,4,1,0,30,0,0
21713,-55.5555555555556,4,1,0,30,0,0
21797,-1000,4,1,0,30,0,0
21881,-52.6315789473684,4,1,0,30,0,0
21966,-100,4,1,0,30,0,0
29718,-125,4,1,0,30,0,0
29775,-83.3333333333333,4,1,0,30,0,0
29831,-125,4,1,0,30,0,0
29887,-83.3333333333333,4,1,0,30,0,0
29943,-125,4,1,0,30,0,0
29999,-83.3333333333333,4,1,0,30,0,0
30055,-166.666666666667,4,1,0,30,0,0
30112,-71.4285714285714,4,1,0,30,0,0
30168,-166.666666666667,4,1,0,30,0,0
30224,-71.4285714285715,4,1,0,30,0,0
30280,-166.666666666667,4,1,0,30,0,0
30336,-71.4285714285715,4,1,0,30,0,0
30393,-100,4,1,0,30,0,0
30561,-111.111111111111,4,1,0,30,0,0
30730,-125,4,1,0,30,0,0
30898,-166.666666666667,4,1,0,30,0,0
31067,-142.857142857143,4,1,0,30,0,0
31235,-125,4,1,0,30,0,0
31404,-111.111111111111,4,1,0,30,0,0
31572,-100,4,1,0,30,0,0
31909,-250,4,1,0,30,0,0
31994,-62.5,4,1,0,30,0,0
32078,-100,4,1,0,30,0,0
32247,-250,4,1,0,30,0,0
32331,-62.5,4,1,0,30,0,0
32415,-100,4,1,0,30,0,0
32499,-166.666666666667,4,1,0,30,0,0
32541,-71.4285714285714,4,1,0,30,0,0
32584,-100,4,1,0,30,0,0
32668,-200,4,1,0,30,0,0
32710,-66.6666666666667,4,1,0,30,0,0
32752,-100,4,1,0,30,0,0
32836,-250,4,1,0,30,0,0
32879,-62.5,4,1,0,30,0,0
32921,-100,4,1,0,30,0,0
33005,-333.333333333333,4,1,0,30,0,0
33047,-58.8235294117647,4,1,0,30,0,0
33089,-125,4,1,0,30,0,0
45393,-166.666666666667,4,1,0,30,0,0
45561,-125,4,1,0,30,0,0
45730,-100,4,1,0,30,0,0
45898,-125,4,1,0,30,0,0
48258,-111.111111111111,4,1,0,30,0,0
48595,-100,4,1,0,30,0,1
50786,-200,4,1,0,30,0,1
50870,-66.6666666666667,4,1,0,30,0,1
50954,-100,4,1,0,30,0,1
51123,-200,4,1,0,30,0,1
51165,-66.6666666666667,4,1,0,30,0,1
51207,-200,4,1,0,30,0,1
51249,-66.6666666666667,4,1,0,30,0,1
51291,-100,4,1,0,30,0,1
53820,-200,4,1,0,30,0,1
53862,-66.6666666666667,4,1,0,30,0,1
53904,-200,4,1,0,30,0,1
53946,-66.6666666666667,4,1,0,30,0,1
53988,-100,4,1,0,30,0,1
56179,-200,4,1,0,30,0,1
56263,-66.6666666666667,4,1,0,30,0,1
56348,-100,4,1,0,30,0,1
56516,-200,4,1,0,30,0,1
56558,-66.6666666666667,4,1,0,30,0,1
56600,-200,4,1,0,30,0,1
56643,-66.6666666666667,4,1,0,30,0,1
56685,-100,4,1,0,30,0,1
56853,-166.666666666667,4,1,0,30,0,1
56938,-71.4285714285714,4,1,0,30,0,1
57022,-100,4,1,0,30,0,1
57527,-200.000000000001,4,1,0,30,0,1
57612,-66.6666666666667,4,1,0,30,0,1
57696,-100,4,1,0,30,0,1
58202,-250.000000000001,4,1,0,30,0,1
58286,-62.5,4,1,0,30,0,1
58370,-100,4,1,0,30,0,1
58876,-333.333333333334,4,1,0,30,0,1
58960,-58.8235294117647,4,1,0,30,0,1
59044,-100,4,1,0,30,0,1
59634,-166.666666666667,4,1,0,30,0,1
59676,-71.4285714285714,4,1,0,30,0,1
59718,-100,4,1,0,30,0,1
59971,-200,4,1,0,30,0,1
60013,-66.6666666666667,4,1,0,30,0,1
60055,-100,4,1,0,30,0,1
60308,-250,4,1,0,30,0,1
60350,-62.5,4,1,0,30,0,1
60393,-100,4,1,0,30,0,1
60645,-333.333333333333,4,1,0,30,0,1
60688,-58.8235294117647,4,1,0,30,0,1
60730,-100,4,1,0,30,0,1
61404,-125,4,1,0,30,0,1
61460,-83.3333333333333,4,1,0,30,0,1
61516,-125,4,1,0,30,0,1
61572,-83.3333333333333,4,1,0,30,0,1
61629,-125,4,1,0,30,0,1
61685,-83.3333333333333,4,1,0,30,0,1
61741,-166.666666666667,4,1,0,30,0,1
61797,-71.4285714285714,4,1,0,30,0,1
61853,-166.666666666667,4,1,0,30,0,1
61909,-71.4285714285714,4,1,0,30,0,1
61966,-166.666666666667,4,1,0,30,0,1
62022,-71.4285714285714,4,1,0,30,0,1
62078,-100,4,1,0,30,0,0
64775,-100,4,1,0,30,0,1
72190,-125,4,1,0,30,0,1
72247,-83.3333333333333,4,1,0,30,0,1
72303,-125,4,1,0,30,0,1
72359,-83.3333333333333,4,1,0,30,0,1
72415,-125,4,1,0,30,0,1
72471,-83.3333333333333,4,1,0,30,0,1
72527,-166.666666666667,4,1,0,30,0,1
72584,-71.4285714285714,4,1,0,30,0,1
72640,-166.666666666667,4,1,0,30,0,1
72696,-71.4285714285714,4,1,0,30,0,1
72752,-166.666666666667,4,1,0,30,0,1
72808,-71.4285714285714,4,1,0,30,0,1
72864,-100,4,1,0,30,0,1
73707,-250,4,1,0,30,0,0
73791,-125,4,1,0,30,0,0
73876,-83.3333333333333,4,1,0,30,0,0
73960,-62.5,4,1,0,30,0,0
74044,-100,4,1,0,30,0,0
74213,-125,4,1,0,30,0,0
74297,-83.3333333333333,4,1,0,30,0,0
74381,-125,4,1,0,30,0,0
74466,-83.3333333333333,4,1,0,30,0,0
74550,-166.666666666667,4,1,0,30,0,0
74634,-71.4285714285714,4,1,0,30,0,0
74718,-166.666666666667,4,1,0,30,0,0
74803,-71.4285714285714,4,1,0,30,0,0
74887,-250,4,1,0,30,0,0
74971,-62.5,4,1,0,30,0,0
75055,-250,4,1,0,30,0,0
75140,-62.5,4,1,0,30,0,0
75224,-500,4,1,0,30,0,0
75308,-55.5555555555556,4,1,0,30,0,0
75393,-500,4,1,0,30,0,0
75477,-55.5555555555556,4,1,0,30,0,0
75561,-100,4,1,0,30,0,0
76909,-62.5,4,1,0,30,0,0
76994,-83.3333333333333,4,1,0,30,0,0
77078,-125,4,1,0,30,0,0
77162,-250,4,1,0,30,0,0
77247,-100,4,1,0,30,0,0
77584,-200,4,1,0,30,0,0
77668,-66.6666666666667,4,1,0,30,0,0
77752,-200,4,1,0,30,0,0
77836,-66.6666666666667,4,1,0,30,0,0
77921,-100,4,1,0,30,0,0
78089,-200,4,1,0,30,0,0
78173,-66.6666666666667,4,1,0,30,0,0
78258,-100,4,1,0,30,0,0
78595,-200,4,1,0,30,0,0
78679,-66.6666666666667,4,1,0,30,0,0
78763,-100,4,1,0,30,0,0
79100,-200,4,1,0,30,0,0
79185,-66.6666666666667,4,1,0,30,0,0
79269,-100,4,1,0,30,0,0
79353,-200,4,1,0,30,0,0
79438,-66.6666666666667,4,1,0,30,0,0
79522,-100,4,1,0,30,0,0
79775,-200,4,1,0,30,0,0
79859,-66.6666666666667,4,1,0,30,0,0
79943,-100,4,1,0,30,0,0
80280,-200,4,1,0,30,0,0
80364,-66.6666666666667,4,1,0,30,0,0
80449,-100,4,1,0,30,0,0
80617,-200,4,1,0,30,0,0
80702,-66.6666666666667,4,1,0,30,0,0
80786,-200,4,1,0,30,0,0
80870,-66.6666666666667,4,1,0,30,0,0
80954,-100,4,1,0,30,0,0
81123,-200,4,1,0,30,0,0
81207,-66.6666666666667,4,1,0,30,0,0
81291,-100,4,1,0,30,0,0
81376,-200,4,1,0,30,0,0
81460,-66.6666666666667,4,1,0,30,0,0
81544,-100,4,1,0,30,0,0
81629,-200,4,1,0,30,0,0
81713,-66.6666666666667,4,1,0,30,0,0
81797,-100,4,1,0,30,0,0
81966,-200,4,1,0,30,0,0
82050,-66.6666666666667,4,1,0,30,0,0
82134,-100,4,1,0,30,0,0
82303,-200,4,1,0,30,0,0
82387,-66.6666666666667,4,1,0,30,0,0
82471,-100,4,1,0,30,0,0
82977,-200,4,1,0,30,0,0
83061,-66.6666666666667,4,1,0,30,0,0
83145,-100,4,1,0,30,0,0
83314,-200,4,1,0,30,0,0
83398,-66.6666666666667,4,1,0,30,0,0
83482,-200,4,1,0,30,0,0
83567,-66.6666666666667,4,1,0,30,0,0
83651,-100,4,1,0,30,0,0
83820,-200,4,1,0,30,0,0
83904,-66.6666666666667,4,1,0,30,0,0
83988,-100,4,1,0,30,0,0
84072,-200,4,1,0,30,0,0
84157,-66.6666666666667,4,1,0,30,0,0
84241,-200,4,1,0,30,0,0
84325,-66.6666666666667,4,1,0,30,0,0
84409,-200,4,1,0,30,0,0
84494,-66.6666666666667,4,1,0,30,0,0
84578,-200,4,1,0,30,0,0
84662,-66.6666666666667,4,1,0,30,0,0
84747,-200,4,1,0,30,0,0
84831,-66.6666666666667,4,1,0,30,0,0
84915,-200,4,1,0,30,0,0
84999,-66.6666666666667,4,1,0,30,0,0
85084,-200,4,1,0,30,0,0
85168,-66.6666666666667,4,1,0,30,0,0
85252,-200,4,1,0,30,0,0
85336,-66.6666666666667,4,1,0,30,0,0
85421,-200,4,1,0,30,0,0
85505,-66.6666666666667,4,1,0,30,0,0
85589,-200,4,1,0,30,0,0
85673,-66.6666666666667,4,1,0,30,0,0
85758,-200,4,1,0,30,0,0
85842,-66.6666666666667,4,1,0,30,0,0
85926,-200,4,1,0,30,0,0
86011,-66.6666666666667,4,1,0,30,0,0
86095,-200,4,1,0,30,0,0
86179,-66.6666666666667,4,1,0,30,0,0
86263,-100,4,1,0,30,0,0
90477,-200,4,1,0,30,0,0
90519,-66.6666666666667,4,1,0,30,0,0
90561,-100,4,1,0,30,0,0
91741,-125,4,1,0,30,0,0
91909,-111.111111111111,4,1,0,30,0,0
92078,-100,4,1,0,30,0,0
94522,-166.666666666667,4,1,0,30,0,0
94564,-71.4285714285714,4,1,0,30,0,0
94606,-100,4,1,0,30,0,0
94859,-200,4,1,0,30,0,0
94901,-66.6666666666667,4,1,0,30,0,0
94943,-100,4,1,0,30,0,0
95196,-250,4,1,0,30,0,0
95238,-62.5,4,1,0,30,0,0
95280,-100,4,1,0,30,0,0
95533,-333.333333333333,4,1,0,30,0,0
95575,-58.8235294117647,4,1,0,30,0,0
95617,-100,4,1,0,30,0,0
101179,-100,4,1,0,30,0,1
102949,-125,4,1,0,30,0,1
103033,-83.3333333333333,4,1,0,30,0,1
103117,-166.666666666667,4,1,0,30,0,1
103202,-71.4285714285714,4,1,0,30,0,1
103286,-250,4,1,0,30,0,1
103370,-62.5,4,1,0,30,0,1
103454,-100,4,1,0,30,0,0

[HitObjects]
320,192,56,128,0,140:0:0:0:20:punk.wav
64,192,393,128,0,477:0:0:0:20:punk.wav
448,192,561,128,0,645:0:0:0:20:punk.wav
64,192,730,128,0,814:0:0:0:20:punk.wav
448,192,898,128,0,982:0:0:0:20:punk.wav
192,192,1067,128,0,1151:0:0:0:50:punk.wav
320,192,1067,128,0,1404:0:0:0:0:
448,192,1404,1,0,0:0:0:100:sub bass.wav
64,192,1404,1,0,0:0:0:50:drumhit.wav
320,192,1741,1,0,0:0:0:100:sub bass.wav
448,192,1909,1,0,0:0:0:100:sub bass.wav
64,192,1994,1,0,0:0:0:100:sub bass.wav
192,192,2036,1,0,0:0:0:100:sub bass.wav
320,192,2078,1,0,0:0:0:100:sub bass.wav
448,192,2247,1,0,0:0:0:100:sub bass.wav
64,192,2415,1,0,0:0:0:100:sub bass.wav
192,192,2415,1,0,0:0:0:50:drumhit.wav
320,192,2499,1,0,0:0:0:100:sub bass.wav
448,192,2584,1,0,0:0:0:100:sub bass.wav
64,192,2752,1,0,0:0:0:100:sub bass.wav
448,192,2921,1,0,0:0:0:100:sub bass.wav
320,192,3005,1,0,0:0:0:100:sub bass.wav
192,192,3089,1,0,0:0:0:100:sub bass.wav
64,192,3258,1,0,0:0:0:100:sub bass.wav
192,192,3300,1,0,0:0:0:100:sub bass.wav
320,192,3342,1,0,0:0:0:100:sub bass.wav
448,192,3384,1,0,0:0:0:100:sub bass.wav
192,192,3426,1,0,0:0:0:100:sub bass.wav
64,192,3426,1,0,0:0:0:50:drumhit.wav
448,192,3595,1,0,0:0:0:100:sub bass.wav
320,192,3637,1,0,0:0:0:100:sub bass.wav
192,192,3679,1,0,0:0:0:100:sub bass.wav
64,192,3721,1,0,0:0:0:100:sub bass.wav
448,192,3763,1,0,0:0:0:100:sub bass.wav
64,192,3932,1,0,0:0:0:100:sub bass.wav
192,192,3974,1,0,0:0:0:100:sub bass.wav
320,192,4016,1,0,0:0:0:100:sub bass.wav
448,192,4058,1,0,0:0:0:100:sub bass.wav
64,192,4100,1,0,0:0:0:100:sub bass.wav
448,192,4269,1,0,0:0:0:100:sub bass.wav
320,192,4311,1,0,0:0:0:100:sub bass.wav
192,192,4353,1,0,0:0:0:100:sub bass.wav
64,192,4395,1,0,0:0:0:100:sub bass.wav
320,192,4438,1,0,0:0:0:100:sub bass.wav
448,192,4438,1,0,0:0:0:50:drumhit.wav
192,192,4550,1,0,0:0:0:100:sub bass.wav
320,192,4662,1,0,0:0:0:100:sub bass.wav
448,192,4690,1,0,0:0:0:100:sub bass.wav
64,192,4718,1,0,0:0:0:100:sub bass.wav
192,192,4747,1,0,0:0:0:100:sub bass.wav
320,192,4775,1,0,0:0:0:100:sub bass.wav
64,192,4887,1,0,0:0:0:100:sub bass.wav
320,192,4999,1,0,0:0:0:100:sub bass.wav
448,192,5027,1,0,0:0:0:100:sub bass.wav
64,192,5055,1,0,0:0:0:100:sub bass.wav
192,192,5084,1,0,0:0:0:100:sub bass.wav
320,192,5112,1,0,0:0:0:100:sub bass.wav
64,192,5224,1,0,0:0:0:100:sub bass.wav
192,192,5280,1,0,0:0:0:100:sub bass.wav
448,192,5336,1,0,0:0:0:100:sub bass.wav
320,192,5364,1,0,0:0:0:100:sub bass.wav
64,192,5393,1,0,0:0:0:100:sub bass.wav
192,192,5421,1,0,0:0:0:100:sub bass.wav
448,192,5449,1,0,0:0:0:100:sub bass.wav
320,192,5449,1,0,0:0:0:50:drumhit.wav
64,192,5617,1,0,0:0:0:90:bass.wav
448,192,5702,1,0,0:0:0:0:
64,192,5786,1,0,0:0:0:30:crash.wav
192,192,5786,1,0,0:0:0:50:hat.wav
320,192,5786,1,0,0:0:0:0:
448,192,5870,1,0,0:0:0:90:bass.wav
192,192,5954,1,0,0:0:0:50:hat.wav
64,192,5954,1,0,0:0:0:0:
320,192,6039,1,0,0:0:0:90:bass.wav
448,192,6039,1,0,0:0:0:0:
192,192,6123,1,0,0:0:0:50:hat.wav
448,192,6207,1,0,0:0:0:30:crash.wav
64,192,6207,1,0,0:0:0:50:hat.wav
320,192,6376,1,0,0:0:0:50:hat.wav
192,192,6460,1,0,0:0:0:90:bass.wav
64,192,6544,1,0,0:0:0:50:hat.wav
448,192,6544,1,0,0:0:0:0:
320,192,6713,1,0,0:0:0:90:bass.wav
192,192,6713,1,0,0:0:0:0:
64,192,6881,1,0,0:0:0:50:hat.wav
448,192,7050,1,0,0:0:0:50:drumhit.wav
320,192,7050,1,0,0:0:0:0:
192,192,7050,1,0,0:0:0:0:
64,192,7134,1,0,0:0:0:50:drumhit.wav
320,192,7218,1,0,0:0:0:50:hat.wav
192,192,7303,1,0,0:0:0:90:bass.wav
448,192,7387,1,0,0:0:0:50:hat.wav
320,192,7471,1,0,0:0:0:90:bass.wav
192,192,7555,1,0,0:0:0:50:hat.wav
64,192,7555,1,0,0:0:0:0:
320,192,7724,1,0,0:0:0:50:punk.wav
192,192,7893,1,0,0:0:0:50:drumhit.wav
64,192,7893,1,0,0:0:0:30:crash.wav
448,192,7893,1,0,0:0:0:0:
320,192,8019,1,0,0:0:0:90:bass.wav
448,192,8145,1,0,0:0:0:0:
64,192,8230,1,0,0:0:0:0:
192,192,8314,1,0,0:0:0:0:
320,192,8398,1,0,0:0:0:0:
448,192,8482,1,0,0:0:0:0:
192,192,8735,1,0,0:0:0:50:drumhit.wav
64,192,8735,1,0,0:0:0:0:
448,192,8988,1,0,0:0:0:50:hat.wav
64,192,9241,1,0,0:0:0:50:drumhit.wav
320,192,9325,1,0,0:0:0:0:
192,192,9381,1,0,0:0:0:0:
64,192,9438,1,0,0:0:0:0:
448,192,9494,1,0,0:0:0:50:drumhit.wav
320,192,9494,1,0,0:0:0:30:crash.wav
320,192,9831,1,0,0:0:0:90:bass.wav
192,192,9831,1,0,0:0:0:0:
192,192,9999,1,0,0:0:0:90:bass.wav
64,192,9999,1,0,0:0:0:0:
192,192,10168,1,0,0:0:0:90:bass.wav
320,192,10168,1,0,0:0:0:0:
320,192,10336,1,0,0:0:0:90:bass.wav
448,192,10336,1,0,0:0:0:0:
64,192,10505,128,0,10842:0:0:0:50:snare.wav
192,192,10505,128,0,10842:0:0:0:90:bass.wav
448,192,10842,1,0,0:0:0:50:snare.wav
320,192,10842,1,0,0:0:0:90:bass.wav
192,192,11011,1,0,0:0:0:90:bass.wav
64,192,11011,1,0,0:0:0:0:
448,192,11348,1,0,0:0:0:50:drumhit.wav
192,192,11348,1,0,0:0:0:0:
320,192,11348,1,0,0:0:0:0:
448,192,11516,1,0,0:0:0:50:hat.wav
64,192,11685,128,0,11853:0:0:0:90:bass.wav
448,192,11853,1,0,0:0:0:50:drumhit.wav
320,192,11853,1,0,0:0:0:0:
192,192,11853,1,0,0:0:0:0:
64,192,11938,1,0,0:0:0:50:hat.wav
320,192,12022,1,0,0:0:0:90:bass.wav
448,192,12022,1,0,0:0:0:0:
192,192,12106,1,0,0:0:0:0:
448,192,13202,128,0,13539:0:0:0:50:punk.wav
192,192,13539,1,0,0:0:0:90:bass.wav
64,192,13539,1,0,0:0:0:0:
448,192,13707,1,0,0:0:0:50:drumhit.wav
320,192,13707,1,0,0:0:0:0:
192,192,13791,1,0,0:0:0:50:drumhit.wav
64,192,13791,1,0,0:0:0:0:
448,192,13876,1,0,0:0:0:90:bass.wav
320,192,13876,1,0,0:0:0:0:
192,192,14044,128,0,14297:0:0:0:50:drumhit.wav
64,192,14044,128,0,14297:0:0:0:0:
448,192,14044,1,0,0:0:0:0:
320,192,14381,1,0,0:0:0:90:bass.wav
448,192,14381,1,0,0:0:0:0:
192,192,14550,1,0,0:0:0:90:bass.wav
64,192,14550,1,0,0:0:0:0:
448,192,14634,1,0,0:0:0:50:hat.wav
64,192,14718,1,0,0:0:0:50:drumhit.wav
192,192,14718,1,0,0:0:0:0:
320,192,14718,1,0,0:0:0:0:
448,192,14803,1,0,0:0:0:0:
64,192,15898,128,0,16235:0:0:0:50:punk.wav
448,192,16235,1,0,0:0:0:90:bass.wav
320,192,16235,1,0,0:0:0:0:
192,192,16404,1,0,0:0:0:50:drumhit.wav
64,192,16404,1,0,0:0:0:0:
448,192,16488,1,0,0:0:0:50:drumhit.wav
320,192,16488,1,0,0:0:0:0:
64,192,16572,1,0,0:0:0:50:drumhit.wav
192,192,16572,1,0,0:0:0:0:
320,192,16657,1,0,0:0:0:50:drumhit.wav
192,192,16741,1,0,0:0:0:90:bass.wav
64,192,16741,1,0,0:0:0:0:
448,192,16741,1,0,0:0:0:0:
320,192,16909,1,0,0:0:0:50:hat.wav
192,192,16994,1,0,0:0:0:50:hat.wav
64,192,17078,1,0,0:0:0:90:bass.wav
448,192,17078,1,0,0:0:0:0:
320,192,17078,1,0,0:0:0:0:
192,192,17247,1,0,0:0:0:50:hat.wav
320,192,17331,1,0,0:0:0:50:hat.wav
64,192,17415,1,0,0:0:0:50:drumhit.wav
448,192,17415,1,0,0:0:0:0:
192,192,17415,1,0,0:0:0:0:
320,192,17499,1,0,0:0:0:0:
448,192,18595,128,0,18932:0:0:0:50:punk.wav
64,192,18932,1,0,0:0:0:90:bass.wav
192,192,18932,1,0,0:0:0:0:
448,192,19100,1,0,0:0:0:50:drumhit.wav
320,192,19100,1,0,0:0:0:0:
64,192,19185,1,0,0:0:0:90:bass.wav
192,192,19185,1,0,0:0:0:0:
448,192,19269,1,0,0:0:0:50:drumhit.wav
320,192,19269,1,0,0:0:0:0:
64,192,19353,1,0,0:0:0:90:bass.wav
192,192,19353,1,0,0:0:0:0:
320,192,19438,1,0,0:0:0:50:drumhit.wav
448,192,19438,1,0,0:0:0:0:
64,192,19606,1,0,0:0:0:90:bass.wav
192,192,19606,1,0,0:0:0:0:
320,192,19606,1,0,0:0:0:0:
448,192,19775,1,0,0:0:0:50:drumhit.wav
320,192,19775,1,0,0:0:0:0:
64,192,19859,1,0,0:0:0:50:drumhit.wav
192,192,19859,1,0,0:0:0:0:
320,192,19943,1,0,0:0:0:50:drumhit.wav
448,192,19943,1,0,0:0:0:0:
192,192,20027,1,0,0:0:0:50:drumhit.wav
448,192,20112,1,0,0:0:0:90:bass.wav
64,192,20112,1,0,0:0:0:0:
320,192,20112,1,0,0:0:0:0:
192,192,20280,1,0,0:0:0:50:hat.wav
64,192,20364,1,0,0:0:0:50:drumhit.wav
448,192,20364,1,0,0:0:0:0:
320,192,20364,1,0,0:0:0:0:
192,192,20533,1,0,0:0:0:50:hat.wav
64,192,20617,1,0,0:0:0:50:drumhit.wav
448,192,20617,1,0,0:0:0:0:
320,192,20617,1,0,0:0:0:0:
192,192,20786,1,0,0:0:0:50:hat.wav
320,192,20870,1,0,0:0:0:50:hat.wav
448,192,20954,1,0,0:0:0:50:drumhit.wav
64,192,20954,1,0,0:0:0:0:
192,192,20954,1,0,0:0:0:0:
64,192,21123,1,0,0:0:0:50:drumhit.wav
448,192,21123,1,0,0:0:0:0:
192,192,21123,1,0,0:0:0:0:
64,192,21291,1,0,0:0:0:50:drumhit.wav
448,192,21291,1,0,0:0:0:0:
192,192,21291,1,0,0:0:0:0:
64,192,21460,1,0,0:0:0:50:drumhit.wav
448,192,21460,1,0,0:0:0:0:
192,192,21460,1,0,0:0:0:0:
448,192,21629,1,0,0:0:0:50:drumhit.wav
64,192,21629,1,0,0:0:0:0:
192,192,21629,1,0,0:0:0:0:
448,192,21797,1,0,0:0:0:50:drumhit.wav
64,192,21797,1,0,0:0:0:0:
192,192,21797,1,0,0:0:0:0:
320,192,21966,128,0,22303:0:0:0:50:punk.wav
64,192,22303,1,0,0:0:0:50:hat.wav
448,192,22303,1,0,0:0:0:0:
64,192,22977,1,0,0:0:0:50:drumhit.wav
320,192,22977,1,0,0:0:0:0:
448,192,22977,1,0,0:0:0:0:
192,192,23061,1,0,0:0:0:0:
320,192,23145,1,0,0:0:0:0:
64,192,23230,1,0,0:0:0:0:
192,192,23314,1,0,0:0:0:0:
320,192,23398,1,0,0:0:0:0:
448,192,23482,1,0,0:0:0:90:bass.wav
64,192,23482,1,0,0:0:0:0:
192,192,23820,1,0,0:0:0:50:drumhit.wav
320,192,23820,1,0,0:0:0:0:
448,192,23820,1,0,0:0:0:0:
64,192,23988,1,0,0:0:0:90:bass.wav
192,192,23988,1,0,0:0:0:0:
448,192,24072,1,0,0:0:0:90:bass.wav
320,192,24072,1,0,0:0:0:0:
192,192,24157,1,0,0:0:0:90:bass.wav
64,192,24157,1,0,0:0:0:0:
448,192,24241,1,0,0:0:0:90:bass.wav
320,192,24241,1,0,0:0:0:0:
64,192,24325,1,0,0:0:0:50:drumhit.wav
192,192,24325,1,0,0:0:0:0:
448,192,24494,1,0,0:0:0:50:drumhit.wav
192,192,24494,1,0,0:0:0:0:
320,192,24494,1,0,0:0:0:0:
64,192,24578,1,0,0:0:0:50:hat.wav
192,192,24620,1,0,0:0:0:50:hat.wav
448,192,24662,1,0,0:0:0:50:hat.wav
320,192,24704,1,0,0:0:0:50:hat.wav
192,192,24747,1,0,0:0:0:50:hat.wav
448,192,24831,1,0,0:0:0:90:bass.wav
320,192,24915,1,0,0:0:0:90:bass.wav
192,192,24999,1,0,0:0:0:50:drumhit.wav
64,192,24999,1,0,0:0:0:0:
320,192,25168,1,0,0:0:0:90:bass.wav
448,192,25168,1,0,0:0:0:0:
192,192,25336,1,0,0:0:0:50:drumhit.wav
64,192,25336,1,0,0:0:0:0:
320,192,25505,1,0,0:0:0:50:drumhit.wav
448,192,25505,1,0,0:0:0:0:
192,192,25673,1,0,0:0:0:90:bass.wav
64,192,25673,1,0,0:0:0:0:
320,192,25758,1,0,0:0:0:50:punk.wav
64,192,25842,1,0,0:0:0:90:bass.wav
448,192,25842,1,0,0:0:0:0:
320,192,25926,1,0,0:0:0:50:punk.wav
448,192,26011,1,0,0:0:0:50:drumhit.wav
64,192,26011,1,0,0:0:0:0:
192,192,26095,1,0,0:0:0:50:punk.wav
64,192,26179,1,0,0:0:0:50:drumhit.wav
448,192,26179,1,0,0:0:0:0:
320,192,26179,1,0,0:0:0:0:
192,192,26432,1,0,0:0:0:90:bass.wav
320,192,26516,1,0,0:0:0:90:bass.wav
64,192,26600,1,0,0:0:0:50:drumhit.wav
192,192,26600,1,0,0:0:0:0:
448,192,26600,1,0,0:0:0:0:
320,192,26853,1,0,0:0:0:90:bass.wav
192,192,26938,1,0,0:0:0:90:bass.wav
320,192,27022,1,0,0:0:0:50:drumhit.wav
64,192,27022,1,0,0:0:0:0:
448,192,27022,1,0,0:0:0:0:
192,192,27275,1,0,0:0:0:90:bass.wav
320,192,27359,1,0,0:0:0:90:bass.wav
448,192,27443,128,0,27696:0:0:0:0:
192,192,27696,1,0,0:0:0:90:bass.wav
64,192,27696,1,0,0:0:0:0:
192,192,28370,1,0,0:0:0:50:snare.wav
64,192,28370,1,0,0:0:0:90:bass.wav
448,192,28454,1,0,0:0:0:50:drumhit.wav
320,192,28454,1,0,0:0:0:0:
448,192,28623,1,0,0:0:0:50:drumhit.wav
320,192,28623,1,0,0:0:0:0:
448,192,28791,1,0,0:0:0:50:drumhit.wav
320,192,28791,1,0,0:0:0:0:
448,192,28960,1,0,0:0:0:50:drumhit.wav
320,192,28960,1,0,0:0:0:0:
192,192,29044,1,0,0:0:0:90:bass.wav
64,192,29044,1,0,0:0:0:0:
320,192,29129,1,0,0:0:0:50:drumhit.wav
448,192,29213,1,0,0:0:0:90:bass.wav
64,192,29213,1,0,0:0:0:0:
192,192,29297,1,0,0:0:0:50:drumhit.wav
320,192,29381,1,0,0:0:0:90:bass.wav
448,192,29381,1,0,0:0:0:0:
448,192,29550,1,0,0:0:0:90:bass.wav
320,192,29550,1,0,0:0:0:0:
64,192,29718,1,0,0:0:0:90:bass.wav
192,192,29718,1,0,0:0:0:0:
448,192,29831,1,0,0:0:0:90:bass.wav
320,192,29831,1,0,0:0:0:0:
320,192,29943,1,0,0:0:0:90:bass.wav
448,192,29943,1,0,0:0:0:0:
64,192,30055,1,0,0:0:0:90:bass.wav
192,192,30055,1,0,0:0:0:0:
192,192,30168,1,0,0:0:0:90:bass.wav
64,192,30168,1,0,0:0:0:0:
320,192,30280,1,0,0:0:0:90:bass.wav
448,192,30280,1,0,0:0:0:0:
64,192,30393,128,0,31572:0:0:0:50:drumhit.wav
192,192,30393,1,0,0:0:0:0:
448,192,30898,1,0,0:0:0:50:drumhit.wav
192,192,30898,128,0,31572:0:0:0:0:
320,192,31572,1,0,0:0:0:90:bass.wav
448,192,31572,1,0,0:0:0:0:
64,192,31657,1,0,0:0:0:90:bass.wav
192,192,31657,1,0,0:0:0:0:
320,192,31741,1,0,0:0:0:50:drumhit.wav
448,192,31741,1,0,0:0:0:0:
192,192,31825,1,0,0:0:0:90:bass.wav
64,192,31825,1,0,0:0:0:0:
448,192,31909,128,0,32078:0:0:0:50:hat.wav
64,192,32078,1,0,0:0:0:50:drumhit.wav
192,192,32078,1,0,0:0:0:0:
320,192,32162,1,0,0:0:0:90:bass.wav
448,192,32162,1,0,0:0:0:0:
64,192,32247,128,0,32415:0:0:0:50:hat.wav
192,192,32415,1,0,0:0:0:50:snare.wav
320,192,32457,1,0,0:0:0:50:hat.wav
448,192,32499,1,0,0:0:0:50:hat.wav
192,192,32584,1,0,0:0:0:50:snare.wav
320,192,32626,1,0,0:0:0:50:hat.wav
448,192,32668,1,0,0:0:0:50:hat.wav
64,192,32752,1,0,0:0:0:50:snare.wav
192,192,32794,1,0,0:0:0:50:hat.wav
320,192,32836,1,0,0:0:0:50:hat.wav
64,192,32921,1,0,0:0:0:50:snare.wav
192,192,32963,1,0,0:0:0:50:hat.wav
320,192,33005,1,0,0:0:0:50:hat.wav
448,192,33089,128,0,37808:0:0:0:50:drumhit.wav
64,192,33089,1,0,0:0:0:50:crash.wav
192,192,37808,1,0,0:0:0:30:crash.wav
320,192,37808,1,0,0:0:0:90:bass.wav
64,192,37808,1,0,0:0:0:0:
320,192,38145,1,0,0:0:0:90:bass.wav
192,192,38145,1,0,0:0:0:0:
64,192,38482,1,0,0:0:0:50:drumhit.wav
192,192,38482,1,0,0:0:0:0:
448,192,38482,1,0,0:0:0:0:
320,192,38820,1,0,0:0:0:90:bass.wav
192,192,38820,1,0,0:0:0:0:
64,192,38988,1,0,0:0:0:50:drumhit.wav
192,192,38988,1,0,0:0:0:0:
448,192,38988,1,0,0:0:0:0:
320,192,39157,128,0,39325:0:0:0:90:bass.wav
192,192,39325,1,0,0:0:0:50:drumhit.wav
64,192,39325,1,0,0:0:0:0:
448,192,39325,1,0,0:0:0:0:
320,192,39494,1,0,0:0:0:90:bass.wav
192,192,39494,1,0,0:0:0:0:
192,192,39831,1,0,0:0:0:50:drumhit.wav
64,192,39831,1,0,0:0:0:0:
448,192,39831,1,0,0:0:0:0:
320,192,39999,1,0,0:0:0:90:bass.wav
192,192,39999,1,0,0:0:0:0:
192,192,40168,1,0,0:0:0:50:drumhit.wav
64,192,40168,1,0,0:0:0:0:
448,192,40168,1,0,0:0:0:0:
320,192,40336,1,0,0:0:0:100:sub bass.wav
192,192,40421,1,0,0:0:0:100:sub bass.wav
64,192,40505,1,0,0:0:0:90:bass.wav
448,192,40505,1,0,0:0:0:0:
192,192,40842,1,0,0:0:0:90:bass.wav
64,192,40842,1,0,0:0:0:0:
320,192,41011,1,0,0:0:0:90:bass.wav
192,192,41095,1,0,0:0:0:90:bass.wav
448,192,41179,1,0,0:0:0:50:drumhit.wav
320,192,41179,1,0,0:0:0:0:
64,192,41179,1,0,0:0:0:0:
192,192,41348,1,0,0:0:0:90:bass.wav
64,192,41348,1,0,0:0:0:0:
448,192,41685,1,0,0:0:0:50:drumhit.wav
320,192,41685,1,0,0:0:0:0:
192,192,41685,1,0,0:0:0:0:
320,192,41853,1,0,0:0:0:90:bass.wav
64,192,41853,1,0,0:0:0:0:
448,192,42190,1,0,0:0:0:50:drumhit.wav
320,192,42190,1,0,0:0:0:0:
192,192,42190,1,0,0:0:0:0:
448,192,42359,1,0,0:0:0:90:bass.wav
64,192,42359,1,0,0:0:0:0:
448,192,42696,1,0,0:0:0:50:drumhit.wav
320,192,42696,1,0,0:0:0:0:
192,192,42696,1,0,0:0:0:0:
64,192,42864,1,0,0:0:0:100:sub bass.wav
192,192,42907,1,0,0:0:0:100:sub bass.wav
320,192,42949,1,0,0:0:0:100:sub bass.wav
448,192,42991,1,0,0:0:0:100:sub bass.wav
64,192,43033,1,0,0:0:0:100:sub bass.wav
192,192,43075,1,0,0:0:0:100:sub bass.wav
320,192,43117,1,0,0:0:0:100:sub bass.wav
448,192,43159,1,0,0:0:0:100:sub bass.wav
192,192,43202,1,0,0:0:0:90:bass.wav
64,192,43202,1,0,0:0:0:0:
448,192,43286,1,0,0:0:0:100:sub bass.wav
320,192,43286,1,0,0:0:0:0:
192,192,43370,1,0,0:0:0:90:bass.wav
64,192,43370,1,0,0:0:0:0:
448,192,43539,1,0,0:0:0:90:bass.wav
320,192,43539,1,0,0:0:0:0:
192,192,43623,1,0,0:0:0:100:sub bass.wav
64,192,43623,1,0,0:0:0:0:
448,192,43707,1,0,0:0:0:90:bass.wav
320,192,43707,1,0,0:0:0:0:
320,192,43876,1,0,0:0:0:50:drumhit.wav
64,192,43876,1,0,0:0:0:0:
192,192,43876,1,0,0:0:0:0:
320,192,44718,1,0,0:0:0:90:bass.wav
192,192,44718,1,0,0:0:0:0:
320,192,45055,1,0,0:0:0:90:bass.wav
192,192,45055,1,0,0:0:0:0:
64,192,45224,1,0,0:0:0:50:drumhit.wav
448,192,45224,1,0,0:0:0:0:
192,192,45224,1,0,0:0:0:0:
320,192,45393,128,0,45898:0:0:0:100:sub bass.wav
448,192,45393,128,0,45898:0:0:0:0:
192,192,45898,1,0,0:0:0:90:bass.wav
64,192,45898,1,0,0:0:0:0:
320,192,46067,1,0,0:0:0:90:bass.wav
448,192,46067,1,0,0:0:0:0:
448,192,46404,1,0,0:0:0:90:bass.wav
320,192,46404,1,0,0:0:0:0:
64,192,46572,1,0,0:0:0:100:sub bass.wav
192,192,46614,1,0,0:0:0:100:sub bass.wav
320,192,46657,1,0,0:0:0:100:sub bass.wav
448,192,46699,1,0,0:0:0:100:sub bass.wav
64,192,46741,1,0,0:0:0:100:sub bass.wav
192,192,46783,1,0,0:0:0:100:sub bass.wav
320,192,46825,1,0,0:0:0:100:sub bass.wav
448,192,46867,1,0,0:0:0:100:sub bass.wav
64,192,46909,1,0,0:0:0:0:
192,192,46952,1,0,0:0:0:0:
320,192,46994,1,0,0:0:0:0:
64,192,47078,1,0,0:0:0:100:sub bass.wav
192,192,47078,1,0,0:0:0:0:
448,192,47162,1,0,0:0:0:100:sub bass.wav
320,192,47162,1,0,0:0:0:0:
64,192,47247,1,0,0:0:0:50:hat.wav
192,192,47247,1,0,0:0:0:0:
320,192,47584,1,0,0:0:0:50:drumhit.wav
192,192,47584,1,0,0:0:0:0:
448,192,47584,1,0,0:0:0:0:
192,192,47752,1,0,0:0:0:90:bass.wav
64,192,47752,1,0,0:0:0:0:
320,192,48089,1,0,0:0:0:50:drumhit.wav
192,192,48089,1,0,0:0:0:0:
448,192,48089,1,0,0:0:0:0:
448,192,48258,128,0,48595:0:0:0:100:sub bass.wav
320,192,48258,128,0,48595:0:0:0:0:
192,192,48595,1,0,0:0:0:30:crash.wav
64,192,48595,1,0,0:0:0:90:bass.wav
192,192,48763,1,0,0:0:0:100:sub bass.wav
320,192,48763,1,0,0:0:0:50:drumhit.wav
448,192,48763,1,0,0:0:0:0:
64,192,48932,1,0,0:0:0:90:bass.wav
192,192,48932,1,0,0:0:0:0:
448,192,49016,1,0,0:0:0:50:drumhit.wav
320,192,49016,1,0,0:0:0:0:
64,192,49100,1,0,0:0:0:90:bass.wav
192,192,49100,1,0,0:0:0:0:
192,192,49269,1,0,0:0:0:90:bass.wav
320,192,49269,1,0,0:0:0:0:
320,192,49438,1,0,0:0:0:100:sub bass.wav
448,192,49438,1,0,0:0:0:50:drumhit.wav
64,192,49438,1,0,0:0:0:0:
192,192,49606,1,0,0:0:0:90:bass.wav
64,192,49606,1,0,0:0:0:0:
320,192,49690,1,0,0:0:0:50:drumhit.wav
448,192,49775,1,0,0:0:0:0:
64,192,49775,1,0,0:0:0:90:bass.wav
192,192,49859,1,0,0:0:0:50:drumhit.wav
448,192,49943,1,0,0:0:0:90:bass.wav
320,192,49943,1,0,0:0:0:0:
192,192,50112,1,0,0:0:0:100:sub bass.wav
448,192,50112,1,0,0:0:0:50:drumhit.wav
64,192,50112,1,0,0:0:0:0:
320,192,50196,1,0,0:0:0:100:sub bass.wav
192,192,50280,1,0,0:0:0:100:sub bass.wav
64,192,50280,1,0,0:0:0:0:
320,192,50364,1,0,0:0:0:100:sub bass.wav
448,192,50364,1,0,0:0:0:0:
192,192,50449,1,0,0:0:0:90:bass.wav
64,192,50449,1,0,0:0:0:0:
320,192,50617,1,0,0:0:0:90:bass.wav
448,192,50617,1,0,0:0:0:0:
192,192,50786,1,0,0:0:0:100:sub bass.wav
320,192,50786,1,0,0:0:0:50:drumhit.wav
64,192,50786,1,0,0:0:0:0:
448,192,50954,1,0,0:0:0:50:hat.wav
320,192,50997,1,0,0:0:0:50:hat.wav
192,192,51039,1,0,0:0:0:50:hat.wav
64,192,51081,1,0,0:0:0:50:hat.wav
320,192,51123,1,0,0:0:0:90:bass.wav
448,192,51123,1,0,0:0:0:0:
192,192,51207,1,0,0:0:0:90:bass.wav
64,192,51207,1,0,0:0:0:0:
320,192,51291,1,0,0:0:0:50:snare.wav
448,192,51291,1,0,0:0:0:0:
64,192,51460,1,0,0:0:0:100:sub bass.wav
320,192,51460,1,0,0:0:0:50:drumhit.wav
192,192,51460,1,0,0:0:0:0:
448,192,51629,1,0,0:0:0:90:bass.wav
320,192,51629,1,0,0:0:0:0:
64,192,51713,1,0,0:0:0:50:drumhit.wav
192,192,51713,1,0,0:0:0:0:
448,192,51797,1,0,0:0:0:90:bass.wav
320,192,51797,1,0,0:0:0:0:
320,192,51966,1,0,0:0:0:90:bass.wav
192,192,51966,1,0,0:0:0:0:
64,192,52134,1,0,0:0:0:100:sub bass.wav
192,192,52134,1,0,0:0:0:50:drumhit.wav
448,192,52134,1,0,0:0:0:0:
192,192,52218,1,0,0:0:0:50:drumhit.wav
64,192,52218,1,0,0:0:0:0:
320,192,52303,1,0,0:0:0:90:bass.wav
448,192,52303,1,0,0:0:0:0:
192,192,52387,1,0,0:0:0:50:drumhit.wav
64,192,52471,1,0,0:0:0:90:bass.wav
448,192,52471,1,0,0:0:0:0:
320,192,52555,1,0,0:0:0:50:drumhit.wav
64,192,52640,1,0,0:0:0:90:bass.wav
192,192,52640,1,0,0:0:0:0:
448,192,52808,1,0,0:0:0:100:sub bass.wav
320,192,52808,1,0,0:0:0:50:drumhit.wav
192,192,52808,1,0,0:0:0:0:
64,192,52893,1,0,0:0:0:100:sub bass.wav
320,192,52977,1,0,0:0:0:100:sub bass.wav
448,192,52977,1,0,0:0:0:0:
192,192,53061,1,0,0:0:0:100:sub bass.wav
64,192,53145,1,0,0:0:0:90:bass.wav
320,192,53145,1,0,0:0:0:0:
192,192,53314,1,0,0:0:0:90:bass.wav
320,192,53398,1,0,0:0:0:90:bass.wav
448,192,53482,1,0,0:0:0:100:sub bass.wav
64,192,53482,1,0,0:0:0:50:drumhit.wav
192,192,53482,1,0,0:0:0:0:
320,192,53567,1,0,0:0:0:90:bass.wav
64,192,53651,1,0,0:0:0:50:hat.wav
192,192,53693,1,0,0:0:0:50:hat.wav
320,192,53735,1,0,0:0:0:50:hat.wav
448,192,53777,1,0,0:0:0:50:hat.wav
64,192,53820,128,0,53988:0:0:0:100:sub bass.wav
448,192,53988,1,0,0:0:0:50:snare.wav
320,192,53988,1,0,0:0:0:0:
64,192,54157,1,0,0:0:0:100:sub bass.wav
192,192,54157,1,0,0:0:0:50:drumhit.wav
320,192,54157,1,0,0:0:0:0:
448,192,54325,1,0,0:0:0:90:bass.wav
320,192,54325,1,0,0:0:0:0:
64,192,54494,1,0,0:0:0:50:drumhit.wav
192,192,54494,1,0,0:0:0:0:
320,192,54578,1,0,0:0:0:90:bass.wav
448,192,54578,1,0,0:0:0:0:
192,192,54662,1,0,0:0:0:90:bass.wav
64,192,54662,1,0,0:0:0:0:
448,192,54831,1,0,0:0:0:100:sub bass.wav
192,192,54831,1,0,0:0:0:50:drumhit.wav
320,192,54831,1,0,0:0:0:0:
64,192,54999,1,0,0:0:0:50:hat.wav
448,192,54999,1,0,0:0:0:0:
320,192,55084,1,0,0:0:0:50:hat.wav
192,192,55168,128,0,55336:0:0:0:100:sub bass.wav
448,192,55336,1,0,0:0:0:90:bass.wav
64,192,55336,1,0,0:0:0:0:
64,192,55505,1,0,0:0:0:100:sub bass.wav
448,192,55505,1,0,0:0:0:50:drumhit.wav
320,192,55505,1,0,0:0:0:0:
320,192,55589,1,0,0:0:0:50:drumhit.wav
448,192,55589,1,0,0:0:0:0:
192,192,55673,1,0,0:0:0:90:bass.wav
64,192,55673,1,0,0:0:0:0:
320,192,55758,1,0,0:0:0:50:drumhit.wav
64,192,55842,1,0,0:0:0:90:bass.wav
448,192,55842,1,0,0:0:0:0:
192,192,55926,1,0,0:0:0:50:drumhit.wav
320,192,56011,1,0,0:0:0:90:bass.wav
448,192,56011,1,0,0:0:0:0:
192,192,56179,1,0,0:0:0:100:sub bass.wav
64,192,56179,1,0,0:0:0:50:drumhit.wav
320,192,56179,1,0,0:0:0:0:
448,192,56348,1,0,0:0:0:50:hat.wav
320,192,56390,1,0,0:0:0:50:hat.wav
192,192,56432,1,0,0:0:0:50:hat.wav
64,192,56474,1,0,0:0:0:50:hat.wav
448,192,56516,128,0,56685:0:0:0:90:bass.wav
192,192,56685,1,0,0:0:0:50:snare.wav
64,192,56685,1,0,0:0:0:0:
448,192,56853,1,0,0:0:0:50:snare.wav
320,192,56853,1,0,0:0:0:0:
64,192,57022,1,0,0:0:0:100:sub bass.wav
192,192,57064,1,0,0:0:0:100:sub bass.wav
448,192,57106,1,0,0:0:0:100:sub bass.wav
320,192,57148,1,0,0:0:0:100:sub bass.wav
64,192,57190,1,0,0:0:0:100:sub bass.wav
192,192,57232,1,0,0:0:0:100:sub bass.wav
448,192,57275,1,0,0:0:0:100:sub bass.wav
320,192,57317,1,0,0:0:0:100:sub bass.wav
64,192,57359,1,0,0:0:0:50:snare.wav
192,192,57359,1,0,0:0:0:0:
192,192,57527,1,0,0:0:0:50:snare.wav
64,192,57527,1,0,0:0:0:0:
320,192,57696,1,0,0:0:0:100:sub bass.wav
448,192,57738,1,0,0:0:0:100:sub bass.wav
192,192,57780,1,0,0:0:0:100:sub bass.wav
64,192,57822,1,0,0:0:0:100:sub bass.wav
320,192,57864,1,0,0:0:0:100:sub bass.wav
448,192,57907,1,0,0:0:0:100:sub bass.wav
192,192,57949,1,0,0:0:0:100:sub bass.wav
64,192,57991,1,0,0:0:0:100:sub bass.wav
448,192,58033,1,0,0:0:0:50:snare.wav
320,192,58033,1,0,0:0:0:0:
448,192,58202,1,0,0:0:0:50:snare.wav
320,192,58202,1,0,0:0:0:0:
64,192,58370,1,0,0:0:0:100:sub bass.wav
192,192,58412,1,0,0:0:0:100:sub bass.wav
448,192,58454,1,0,0:0:0:100:sub bass.wav
320,192,58497,1,0,0:0:0:100:sub bass.wav
64,192,58539,1,0,0:0:0:100:sub bass.wav
192,192,58581,1,0,0:0:0:100:sub bass.wav
448,192,58623,1,0,0:0:0:100:sub bass.wav
320,192,58665,1,0,0:0:0:100:sub bass.wav
192,192,58707,1,0,0:0:0:50:snare.wav
64,192,58707,1,0,0:0:0:0:
320,192,58876,1,0,0:0:0:50:snare.wav
448,192,58876,1,0,0:0:0:0:
192,192,59044,1,0,0:0:0:100:sub bass.wav
64,192,59086,1,0,0:0:0:100:sub bass.wav
320,192,59129,1,0,0:0:0:100:sub bass.wav
448,192,59171,1,0,0:0:0:100:sub bass.wav
192,192,59213,1,0,0:0:0:100:sub bass.wav
64,192,59255,1,0,0:0:0:100:sub bass.wav
320,192,59297,1,0,0:0:0:100:sub bass.wav
448,192,59339,1,0,0:0:0:100:sub bass.wav
192,192,59381,1,0,0:0:0:50:drumhit.wav
64,192,59381,128,0,59550:0:0:0:0:
320,192,59550,1,0,0:0:0:90:bass.wav
192,192,59634,1,0,0:0:0:90:bass.wav
64,192,59718,1,0,0:0:0:50:drumhit.wav
448,192,59718,128,0,59887:0:0:0:0:
320,192,59718,128,0,59887:0:0:0:0:
192,192,59887,1,0,0:0:0:90:bass.wav
320,192,59971,1,0,0:0:0:90:bass.wav
448,192,60055,1,0,0:0:0:50:drumhit.wav
64,192,60055,128,0,60224:0:0:0:0:
192,192,60055,128,0,60224:0:0:0:0:
320,192,60224,1,0,0:0:0:90:bass.wav
192,192,60308,1,0,0:0:0:90:bass.wav
64,192,60393,1,0,0:0:0:50:drumhit.wav
448,192,60393,128,0,60561:0:0:0:0:
320,192,60393,128,0,60561:0:0:0:0:
192,192,60561,1,0,0:0:0:90:bass.wav
320,192,60645,1,0,0:0:0:90:bass.wav
64,192,60730,1,0,0:0:0:90:bass.wav
192,192,60730,1,0,0:0:0:0:
448,192,60842,1,0,0:0:0:90:bass.wav
320,192,60842,1,0,0:0:0:0:
192,192,60954,1,0,0:0:0:90:bass.wav
64,192,60954,1,0,0:0:0:0:
320,192,61067,1,0,0:0:0:90:bass.wav
448,192,61067,1,0,0:0:0:0:
64,192,61179,1,0,0:0:0:90:bass.wav
192,192,61179,1,0,0:0:0:0:
448,192,61291,1,0,0:0:0:90:bass.wav
320,192,61291,1,0,0:0:0:0:
192,192,61404,1,0,0:0:0:90:bass.wav
64,192,61404,1,0,0:0:0:0:
448,192,61516,1,0,0:0:0:90:bass.wav
320,192,61516,1,0,0:0:0:0:
448,192,61629,1,0,0:0:0:90:bass.wav
320,192,61629,1,0,0:0:0:0:
192,192,61741,1,0,0:0:0:90:bass.wav
64,192,61741,1,0,0:0:0:0:
192,192,61853,1,0,0:0:0:90:bass.wav
64,192,61853,1,0,0:0:0:0:
448,192,61966,1,0,0:0:0:90:bass.wav
320,192,61966,1,0,0:0:0:0:
192,192,62078,1,0,0:0:0:50:snare.wav
64,192,62078,1,0,0:0:0:0:
320,192,62247,128,0,62415:0:0:0:50:punk.wav
448,192,62247,128,0,62415:0:0:0:0:
64,192,62415,1,0,0:0:0:50:snare.wav
448,192,62584,128,0,62752:0:0:0:50:punk.wav
192,192,62584,128,0,62752:0:0:0:0:
64,192,62752,1,0,0:0:0:50:snare.wav
192,192,62921,128,0,63089:0:0:0:50:punk.wav
448,192,62921,128,0,63089:0:0:0:0:
64,192,63089,1,0,0:0:0:50:snare.wav
192,192,63258,128,0,63426:0:0:0:50:punk.wav
320,192,63258,128,0,63426:0:0:0:0:
64,192,63426,1,0,0:0:0:50:snare.wav
448,192,63426,128,0,64606:0:0:0:0:
64,192,63763,1,0,0:0:0:50:snare.wav
448,192,64775,1,0,0:0:0:100:sub bass.wav
64,192,64775,1,0,0:0:0:50:drumhit.wav
320,192,64775,1,0,0:0:0:0:
192,192,64943,1,0,0:0:0:90:bass.wav
320,192,65027,1,0,0:0:0:90:bass.wav
64,192,65112,1,0,0:0:0:100:sub bass.wav
448,192,65112,1,0,0:0:0:50:drumhit.wav
192,192,65112,1,0,0:0:0:0:
320,192,65280,1,0,0:0:0:90:bass.wav
192,192,65364,1,0,0:0:0:90:bass.wav
320,192,65449,1,0,0:0:0:90:bass.wav
320,192,65533,1,0,0:0:0:90:bass.wav
448,192,65617,1,0,0:0:0:100:sub bass.wav
192,192,65617,1,0,0:0:0:50:drumhit.wav
64,192,65617,1,0,0:0:0:0:
320,192,65786,1,0,0:0:0:90:bass.wav
192,192,65870,1,0,0:0:0:90:bass.wav
448,192,65954,1,0,0:0:0:100:sub bass.wav
320,192,65954,1,0,0:0:0:50:drumhit.wav
64,192,65954,1,0,0:0:0:0:
320,192,66123,1,0,0:0:0:100:sub bass.wav
192,192,66123,1,0,0:0:0:50:drumhit.wav
64,192,66123,1,0,0:0:0:0:
448,192,66291,1,0,0:0:0:90:bass.wav
320,192,66376,1,0,0:0:0:90:bass.wav
192,192,66460,1,0,0:0:0:50:drumhit.wav
448,192,66460,1,0,0:0:0:0:
64,192,66460,1,0,0:0:0:100:sub bass.wav
320,192,66629,1,0,0:0:0:90:bass.wav
64,192,66713,1,0,0:0:0:90:bass.wav
192,192,66797,1,0,0:0:0:90:bass.wav
192,192,66881,1,0,0:0:0:90:bass.wav
320,192,66966,1,0,0:0:0:100:sub bass.wav
448,192,66966,1,0,0:0:0:0:
64,192,66966,1,0,0:0:0:50:drumhit.wav
192,192,67134,1,0,0:0:0:90:bass.wav
320,192,67218,1,0,0:0:0:90:bass.wav
448,192,67303,1,0,0:0:0:100:sub bass.wav
64,192,67303,1,0,0:0:0:50:drumhit.wav
192,192,67303,1,0,0:0:0:0:
448,192,67471,1,0,0:0:0:100:sub bass.wav
320,192,67471,1,0,0:0:0:50:drumhit.wav
192,192,67471,1,0,0:0:0:0:
64,192,67640,1,0,0:0:0:90:bass.wav
192,192,67724,1,0,0:0:0:90:bass.wav
448,192,67808,1,0,0:0:0:100:sub bass.wav
320,192,67808,1,0,0:0:0:50:drumhit.wav
64,192,67808,1,0,0:0:0:0:
192,192,67977,1,0,0:0:0:90:bass.wav
64,192,68061,1,0,0:0:0:90:bass.wav
320,192,68145,1,0,0:0:0:90:bass.wav
320,192,68230,1,0,0:0:0:90:bass.wav
448,192,68314,1,0,0:0:0:100:sub bass.wav
192,192,68314,1,0,0:0:0:50:drumhit.wav
64,192,68314,1,0,0:0:0:0:
320,192,68482,1,0,0:0:0:90:bass.wav
192,192,68567,1,0,0:0:0:90:bass.wav
448,192,68651,1,0,0:0:0:100:sub bass.wav
320,192,68651,1,0,0:0:0:50:drumhit.wav
64,192,68651,1,0,0:0:0:0:
448,192,68820,1,0,0:0:0:100:sub bass.wav
320,192,68820,1,0,0:0:0:50:drumhit.wav
192,192,68820,1,0,0:0:0:0:
64,192,68988,1,0,0:0:0:90:bass.wav
192,192,69072,1,0,0:0:0:90:bass.wav
448,192,69157,1,0,0:0:0:100:sub bass.wav
64,192,69157,1,0,0:0:0:50:drumhit.wav
320,192,69157,1,0,0:0:0:0:
192,192,69325,1,0,0:0:0:90:bass.wav
64,192,69409,1,0,0:0:0:90:bass.wav
320,192,69494,1,0,0:0:0:90:bass.wav
320,192,69578,1,0,0:0:0:90:bass.wav
64,192,69662,1,0,0:0:0:100:sub bass.wav
192,192,69662,1,0,0:0:0:50:drumhit.wav
448,192,69662,1,0,0:0:0:0:
192,192,69831,1,0,0:0:0:90:bass.wav
64,192,69915,1,0,0:0:0:100:sub bass.wav
320,192,69915,1,0,0:0:0:50:drumhit.wav
448,192,69915,1,0,0:0:0:0:
192,192,70084,1,0,0:0:0:90:bass.wav
64,192,70168,1,0,0:0:0:100:sub bass.wav
320,192,70168,1,0,0:0:0:50:drumhit.wav
448,192,70168,1,0,0:0:0:0:
192,192,70336,1,0,0:0:0:90:bass.wav
320,192,70421,1,0,0:0:0:90:bass.wav
64,192,70505,1,0,0:0:0:100:sub bass.wav
192,192,70505,1,0,0:0:0:50:drumhit.wav
448,192,70505,1,0,0:0:0:0:
320,192,70673,1,0,0:0:0:90:bass.wav
192,192,70758,1,0,0:0:0:90:bass.wav
320,192,70842,1,0,0:0:0:90:bass.wav
320,192,70926,1,0,0:0:0:90:bass.wav
448,192,71011,1,0,0:0:0:100:sub bass.wav
192,192,71011,1,0,0:0:0:50:drumhit.wav
64,192,71011,1,0,0:0:0:0:
320,192,71179,1,0,0:0:0:90:bass.wav
192,192,71263,1,0,0:0:0:90:bass.wav
64,192,71348,1,0,0:0:0:100:sub bass.wav
448,192,71348,1,0,0:0:0:50:drumhit.wav
320,192,71348,1,0,0:0:0:0:
320,192,71516,1,0,0:0:0:100:sub bass.wav
192,192,71516,1,0,0:0:0:50:drumhit.wav
448,192,71516,1,0,0:0:0:0:
64,192,71685,1,0,0:0:0:90:bass.wav
192,192,71769,1,0,0:0:0:90:bass.wav
64,192,71853,1,0,0:0:0:50:drumhit.wav
320,192,71853,1,0,0:0:0:0:
448,192,71853,1,0,0:0:0:0:
192,192,72022,1,0,0:0:0:90:bass.wav
320,192,72106,1,0,0:0:0:90:bass.wav
192,192,72190,1,0,0:0:0:100:sub bass.wav
64,192,72190,1,0,0:0:0:50:drumhit.wav
64,192,72303,1,0,0:0:0:100:sub bass.wav
192,192,72303,1,0,0:0:0:50:drumhit.wav
192,192,72415,1,0,0:0:0:100:sub bass.wav
64,192,72415,1,0,0:0:0:50:drumhit.wav
448,192,72527,1,0,0:0:0:100:sub bass.wav
320,192,72527,1,0,0:0:0:50:drumhit.wav
320,192,72640,1,0,0:0:0:100:sub bass.wav
448,192,72640,1,0,0:0:0:50:drumhit.wav
320,192,72752,1,0,0:0:0:100:sub bass.wav
448,192,72752,1,0,0:0:0:50:drumhit.wav
64,192,72864,1,0,0:0:0:50:drumhit.wav
192,192,72864,1,0,0:0:0:50:hat.wav
192,192,73202,1,0,0:0:0:50:drumhit.wav
64,192,73202,1,0,0:0:0:0:
192,192,73370,1,0,0:0:0:50:drumhit.wav
64,192,73370,1,0,0:0:0:0:
448,192,73539,1,0,0:0:0:0:
320,192,73581,1,0,0:0:0:0:
192,192,73623,1,0,0:0:0:0:
64,192,73665,1,0,0:0:0:0:
448,192,73707,1,0,0:0:0:50:drumhit.wav
320,192,73707,1,0,0:0:0:0:
192,192,74044,1,0,0:0:0:50:drumhit.wav
64,192,74044,1,0,0:0:0:0:
320,192,74129,1,0,0:0:0:50:drumhit.wav
448,192,74129,1,0,0:0:0:0:
64,192,74213,1,0,0:0:0:50:drumhit.wav
192,192,74213,1,0,0:0:0:0:
192,192,74381,1,0,0:0:0:50:drumhit.wav
64,192,74381,1,0,0:0:0:0:
320,192,74550,1,0,0:0:0:50:drumhit.wav
192,192,74550,1,0,0:0:0:50:hat.wav
192,192,74718,1,0,0:0:0:50:drumhit.wav
320,192,74718,1,0,0:0:0:50:hat.wav
320,192,74887,1,0,0:0:0:100:sub bass.wav
448,192,74887,1,0,0:0:0:50:drumhit.wav
64,192,74887,1,0,0:0:0:0:
448,192,75055,1,0,0:0:0:100:sub bass.wav
320,192,75055,1,0,0:0:0:50:drumhit.wav
64,192,75055,1,0,0:0:0:0:
64,192,75224,1,0,0:0:0:50:drumhit.wav
192,192,75224,1,0,0:0:0:90:bass.wav
448,192,75224,1,0,0:0:0:50:hat.wav
64,192,75393,128,0,75561:0:0:0:50:drumhit.wav
192,192,75393,128,0,75561:0:0:0:90:bass.wav
448,192,75393,128,0,75561:0:0:0:50:hat.wav
192,192,76909,1,0,0:0:0:50:drumhit.wav
64,192,76909,1,0,0:0:0:90:bass.wav
448,192,76909,1,0,0:0:0:50:hat.wav
320,192,77247,128,0,77584:0:0:0:0:
192,192,77584,1,0,0:0:0:50:drumhit.wav
448,192,77584,1,0,0:0:0:50:hat.wav
64,192,77584,1,0,0:0:0:0:
192,192,77752,1,0,0:0:0:50:drumhit.wav
448,192,77752,1,0,0:0:0:50:hat.wav
64,192,77752,1,0,0:0:0:0:
320,192,77921,1,0,0:0:0:90:bass.wav
192,192,78089,1,0,0:0:0:50:drumhit.wav
64,192,78089,1,0,0:0:0:50:hat.wav
320,192,78089,1,0,0:0:0:0:
320,192,78258,1,0,0:0:0:90:bass.wav
320,192,78426,1,0,0:0:0:90:bass.wav
448,192,78595,1,0,0:0:0:50:drumhit.wav
192,192,78595,1,0,0:0:0:50:hat.wav
64,192,78595,1,0,0:0:0:0:
320,192,78763,1,0,0:0:0:90:bass.wav
320,192,78932,1,0,0:0:0:90:bass.wav
448,192,79100,1,0,0:0:0:50:drumhit.wav
192,192,79100,1,0,0:0:0:50:hat.wav
64,192,79100,1,0,0:0:0:0:
320,192,79269,1,0,0:0:0:90:bass.wav
448,192,79353,1,0,0:0:0:50:drumhit.wav
192,192,79353,1,0,0:0:0:50:hat.wav
64,192,79353,1,0,0:0:0:0:
448,192,79522,1,0,0:0:0:50:drumhit.wav
192,192,79522,1,0,0:0:0:50:hat.wav
64,192,79522,1,0,0:0:0:0:
320,192,79606,1,0,0:0:0:90:bass.wav
64,192,79775,1,0,0:0:0:50:drumhit.wav
192,192,79775,1,0,0:0:0:50:hat.wav
320,192,79775,1,0,0:0:0:0:
448,192,79943,1,0,0:0:0:90:bass.wav
448,192,80112,1,0,0:0:0:90:bass.wav
64,192,80280,1,0,0:0:0:50:drumhit.wav
192,192,80280,1,0,0:0:0:50:hat.wav
320,192,80280,1,0,0:0:0:0:
448,192,80449,1,0,0:0:0:90:bass.wav
64,192,80617,1,0,0:0:0:50:drumhit.wav
192,192,80617,1,0,0:0:0:50:hat.wav
320,192,80617,1,0,0:0:0:0:
320,192,80786,1,0,0:0:0:50:drumhit.wav
448,192,80786,1,0,0:0:0:50:hat.wav
192,192,80786,1,0,0:0:0:0:
64,192,80954,1,0,0:0:0:90:bass.wav
320,192,81123,1,0,0:0:0:50:drumhit.wav
448,192,81123,1,0,0:0:0:50:hat.wav
192,192,81123,1,0,0:0:0:0:
64,192,81291,1,0,0:0:0:90:bass.wav
320,192,81376,1,0,0:0:0:50:drumhit.wav
448,192,81376,1,0,0:0:0:50:hat.wav
192,192,81376,1,0,0:0:0:0:
64,192,81544,1,0,0:0:0:90:bass.wav
448,192,81629,1,0,0:0:0:50:drumhit.wav
192,192,81629,1,0,0:0:0:50:hat.wav
320,192,81629,1,0,0:0:0:0:
64,192,81797,1,0,0:0:0:90:bass.wav
448,192,81881,1,0,0:0:0:50:drumhit.wav
320,192,81881,1,0,0:0:0:50:hat.wav
64,192,81966,1,0,0:0:0:50:drumhit.wav
192,192,81966,1,0,0:0:0:50:hat.wav
320,192,82134,1,0,0:0:0:50:drumhit.wav
448,192,82134,1,0,0:0:0:50:hat.wav
192,192,82303,1,0,0:0:0:50:drumhit.wav
64,192,82303,1,0,0:0:0:50:hat.wav
320,192,82303,1,0,0:0:0:0:
192,192,82471,1,0,0:0:0:50:drumhit.wav
64,192,82471,1,0,0:0:0:0:
320,192,82555,1,0,0:0:0:50:drumhit.wav
448,192,82555,1,0,0:0:0:0:
192,192,82640,1,0,0:0:0:50:drumhit.wav
64,192,82640,1,0,0:0:0:50:hat.wav
448,192,82808,1,0,0:0:0:90:bass.wav
64,192,82977,1,0,0:0:0:50:drumhit.wav
320,192,82977,1,0,0:0:0:50:hat.wav
192,192,82977,1,0,0:0:0:0:
448,192,83145,1,0,0:0:0:90:bass.wav
64,192,83314,1,0,0:0:0:50:drumhit.wav
320,192,83314,1,0,0:0:0:50:hat.wav
192,192,83314,1,0,0:0:0:0:
448,192,83482,1,0,0:0:0:50:drumhit.wav
320,192,83482,1,0,0:0:0:50:hat.wav
192,192,83482,1,0,0:0:0:0:
64,192,83651,1,0,0:0:0:90:bass.wav
448,192,83820,1,0,0:0:0:50:drumhit.wav
192,192,83820,1,0,0:0:0:50:hat.wav
320,192,83820,1,0,0:0:0:0:
64,192,83988,1,0,0:0:0:90:bass.wav
192,192,84072,1,0,0:0:0:50:drumhit.wav
448,192,84072,1,0,0:0:0:50:hat.wav
320,192,84072,1,0,0:0:0:0:
448,192,84241,1,0,0:0:0:50:drumhit.wav
320,192,84241,1,0,0:0:0:50:hat.wav
64,192,84241,1,0,0:0:0:0:
192,192,84409,1,0,0:0:0:50:drumhit.wav
320,192,84409,1,0,0:0:0:50:hat.wav
64,192,84409,1,0,0:0:0:0:
64,192,84578,1,0,0:0:0:50:drumhit.wav
448,192,84578,1,0,0:0:0:50:hat.wav
192,192,84578,1,0,0:0:0:0:
320,192,84747,1,0,0:0:0:50:drumhit.wav
192,192,84747,1,0,0:0:0:50:hat.wav
448,192,84747,1,0,0:0:0:0:
64,192,84915,1,0,0:0:0:50:drumhit.wav
320,192,84915,1,0,0:0:0:50:hat.wav
448,192,84915,1,0,0:0:0:0:
448,192,85084,1,0,0:0:0:50:drumhit.wav
192,192,85084,1,0,0:0:0:50:hat.wav
64,192,85084,1,0,0:0:0:0:
320,192,85252,1,0,0:0:0:50:drumhit.wav
64,192,85252,1,0,0:0:0:50:hat.wav
192,192,85252,1,0,0:0:0:0:
192,192,85421,1,0,0:0:0:50:drumhit.wav
448,192,85421,1,0,0:0:0:50:hat.wav
320,192,85421,1,0,0:0:0:0:
320,192,85589,1,0,0:0:0:50:drumhit.wav
64,192,85589,1,0,0:0:0:50:hat.wav
192,192,85589,1,0,0:0:0:0:
64,192,85758,1,0,0:0:0:50:drumhit.wav
448,192,85758,1,0,0:0:0:50:hat.wav
320,192,85758,1,0,0:0:0:0:
448,192,85926,1,0,0:0:0:50:drumhit.wav
64,192,85926,1,0,0:0:0:50:hat.wav
192,192,85926,1,0,0:0:0:0:
192,192,86095,1,0,0:0:0:50:drumhit.wav
320,192,86095,1,0,0:0:0:50:hat.wav
448,192,86095,1,0,0:0:0:0:
320,192,86263,1,0,0:0:0:50:drumhit.wav
448,192,86263,128,0,87527:0:0:0:50:hat.wav
64,192,86263,1,0,0:0:0:0:
192,192,86348,1,0,0:0:0:100:sub bass.wav
320,192,86516,1,0,0:0:0:90:bass.wav
192,192,86600,1,0,0:0:0:100:sub bass.wav
320,192,86685,1,0,0:0:0:90:bass.wav
64,192,86853,1,0,0:0:0:100:sub bass.wav
320,192,87022,1,0,0:0:0:90:bass.wav
192,192,87106,1,0,0:0:0:100:sub bass.wav
320,192,87190,1,0,0:0:0:90:bass.wav
64,192,87359,1,0,0:0:0:100:sub bass.wav
64,192,87527,1,0,0:0:0:100:sub bass.wav
192,192,87570,1,0,0:0:0:100:sub bass.wav
320,192,87612,1,0,0:0:0:100:sub bass.wav
448,192,87654,1,0,0:0:0:100:sub bass.wav
64,192,87696,1,0,0:0:0:100:sub bass.wav
192,192,87696,1,0,0:0:0:0:
320,192,87864,128,0,87949:0:0:0:100:sub bass.wav
192,192,88033,1,0,0:0:0:50:snare.wav
448,192,88033,1,0,0:0:0:90:bass.wav
64,192,88033,1,0,0:0:0:0:
320,192,88117,1,0,0:0:0:90:bass.wav
192,192,88202,1,0,0:0:0:90:bass.wav
64,192,88286,1,0,0:0:0:90:bass.wav
448,192,88370,1,0,0:0:0:90:bass.wav
320,192,88370,1,0,0:0:0:0:
192,192,88539,1,0,0:0:0:50:snare.wav
448,192,88539,1,0,0:0:0:90:bass.wav
64,192,88539,1,0,0:0:0:0:
320,192,88707,1,0,0:0:0:0:
192,192,88707,1,0,0:0:0:90:bass.wav
320,192,88876,1,0,0:0:0:0:
448,192,88876,1,0,0:0:0:0:
64,192,88876,1,0,0:0:0:90:bass.wav
192,192,89044,128,0,89213:0:0:0:100:sub bass.wav
448,192,89213,1,0,0:0:0:90:bass.wav
320,192,89297,1,0,0:0:0:90:bass.wav
192,192,89381,1,0,0:0:0:90:bass.wav
64,192,89466,1,0,0:0:0:90:bass.wav
448,192,89550,1,0,0:0:0:50:hat.wav
320,192,89578,1,0,0:0:0:50:hat.wav
192,192,89606,1,0,0:0:0:50:hat.wav
64,192,89634,1,0,0:0:0:50:hat.wav
448,192,89718,1,0,0:0:0:90:bass.wav
64,192,89887,1,0,0:0:0:50:hat.wav
192,192,89915,1,0,0:0:0:50:hat.wav
320,192,89943,1,0,0:0:0:50:hat.wav
448,192,89971,1,0,0:0:0:50:hat.wav
64,192,90055,1,0,0:0:0:100:sub bass.wav
192,192,90098,1,0,0:0:0:100:sub bass.wav
320,192,90140,1,0,0:0:0:100:sub bass.wav
448,192,90182,1,0,0:0:0:100:sub bass.wav
64,192,90224,1,0,0:0:0:90:bass.wav
192,192,90224,1,0,0:0:0:0:
320,192,90308,1,0,0:0:0:90:bass.wav
448,192,90308,1,0,0:0:0:0:
192,192,90393,1,0,0:0:0:0:
64,192,90393,1,0,0:0:0:90:bass.wav
448,192,90477,128,0,90561:0:0:0:50:punk.wav
192,192,90561,1,0,0:0:0:90:bass.wav
64,192,90561,1,0,0:0:0:0:
64,192,90730,1,0,0:0:0:50:snare.wav
448,192,90730,1,0,0:0:0:0:
192,192,90730,1,0,0:0:0:0:
320,192,90898,128,0,91067:0:0:0:50:hat.wav
64,192,91067,1,0,0:0:0:90:bass.wav
448,192,91067,1,0,0:0:0:0:
64,192,91235,1,0,0:0:0:90:bass.wav
192,192,91235,1,0,0:0:0:0:
448,192,91320,1,0,0:0:0:90:bass.wav
320,192,91320,1,0,0:0:0:0:
192,192,91404,1,0,0:0:0:50:snare.wav
64,192,91404,1,0,0:0:0:90:bass.wav
448,192,91572,1,0,0:0:0:90:bass.wav
320,192,91572,1,0,0:0:0:0:
64,192,91657,1,0,0:0:0:90:bass.wav
192,192,91657,1,0,0:0:0:0:
320,192,91741,1,0,0:0:0:90:bass.wav
448,192,91741,128,0,92247:0:0:0:0:
64,192,92247,1,0,0:0:0:50:hat.wav
192,192,92289,1,0,0:0:0:50:hat.wav
320,192,92331,1,0,0:0:0:50:hat.wav
448,192,92373,1,0,0:0:0:50:hat.wav
64,192,92415,1,0,0:0:0:50:hat.wav
192,192,92457,1,0,0:0:0:50:hat.wav
320,192,92499,1,0,0:0:0:50:hat.wav
448,192,92541,1,0,0:0:0:50:hat.wav
64,192,92584,1,0,0:0:0:50:hat.wav
192,192,92626,1,0,0:0:0:50:hat.wav
320,192,92668,1,0,0:0:0:50:hat.wav
448,192,92710,1,0,0:0:0:50:hat.wav
192,192,92752,1,0,0:0:0:50:snare.wav
64,192,92752,1,0,0:0:0:90:bass.wav
64,192,93089,5,0,0:0:0:90:bass.wav
192,192,93089,1,0,0:0:0:0:
320,192,93173,1,0,0:0:0:90:bass.wav
448,192,93173,1,0,0:0:0:0:
64,192,93258,1,0,0:0:0:90:bass.wav
192,192,93258,1,0,0:0:0:0:
320,192,93342,1,0,0:0:0:90:bass.wav
64,192,93426,1,0,0:0:0:100:sub bass.wav
448,192,93426,1,0,0:0:0:0:
192,192,93511,1,0,0:0:0:100:sub bass.wav
320,192,93511,1,0,0:0:0:0:
448,192,93595,1,0,0:0:0:100:sub bass.wav
64,192,93595,1,0,0:0:0:0:
192,192,93679,1,0,0:0:0:100:sub bass.wav
320,192,93763,1,0,0:0:0:90:bass.wav
448,192,93763,1,0,0:0:0:0:
64,192,93848,1,0,0:0:0:90:bass.wav
192,192,93848,1,0,0:0:0:0:
320,192,94016,1,0,0:0:0:90:bass.wav
448,192,94016,1,0,0:0:0:0:
192,192,94100,1,0,0:0:0:90:bass.wav
64,192,94185,1,0,0:0:0:90:bass.wav
448,192,94269,128,0,94438:0:0:0:100:sub bass.wav
320,192,94269,1,0,0:0:0:50:punk.wav
64,192,94438,1,0,0:0:0:90:bass.wav
192,192,94522,1,0,0:0:0:90:bass.wav
448,192,94606,128,0,94775:0:0:0:100:sub bass.wav
64,192,94606,1,0,0:0:0:50:punk.wav
64,192,94775,1,0,0:0:0:90:bass.wav
192,192,94859,1,0,0:0:0:90:bass.wav
448,192,94943,128,0,95112:0:0:0:100:sub bass.wav
64,192,94943,1,0,0:0:0:50:punk.wav
320,192,94943,128,0,95112:0:0:0:0:
64,192,95112,1,0,0:0:0:90:bass.wav
192,192,95196,1,0,0:0:0:90:bass.wav
448,192,95280,128,0,95449:0:0:0:100:sub bass.wav
64,192,95280,1,0,0:0:0:50:punk.wav
320,192,95280,128,0,95449:0:0:0:0:
64,192,95449,1,0,0:0:0:90:bass.wav
192,192,95533,1,0,0:0:0:90:bass.wav
320,192,95617,128,0,95702:0:0:0:0:
448,192,95617,128,0,95702:0:0:0:50:punk.wav
64,192,95617,1,0,0:0:0:100:sub bass.wav
64,192,95786,1,0,0:0:0:90:bass.wav
192,192,95786,1,0,0:0:0:0:
448,192,95786,1,0,0:0:0:0:
320,192,95954,1,0,0:0:0:90:bass.wav
448,192,95954,1,0,0:0:0:0:
64,192,96123,1,0,0:0:0:50:snare.wav
320,192,96123,1,0,0:0:0:0:
192,192,96123,1,0,0:0:0:0:
64,192,96291,128,0,96460:0:0:0:100:sub bass.wav
448,192,96291,1,0,0:0:0:90:bass.wav
320,192,96460,1,0,0:0:0:50:snare.wav
192,192,96460,1,0,0:0:0:0:
448,192,96460,1,0,0:0:0:0:
192,192,96629,1,0,0:0:0:90:bass.wav
64,192,96629,1,0,0:0:0:0:
320,192,96797,1,0,0:0:0:90:bass.wav
448,192,96797,1,0,0:0:0:0:
192,192,96881,1,0,0:0:0:90:bass.wav
448,192,96966,1,0,0:0:0:50:snare.wav
320,192,96966,1,0,0:0:0:0:
64,192,96966,1,0,0:0:0:0:
192,192,97134,1,0,0:0:0:90:bass.wav
64,192,97134,1,0,0:0:0:0:
320,192,97303,1,0,0:0:0:90:bass.wav
448,192,97303,1,0,0:0:0:0:
192,192,97471,1,0,0:0:0:50:snare.wav
64,192,97471,128,0,97640:0:0:0:100:sub bass.wav
448,192,97640,1,0,0:0:0:90:bass.wav
320,192,97640,1,0,0:0:0:0:
64,192,97808,1,0,0:0:0:50:snare.wav
448,192,97808,1,0,0:0:0:0:
192,192,97808,1,0,0:0:0:0:
192,192,97977,1,0,0:0:0:90:bass.wav
320,192,97977,1,0,0:0:0:0:
64,192,98145,1,0,0:0:0:50:snare.wav
448,192,98145,128,0,100673:0:0:0:30:crash.wav
320,192,98145,128,0,100673:0:0:0:0:
64,192,100673,1,0,0:0:0:50:hat.wav
192,192,100716,1,0,0:0:0:50:hat.wav
320,192,100758,1,0,0:0:0:50:hat.wav
448,192,100800,1,0,0:0:0:50:hat.wav
64,192,100842,1,0,0:0:0:50:hat.wav
192,192,100884,1,0,0:0:0:50:hat.wav
320,192,100926,1,0,0:0:0:50:hat.wav
448,192,100968,1,0,0:0:0:50:hat.wav
64,192,101011,1,0,0:0:0:50:hat.wav
192,192,101053,1,0,0:0:0:50:hat.wav
320,192,101095,1,0,0:0:0:50:hat.wav
448,192,101137,1,0,0:0:0:50:hat.wav
64,192,101179,1,0,0:0:0:90:bass.wav
192,192,101179,1,0,0:0:0:0:
320,192,101263,1,0,0:0:0:90:bass.wav
448,192,101263,1,0,0:0:0:0:
192,192,101348,1,0,0:0:0:90:bass.wav
64,192,101348,1,0,0:0:0:0:
192,192,101432,1,0,0:0:0:90:bass.wav
64,192,101432,1,0,0:0:0:0:
320,192,101516,1,0,0:0:0:90:bass.wav
448,192,101516,1,0,0:0:0:0:
192,192,101600,1,0,0:0:0:90:bass.wav
64,192,101600,1,0,0:0:0:0:
320,192,101685,1,0,0:0:0:90:bass.wav
448,192,101685,1,0,0:0:0:0:
192,192,101769,1,0,0:0:0:90:bass.wav
64,192,101769,1,0,0:0:0:0:
320,192,101853,1,0,0:0:0:90:bass.wav
448,192,101853,1,0,0:0:0:0:
448,192,101938,1,0,0:0:0:90:bass.wav
320,192,101938,1,0,0:0:0:0:
64,192,102022,1,0,0:0:0:90:bass.wav
192,192,102022,1,0,0:0:0:0:
320,192,102106,1,0,0:0:0:90:bass.wav
448,192,102106,1,0,0:0:0:0:
192,192,102190,1,0,0:0:0:90:bass.wav
64,192,102190,1,0,0:0:0:0:
320,192,102275,1,0,0:0:0:90:bass.wav
448,192,102275,1,0,0:0:0:0:
192,192,102359,1,0,0:0:0:90:bass.wav
64,192,102359,1,0,0:0:0:0:
64,192,102443,1,0,0:0:0:90:bass.wav
192,192,102443,1,0,0:0:0:0:
320,192,102527,1,0,0:0:0:90:bass.wav
448,192,102527,1,0,0:0:0:0:
192,192,102612,1,0,0:0:0:90:bass.wav
64,192,102612,1,0,0:0:0:0:
320,192,102696,1,0,0:0:0:90:bass.wav
448,192,102696,1,0,0:0:0:0:
192,192,102780,1,0,0:0:0:90:bass.wav
64,192,102780,1,0,0:0:0:0:
320,192,102864,1,0,0:0:0:0:
448,192,102864,1,0,0:0:0:90:bass.wav
320,192,102949,1,0,0:0:0:0:
448,192,102949,1,0,0:0:0:90:bass.wav
320,192,103117,1,0,0:0:0:90:bass.wav
192,192,103117,1,0,0:0:0:0:
192,192,103286,1,0,0:0:0:90:bass.wav
64,192,103286,1,0,0:0:0:0:
64,192,103454,128,0,105224:0:0:0:50:snare.wav
320,192,103454,128,0,106572:0:0:0:50:crash.wav
448,192,103454,128,0,106572:0:0:0:90:bass.wav
