osu file format v14

[General]
AudioFilename: audio.mp3
AudioLeadIn: 0
PreviewTime: 75544
Countdown: 0
SampleSet: Normal
StackLeniency: 0.7
Mode: 3
LetterboxInBreaks: 0
SpecialStyle: 0
WidescreenStoryboard: 1

[Editor]
Bookmarks: 27258
DistanceSpacing: 0.9
BeatDivisor: 4
GridSize: 8
TimelineZoom: 1.900006

[Metadata]
Title:Dream to Nightmare
TitleUnicode:Dream to Nightmare
Artist:Nightmare
ArtistUnicode:Nightmare
Creator:_Stan
Version:HXJ's NM
Source:PUMP IT UP - 2013 FIESTA 2 -
Tags:itg itg3 rebirth breakcore In The Groove HXJ_Crafter
BeatmapID:1127425
BeatmapSetID:527728

[Difficulty]
HPDrainRate:7.5
CircleSize:4
OverallDifficulty:7.5
ApproachRate:5
SliderMultiplier:1.4
SliderTickRate:1

[Events]
//Background and Video events
0,0,"bg.jpg",0,0
//Break Periods
//Storyboard Layer 0 (Background)
//Storyboard Layer 1 (Fail)
//Storyboard Layer 2 (Pass)
//Storyboard Layer 3 (Foreground)
//Storyboard Sound Samples

[TimingPoints]
56,337.078651685393,4,1,0,30,1,0
48595,-100,4,1,0,30,0,1
62078,-100,4,1,0,30,0,0
64775,-100,4,1,0,30,0,1
72864,-100,4,1,0,30,0,0
101179,-100,4,1,0,30,0,1
103454,-100,4,1,0,30,0,0

[HitObjects]
448,192,56,5,0,0:0:0:20:punk.wav
64,192,393,1,0,0:0:0:20:punk.wav
192,192,561,1,0,0:0:0:20:punk.wav
64,192,730,1,0,0:0:0:20:punk.wav
320,192,898,1,0,0:0:0:20:punk.wav
448,192,1067,128,0,1404:0:0:0:50:punk.wav
64,192,1404,1,0,0:0:0:100:sub bass.wav
320,192,1741,1,0,0:0:0:100:sub bass.wav
64,192,1909,128,0,2078:0:0:0:100:sub bass.wav
192,192,2247,1,0,0:0:0:100:sub bass.wav
448,192,2415,128,0,2584:0:0:0:100:sub bass.wav
320,192,2752,1,0,0:0:0:100:sub bass.wav
448,192,2921,128,0,3089:0:0:0:100:sub bass.wav
64,192,3258,128,0,3426:0:0:0:100:sub bass.wav
192,192,3595,128,0,3763:0:0:0:100:sub bass.wav
320,192,3932,128,0,4100:0:0:0:100:sub bass.wav
448,192,4269,128,0,4438:0:0:0:100:sub bass.wav
64,192,4550,128,0,4775:0:0:0:100:sub bass.wav
192,192,4887,128,0,5112:0:0:0:100:sub bass.wav
320,192,5224,128,0,5449:0:0:0:100:sub bass.wav
448,192,5449,128,0,9494:0:0:0:100:sub bass.wav
64,192,5449,1,0,0:0:0:50:drumhit.wav
64,192,9494,1,0,0:0:0:50:drumhit.wav
320,192,9831,1,0,0:0:0:90:bass.wav
192,192,9999,1,0,0:0:0:90:bass.wav
320,192,10168,1,0,0:0:0:90:bass.wav
448,192,10336,1,0,0:0:0:90:bass.wav
64,192,10505,128,0,10842:0:0:0:50:snare.wav
192,192,10505,1,0,0:0:0:90:bass.wav
320,192,10842,1,0,0:0:0:50:snare.wav
448,192,10842,1,0,0:0:0:90:bass.wav
64,192,11011,1,0,0:0:0:90:bass.wav
192,192,11011,1,0,0:0:0:0:
320,192,11348,1,0,0:0:0:50:drumhit.wav
192,192,11348,1,0,0:0:0:0:
320,192,11685,1,0,0:0:0:0:
448,192,11685,1,0,0:0:0:90:bass.wav
64,192,11853,1,0,0:0:0:50:drumhit.wav
192,192,11938,1,0,0:0:0:0:
448,192,12022,1,0,0:0:0:90:bass.wav
320,192,12022,128,0,13202:0:0:0:0:
448,192,13202,128,0,13539:0:0:0:50:punk.wav
64,192,13539,1,0,0:0:0:90:bass.wav
192,192,13539,1,0,0:0:0:0:
320,192,13707,1,0,0:0:0:50:drumhit.wav
192,192,13791,1,0,0:0:0:50:drumhit.wav
64,192,13876,1,0,0:0:0:90:bass.wav
320,192,14044,1,0,0:0:0:50:drumhit.wav
448,192,14044,1,0,0:0:0:0:
64,192,14381,1,0,0:0:0:90:bass.wav
192,192,14381,1,0,0:0:0:0:
448,192,14550,1,0,0:0:0:90:bass.wav
320,192,14634,1,0,0:0:0:50:hat.wav
64,192,14718,1,0,0:0:0:50:drumhit.wav
192,192,14718,128,0,15898:0:0:0:0:
64,192,15898,128,0,16235:0:0:0:50:punk.wav
448,192,16235,1,0,0:0:0:90:bass.wav
320,192,16235,1,0,0:0:0:0:
192,192,16404,128,0,16741:0:0:0:50:drumhit.wav
64,192,16741,1,0,0:0:0:90:bass.wav
448,192,16741,1,0,0:0:0:0:
320,192,17078,1,0,0:0:0:90:bass.wav
192,192,17078,1,0,0:0:0:0:
64,192,17415,1,0,0:0:0:50:drumhit.wav
448,192,17415,128,0,18595:0:0:0:0:
64,192,18595,128,0,18932:0:0:0:50:punk.wav
192,192,18932,1,0,0:0:0:90:bass.wav
448,192,18932,1,0,0:0:0:0:
320,192,19100,128,0,19438:0:0:0:50:drumhit.wav
64,192,19606,1,0,0:0:0:90:bass.wav
192,192,19606,1,0,0:0:0:0:
448,192,19775,128,0,20112:0:0:0:50:drumhit.wav
320,192,20112,1,0,0:0:0:90:bass.wav
64,192,20112,1,0,0:0:0:0:
192,192,20364,1,0,0:0:0:50:drumhit.wav
448,192,20364,1,0,0:0:0:0:
64,192,20617,1,0,0:0:0:50:drumhit.wav
448,192,20617,1,0,0:0:0:0:
320,192,20786,1,0,0:0:0:50:hat.wav
192,192,20870,1,0,0:0:0:50:hat.wav
64,192,20954,1,0,0:0:0:50:drumhit.wav
64,192,21123,1,0,0:0:0:50:drumhit.wav
320,192,21291,1,0,0:0:0:50:drumhit.wav
320,192,21460,1,0,0:0:0:50:drumhit.wav
192,192,21629,1,0,0:0:0:50:drumhit.wav
192,192,21797,1,0,0:0:0:50:drumhit.wav
448,192,21966,128,0,22303:0:0:0:50:punk.wav
320,192,22303,1,0,0:0:0:50:hat.wav
64,192,22303,128,0,22808:0:0:0:0:
192,192,22977,128,0,23145:0:0:0:50:drumhit.wav
448,192,22977,1,0,0:0:0:0:
64,192,23482,128,0,23651:0:0:0:90:bass.wav
320,192,23482,1,0,0:0:0:0:
448,192,23820,1,0,0:0:0:50:drumhit.wav
320,192,23988,128,0,24325:0:0:0:90:bass.wav
192,192,24325,1,0,0:0:0:50:drumhit.wav
448,192,24494,128,0,24831:0:0:0:50:drumhit.wav
64,192,24831,1,0,0:0:0:90:bass.wav
192,192,24915,1,0,0:0:0:90:bass.wav
320,192,24999,1,0,0:0:0:50:drumhit.wav
192,192,25168,1,0,0:0:0:90:bass.wav
448,192,25336,1,0,0:0:0:50:drumhit.wav
64,192,25505,1,0,0:0:0:50:drumhit.wav
320,192,25673,128,0,25842:0:0:0:90:bass.wav
192,192,25842,128,0,26011:0:0:0:90:bass.wav
448,192,26011,1,0,0:0:0:50:drumhit.wav
320,192,26179,1,0,0:0:0:50:drumhit.wav
64,192,26179,128,0,26348:0:0:0:0:
320,192,26432,1,0,0:0:0:90:bass.wav
192,192,26516,1,0,0:0:0:90:bass.wav
448,192,26600,128,0,26769:0:0:0:50:drumhit.wav
64,192,26600,1,0,0:0:0:0:
192,192,26853,1,0,0:0:0:90:bass.wav
320,192,26938,1,0,0:0:0:90:bass.wav
448,192,27022,1,0,0:0:0:50:drumhit.wav
64,192,27022,128,0,27190:0:0:0:0:
448,192,27275,1,0,0:0:0:90:bass.wav
320,192,27359,1,0,0:0:0:90:bass.wav
192,192,27443,128,0,27696:0:0:0:0:
64,192,27696,1,0,0:0:0:90:bass.wav
448,192,27696,1,0,0:0:0:0:
64,192,28370,1,0,0:0:0:50:snare.wav
320,192,28454,1,0,0:0:0:50:drumhit.wav
64,192,28623,1,0,0:0:0:50:drumhit.wav
320,192,28791,1,0,0:0:0:50:drumhit.wav
64,192,28960,1,0,0:0:0:50:drumhit.wav
448,192,29044,1,0,0:0:0:90:bass.wav
192,192,29213,1,0,0:0:0:90:bass.wav
448,192,29381,1,0,0:0:0:90:bass.wav
320,192,29550,1,0,0:0:0:90:bass.wav
64,192,29718,128,0,30055:0:0:0:90:bass.wav
192,192,30055,128,0,30393:0:0:0:90:bass.wav
320,192,30393,128,0,31572:0:0:0:50:drumhit.wav
448,192,30393,1,0,0:0:0:0:
64,192,30898,1,0,0:0:0:50:drumhit.wav
448,192,31572,1,0,0:0:0:90:bass.wav
64,192,31741,1,0,0:0:0:50:drumhit.wav
192,192,31909,128,0,32078:0:0:0:50:hat.wav
64,192,32247,128,0,32415:0:0:0:50:hat.wav
448,192,32415,1,0,0:0:0:50:snare.wav
192,192,32584,1,0,0:0:0:50:snare.wav
320,192,32752,1,0,0:0:0:50:snare.wav
192,192,32921,1,0,0:0:0:50:snare.wav
448,192,33089,128,0,37808:0:0:0:50:drumhit.wav
64,192,33089,1,0,0:0:0:50:crash.wav
64,192,37808,1,0,0:0:0:30:crash.wav
64,192,38145,1,0,0:0:0:90:bass.wav
448,192,38482,1,0,0:0:0:50:drumhit.wav
192,192,38820,1,0,0:0:0:90:bass.wav
448,192,38988,1,0,0:0:0:50:drumhit.wav
64,192,39157,1,0,0:0:0:90:bass.wav
320,192,39325,1,0,0:0:0:50:drumhit.wav
64,192,39494,1,0,0:0:0:90:bass.wav
448,192,39831,1,0,0:0:0:50:drumhit.wav
64,192,39999,1,0,0:0:0:90:bass.wav
448,192,40168,1,0,0:0:0:50:drumhit.wav
320,192,40336,1,0,0:0:0:100:sub bass.wav
192,192,40421,1,0,0:0:0:100:sub bass.wav
64,192,40505,1,0,0:0:0:90:bass.wav
448,192,40842,1,0,0:0:0:90:bass.wav
192,192,41011,1,0,0:0:0:90:bass.wav
320,192,41095,1,0,0:0:0:90:bass.wav
448,192,41179,1,0,0:0:0:50:drumhit.wav
64,192,41348,1,0,0:0:0:90:bass.wav
320,192,41685,1,0,0:0:0:50:drumhit.wav
192,192,41853,1,0,0:0:0:90:bass.wav
448,192,42190,1,0,0:0:0:50:drumhit.wav
192,192,42359,1,0,0:0:0:90:bass.wav
448,192,42696,1,0,0:0:0:50:drumhit.wav
64,192,42864,128,0,43202:0:0:0:100:sub bass.wav
320,192,43202,128,0,43370:0:0:0:90:bass.wav
448,192,43370,1,0,0:0:0:90:bass.wav
192,192,43539,128,0,43707:0:0:0:90:bass.wav
64,192,43707,1,0,0:0:0:90:bass.wav
448,192,43876,1,0,0:0:0:50:drumhit.wav
320,192,44718,1,0,0:0:0:90:bass.wav
64,192,45055,1,0,0:0:0:90:bass.wav
448,192,45224,1,0,0:0:0:50:drumhit.wav
192,192,45393,128,0,45898:0:0:0:100:sub bass.wav
320,192,45898,1,0,0:0:0:90:bass.wav
64,192,46067,1,0,0:0:0:90:bass.wav
192,192,46404,1,0,0:0:0:90:bass.wav
448,192,46572,128,0,47078:0:0:0:100:sub bass.wav
320,192,47078,1,0,0:0:0:100:sub bass.wav
192,192,47162,1,0,0:0:0:100:sub bass.wav
64,192,47247,1,0,0:0:0:50:hat.wav
448,192,47584,1,0,0:0:0:50:drumhit.wav
64,192,47752,1,0,0:0:0:90:bass.wav
448,192,48089,1,0,0:0:0:50:drumhit.wav
192,192,48258,128,0,48595:0:0:0:100:sub bass.wav
448,192,48595,1,0,0:0:0:30:crash.wav
64,192,48763,1,0,0:0:0:100:sub bass.wav
320,192,48932,1,0,0:0:0:90:bass.wav
192,192,49100,1,0,0:0:0:90:bass.wav
448,192,49269,1,0,0:0:0:90:bass.wav
64,192,49438,1,0,0:0:0:100:sub bass.wav
320,192,49606,1,0,0:0:0:90:bass.wav
192,192,49775,1,0,0:0:0:90:bass.wav
448,192,49943,1,0,0:0:0:90:bass.wav
192,192,50112,128,0,50280:0:0:0:100:sub bass.wav
320,192,50280,128,0,50449:0:0:0:100:sub bass.wav
64,192,50449,1,0,0:0:0:90:bass.wav
448,192,50617,1,0,0:0:0:90:bass.wav
192,192,50786,128,0,51123:0:0:0:100:sub bass.wav
320,192,51123,1,0,0:0:0:90:bass.wav
64,192,51291,1,0,0:0:0:50:snare.wav
448,192,51460,1,0,0:0:0:100:sub bass.wav
192,192,51629,1,0,0:0:0:90:bass.wav
320,192,51797,1,0,0:0:0:90:bass.wav
448,192,51966,1,0,0:0:0:90:bass.wav
64,192,52134,1,0,0:0:0:100:sub bass.wav
448,192,52303,1,0,0:0:0:90:bass.wav
192,192,52471,1,0,0:0:0:90:bass.wav
320,192,52640,1,0,0:0:0:90:bass.wav
64,192,52808,128,0,52977:0:0:0:100:sub bass.wav
448,192,52977,128,0,53145:0:0:0:100:sub bass.wav
320,192,53145,1,0,0:0:0:90:bass.wav
64,192,53314,1,0,0:0:0:90:bass.wav
192,192,53482,128,0,53820:0:0:0:100:sub bass.wav
448,192,53820,1,0,0:0:0:100:sub bass.wav
64,192,53988,1,0,0:0:0:50:snare.wav
320,192,54157,1,0,0:0:0:100:sub bass.wav
64,192,54325,1,0,0:0:0:90:bass.wav
192,192,54494,1,0,0:0:0:50:drumhit.wav
320,192,54662,1,0,0:0:0:90:bass.wav
448,192,54831,1,0,0:0:0:100:sub bass.wav
320,192,54999,128,0,55336:0:0:0:50:hat.wav
64,192,55336,1,0,0:0:0:90:bass.wav
192,192,55505,128,0,55673:0:0:0:100:sub bass.wav
448,192,55673,128,0,55842:0:0:0:90:bass.wav
64,192,55842,1,0,0:0:0:90:bass.wav
320,192,56011,1,0,0:0:0:90:bass.wav
192,192,56179,1,0,0:0:0:100:sub bass.wav
64,192,56348,1,0,0:0:0:50:hat.wav
448,192,56348,128,0,56685:0:0:0:90:bass.wav
192,192,56685,1,0,0:0:0:50:snare.wav
192,192,56853,1,0,0:0:0:50:snare.wav
320,192,57022,128,0,57359:0:0:0:100:sub bass.wav
64,192,57359,1,0,0:0:0:50:snare.wav
64,192,57527,1,0,0:0:0:50:snare.wav
192,192,57696,128,0,58033:0:0:0:100:sub bass.wav
448,192,58033,1,0,0:0:0:50:snare.wav
448,192,58202,1,0,0:0:0:50:snare.wav
64,192,58370,128,0,58707:0:0:0:100:sub bass.wav
320,192,58707,1,0,0:0:0:50:snare.wav
320,192,58876,1,0,0:0:0:50:snare.wav
448,192,59044,128,0,59381:0:0:0:100:sub bass.wav
192,192,59381,128,0,59550:0:0:0:50:drumhit.wav
64,192,59718,128,0,59887:0:0:0:50:drumhit.wav
320,192,60055,128,0,60224:0:0:0:50:drumhit.wav
192,192,60393,128,0,60561:0:0:0:50:drumhit.wav
448,192,60730,128,0,62078:0:0:0:90:bass.wav
64,192,61404,128,0,62078:0:0:0:90:bass.wav
192,192,62078,1,0,0:0:0:50:snare.wav
320,192,62247,128,0,62415:0:0:0:50:punk.wav
64,192,62415,1,0,0:0:0:50:snare.wav
448,192,62584,128,0,62752:0:0:0:50:punk.wav
64,192,62752,1,0,0:0:0:50:snare.wav
448,192,62921,128,0,63089:0:0:0:50:punk.wav
64,192,63089,1,0,0:0:0:50:snare.wav
192,192,63258,128,0,63426:0:0:0:50:punk.wav
448,192,63426,1,0,0:0:0:50:snare.wav
448,192,63763,1,0,0:0:0:50:snare.wav
64,192,63763,128,0,64606:0:0:0:0:
448,192,64775,1,0,0:0:0:50:drumhit.wav
192,192,64943,128,0,65112:0:0:0:90:bass.wav
320,192,65112,1,0,0:0:0:50:drumhit.wav
64,192,65280,128,0,65617:0:0:0:90:bass.wav
448,192,65617,1,0,0:0:0:50:drumhit.wav
192,192,65786,128,0,65954:0:0:0:90:bass.wav
320,192,65954,1,0,0:0:0:50:drumhit.wav
64,192,66123,1,0,0:0:0:50:drumhit.wav
448,192,66291,128,0,66460:0:0:0:90:bass.wav
192,192,66460,1,0,0:0:0:50:drumhit.wav
320,192,66629,128,0,66966:0:0:0:90:bass.wav
64,192,66966,1,0,0:0:0:50:drumhit.wav
448,192,67134,128,0,67303:0:0:0:90:bass.wav
192,192,67303,1,0,0:0:0:50:drumhit.wav
448,192,67471,1,0,0:0:0:50:drumhit.wav
320,192,67640,128,0,67808:0:0:0:90:bass.wav
192,192,67808,1,0,0:0:0:50:drumhit.wav
64,192,67977,128,0,68314:0:0:0:90:bass.wav
448,192,68314,1,0,0:0:0:50:drumhit.wav
320,192,68482,128,0,68651:0:0:0:90:bass.wav
64,192,68651,1,0,0:0:0:50:drumhit.wav
448,192,68820,1,0,0:0:0:50:drumhit.wav
192,192,68988,128,0,69157:0:0:0:90:bass.wav
64,192,69157,1,0,0:0:0:50:drumhit.wav
320,192,69325,128,0,69662:0:0:0:90:bass.wav
64,192,69662,1,0,0:0:0:50:drumhit.wav
192,192,69831,1,0,0:0:0:90:bass.wav
448,192,69915,1,0,0:0:0:50:drumhit.wav
64,192,70084,1,0,0:0:0:90:bass.wav
320,192,70168,1,0,0:0:0:50:drumhit.wav
192,192,70336,128,0,70505:0:0:0:90:bass.wav
64,192,70505,1,0,0:0:0:50:drumhit.wav
448,192,70673,128,0,71011:0:0:0:90:bass.wav
320,192,71011,1,0,0:0:0:50:drumhit.wav
192,192,71179,128,0,71348:0:0:0:90:bass.wav
64,192,71348,1,0,0:0:0:50:drumhit.wav
448,192,71516,1,0,0:0:0:50:drumhit.wav
64,192,71685,128,0,71853:0:0:0:90:bass.wav
320,192,71853,1,0,0:0:0:50:drumhit.wav
448,192,72022,128,0,72190:0:0:0:90:bass.wav
192,192,72190,128,0,72527:0:0:0:50:drumhit.wav
320,192,72527,128,0,72864:0:0:0:50:drumhit.wav
64,192,72864,1,0,0:0:0:50:hat.wav
448,192,72864,128,0,73202:0:0:0:50:drumhit.wav
64,192,73202,1,0,0:0:0:50:drumhit.wav
192,192,73370,1,0,0:0:0:50:drumhit.wav
320,192,73370,128,0,73707:0:0:0:0:
64,192,73707,1,0,0:0:0:50:drumhit.wav
192,192,74044,1,0,0:0:0:50:drumhit.wav
320,192,74129,1,0,0:0:0:50:drumhit.wav
64,192,74213,1,0,0:0:0:50:drumhit.wav
64,192,74381,1,0,0:0:0:50:drumhit.wav
448,192,74550,1,0,0:0:0:50:drumhit.wav
448,192,74718,1,0,0:0:0:50:drumhit.wav
192,192,74887,1,0,0:0:0:100:sub bass.wav
64,192,74887,1,0,0:0:0:50:drumhit.wav
192,192,75055,1,0,0:0:0:100:sub bass.wav
64,192,75055,1,0,0:0:0:50:drumhit.wav
320,192,75224,1,0,0:0:0:50:drumhit.wav
448,192,75224,1,0,0:0:0:50:drumhit.wav
448,192,75393,1,0,0:0:0:50:drumhit.wav
320,192,75393,1,0,0:0:0:50:drumhit.wav
448,192,76909,1,0,0:0:0:50:drumhit.wav
64,192,76909,128,0,77584:0:0:0:90:bass.wav
448,192,77584,1,0,0:0:0:50:drumhit.wav
320,192,77584,1,0,0:0:0:50:hat.wav
192,192,77752,1,0,0:0:0:50:drumhit.wav
64,192,77752,1,0,0:0:0:50:hat.wav
448,192,78089,1,0,0:0:0:50:drumhit.wav
320,192,78089,1,0,0:0:0:50:hat.wav
64,192,78258,1,0,0:0:0:90:bass.wav
192,192,78426,1,0,0:0:0:90:bass.wav
320,192,78595,1,0,0:0:0:50:drumhit.wav
448,192,78595,1,0,0:0:0:50:hat.wav
192,192,78763,1,0,0:0:0:90:bass.wav
320,192,78932,1,0,0:0:0:90:bass.wav
64,192,79100,1,0,0:0:0:50:drumhit.wav
448,192,79100,1,0,0:0:0:50:hat.wav
320,192,79269,1,0,0:0:0:90:bass.wav
192,192,79353,1,0,0:0:0:50:drumhit.wav
320,192,79522,1,0,0:0:0:50:drumhit.wav
192,192,79606,1,0,0:0:0:90:bass.wav
64,192,79775,1,0,0:0:0:50:drumhit.wav
448,192,79775,1,0,0:0:0:50:hat.wav
320,192,79943,1,0,0:0:0:90:bass.wav
192,192,80112,1,0,0:0:0:90:bass.wav
64,192,80280,1,0,0:0:0:50:drumhit.wav
448,192,80280,1,0,0:0:0:50:hat.wav
192,192,80449,1,0,0:0:0:90:bass.wav
320,192,80617,1,0,0:0:0:50:drumhit.wav
448,192,80617,1,0,0:0:0:50:hat.wav
192,192,80786,1,0,0:0:0:50:drumhit.wav
64,192,80786,1,0,0:0:0:50:hat.wav
448,192,80954,1,0,0:0:0:90:bass.wav
192,192,81123,1,0,0:0:0:50:drumhit.wav
64,192,81123,1,0,0:0:0:50:hat.wav
192,192,81376,1,0,0:0:0:50:drumhit.wav
320,192,81376,1,0,0:0:0:50:hat.wav
64,192,81629,1,0,0:0:0:50:drumhit.wav
448,192,81629,1,0,0:0:0:50:hat.wav
192,192,81881,1,0,0:0:0:50:drumhit.wav
320,192,81966,1,0,0:0:0:50:drumhit.wav
64,192,82134,1,0,0:0:0:50:drumhit.wav
448,192,82303,1,0,0:0:0:50:drumhit.wav
192,192,82471,1,0,0:0:0:50:drumhit.wav
320,192,82555,1,0,0:0:0:50:drumhit.wav
64,192,82640,1,0,0:0:0:50:drumhit.wav
448,192,82640,1,0,0:0:0:50:hat.wav
192,192,82808,1,0,0:0:0:90:bass.wav
320,192,82977,1,0,0:0:0:50:drumhit.wav
448,192,82977,1,0,0:0:0:50:hat.wav
64,192,83145,1,0,0:0:0:90:bass.wav
192,192,83314,1,0,0:0:0:50:drumhit.wav
448,192,83314,1,0,0:0:0:50:hat.wav
64,192,83482,1,0,0:0:0:50:drumhit.wav
320,192,83482,1,0,0:0:0:50:hat.wav
448,192,83820,1,0,0:0:0:50:drumhit.wav
192,192,83820,1,0,0:0:0:50:hat.wav
320,192,84072,1,0,0:0:0:50:drumhit.wav
64,192,84241,1,0,0:0:0:50:drumhit.wav
448,192,84409,1,0,0:0:0:50:drumhit.wav
192,192,84578,1,0,0:0:0:50:drumhit.wav
320,192,84747,1,0,0:0:0:50:drumhit.wav
64,192,84915,1,0,0:0:0:50:drumhit.wav
320,192,85084,1,0,0:0:0:50:drumhit.wav
64,192,85252,1,0,0:0:0:50:drumhit.wav
192,192,85421,1,0,0:0:0:50:drumhit.wav
448,192,85589,1,0,0:0:0:50:drumhit.wav
64,192,85758,1,0,0:0:0:50:drumhit.wav
320,192,85926,1,0,0:0:0:50:drumhit.wav
192,192,86095,1,0,0:0:0:50:drumhit.wav
64,192,86263,1,0,0:0:0:50:drumhit.wav
448,192,86263,128,0,87696:0:0:0:50:hat.wav
192,192,86853,1,0,0:0:0:100:sub bass.wav
192,192,87359,1,0,0:0:0:100:sub bass.wav
320,192,87527,128,0,87696:0:0:0:100:sub bass.wav
64,192,87696,1,0,0:0:0:100:sub bass.wav
192,192,87864,1,0,0:0:0:100:sub bass.wav
448,192,88033,128,0,88202:0:0:0:50:snare.wav
64,192,88033,1,0,0:0:0:90:bass.wav
320,192,88202,128,0,88370:0:0:0:90:bass.wav
448,192,88539,1,0,0:0:0:50:snare.wav
192,192,88539,1,0,0:0:0:90:bass.wav
64,192,88707,1,0,0:0:0:90:bass.wav
320,192,88876,1,0,0:0:0:90:bass.wav
448,192,88876,1,0,0:0:0:0:
64,192,89213,1,0,0:0:0:90:bass.wav
192,192,89381,1,0,0:0:0:90:bass.wav
448,192,89550,128,0,89718:0:0:0:50:hat.wav
64,192,89718,1,0,0:0:0:90:bass.wav
192,192,89887,128,0,90055:0:0:0:50:hat.wav
448,192,90224,1,0,0:0:0:90:bass.wav
64,192,90308,1,0,0:0:0:90:bass.wav
320,192,90393,128,0,90561:0:0:0:90:bass.wav
192,192,90730,1,0,0:0:0:50:snare.wav
448,192,90730,1,0,0:0:0:0:
64,192,91067,1,0,0:0:0:90:bass.wav
192,192,91235,1,0,0:0:0:90:bass.wav
320,192,91320,1,0,0:0:0:90:bass.wav
448,192,91404,1,0,0:0:0:50:snare.wav
64,192,91572,1,0,0:0:0:90:bass.wav
192,192,91657,1,0,0:0:0:90:bass.wav
320,192,91741,128,0,92752:0:0:0:90:bass.wav
448,192,91741,1,0,0:0:0:0:
64,192,92752,1,0,0:0:0:50:snare.wav
64,192,93089,128,0,93426:0:0:0:90:bass.wav
448,192,93426,128,0,93595:0:0:0:100:sub bass.wav
192,192,93595,1,0,0:0:0:100:sub bass.wav
320,192,93763,1,0,0:0:0:90:bass.wav
64,192,93848,1,0,0:0:0:90:bass.wav
448,192,94016,1,0,0:0:0:90:bass.wav
64,192,94100,1,0,0:0:0:90:bass.wav
192,192,94185,1,0,0:0:0:90:bass.wav
320,192,94269,1,0,0:0:0:100:sub bass.wav
448,192,94269,1,0,0:0:0:50:punk.wav
192,192,94606,1,0,0:0:0:100:sub bass.wav
448,192,94606,1,0,0:0:0:50:punk.wav
64,192,94943,1,0,0:0:0:100:sub bass.wav
320,192,94943,1,0,0:0:0:50:punk.wav
64,192,95280,1,0,0:0:0:100:sub bass.wav
448,192,95280,1,0,0:0:0:50:punk.wav
192,192,95617,1,0,0:0:0:100:sub bass.wav
448,192,95617,1,0,0:0:0:50:punk.wav
320,192,95786,1,0,0:0:0:90:bass.wav
192,192,95954,1,0,0:0:0:90:bass.wav
64,192,96123,1,0,0:0:0:50:snare.wav
448,192,96123,1,0,0:0:0:0:
320,192,96291,1,0,0:0:0:100:sub bass.wav
448,192,96460,1,0,0:0:0:50:snare.wav
64,192,96460,1,0,0:0:0:0:
192,192,96629,1,0,0:0:0:90:bass.wav
64,192,96797,1,0,0:0:0:90:bass.wav
320,192,96966,1,0,0:0:0:50:snare.wav
448,192,96966,1,0,0:0:0:0:
192,192,97134,1,0,0:0:0:90:bass.wav
448,192,97303,1,0,0:0:0:90:bass.wav
64,192,97471,1,0,0:0:0:100:sub bass.wav
320,192,97640,1,0,0:0:0:90:bass.wav
192,192,97808,1,0,0:0:0:50:snare.wav
64,192,97808,1,0,0:0:0:0:
448,192,97977,1,0,0:0:0:90:bass.wav
448,192,98145,1,0,0:0:0:50:snare.wav
64,192,98145,128,0,101179:0:0:0:30:crash.wav
448,192,100673,128,0,101179:0:0:0:50:hat.wav
320,192,101179,1,0,0:0:0:90:bass.wav
192,192,101263,1,0,0:0:0:90:bass.wav
448,192,101348,1,0,0:0:0:90:bass.wav
320,192,101432,1,0,0:0:0:90:bass.wav
64,192,101516,1,0,0:0:0:90:bass.wav
192,192,101600,1,0,0:0:0:90:bass.wav
320,192,101685,1,0,0:0:0:90:bass.wav
448,192,101769,1,0,0:0:0:90:bass.wav
64,192,101853,1,0,0:0:0:90:bass.wav
192,192,101938,1,0,0:0:0:90:bass.wav
448,192,102022,1,0,0:0:0:90:bass.wav
320,192,102106,1,0,0:0:0:90:bass.wav
192,192,102190,1,0,0:0:0:90:bass.wav
64,192,102275,1,0,0:0:0:90:bass.wav
320,192,102359,1,0,0:0:0:90:bass.wav
448,192,102443,1,0,0:0:0:90:bass.wav
64,192,102527,1,0,0:0:0:90:bass.wav
192,192,102612,1,0,0:0:0:90:bass.wav
320,192,102696,1,0,0:0:0:90:bass.wav
448,192,102780,1,0,0:0:0:90:bass.wav
64,192,102864,1,0,0:0:0:90:bass.wav
320,192,102949,1,0,0:0:0:90:bass.wav
192,192,103117,1,0,0:0:0:90:bass.wav
64,192,103286,1,0,0:0:0:90:bass.wav
448,192,103454,128,0,106572:0:0:0:50:snare.wav
320,192,103454,128,0,105224:0:0:0:50:crash.wav
