osu file format v14

[General]
AudioFilename: Nightmare - Boulafacet.mp3
AudioLeadIn: 0
PreviewTime: 82594
Countdown: 0
SampleSet: Soft
StackLeniency: 0.7
Mode: 3
LetterboxInBreaks: 0
SpecialStyle: 0
WidescreenStoryboard: 1

[Editor]
Bookmarks: 79023,85747,86100,92453,93865,102335,103041,103747,104100
DistanceSpacing: 0.7
BeatDivisor: 8
GridSize: 8
TimelineZoom: 1.7

[Metadata]
Title:Boulafacet
TitleUnicode:Boulafacet
Artist:Nightmare
ArtistUnicode:Nightmare
Creator:MasterSonic10
Version:MX
Source:Pump It Up Pro 2
Tags:ajeemaniz ExUsagi Q__Q PIU Andamiro
BeatmapID:584589
BeatmapSetID:254581

[Difficulty]
HPDrainRate:8
CircleSize:4
OverallDifficulty:8
ApproachRate:5
SliderMultiplier:1.4
SliderTickRate:1

[Events]
//Background and Video events
0,0,"maxresdefault.jpg",0,0
//Break Periods
//Storyboard Layer 0 (Background)
//Storyboard Layer 1 (Fail)
//Storyboard Layer 2 (Pass)
//Storyboard Layer 3 (Foreground)
//Storyboard Sound Samples

[TimingPoints]
712,352.941176470588,4,2,1,30,1,0
17654,-100,4,1,0,30,0,0
21537,-100,4,2,1,30,0,0
82594,-100,4,2,1,30,0,1
105182,-100,4,2,1,30,0,0

[HitObjects]
64,192,712,5,0,0:0:0:0:
448,192,712,1,4,0:0:0:0:
192,192,1064,1,8,0:0:0:0:
320,192,1241,1,8,0:0:0:0:
192,192,1417,1,8,0:0:0:0:
320,192,1594,1,8,0:0:0:0:
192,192,1947,1,8,0:0:0:0:
192,192,2300,1,8,0:0:0:0:
192,192,2653,1,8,0:0:0:0:
320,192,2829,1,8,0:0:0:0:
192,192,3182,1,8,0:0:0:0:
448,192,3535,1,4,0:0:0:0:
64,192,3535,1,0,0:0:0:0:
192,192,3711,1,2,0:0:0:0:
448,192,3800,1,2,0:0:0:0:
192,192,3888,1,2,0:0:0:0:
192,192,4064,1,2,0:0:0:0:
64,192,4153,1,2,0:0:0:0:
320,192,4329,1,2,0:0:0:0:
192,192,4417,1,2,0:0:0:0:
320,192,4506,1,2,0:0:0:0:
448,192,4594,1,2,0:0:0:0:
192,192,4682,1,2,0:0:0:0:
64,192,4770,1,2,0:0:0:0:
320,192,4859,1,2,0:0:0:0:
192,192,4947,1,2,0:0:0:0:
192,192,5123,1,2,0:0:0:0:
448,192,5300,1,2,0:0:0:0:
320,192,5388,1,2,0:0:0:0:
192,192,5476,1,2,0:0:0:0:
320,192,5564,1,2,0:0:0:0:
192,192,5741,1,2,0:0:0:0:
448,192,5829,1,2,0:0:0:0:
320,192,5917,1,2,0:0:0:0:
448,192,6006,1,2,0:0:0:0:
64,192,6182,1,2,0:0:0:0:
192,192,6359,1,0,0:0:0:0:
448,192,6359,1,4,0:0:0:0:
64,192,6711,1,8,0:0:0:0:
448,192,6888,1,8,0:0:0:0:
320,192,6976,1,8,0:0:0:0:
448,192,7064,1,8,0:0:0:0:
192,192,7241,1,8,0:0:0:0:
192,192,7594,1,8,0:0:0:0:
192,192,7947,1,8,0:0:0:0:
448,192,8123,1,8,0:0:0:0:
320,192,8476,1,8,0:0:0:0:
320,192,8829,1,8,0:0:0:0:
64,192,9182,1,4,0:0:0:0:
320,192,9182,1,0,0:0:0:0:
192,192,9270,1,2,0:0:0:0:
320,192,9359,1,2,0:0:0:0:
192,192,9447,1,2,0:0:0:0:
320,192,9535,1,2,0:0:0:0:
64,192,9623,1,2,0:0:0:0:
192,192,9711,1,2,0:0:0:0:
320,192,9800,1,2,0:0:0:0:
448,192,9976,1,2,0:0:0:0:
192,192,10064,1,2,0:0:0:0:
64,192,10241,1,2,0:0:0:0:
192,192,10329,1,2,0:0:0:0:
320,192,10506,1,2,0:0:0:0:
64,192,10682,1,2,0:0:0:0:
192,192,10770,1,2,0:0:0:0:
320,192,10859,1,2,0:0:0:0:
448,192,10947,1,2,0:0:0:0:
320,192,11123,1,2,0:0:0:0:
192,192,11300,1,2,0:0:0:0:
64,192,11388,1,2,0:0:0:0:
192,192,11476,1,2,0:0:0:0:
320,192,11564,1,2,0:0:0:0:
192,192,11653,1,2,0:0:0:0:
448,192,11741,1,2,0:0:0:0:
64,192,11829,1,2,0:0:0:0:
192,192,11917,1,2,0:0:0:0:
448,192,12006,128,0,12359:0:0:0:0:
320,192,12006,1,8,0:0:0:0:
64,192,12006,1,4,0:0:0:0:
192,192,12182,1,0,0:0:0:0:
64,192,12270,1,0,0:0:0:0:
192,192,12359,1,8,0:0:0:0:
320,192,12535,128,0,12888:0:0:0:0:
64,192,12535,1,0,0:0:0:0:
448,192,12711,1,8,0:0:0:0:
192,192,12800,1,0,0:0:0:0:
448,192,12888,1,0,0:0:0:0:
64,192,13064,128,0,13947:0:0:0:0:
320,192,13064,1,8,0:0:0:0:
448,192,13153,1,0,0:0:0:0:
448,192,13329,1,0,0:0:0:0:
320,192,13417,1,8,0:0:0:0:
448,192,13506,1,0,0:0:0:0:
448,192,13682,1,0,0:0:0:0:
320,192,13770,1,8,0:0:0:0:
192,192,13947,1,0,0:0:0:0:
448,192,14035,1,0,0:0:0:0:
320,192,14123,1,8,0:0:0:0:
448,192,14211,1,0,0:0:0:0:
192,192,14300,1,0,0:0:0:0:
64,192,14476,1,8,0:0:0:0:
448,192,14476,1,0,0:0:0:0:
192,192,14653,1,0,0:0:0:0:
448,192,14829,128,0,15182:0:0:0:0:
320,192,14829,1,8,0:0:0:0:
64,192,14829,1,0,0:0:0:0:
64,192,15006,1,0,0:0:0:0:
192,192,15094,1,0,0:0:0:0:
64,192,15182,1,8,0:0:0:0:
320,192,15359,128,0,15711:0:0:0:0:
448,192,15359,1,0,0:0:0:0:
192,192,15535,1,8,0:0:0:0:
64,192,15623,1,0,0:0:0:0:
192,192,15711,1,0,0:0:0:0:
64,192,15888,128,0,16770:0:0:0:0:
192,192,15888,1,8,0:0:0:0:
320,192,16064,1,0,0:0:0:0:
448,192,16241,1,8,0:0:0:0:
320,192,16417,1,0,0:0:0:0:
448,192,16594,1,8,0:0:0:0:
192,192,16594,1,0,0:0:0:0:
320,192,16682,1,0,0:0:0:0:
192,192,16770,1,0,0:0:0:0:
448,192,16947,1,8,0:0:0:0:
448,192,17300,128,0,17653:0:0:0:0:
64,192,17653,1,0,0:0:0:0:
320,192,17653,1,0,0:0:0:0:
192,192,17829,1,0,0:0:0:0:
64,192,18006,1,0,0:0:0:0:
320,192,18006,1,8,0:0:0:0:
192,192,18182,1,0,0:0:0:0:
320,192,18270,1,0,0:0:0:0:
192,192,18359,1,0,0:0:0:0:
448,192,18359,1,0,0:0:0:0:
320,192,18447,1,0,0:0:0:0:
64,192,18535,1,0,0:0:0:0:
320,192,18711,1,0,0:0:0:0:
448,192,18711,1,8,0:0:0:0:
192,192,18888,1,0,0:0:0:0:
64,192,18976,1,0,0:0:0:0:
320,192,19064,1,0,0:0:0:0:
448,192,19064,1,0,0:0:0:0:
192,192,19153,1,0,0:0:0:0:
320,192,19241,1,0,0:0:0:0:
64,192,19417,1,0,0:0:0:0:
448,192,19417,1,8,0:0:0:0:
320,192,19594,1,0,0:0:0:0:
64,192,19682,1,0,0:0:0:0:
320,192,19770,1,0,0:0:0:0:
448,192,19770,1,0,0:0:0:0:
192,192,19859,1,0,0:0:0:0:
320,192,19947,1,0,0:0:0:0:
448,192,19947,1,0,0:0:0:0:
320,192,20123,1,0,0:0:0:0:
448,192,20123,1,8,0:0:0:0:
64,192,20211,1,0,0:0:0:0:
192,192,20211,1,0,0:0:0:0:
320,192,20300,1,0,0:0:0:0:
448,192,20300,1,0,0:0:0:0:
64,192,20476,1,0,0:0:0:0:
192,192,20476,1,0,0:0:0:0:
448,192,20564,1,0,0:0:0:0:
320,192,20653,1,0,0:0:0:0:
192,192,20829,1,0,0:0:0:0:
448,192,20829,1,8,0:0:0:0:
320,192,21006,1,0,0:0:0:0:
192,192,21094,1,0,0:0:0:0:
448,192,21182,1,0,0:0:0:0:
64,192,21182,1,0,0:0:0:0:
320,192,21270,1,0,0:0:0:0:
192,192,21359,1,0,0:0:0:0:
320,192,21447,1,0,0:0:0:0:
64,192,21535,1,0,0:0:0:0:
448,192,21535,1,8,0:0:0:0:
64,192,21711,128,0,21888:0:0:0:0:
192,192,21888,1,0,0:0:0:0:
448,192,21888,1,0,0:0:0:0:
320,192,21888,1,2,0:0:0:0:
192,192,22241,1,0,1:0:0:0:
448,192,22241,1,0,0:0:0:0:
192,192,22417,1,0,1:0:0:0:
448,192,22417,1,0,0:0:0:0:
192,192,22594,1,0,1:0:0:0:
448,192,22594,1,0,0:0:0:0:
192,192,22770,1,0,1:0:0:0:
448,192,22770,1,0,0:0:0:0:
192,192,22947,1,0,1:0:0:0:
448,192,22947,1,0,0:0:0:0:
192,192,23123,1,0,1:0:0:0:
448,192,23123,1,0,0:0:0:0:
192,192,23300,1,0,1:0:0:0:
448,192,23300,1,4,1:0:0:0:
320,192,23300,128,0,23653:0:0:0:0:
64,192,23653,128,0,23917:0:0:0:0:
448,192,23653,1,0,1:0:0:0:
192,192,23917,128,0,24094:0:0:0:0:
320,192,23917,1,0,1:0:0:0:
320,192,24094,128,0,24359:0:0:0:0:
64,192,24094,1,0,1:0:0:0:
192,192,24359,128,0,24535:1:0:0:0:
448,192,24535,1,0,1:0:0:0:
320,192,24623,1,0,1:0:0:0:
64,192,24711,1,0,0:0:0:0:
192,192,24711,1,0,1:0:0:0:
448,192,24711,1,0,0:0:0:0:
192,192,24888,1,0,1:0:0:0:
320,192,24976,1,0,1:0:0:0:
192,192,25064,1,0,1:0:0:0:
320,192,25153,1,0,1:0:0:0:
448,192,25329,128,2,25770:0:0:0:0:
64,192,25594,128,2,25770:0:0:0:0:
192,192,25770,1,0,1:0:0:0:
320,192,25859,1,0,1:0:0:0:
192,192,25947,1,0,1:0:0:0:
320,192,26035,1,0,1:0:0:0:
64,192,26123,1,0,0:0:0:0:
448,192,26123,1,0,1:0:0:0:
320,192,26300,1,0,1:0:0:0:
192,192,26388,1,0,1:0:0:0:
448,192,26388,1,0,0:0:0:0:
64,192,26564,1,0,1:0:0:0:
320,192,26653,1,0,1:0:0:0:
448,192,26697,1,0,1:0:0:0:
64,192,26741,1,0,1:0:0:0:
192,192,26785,1,0,1:0:0:0:
320,192,26829,128,0,27182:1:0:0:0:
64,192,27182,128,4,27535:0:0:0:0:
448,192,27182,128,0,27535:0:0:0:0:
192,192,27535,1,0,0:0:0:0:
320,192,27535,1,4,0:0:0:0:
192,192,27711,128,4,28064:0:0:0:0:
448,192,27711,128,0,28064:0:0:0:0:
320,192,28064,128,4,28241:0:0:0:0:
192,192,28241,128,4,28594:0:0:0:0:
448,192,28241,128,0,28594:0:0:0:0:
320,192,28594,1,0,1:0:0:0:
64,192,28638,1,0,1:0:0:0:
448,192,28682,1,0,1:0:0:0:
192,192,28726,1,0,1:0:0:0:
320,192,28770,1,0,1:0:0:0:
64,192,28814,1,0,1:0:0:0:
448,192,28859,1,0,1:0:0:0:
192,192,28903,1,0,1:0:0:0:
320,192,28947,1,0,1:0:0:0:
64,192,28947,1,0,0:0:0:0:
64,192,29123,1,0,0:0:0:0:
320,192,29211,1,0,1:0:0:0:
448,192,29211,1,0,0:0:0:0:
448,192,29388,1,0,0:0:0:0:
192,192,29476,1,0,1:0:0:0:
64,192,29476,1,0,0:0:0:0:
448,192,29653,1,0,0:0:0:0:
192,192,29741,1,0,1:0:0:0:
64,192,29741,1,0,0:0:0:0:
320,192,29829,1,0,0:0:0:0:
64,192,29917,1,0,0:0:0:0:
320,192,30006,1,0,1:0:0:0:
448,192,30006,1,0,0:0:0:0:
64,192,30182,1,0,0:0:0:0:
320,192,30270,1,0,1:0:0:0:
448,192,30270,1,0,0:0:0:0:
448,192,30447,1,0,0:0:0:0:
192,192,30535,1,0,1:0:0:0:
64,192,30535,1,0,0:0:0:0:
448,192,30711,1,0,0:0:0:0:
192,192,30800,1,0,1:0:0:0:
64,192,30800,1,0,0:0:0:0:
320,192,30888,1,0,0:0:0:0:
64,192,30976,1,0,0:0:0:0:
320,192,31064,1,0,1:0:0:0:
448,192,31064,1,0,0:0:0:0:
64,192,31241,1,0,0:0:0:0:
320,192,31329,1,0,1:0:0:0:
448,192,31329,1,0,0:0:0:0:
448,192,31506,1,0,0:0:0:0:
64,192,31594,1,0,0:0:0:0:
192,192,31594,1,0,1:0:0:0:
448,192,31770,1,0,0:0:0:0:
64,192,31859,1,0,0:0:0:0:
192,192,31859,1,0,1:0:0:0:
320,192,31947,1,0,0:0:0:0:
64,192,32035,1,0,0:0:0:0:
320,192,32123,1,0,1:0:0:0:
448,192,32123,1,0,0:0:0:0:
448,192,32300,1,0,0:0:0:0:
192,192,32388,1,0,1:0:0:0:
64,192,32388,1,0,0:0:0:0:
64,192,32564,1,0,0:0:0:0:
320,192,32653,1,0,1:0:0:0:
448,192,32653,1,0,0:0:0:0:
448,192,32829,1,0,0:0:0:0:
192,192,32917,1,0,1:0:0:0:
64,192,32917,1,0,0:0:0:0:
320,192,33094,1,0,0:0:0:0:
192,192,33182,1,2,0:0:0:0:
64,192,33270,1,2,0:0:0:0:
192,192,33359,1,2,0:0:0:0:
320,192,33535,1,2,0:0:0:0:
448,192,33623,1,2,0:0:0:0:
320,192,33711,1,2,0:0:0:0:
192,192,33888,1,0,1:0:0:0:
448,192,33888,1,8,0:0:0:0:
192,192,34064,1,0,1:0:0:0:
448,192,34064,1,8,0:0:0:0:
64,192,34241,1,0,1:0:0:0:
192,192,34285,1,0,1:0:0:0:
320,192,34329,1,0,1:0:0:0:
448,192,34373,1,0,1:0:0:0:
64,192,34417,1,0,1:0:0:0:
192,192,34461,1,0,1:0:0:0:
320,192,34506,1,0,1:0:0:0:
448,192,34550,1,0,1:0:0:0:
192,192,34594,1,0,1:0:0:0:
64,192,34594,1,0,0:0:0:0:
448,192,34770,1,0,1:0:0:0:
320,192,34859,1,0,1:0:0:0:
64,192,34947,1,8,0:0:0:0:
192,192,34947,1,0,1:0:0:0:
320,192,35123,1,0,1:0:0:0:
192,192,35211,1,8,0:0:0:0:
448,192,35211,1,0,1:0:0:0:
64,192,35300,1,0,0:0:0:0:
320,192,35388,1,0,1:0:0:0:
192,192,35476,1,8,0:0:0:0:
448,192,35476,1,0,1:0:0:0:
192,192,35653,1,0,1:0:0:0:
320,192,35741,1,8,0:0:0:0:
448,192,35741,1,0,1:0:0:0:
448,192,35917,1,0,1:0:0:0:
64,192,36006,1,8,0:0:0:0:
192,192,36006,1,0,1:0:0:0:
320,192,36006,1,0,0:0:0:0:
64,192,36270,1,8,0:0:0:0:
192,192,36270,1,0,1:0:0:0:
320,192,36270,1,0,0:0:0:0:
64,192,36535,1,8,0:0:0:0:
192,192,36535,1,0,1:0:0:0:
320,192,36535,1,0,0:0:0:0:
448,192,36535,128,0,37064:0:0:0:0:
64,192,37064,1,8,0:0:0:0:
192,192,37064,1,0,1:0:0:0:
320,192,37153,1,0,1:0:0:0:
448,192,37153,1,8,0:0:0:0:
64,192,37241,1,8,0:0:0:0:
192,192,37241,1,0,1:0:0:0:
320,192,37329,1,0,1:0:0:0:
448,192,37329,1,8,0:0:0:0:
192,192,37417,1,0,1:0:0:0:
64,192,37417,1,4,0:0:0:0:
320,192,37594,1,0,1:0:0:0:
192,192,37682,1,0,1:0:0:0:
320,192,37770,1,0,1:0:0:0:
448,192,37770,1,8,0:0:0:0:
320,192,37947,1,0,1:0:0:0:
192,192,38035,1,0,1:0:0:0:
64,192,38123,1,0,0:0:0:0:
320,192,38123,1,0,1:0:0:0:
192,192,38300,1,0,1:0:0:0:
448,192,38300,1,0,0:0:0:0:
320,192,38476,1,0,1:0:0:0:
64,192,38476,1,8,0:0:0:0:
192,192,38564,1,0,1:0:0:0:
448,192,38741,1,0,1:0:0:0:
192,192,38829,1,0,1:0:0:0:
320,192,38829,1,0,0:0:0:0:
320,192,39006,1,0,1:0:0:0:
192,192,39094,1,0,1:0:0:0:
448,192,39094,1,0,0:0:0:0:
320,192,39270,1,0,1:0:0:0:
192,192,39359,1,0,1:0:0:0:
448,192,39359,1,0,0:0:0:0:
64,192,39535,128,0,39888:1:0:0:0:
448,192,39888,1,0,0:0:0:0:
320,192,39888,1,0,1:0:0:0:
64,192,40006,1,0,0:0:0:0:
192,192,40006,1,0,1:0:0:0:
320,192,40123,1,0,1:0:0:0:
448,192,40123,1,0,0:0:0:0:
64,192,40241,1,0,1:0:0:0:
192,192,40241,1,4,0:0:0:0:
320,192,40417,1,0,1:0:0:0:
448,192,40506,1,0,1:0:0:0:
192,192,40594,1,8,0:0:0:0:
64,192,40594,1,0,1:0:0:0:
320,192,40770,1,0,1:0:0:0:
192,192,40859,1,0,1:0:0:0:
320,192,40947,1,0,1:0:0:0:
448,192,40947,1,0,0:0:0:0:
192,192,41035,1,0,1:0:0:0:
64,192,41123,1,0,1:0:0:0:
320,192,41211,1,0,1:0:0:0:
192,192,41300,1,8,0:0:0:0:
64,192,41300,1,0,1:0:0:0:
320,192,41388,1,0,0:0:0:0:
448,192,41388,1,0,1:0:0:0:
192,192,41476,1,0,0:0:0:0:
64,192,41476,1,0,1:0:0:0:
320,192,41564,1,0,0:0:0:0:
448,192,41564,1,0,1:0:0:0:
192,192,41653,128,0,41741:1:0:0:0:
64,192,41741,128,0,41917:0:0:0:0:
320,192,41917,128,0,42006:1:0:0:0:
448,192,42006,128,0,42182:0:0:0:0:
64,192,42182,1,0,1:0:0:0:
320,192,42270,1,0,1:0:0:0:
192,192,42359,1,0,1:0:0:0:
64,192,42535,1,0,0:0:0:0:
192,192,42535,1,0,1:0:0:0:
448,192,42711,128,0,43064:0:0:0:0:
64,192,42711,1,0,1:0:0:0:
320,192,42800,1,0,1:0:0:0:
64,192,42888,1,0,1:0:0:0:
320,192,42976,1,0,1:0:0:0:
64,192,43064,1,0,0:0:0:0:
192,192,43064,1,0,1:0:0:0:
192,192,43241,1,0,1:0:0:0:
320,192,43417,1,0,1:0:0:0:
192,192,43506,1,0,1:0:0:0:
64,192,43594,1,0,1:0:0:0:
192,192,43682,1,0,1:0:0:0:
64,192,43859,1,0,0:0:0:0:
448,192,43859,1,0,1:0:0:0:
192,192,43947,1,0,0:0:0:0:
320,192,43947,1,0,1:0:0:0:
64,192,44035,1,0,0:0:0:0:
448,192,44035,1,0,1:0:0:0:
192,192,44123,1,2,0:0:0:0:
320,192,44123,1,8,0:0:0:0:
64,192,44300,1,2,0:0:0:0:
448,192,44300,1,0,0:0:0:0:
320,192,44476,128,0,45888:0:0:0:0:
192,192,44476,1,0,1:0:0:0:
192,192,45535,1,8,0:0:0:0:
448,192,45711,1,8,0:0:0:0:
64,192,45800,1,8,0:0:0:0:
192,192,45888,128,0,47300:1:0:0:0:
448,192,45888,1,8,0:0:0:0:
448,192,46947,1,8,0:0:0:0:
64,192,47035,1,8,0:0:0:0:
320,192,47079,1,8,0:0:0:0:
448,192,47123,1,8,0:0:0:0:
320,192,47211,1,8,0:0:0:0:
64,192,47300,128,0,48711:1:0:0:0:
448,192,47300,1,8,0:0:0:0:
320,192,48006,1,0,1:0:0:0:
192,192,48182,1,0,1:0:0:0:
448,192,48270,1,0,1:0:0:0:
192,192,48447,1,0,1:0:0:0:
320,192,48535,1,0,1:0:0:0:
448,192,48711,128,0,51535:0:0:0:0:
192,192,48711,1,0,1:0:0:0:
192,192,49064,1,0,0:0:0:0:
64,192,49417,1,0,0:0:0:0:
320,192,49417,1,0,1:0:0:0:
192,192,49770,1,0,0:0:0:0:
64,192,50123,1,0,0:0:0:0:
192,192,50123,1,8,3:0:0:0:
64,192,50476,1,0,0:0:0:0:
192,192,50476,1,8,3:0:0:0:
320,192,50829,1,0,1:0:0:0:
64,192,50829,1,0,0:0:0:0:
192,192,51182,1,0,0:0:0:0:
192,192,51535,128,0,54359:0:0:0:0:
320,192,51535,1,0,0:0:0:0:
64,192,51535,1,0,1:0:0:0:
320,192,51888,1,0,0:0:0:0:
320,192,52241,1,0,1:0:0:0:
448,192,52241,1,0,0:0:0:0:
64,192,52594,1,8,0:0:0:0:
448,192,52770,1,8,0:0:0:0:
320,192,52947,1,8,0:0:0:0:
448,192,53123,1,8,0:0:0:0:
320,192,53300,1,8,0:0:0:0:
448,192,53476,1,8,0:0:0:0:
64,192,53653,1,8,0:0:0:0:
320,192,53741,1,8,0:0:0:0:
448,192,53829,1,8,0:0:0:0:
320,192,53917,1,8,0:0:0:0:
64,192,54006,1,8,0:0:0:0:
320,192,54094,1,8,0:0:0:0:
448,192,54182,1,8,0:0:0:0:
320,192,54270,1,8,0:0:0:0:
448,192,54359,128,0,57182:0:0:0:0:
64,192,54359,1,0,1:0:0:0:
192,192,54711,1,0,0:0:0:0:
64,192,55064,1,0,0:0:0:0:
320,192,55064,1,0,1:0:0:0:
192,192,55417,1,0,0:0:0:0:
64,192,55594,1,8,0:0:0:0:
192,192,55638,1,8,0:0:0:0:
320,192,55682,1,8,0:0:0:0:
64,192,55726,1,8,0:0:0:0:
192,192,55770,1,8,0:0:0:0:
320,192,55947,1,0,0:0:0:0:
192,192,56123,1,0,0:0:0:0:
64,192,56300,1,8,3:0:0:0:
320,192,56476,1,8,0:0:0:0:
192,192,56564,1,8,0:0:0:0:
64,192,56653,1,8,0:0:0:0:
192,192,56741,1,8,0:0:0:0:
320,192,56829,1,8,0:0:0:0:
192,192,56917,1,8,0:0:0:0:
64,192,57006,1,8,0:0:0:0:
320,192,57094,1,8,0:0:0:0:
192,192,57182,128,0,58594:1:0:0:0:
64,192,57182,1,2,0:0:0:0:
320,192,57711,1,0,1:0:0:0:
448,192,57711,1,4,0:0:0:0:
320,192,57888,1,0,1:0:0:0:
448,192,57888,1,4,0:0:0:0:
320,192,58417,1,0,1:0:0:0:
448,192,58417,1,4,0:0:0:0:
64,192,58594,128,0,60006:0:0:0:0:
320,192,58594,1,0,1:0:0:0:
448,192,58594,1,4,0:0:0:0:
192,192,58947,1,0,1:0:0:0:
448,192,58947,1,4,0:0:0:0:
192,192,59300,1,0,1:0:0:0:
448,192,59300,1,4,0:0:0:0:
192,192,59653,1,0,1:0:0:0:
448,192,59653,1,4,0:0:0:0:
192,192,60006,128,4,60182:1:0:0:0:
448,192,60006,1,0,0:0:0:0:
320,192,60006,1,0,1:0:0:0:
320,192,60182,128,0,60359:0:0:0:0:
448,192,60359,128,0,60535:0:0:0:0:
192,192,60535,128,0,60711:0:0:0:0:
320,192,60711,128,0,60888:1:0:0:0:
448,192,60888,128,0,61064:0:0:0:0:
192,192,61064,128,0,61241:1:0:0:0:
64,192,61064,1,4,0:0:0:0:
320,192,61241,128,0,61417:0:0:0:0:
448,192,61417,128,0,61594:0:0:0:0:
64,192,61594,128,0,61770:0:0:0:0:
320,192,61770,128,0,61947:1:0:0:0:
192,192,61947,128,0,62123:1:0:0:0:
320,192,62123,128,0,62300:1:0:0:0:
448,192,62300,128,0,62829:1:0:0:0:
192,192,62829,128,0,63359:0:0:0:0:
320,192,62829,1,0,1:0:0:0:
448,192,63006,1,0,1:0:0:0:
320,192,63182,1,0,1:0:0:0:
64,192,63359,128,0,63711:0:0:0:0:
448,192,63359,1,0,1:0:0:0:
320,192,63711,128,4,64241:0:0:0:0:
448,192,64241,1,0,1:0:0:0:
192,192,64241,128,0,64329:0:0:0:0:
64,192,64417,128,0,64506:0:0:0:0:
192,192,64594,128,0,64770:0:0:0:0:
320,192,64770,128,0,64947:0:0:0:0:
64,192,64947,128,0,65123:1:0:0:0:
320,192,65123,128,0,65300:0:0:0:0:
448,192,65300,128,0,65476:0:0:0:0:
192,192,65476,128,0,66006:0:0:0:0:
320,192,65653,1,0,1:0:0:0:
448,192,65829,1,0,1:0:0:0:
64,192,66006,128,0,66182:0:0:0:0:
192,192,66182,128,0,66359:0:0:0:0:
448,192,66182,1,0,1:0:0:0:
320,192,66270,1,0,1:0:0:0:
64,192,66359,128,0,66535:0:0:0:0:
448,192,66359,1,0,1:0:0:0:
192,192,66535,128,0,66711:0:0:0:0:
448,192,66711,1,0,1:0:0:0:
320,192,66800,1,0,1:0:0:0:
448,192,66888,1,0,1:0:0:0:
320,192,66976,1,0,1:0:0:0:
448,192,67064,1,0,1:0:0:0:
64,192,67064,1,2,0:0:0:0:
64,192,67241,1,2,0:0:0:0:
448,192,67241,1,0,1:0:0:0:
64,192,67417,1,2,0:0:0:0:
448,192,67417,1,0,1:0:0:0:
64,192,67594,1,2,0:0:0:0:
448,192,67594,1,0,1:0:0:0:
64,192,67770,128,0,68476:1:0:0:0:
448,192,67770,128,8,68476:0:0:0:0:
320,192,68476,1,0,0:0:0:0:
192,192,68564,1,0,0:0:0:0:
64,192,68653,1,0,0:0:0:0:
192,192,68741,1,0,0:0:0:0:
320,192,68829,1,0,0:0:0:0:
192,192,68917,1,0,0:0:0:0:
320,192,69006,1,0,0:0:0:0:
448,192,69094,1,0,0:0:0:0:
320,192,69182,1,0,0:0:0:0:
448,192,69270,1,0,0:0:0:0:
192,192,69359,1,0,0:0:0:0:
320,192,69447,1,0,0:0:0:0:
192,192,69535,1,0,0:0:0:0:
320,192,69623,1,0,0:0:0:0:
64,192,69711,1,0,0:0:0:0:
192,192,69800,1,0,0:0:0:0:
448,192,69888,1,4,0:0:0:0:
320,192,70241,1,2,0:0:0:0:
64,192,70594,1,8,0:0:0:0:
320,192,70682,1,8,0:0:0:0:
64,192,70770,1,8,0:0:0:0:
320,192,70859,1,8,0:0:0:0:
192,192,70947,1,8,0:0:0:0:
448,192,71035,1,8,0:0:0:0:
192,192,71123,1,8,0:0:0:0:
448,192,71211,1,8,0:0:0:0:
192,192,71300,128,0,74123:0:0:0:0:
64,192,71300,1,4,0:0:0:0:
320,192,71300,1,0,1:0:0:0:
64,192,72006,1,4,0:0:0:0:
320,192,72006,1,0,1:0:0:0:
64,192,72711,1,4,0:0:0:0:
320,192,72711,1,0,1:0:0:0:
64,192,73417,1,4,0:0:0:0:
320,192,73417,1,0,1:0:0:0:
64,192,74123,1,4,0:0:0:0:
320,192,74123,1,0,1:0:0:0:
448,192,74300,1,2,0:0:0:0:
192,192,74388,1,2,0:0:0:0:
64,192,74476,1,2,0:0:0:0:
448,192,74653,1,2,0:0:0:0:
320,192,74741,1,2,0:0:0:0:
320,192,74917,1,2,0:0:0:0:
192,192,75006,1,2,0:0:0:0:
64,192,75094,1,2,0:0:0:0:
320,192,75182,128,2,75359:0:0:0:0:
192,192,75359,1,2,0:0:0:0:
64,192,75447,1,2,0:0:0:0:
192,192,75535,1,2,0:0:0:0:
448,192,75711,1,2,0:0:0:0:
192,192,75888,1,2,0:0:0:0:
320,192,75976,1,2,0:0:0:0:
64,192,76064,1,2,0:0:0:0:
192,192,76153,1,2,0:0:0:0:
320,192,76329,1,2,0:0:0:0:
64,192,76417,1,2,0:0:0:0:
320,192,76506,1,2,0:0:0:0:
192,192,76594,1,2,0:0:0:0:
192,192,76770,1,2,0:0:0:0:
320,192,76947,1,0,0:0:0:0:
64,192,76947,1,0,1:0:0:0:
192,192,77035,1,0,0:0:0:0:
320,192,77123,1,0,0:0:0:0:
192,192,77211,1,0,0:0:0:0:
448,192,77300,1,8,0:0:0:0:
320,192,77388,1,0,0:0:0:0:
192,192,77476,1,0,0:0:0:0:
64,192,77564,1,0,0:0:0:0:
192,192,77653,1,0,1:0:0:0:
448,192,77653,1,0,0:0:0:0:
320,192,77741,1,0,0:0:0:0:
192,192,77829,1,0,0:0:0:0:
64,192,77917,1,0,0:0:0:0:
448,192,78006,1,8,0:0:0:0:
320,192,78094,1,0,0:0:0:0:
192,192,78182,1,0,0:0:0:0:
64,192,78270,1,0,0:0:0:0:
448,192,78359,1,0,1:0:0:0:
192,192,78359,1,0,0:0:0:0:
320,192,78447,1,0,0:0:0:0:
192,192,78535,1,0,0:0:0:0:
320,192,78623,1,0,0:0:0:0:
448,192,78711,1,8,0:0:0:0:
64,192,78800,1,0,0:0:0:0:
192,192,78888,1,0,0:0:0:0:
320,192,78976,1,0,0:0:0:0:
64,192,79064,1,0,1:0:0:0:
192,192,79064,1,0,0:0:0:0:
320,192,79153,1,0,0:0:0:0:
448,192,79241,1,0,0:0:0:0:
192,192,79329,1,0,0:0:0:0:
320,192,79417,1,8,0:0:0:0:
64,192,79506,1,0,0:0:0:0:
192,192,79594,1,0,0:0:0:0:
320,192,79682,1,0,0:0:0:0:
192,192,79770,1,0,0:0:0:0:
448,192,79770,1,0,0:0:0:0:
320,192,79947,1,2,0:0:0:0:
448,192,80035,1,2,0:0:0:0:
192,192,80123,1,2,0:0:0:0:
64,192,80211,1,2,0:0:0:0:
320,192,80300,1,2,0:0:0:0:
192,192,80388,1,2,0:0:0:0:
448,192,80564,1,2,0:0:0:0:
320,192,80653,1,2,0:0:0:0:
64,192,80829,1,2,0:0:0:0:
192,192,80917,1,2,0:0:0:0:
448,192,81094,1,2,0:0:0:0:
320,192,81270,1,2,0:0:0:0:
192,192,81359,1,2,0:0:0:0:
64,192,81447,1,2,0:0:0:0:
192,192,81535,1,2,0:0:0:0:
320,192,81711,1,2,0:0:0:0:
64,192,81888,1,2,0:0:0:0:
192,192,81976,1,2,0:0:0:0:
320,192,82064,1,2,0:0:0:0:
448,192,82153,1,2,0:0:0:0:
64,192,82241,1,2,0:0:0:0:
192,192,82329,1,2,0:0:0:0:
320,192,82417,1,2,0:0:0:0:
448,192,82506,1,2,0:0:0:0:
64,192,82594,1,4,0:0:0:0:
192,192,82594,1,0,0:0:0:0:
320,192,82594,1,0,1:0:0:0:
320,192,82770,1,0,1:0:0:0:
192,192,82947,1,8,0:0:0:0:
320,192,82947,1,0,1:0:0:0:
64,192,83123,1,0,0:0:0:0:
192,192,83123,1,0,1:0:0:0:
320,192,83211,1,0,1:0:0:0:
448,192,83211,1,0,0:0:0:0:
64,192,83300,1,0,0:0:0:0:
192,192,83300,1,0,1:0:0:0:
320,192,83388,1,0,1:0:0:0:
448,192,83388,1,0,0:0:0:0:
192,192,83564,1,0,0:0:0:0:
448,192,83564,1,0,1:0:0:0:
64,192,83653,1,8,0:0:0:0:
320,192,83653,1,0,1:0:0:0:
320,192,83829,1,0,0:0:0:0:
192,192,83829,1,0,1:0:0:0:
448,192,83917,1,0,1:0:0:0:
64,192,83917,1,0,0:0:0:0:
320,192,84006,1,0,0:0:0:0:
192,192,84006,1,4,0:0:0:0:
64,192,84182,128,0,84359:0:0:0:0:
320,192,84182,1,0,1:0:0:0:
192,192,84359,1,4,0:0:0:0:
448,192,84359,1,8,0:0:0:0:
320,192,84535,1,0,0:0:0:0:
192,192,84711,1,0,1:0:0:0:
448,192,84711,1,4,0:0:0:0:
320,192,84888,128,0,85417:1:0:0:0:
64,192,84888,128,4,85417:0:0:0:0:
448,192,85417,1,0,1:0:0:0:
192,192,85506,1,0,1:0:0:0:
64,192,85594,1,0,1:0:0:0:
192,192,85682,1,0,1:0:0:0:
320,192,85770,1,0,0:0:0:0:
448,192,85770,1,0,1:0:0:0:
64,192,85888,1,0,1:0:0:0:
192,192,85888,1,0,0:0:0:0:
320,192,86006,1,0,0:0:0:0:
448,192,86006,1,0,1:0:0:0:
64,192,86123,1,0,1:0:0:0:
192,192,86123,1,0,0:0:0:0:
320,192,86300,1,0,0:0:0:0:
448,192,86300,1,0,1:0:0:0:
448,192,86564,1,0,1:0:0:0:
320,192,86609,1,0,1:0:0:0:
192,192,86653,1,0,1:0:0:0:
64,192,86697,1,0,1:0:0:0:
448,192,86741,1,0,1:0:0:0:
320,192,86785,1,0,1:0:0:0:
192,192,86829,1,0,1:0:0:0:
64,192,86829,1,0,0:0:0:0:
64,192,87006,1,0,0:0:0:0:
320,192,87006,1,0,1:0:0:0:
192,192,87094,1,0,0:0:0:0:
448,192,87094,1,0,1:0:0:0:
320,192,87182,1,0,1:0:0:0:
64,192,87182,1,0,0:0:0:0:
192,192,87359,1,0,1:0:0:0:
64,192,87359,1,0,0:0:0:0:
320,192,87447,1,0,1:0:0:0:
448,192,87447,1,0,0:0:0:0:
64,192,87623,1,0,0:0:0:0:
192,192,87623,1,0,1:0:0:0:
448,192,87711,1,0,0:0:0:0:
320,192,87756,1,0,0:0:0:0:
192,192,87800,1,0,0:0:0:0:
320,192,87888,1,0,0:0:0:0:
448,192,87888,1,0,1:0:0:0:
64,192,87976,1,0,1:0:0:0:
192,192,87976,1,0,0:0:0:0:
448,192,88064,1,0,1:0:0:0:
448,192,88241,1,0,0:0:0:0:
64,192,88241,128,4,88594:0:0:0:0:
192,192,88241,1,0,0:0:0:0:
320,192,88417,128,0,88594:0:0:0:0:
448,192,88594,128,4,88947:0:0:0:0:
192,192,88770,128,0,88947:0:0:0:0:
64,192,88947,1,0,0:0:0:0:
320,192,88947,1,0,0:0:0:0:
192,192,89123,1,0,0:0:0:0:
448,192,89123,1,0,0:0:0:0:
64,192,89476,1,0,1:0:0:0:
192,192,89476,1,0,0:0:0:0:
192,192,89829,1,0,1:0:0:0:
448,192,89829,1,0,0:0:0:0:
320,192,90006,1,0,0:0:0:0:
448,192,90006,1,0,1:0:0:0:
192,192,90359,1,0,1:0:0:0:
448,192,90359,1,0,0:0:0:0:
192,192,90623,1,0,1:0:0:0:
448,192,90623,1,0,0:0:0:0:
192,192,90888,128,0,91064:1:0:0:0:
448,192,90888,128,0,91064:0:0:0:0:
64,192,91064,1,0,1:0:0:0:
192,192,91153,1,0,1:0:0:0:
448,192,91241,1,0,1:0:0:0:
320,192,91285,1,0,1:0:0:0:
192,192,91329,1,0,1:0:0:0:
64,192,91373,1,0,1:0:0:0:
320,192,91417,1,0,1:0:0:0:
448,192,91417,1,0,0:0:0:0:
192,192,91506,1,0,1:0:0:0:
448,192,91594,1,0,1:0:0:0:
320,192,91682,1,0,1:0:0:0:
192,192,91770,1,0,1:0:0:0:
64,192,91859,1,0,0:0:0:0:
448,192,91859,1,0,0:0:0:0:
320,192,91947,1,0,0:0:0:0:
192,192,92035,1,0,0:0:0:0:
320,192,92123,1,0,0:0:0:0:
448,192,92123,1,0,0:0:0:0:
64,192,92167,1,0,0:0:0:0:
192,192,92211,1,0,0:0:0:0:
320,192,92256,1,0,0:0:0:0:
448,192,92300,1,0,0:0:0:0:
320,192,92388,1,0,0:0:0:0:
64,192,92476,1,0,1:0:0:0:
64,192,92594,1,0,1:0:0:0:
64,192,92711,1,0,1:0:0:0:
192,192,92829,1,0,1:0:0:0:
192,192,92947,1,0,1:0:0:0:
192,192,93064,1,0,1:0:0:0:
320,192,93182,1,0,1:0:0:0:
320,192,93300,1,0,1:0:0:0:
320,192,93417,1,0,1:0:0:0:
448,192,93535,1,0,1:0:0:0:
448,192,93653,1,0,1:0:0:0:
448,192,93770,1,0,1:0:0:0:
64,192,93888,1,0,1:0:0:0:
192,192,93888,1,0,0:0:0:0:
320,192,94064,1,0,0:0:0:0:
448,192,94064,1,0,1:0:0:0:
448,192,94241,1,0,1:0:0:0:
320,192,94285,1,0,1:0:0:0:
192,192,94329,1,0,1:0:0:0:
64,192,94373,128,0,94594:1:0:0:0:
192,192,94594,1,0,0:0:0:0:
320,192,94594,1,0,1:0:0:0:
448,192,94682,1,0,1:0:0:0:
320,192,94770,1,0,1:0:0:0:
192,192,94859,1,0,1:0:0:0:
320,192,94947,1,8,0:0:0:0:
192,192,95035,1,0,1:0:0:0:
64,192,95123,1,0,1:0:0:0:
192,192,95211,1,0,1:0:0:0:
320,192,95300,1,0,1:0:0:0:
192,192,95388,1,0,1:0:0:0:
320,192,95476,1,0,1:0:0:0:
192,192,95564,1,0,1:0:0:0:
448,192,95653,1,8,0:0:0:0:
64,192,95653,1,0,1:0:0:0:
320,192,95741,1,0,1:0:0:0:
192,192,95829,128,4,96006:0:0:0:0:
320,192,96006,128,4,96182:0:0:0:0:
192,192,96182,128,4,96535:0:0:0:0:
320,192,96535,1,0,0:0:0:0:
448,192,96535,1,0,0:0:0:0:
64,192,96711,1,0,1:0:0:0:
448,192,96711,1,0,0:0:0:0:
192,192,96800,1,0,1:0:0:0:
320,192,96888,1,0,1:0:0:0:
448,192,96888,1,0,0:0:0:0:
192,192,96976,1,0,1:0:0:0:
64,192,97064,1,0,1:0:0:0:
448,192,97064,1,0,0:0:0:0:
320,192,97153,1,0,1:0:0:0:
64,192,97241,1,0,0:0:0:0:
192,192,97241,1,0,1:0:0:0:
320,192,97329,1,0,1:0:0:0:
448,192,97417,1,0,1:0:0:0:
64,192,97417,1,0,0:0:0:0:
192,192,97506,1,0,1:0:0:0:
320,192,97594,1,0,1:0:0:0:
448,192,97594,1,0,0:0:0:0:
192,192,97682,1,0,1:0:0:0:
64,192,97770,1,0,1:0:0:0:
448,192,97770,1,0,0:0:0:0:
320,192,97859,1,0,1:0:0:0:
64,192,97947,1,0,0:0:0:0:
192,192,97947,1,0,1:0:0:0:
320,192,98035,1,0,1:0:0:0:
448,192,98123,128,0,98300:0:0:0:0:
192,192,98123,1,0,1:0:0:0:
320,192,98300,1,0,1:0:0:0:
192,192,98388,1,0,1:0:0:0:
64,192,98476,128,8,98653:0:0:0:0:
320,192,98653,1,0,1:0:0:0:
192,192,98741,1,0,0:0:0:0:
320,192,98829,1,0,1:0:0:0:
448,192,98829,1,0,0:0:0:0:
64,192,98917,1,0,1:0:0:0:
448,192,99006,1,0,1:0:0:0:
192,192,99094,1,0,1:0:0:0:
64,192,99182,1,0,1:0:0:0:
192,192,99270,1,0,1:0:0:0:
320,192,99359,1,0,1:0:0:0:
448,192,99447,1,0,1:0:0:0:
64,192,99535,1,0,0:0:0:0:
192,192,99535,1,0,1:0:0:0:
320,192,99711,1,0,1:0:0:0:
192,192,99800,1,0,1:0:0:0:
64,192,99800,1,0,0:0:0:0:
192,192,99976,1,0,1:0:0:0:
320,192,100064,1,0,1:0:0:0:
448,192,100064,1,0,0:0:0:0:
64,192,100241,1,0,0:0:0:0:
320,192,100241,1,0,1:0:0:0:
192,192,100417,1,0,1:0:0:0:
320,192,100506,1,0,1:0:0:0:
448,192,100506,1,0,0:0:0:0:
64,192,100682,1,0,0:0:0:0:
192,192,100682,1,0,1:0:0:0:
448,192,100770,1,0,0:0:0:0:
320,192,100770,1,0,1:0:0:0:
64,192,100859,1,0,0:0:0:0:
192,192,100859,1,0,1:0:0:0:
320,192,100947,1,0,1:0:0:0:
448,192,100947,1,0,0:0:0:0:
192,192,101123,1,0,0:0:0:0:
64,192,101123,1,0,1:0:0:0:
320,192,101211,1,0,0:0:0:0:
448,192,101211,1,0,1:0:0:0:
64,192,101388,128,0,101653:0:0:0:0:
192,192,101476,128,0,101653:0:0:0:0:
320,192,101564,128,0,101653:0:0:0:0:
448,192,101653,128,0,102094:0:0:0:0:
64,192,101829,128,0,102094:0:0:0:0:
192,192,101917,128,0,102094:0:0:0:0:
320,192,102094,1,0,0:0:0:0:
448,192,102182,1,0,0:0:0:0:
320,192,102270,1,0,0:0:0:0:
192,192,102359,1,0,1:0:0:0:
192,192,102476,1,0,1:0:0:0:
192,192,102594,1,0,1:0:0:0:
320,192,102711,1,0,1:0:0:0:
320,192,102829,1,0,1:0:0:0:
320,192,102947,1,0,1:0:0:0:
192,192,103064,1,0,1:0:0:0:
64,192,103064,1,0,0:0:0:0:
448,192,103153,1,0,0:0:0:0:
320,192,103153,1,0,1:0:0:0:
192,192,103241,1,0,1:0:0:0:
64,192,103241,1,0,0:0:0:0:
448,192,103329,1,0,0:0:0:0:
320,192,103329,1,0,1:0:0:0:
64,192,103417,1,0,1:0:0:0:
192,192,103535,1,0,1:0:0:0:
320,192,103653,1,0,1:0:0:0:
448,192,103770,1,0,1:0:0:0:
448,192,103888,1,0,1:0:0:0:
448,192,104006,1,0,1:0:0:0:
64,192,104123,1,0,1:0:0:0:
192,192,104211,1,0,1:0:0:0:
320,192,104300,1,0,1:0:0:0:
448,192,104388,1,0,1:0:0:0:
64,192,104476,1,0,1:0:0:0:
192,192,104564,1,0,1:0:0:0:
320,192,104653,1,0,1:0:0:0:
64,192,104741,1,0,0:0:0:0:
192,192,104741,1,0,1:0:0:0:
320,192,104829,1,0,1:0:0:0:
448,192,104829,1,0,0:0:0:0:
64,192,104917,1,0,0:0:0:0:
192,192,104917,1,0,1:0:0:0:
320,192,105006,1,0,1:0:0:0:
448,192,105006,1,0,0:0:0:0:
64,192,105094,1,0,0:0:0:0:
192,192,105094,1,0,1:0:0:0:
320,192,105182,1,4,0:0:0:0:
448,192,105270,1,0,0:0:0:0:
64,192,105359,1,0,0:0:0:0:
192,192,105447,1,0,0:0:0:0:
320,192,105535,1,0,0:0:0:0:
448,192,105623,1,0,0:0:0:0:
64,192,105711,1,0,0:0:0:0:
192,192,105800,1,0,0:0:0:0:
320,192,105888,1,0,0:0:0:0:
448,192,105976,1,0,0:0:0:0:
320,192,106064,1,0,0:0:0:0:
192,192,106153,1,0,0:0:0:0:
64,192,106241,1,0,0:0:0:0:
448,192,106329,1,0,0:0:0:0:
320,192,106417,1,0,0:0:0:0:
192,192,106506,1,0,0:0:0:0:
64,192,106594,1,0,1:0:0:0:
448,192,106594,1,4,0:0:0:0:
192,192,106682,1,0,0:0:0:0:
320,192,106770,1,0,0:0:0:0:
448,192,106859,1,0,0:0:0:0:
64,192,106947,1,0,0:0:0:0:
192,192,107035,1,0,0:0:0:0:
320,192,107123,1,0,0:0:0:0:
448,192,107211,1,0,0:0:0:0:
64,192,107300,1,0,0:0:0:0:
192,192,107388,1,0,0:0:0:0:
64,192,107476,1,0,0:0:0:0:
448,192,107564,1,0,0:0:0:0:
320,192,107653,1,0,0:0:0:0:
192,192,107741,1,0,0:0:0:0:
64,192,107829,1,0,0:0:0:0:
448,192,107917,1,0,0:0:0:0:
320,192,108006,1,0,0:0:0:0:
192,192,108094,1,0,0:0:0:0:
64,192,108182,1,0,0:0:0:0:
192,192,108270,1,0,0:0:0:0:
320,192,108359,1,0,0:0:0:0:
448,192,108447,1,0,0:0:0:0:
64,192,108535,1,0,0:0:0:0:
192,192,108623,1,0,0:0:0:0:
320,192,108711,1,0,0:0:0:0:
448,192,108800,1,0,0:0:0:0:
320,192,108888,1,0,0:0:0:0:
192,192,108976,1,0,0:0:0:0:
64,192,109064,1,0,0:0:0:0:
448,192,109153,1,0,0:0:0:0:
320,192,109241,1,0,0:0:0:0:
192,192,109329,1,0,0:0:0:0:
64,192,109417,1,0,1:0:0:0:
448,192,109417,1,4,0:0:0:0:
192,192,109506,1,0,0:0:0:0:
320,192,109594,1,0,0:0:0:0:
448,192,109682,1,0,0:0:0:0:
64,192,109770,1,0,0:0:0:0:
192,192,109859,1,0,0:0:0:0:
320,192,109947,1,0,0:0:0:0:
448,192,110035,1,0,0:0:0:0:
320,192,110123,1,0,0:0:0:0:
192,192,110211,1,0,0:0:0:0:
64,192,110300,1,0,0:0:0:0:
448,192,110388,1,0,0:0:0:0:
320,192,110476,1,0,0:0:0:0:
192,192,110564,1,0,0:0:0:0:
64,192,110653,1,0,0:0:0:0:
448,192,110741,1,0,0:0:0:0:
320,192,110829,1,4,0:0:0:0:
64,192,110829,1,0,1:0:0:0:
192,192,110917,1,0,0:0:0:0:
64,192,111006,1,0,0:0:0:0:
192,192,111094,1,0,0:0:0:0:
320,192,111182,1,0,0:0:0:0:
448,192,111270,1,0,0:0:0:0:
64,192,111359,1,0,0:0:0:0:
192,192,111447,1,0,0:0:0:0:
320,192,111535,1,0,0:0:0:0:
448,192,111623,1,0,0:0:0:0:
320,192,111711,1,0,0:0:0:0:
448,192,111800,1,0,0:0:0:0:
320,192,111888,1,0,0:0:0:0:
192,192,111976,1,0,0:0:0:0:
64,192,112064,1,0,0:0:0:0:
192,192,112153,1,0,0:0:0:0:
320,192,112241,1,0,0:0:0:0:
192,192,112329,1,0,0:0:0:0:
64,192,112417,1,0,0:0:0:0:
192,192,112506,1,0,0:0:0:0:
320,192,112594,1,0,0:0:0:0:
448,192,112682,1,0,0:0:0:0:
64,192,112770,1,0,0:0:0:0:
192,192,112859,1,0,0:0:0:0:
320,192,112947,1,0,0:0:0:0:
448,192,113035,1,0,0:0:0:0:
320,192,113123,1,0,0:0:0:0:
448,192,113211,1,0,0:0:0:0:
320,192,113300,1,0,0:0:0:0:
448,192,113388,1,0,0:0:0:0:
320,192,113476,1,0,0:0:0:0:
192,192,113564,1,0,0:0:0:0:
64,192,113653,1,0,0:0:0:0:
320,192,113741,1,0,0:0:0:0:
192,192,113829,1,0,0:0:0:0:
64,192,113917,1,0,0:0:0:0:
192,192,114006,1,0,0:0:0:0:
320,192,114094,1,0,0:0:0:0:
448,192,114182,1,0,0:0:0:0:
64,192,114270,1,0,0:0:0:0:
192,192,114359,1,0,0:0:0:0:
320,192,114447,1,0,0:0:0:0:
448,192,114535,1,0,0:0:0:0:
320,192,114623,1,0,0:0:0:0:
192,192,114711,1,0,0:0:0:0:
320,192,114800,1,0,0:0:0:0:
448,192,114888,1,0,0:0:0:0:
320,192,114976,1,0,0:0:0:0:
192,192,115064,1,0,0:0:0:0:
64,192,115153,1,0,0:0:0:0:
448,192,115241,1,0,0:0:0:0:
320,192,115329,1,0,0:0:0:0:
192,192,115417,1,0,0:0:0:0:
64,192,115506,1,0,0:0:0:0:
192,192,115594,1,0,0:0:0:0:
320,192,115682,1,0,0:0:0:0:
448,192,115770,1,0,0:0:0:0:
64,192,115859,1,0,0:0:0:0:
192,192,115947,1,0,0:0:0:0:
320,192,116035,1,0,0:0:0:0:
448,192,116123,1,0,0:0:0:0:
64,192,116211,1,0,0:0:0:0:
192,192,116300,1,0,0:0:0:0:
320,192,116388,1,0,0:0:0:0:
448,192,116476,1,0,0:0:0:0:
320,192,116564,1,0,0:0:0:0:
192,192,116653,1,0,0:0:0:0:
64,192,116741,1,0,0:0:0:0:
192,192,116829,1,0,0:0:0:0:
320,192,116917,1,0,0:0:0:0:
192,192,117006,1,0,0:0:0:0:
64,192,117094,1,0,0:0:0:0:
192,192,117182,128,0,118594:0:0:0:0:
448,192,117182,128,0,118594:0:0:0:0:
