osu file format v14

[General]
AudioFilename: audio.mp3
AudioLeadIn: 0
PreviewTime: -1
Countdown: 1
SampleSet: Normal
StackLeniency: 0.7
Mode: 0
LetterboxInBreaks: 0
WidescreenStoryboard: 0

[Editor]
DistanceSpacing: 2.1
BeatDivisor: 8
GridSize: 4
TimelineZoom: 2.799999

[Metadata]
Title:Boulafacet
TitleUnicode:Boulafacet
Artist:Nightmare
ArtistUnicode:Nightmare
Creator:Bacwux
Version:Endmight
Source:
Tags:
BeatmapID:1266557
BeatmapSetID:599277

[Difficulty]
HPDrainRate:8
CircleSize:4.5
OverallDifficulty:8
ApproachRate:9.8
SliderMultiplier:1.4
SliderTickRate:1

[Events]
//Background and Video events
//Break Periods
//Storyboard Layer 0 (Background)
//Storyboard Layer 1 (Fail)
//Storyboard Layer 2 (Pass)
//Storyboard Layer 3 (Foreground)
//Storyboard Sound Samples

[TimingPoints]
705,352.941176470588,4,1,0,30,1,0
1763,-100,4,1,0,5,0,0
1940,-100,4,1,0,30,0,0
2116,-100,4,1,0,5,0,0
2293,-100,4,1,0,30,0,0
2469,-100,4,1,0,20,0,0
2646,-100,4,1,0,30,0,0
3528,-100,4,1,0,50,0,0
3616,-100,4,1,0,30,0,0
6352,-100,4,1,0,50,0,0
6440,-100,4,1,0,30,0,0
6705,-100,4,1,0,5,0,0
6793,-100,4,1,0,14,0,0
6881,-100,4,1,0,25,0,0
6969,-100,4,1,0,37,0,0
7057,-100,4,1,0,45,0,0
7234,-100,4,1,0,30,0,0
8822,-83.3333333333333,4,1,0,30,0,0
9175,-100,4,1,0,30,0,0
11999,-100,4,1,0,30,0,0
12440,-100,4,1,0,5,0,0
12528,-133.333333333333,4,1,0,30,0,0
12969,-133.333333333333,4,1,0,5,0,0
13057,-200,4,1,0,30,0,0
14116,-200,4,1,0,5,0,0
14293,-200,4,1,0,20,0,0
14822,-100,4,1,0,30,0,0
15263,-100,4,1,0,5,0,0
15352,-133.333333333333,4,1,0,30,0,0
15793,-133.333333333333,4,1,0,5,0,0
15881,-200,4,1,0,30,0,0
16940,-200,4,1,0,5,0,0
17646,-100,4,1,0,30,0,0
21881,-100,4,1,0,10,0,0
22234,-100,4,1,0,20,0,0
22587,-100,4,1,0,30,0,0
22940,-100,4,1,0,40,0,0
23293,-100,4,1,0,30,0,0
23557,-100,4,1,0,5,0,0
23646,-100,4,1,0,30,0,0
23822,-100,4,1,0,5,0,0
23910,-100,4,1,0,30,0,0
23999,-100,4,1,0,5,0,0
24087,-100,4,1,0,30,0,0
24263,-100,4,1,0,5,0,0
24352,-100,4,1,0,30,0,0
24793,-100,4,1,0,5,0,0
24881,-100,4,1,0,30,0,0
25234,-100,4,1,0,5,0,0
25322,-100,4,1,0,30,0,0
25499,-100,4,1,0,5,0,0
25587,-100,4,1,0,30,0,0
25675,-100,4,1,0,5,0,0
25763,-100,4,1,0,35,0,0
26116,-100,4,1,0,30,0,0
27969,-100,4,1,0,5,0,0
28057,-100,4,1,0,30,0,0
34234,-200,4,1,0,30,0,0
34587,-100,4,1,0,30,0,0
36793,-100,4,1,0,15,0,0
37057,-100,4,1,0,30,0,0
41822,-100,4,1,0,5,0,0
41910,-100,4,1,0,30,0,0
42087,-100,4,1,0,5,0,0
42175,-100,4,1,0,30,0,0
44469,-100,4,1,0,20,0,0
45440,-100,4,1,0,5,0,0
45528,-100,4,1,0,20,0,0
46852,-100,4,1,0,5,0,0
46940,-100,4,1,0,20,0,0
54969,-100,4,1,0,5,0,0
55057,-100,4,1,0,20,0,0
55322,-100,4,1,0,5,0,0
55410,-100,4,1,0,20,0,0
55852,-100,4,1,0,5,0,0
55940,-100,4,1,0,20,0,0
56204,-100,4,1,0,5,0,0
56293,-100,4,1,0,20,0,0
56557,-100,4,1,0,5,0,0
56646,-100,4,1,0,20,0,0
57087,-100,4,1,0,5,0,0
57175,-100,4,1,0,20,0,0
58410,-100,4,1,0,5,0,0
58587,-100,4,1,0,20,0,0
59822,-100,4,1,0,5,0,0
59999,-100,4,1,0,20,0,0
73763,-100,4,1,0,5,0,0
74116,-100,4,1,0,30,0,0
82587,-83.3333333333333,4,1,0,45,0,1
88499,-83.3333333333333,4,1,0,5,0,1
88587,-83.3333333333333,4,1,0,45,0,1
88852,-83.3333333333333,4,1,0,5,0,1
88940,-83.3333333333333,4,1,0,45,0,1
89381,-83.3333333333333,4,1,0,5,0,1
89469,-83.3333333333333,4,1,0,45,0,1
89734,-83.3333333333333,4,1,0,5,0,1
89822,-83.3333333333333,4,1,0,45,0,1
90263,-83.3333333333333,4,1,0,5,0,1
90352,-83.3333333333333,4,1,0,45,0,1
90616,-83.3333333333333,4,1,0,45,0,1
90704,-83.3333333333333,4,1,0,45,0,1
105175,-100,4,1,0,30,0,0
105528,-100,4,1,0,40,0,0
105881,-100,4,1,0,50,0,0
106234,-100,4,1,0,40,0,0
106587,-100,4,1,0,30,0,0
106940,-100,4,1,0,40,0,0
107293,-100,4,1,0,50,0,0
107646,-100,4,1,0,40,0,0
107999,-100,4,1,0,30,0,0
108352,-100,4,1,0,40,0,0
108704,-100,4,1,0,45,0,0
109057,-100,4,1,0,35,0,0
109410,-100,4,1,0,30,0,0
109763,-100,4,1,0,35,0,0
110116,-100,4,1,0,40,0,0
110469,-100,4,1,0,35,0,0
110822,-100,4,1,0,30,0,0

[HitObjects]
168,144,705,5,0,0:0:0:0:
40,112,1057,5,0,0:0:0:0:
208,136,1234,1,0,0:0:0:0:
64,88,1410,5,0,0:0:0:0:
232,112,1587,2,0,P|248:168|208:220,1,105
216,216,1940,1,0,0:0:0:0:
84,220,2116,6,0,P|132:216|148:220,1,35
224,224,2293,1,0,0:0:0:0:
76,228,2469,2,0,L|58:231,4,17.5
216,232,2822,6,0,L|208:116,1,105
216,112,3175,1,0,0:0:0:0:
220,240,3528,5,0,0:0:0:0:
128,176,3705,1,0,0:0:0:0:
120,184,3793,2,0,L|100:180,2,17.5
304,124,4057,5,0,0:0:0:0:
216,112,4146,1,0,0:0:0:0:
316,108,4322,5,0,0:0:0:0:
228,96,4411,1,0,0:0:0:0:
216,184,4499,1,0,0:0:0:0:
304,196,4587,2,0,L|336:192,2,17.5
244,80,4763,2,0,L|240:132,1,35
256,272,4940,5,0,0:0:0:0:
264,276,5116,1,0,0:0:0:0:
124,256,5293,2,0,L|92:252,2,17.5
192,312,5469,1,0,0:0:0:0:
200,224,5557,2,0,L|196:144,1,70
152,92,5822,5,0,0:0:0:0:
152,92,5910,2,0,L|120:96,2,17.5
280,172,6175,1,0,0:0:0:0:
124,88,6352,5,0,0:0:0:0:
284,176,6705,2,0,L|308:172,8,17.5
296,40,7234,2,0,L|316:192,1,140
324,184,7675,1,0,0:0:0:0:
336,188,7763,1,0,0:0:0:0:
408,112,7940,5,0,0:0:0:0:
220,96,8116,1,0,0:0:0:0:
420,128,8293,1,0,0:0:0:0:
312,44,8469,6,0,L|304:168,1,105
320,160,8822,2,0,L|328:27,1,125.999996154785
216,56,9175,5,0,0:0:0:0:
400,112,9352,2,0,L|432:108,2,17.5
312,44,9528,5,0,0:0:0:0:
305,113,9616,1,0,0:0:0:0:
256,172,9704,1,0,0:0:0:0:
262,241,9792,1,0,0:0:0:0:
332,188,9969,6,0,L|360:192,2,17.5
148,120,10234,5,0,0:0:0:0:
232,100,10322,1,0,0:0:0:0:
104,200,10499,5,0,0:0:0:0:
217,186,10675,5,0,0:0:0:0:
232,100,10763,2,0,L|224:72,2,17.5
276,256,10940,1,0,0:0:0:0:
148,120,11116,1,0,0:0:0:0:
301,230,11293,5,0,0:0:0:0:
298,276,11381,1,0,0:0:0:0:
296,323,11469,1,0,0:0:0:0:
294,369,11557,1,0,0:0:0:0:
366,360,11646,5,0,0:0:0:0:
367,325,11734,1,0,0:0:0:0:
369,290,11822,1,0,0:0:0:0:
371,255,11910,1,0,0:0:0:0:
443,316,11999,6,0,L|448:136,1,175
271,197,12528,2,0,P|311:251|387:247,1,131.25000500679
352,175,13057,2,0,P|289:117|190:175,1,210
376,257,14293,5,0,0:0:0:0:
376,257,14381,1,0,0:0:0:0:
346,33,14557,1,0,0:0:0:0:
346,33,14646,1,0,0:0:0:0:
96,202,14822,6,0,L|301:196,1,175
139,78,15352,2,0,L|89:219,1,131.25000500679
250,348,15881,2,0,P|304:318|264:194,1,210
149,240,17293,6,0,L|154:302,1,52.5
138,231,17646,5,0,0:0:0:0:
241,268,17822,1,0,0:0:0:0:
76,124,17999,1,0,0:0:0:0:
30,291,18175,5,0,0:0:0:0:
57,312,18263,1,0,0:0:0:0:
91,320,18351,1,0,0:0:0:0:
124,313,18439,1,0,0:0:0:0:
152,292,18527,1,0,0:0:0:0:
87,33,18704,1,0,0:0:0:0:
46,214,18881,6,0,L|101:217,1,35
251,126,19057,2,0,L|196:129,1,35
124,313,19234,1,0,0:0:0:0:
363,252,19410,1,0,0:0:0:0:
223,58,19587,5,0,0:0:0:0:
219,92,19675,1,0,0:0:0:0:
216,127,19763,2,0,L|218:189,1,35
364,217,19940,2,0,L|362:279,1,35
117,177,20116,2,0,L|119:239,1,35
317,92,20293,2,0,L|315:154,1,35
198,261,20469,5,0,0:0:0:0:
398,148,20646,1,0,0:0:0:0:
140,102,20822,1,0,0:0:0:0:
272,292,20999,5,0,0:0:0:0:
272,292,21087,1,0,0:0:0:0:
272,292,21175,2,0,L|321:288,1,35
497,194,21352,2,0,L|448:190,1,35
372,354,21528,1,0,0:0:0:0:
398,119,21704,6,0,L|403:88,2,17.5
432,294,21881,5,0,0:0:0:0:
340,218,22057,1,0,0:0:0:0:
448,199,22234,5,0,0:0:0:0:
231,218,22410,1,0,0:0:0:0:
319,61,22587,5,0,0:0:0:0:
243,341,22763,1,0,0:0:0:0:
46,117,22940,5,0,0:0:0:0:
478,356,23116,1,0,0:0:0:0:
364,143,23293,6,0,L|247:145,1,105
128,76,23646,2,0,P|185:66|213:80,1,70
170,201,23910,2,0,L|167:151,1,35
241,298,24087,2,0,L|247:225,1,70
130,298,24352,1,0,0:0:0:0:
332,232,24528,5,0,0:0:0:0:
376,148,24616,1,0,0:0:0:0:
280,152,24704,2,0,L|318:206,1,35
406,331,24881,5,0,0:0:0:0:
488,301,24970,1,0,0:0:0:0:
458,218,25058,1,0,0:0:0:0:
376,248,25146,2,0,L|333:242,1,35
187,311,25322,6,0,P|220:320|272:299,1,70
242,209,25587,2,0,P|222:247|224:264,1,35
336,342,25763,2,0,L|331:297,1,35
226,93,25940,2,0,L|223:128,1,35
269,365,26116,6,0,P|315:366|341:350,1,70
290,284,26381,1,0,0:0:0:0:
174,342,26557,1,0,0:0:0:0:
180,352,26646,2,0,L|177:379,2,17.5
214,246,26822,6,0,P|185:221|203:261,1,105
344,199,27175,2,0,B|297:194|264:180|264:180|278:196|279:221,1,105
400,279,27528,5,0,0:0:0:0:
344,199,27704,2,0,P|332:157|369:88,1,105
411,155,28057,5,0,0:0:0:0:
195,136,28234,1,0,0:0:0:0:
188,145,28587,6,0,L|186:123,6,17.5
246,62,28940,5,0,0:0:0:0:
246,317,29116,1,0,0:0:0:0:
246,317,29204,1,0,0:0:0:0:
96,110,29381,1,0,0:0:0:0:
96,110,29469,5,0,0:0:0:0:
338,189,29646,1,0,0:0:0:0:
338,189,29734,1,0,0:0:0:0:
96,268,29910,1,0,0:0:0:0:
96,268,29999,5,0,0:0:0:0:
246,62,30175,1,0,0:0:0:0:
246,62,30263,1,0,0:0:0:0:
246,317,30440,1,0,0:0:0:0:
246,317,30528,5,0,0:0:0:0:
96,110,30705,1,0,0:0:0:0:
96,110,30793,1,0,0:0:0:0:
338,189,30970,1,0,0:0:0:0:
338,189,31058,5,0,0:0:0:0:
96,268,31234,1,0,0:0:0:0:
96,268,31323,1,0,0:0:0:0:
246,62,31499,1,0,0:0:0:0:
246,62,31587,5,0,0:0:0:0:
246,317,31763,1,0,0:0:0:0:
246,317,31851,1,0,0:0:0:0:
96,110,32028,1,0,0:0:0:0:
96,110,32116,5,0,0:0:0:0:
338,189,32293,5,0,0:0:0:0:
96,268,32381,1,0,0:0:0:0:
96,268,32557,5,0,0:0:0:0:
246,62,32646,1,0,0:0:0:0:
246,62,32822,5,0,0:0:0:0:
246,317,32910,1,0,0:0:0:0:
246,317,33087,5,0,0:0:0:0:
96,110,33175,1,0,0:0:0:0:
96,110,33263,1,0,0:0:0:0:
96,110,33352,1,0,0:0:0:0:
344,138,33528,1,0,0:0:0:0:
344,138,33616,1,0,0:0:0:0:
344,138,33704,1,0,0:0:0:0:
258,268,33881,6,0,P|262:302|274:323,1,35
165,155,34057,2,0,P|161:189|149:210,1,35
57,296,34234,6,0,L|120:290,1,52.5
49,307,34587,5,0,0:0:0:0:
238,158,34763,1,0,0:0:0:0:
203,153,34851,1,0,0:0:0:0:
168,148,34939,1,0,0:0:0:0:
257,338,35116,1,0,0:0:0:0:
257,338,35204,2,0,L|303:332,1,35
298,127,35469,2,0,P|258:139|229:173,1,70
303,211,35734,1,0,0:0:0:0:
345,35,35910,1,0,0:0:0:0:
345,35,35999,5,0,0:0:0:0:
96,251,36263,1,0,0:0:0:0:
408,359,36528,1,0,0:0:0:0:
398,344,36881,6,0,L|416:341,1,17.5
402,330,36969,2,0,L|420:327,1,17.5
406,316,37057,5,0,0:0:0:0:
413,233,37146,1,0,0:0:0:0:
406,316,37234,5,0,0:0:0:0:
413,233,37323,1,0,0:0:0:0:
406,316,37410,5,0,0:0:0:0:
482,177,37587,1,0,0:0:0:0:
240,231,37763,2,0,P|276:243|317:233,1,70
281,166,38028,1,0,0:0:0:0:
281,166,38116,1,0,0:0:0:0:
190,308,38293,1,0,0:0:0:0:
410,201,38469,1,0,0:0:0:0:
410,201,38557,1,0,0:0:0:0:
146,144,38734,1,0,0:0:0:0:
146,144,38822,6,0,P|132:181|144:223,1,70
269,311,39087,6,0,P|308:304|338:273,1,70
352,120,39352,5,0,0:0:0:0:
137,210,39528,1,0,0:0:0:0:
328,275,39881,5,0,0:0:0:0:
397,270,39998,1,0,0:0:0:0:
467,265,40116,1,0,0:0:0:0:
371,140,40234,6,0,P|357:194|371:232,1,70
440,188,40499,1,0,0:0:0:0:
388,65,40587,1,0,0:0:0:0:
392,44,40763,5,0,0:0:0:0:
444,167,40851,1,0,0:0:0:0:
364,212,40940,2,0,L|309:210,1,35
354,40,41116,2,0,L|409:38,1,35
450,175,41293,5,0,0:0:0:0:
436,265,41381,1,0,0:0:0:0:
364,320,41469,1,0,0:0:0:0:
273,311,41557,1,0,0:0:0:0:
371,326,41646,5,0,0:0:0:0:
330,243,41734,2,0,P|321:201|326:184,1,35
380,335,41910,1,0,0:0:0:0:
421,252,41998,2,0,P|430:210|425:193,1,35
389,344,42175,5,0,0:0:0:0:
237,292,42263,1,0,0:0:0:0:
330,243,42352,1,0,0:0:0:0:
339,251,42528,1,0,0:0:0:0:
218,162,42704,2,0,L|188:166,6,17.5
241,170,43057,5,0,0:0:0:0:
47,76,43234,1,0,0:0:0:0:
224,35,43410,2,0,L|246:32,1,17.5
216,44,43499,2,0,L|238:41,1,17.5
208,53,43587,1,0,0:0:0:0:
203,61,43675,2,0,P|199:105|211:118,1,35
255,157,43852,5,0,0:0:0:0:
337,150,43940,1,0,0:0:0:0:
240,165,44028,1,0,0:0:0:0:
349,155,44116,2,0,L|346:173,4,11.6666666666667
306,75,44293,2,0,L|303:57,4,11.6666666666667
404,86,44469,6,0,B|433:122|397:186|397:186|422:260|382:296|316:337|254:284|239:216|270:188,1,385
330,219,45528,1,0,0:0:0:0:
124,180,45704,1,0,0:0:0:0:
124,180,45793,1,0,0:0:0:0:
124,180,45881,6,0,B|151:142|262:201|262:201|232:129|297:76|297:76|226:105|188:47,1,385
256,11,46940,1,0,0:0:0:0:
256,11,47028,2,0,L|282:6,2,17.5
332,156,47204,1,0,0:0:0:0:
332,156,47293,6,0,B|361:211|333:284|256:288|256:288|306:304|328:358,1,280
418,193,48175,2,0,L|468:186,1,35
263,202,48440,1,0,0:0:0:0:
263,202,48528,2,0,L|213:195,1,35
184,137,48704,6,0,B|157:154|142:191|148:239|191:263|191:263|136:318|136:318|112:295|66:306,1,280
243,323,49587,1,0,0:0:0:0:
76,293,49763,1,0,0:0:0:0:
257,348,49940,1,0,0:0:0:0:
184,137,50116,2,0,P|141:174|140:265,1,140
359,147,50822,1,0,0:0:0:0:
215,222,50999,1,0,0:0:0:0:
342,63,51175,1,0,0:0:0:0:
284,276,51352,1,0,0:0:0:0:
184,137,51528,6,0,B|237:84|313:112|313:112|389:140|454:78,1,280
240,24,52410,1,0,0:0:0:0:
272,184,52587,1,0,0:0:0:0:
360,36,52763,1,0,0:0:0:0:
52,128,52940,5,0,0:0:0:0:
272,184,53116,1,0,0:0:0:0:
4,208,53293,1,0,0:0:0:0:
272,184,53469,1,0,0:0:0:0:
84,204,53646,5,0,0:0:0:0:
84,217,53734,1,0,0:0:0:0:
84,230,53822,1,0,0:0:0:0:
85,243,53910,1,0,0:0:0:0:
85,256,53998,1,0,0:0:0:0:
86,269,54087,1,0,0:0:0:0:
86,282,54175,1,0,0:0:0:0:
86,295,54263,1,0,0:0:0:0:
87,308,54352,6,0,B|127:288|167:300|167:300|139:232|163:172|220:152,1,245
256,216,55057,2,0,P|228:244|284:264,1,105
472,184,55410,2,0,P|412:164|328:236,1,175
360,328,55940,2,0,P|404:300|408:220,1,105
248,236,56293,2,0,P|315:262|347:250,1,105
328,68,56646,2,0,B|336:128|308:188|308:188|332:164|364:160,1,175
408,104,57175,6,0,B|432:128|436:164|440:216|368:240|368:240|344:264|316:276|272:268|248:248|236:220|236:220|184:248|152:312|152:312|148:260|88:240,1,525
76,316,58587,1,0,0:0:0:0:
256,192,58675,12,0,59822,0:0:0:0:
132,200,59999,5,0,0:0:0:0:
296,156,60175,1,0,0:0:0:0:
168,96,60352,1,0,0:0:0:0:
232,284,60528,5,0,0:0:0:0:
256,56,60704,1,0,0:0:0:0:
92,128,60881,1,0,0:0:0:0:
308,232,61057,5,0,0:0:0:0:
476,152,61234,1,0,0:0:0:0:
232,212,61410,1,0,0:0:0:0:
400,272,61587,5,0,0:0:0:0:
352,96,61763,1,0,0:0:0:0:
328,336,61940,1,0,0:0:0:0:
328,336,62028,1,0,0:0:0:0:
328,336,62116,1,0,0:0:0:0:
440,196,62293,6,0,B|392:180|356:200|356:200|320:220|260:188,1,175
320,132,62822,1,0,0:0:0:0:
400,344,62999,1,0,0:0:0:0:
440,96,63175,1,0,0:0:0:0:
240,300,63352,1,0,0:0:0:0:
340,288,63528,1,0,0:0:0:0:
164,224,63704,2,0,P|128:200|128:96,1,140
220,160,64234,5,0,0:0:0:0:
237,179,64322,1,0,0:0:0:0:
247,203,64410,1,0,0:0:0:0:
248,229,64498,1,0,0:0:0:0:
241,254,64586,1,0,0:0:0:0:
64,256,64763,1,0,0:0:0:0:
324,232,64940,1,0,0:0:0:0:
144,312,65116,1,0,0:0:0:0:
352,144,65293,1,0,0:0:0:0:
252,328,65469,1,0,0:0:0:0:
248,152,65646,5,0,0:0:0:0:
384,288,65822,2,0,P|404:240|392:200,1,70
240,240,66175,2,0,L|292:244,1,35
392,296,66352,1,0,0:0:0:0:
140,228,66528,1,0,0:0:0:0:
302,326,66704,5,0,0:0:0:0:
258,250,66793,1,0,0:0:0:0:
282,330,66881,1,0,0:0:0:0:
274,242,66970,1,0,0:0:0:0:
262,325,67057,5,0,0:0:0:0:
123,198,67234,1,0,0:0:0:0:
250,59,67410,1,0,0:0:0:0:
389,186,67587,1,0,0:0:0:0:
249,147,67763,6,0,L|216:150,7,17.5
287,225,68116,2,0,L|320:228,6,17.5
382,342,68469,6,0,L|386:268,3,70
287,225,69175,2,0,L|283:151,3,70
379,43,69881,2,0,P|386:89|366:121,1,70
210,103,70234,2,0,P|203:57|223:25,1,70
308,122,70587,5,0,0:0:0:0:
305,139,70675,1,0,0:0:0:0:
299,155,70763,1,0,0:0:0:0:
289,170,70851,1,0,0:0:0:0:
277,182,70939,1,0,0:0:0:0:
263,192,71028,1,0,0:0:0:0:
246,199,71116,1,0,0:0:0:0:
229,202,71204,1,0,0:0:0:0:
212,202,71292,1,0,0:0:0:0:
256,192,71381,12,0,73763,0:0:0:0:
151,134,74116,5,0,0:0:0:0:
215,212,74293,1,0,0:0:0:0:
215,212,74381,2,0,L|246:208,2,17.5
102,309,74646,5,0,0:0:0:0:
87,227,74734,1,0,0:0:0:0:
230,130,74910,5,0,0:0:0:0:
215,212,74998,1,0,0:0:0:0:
151,158,75087,1,0,0:0:0:0:
165,75,75175,2,0,L|140:77,2,17.5
230,130,75352,1,0,0:0:0:0:
215,212,75440,1,0,0:0:0:0:
113,183,75528,6,0,P|135:163|169:156,1,46.6666666666667
278,266,75704,2,0,P|256:286|222:293,1,46.6666666666667
255,190,75881,6,0,P|268:187|280:189,2,17.5
176,234,76057,1,0,0:0:0:0:
221,124,76146,1,0,0:0:0:0:
208,112,76322,5,0,0:0:0:0:
163,222,76411,1,0,0:0:0:0:
242,178,76499,2,0,P|255:175|267:177,2,17.5
168,316,76763,1,0,0:0:0:0:
40,232,76940,6,0,P|84:224|128:244,3,70
235,317,77646,2,0,P|191:309|147:329,3,70
336,356,78352,2,0,P|344:312|328:264,1,70
384,200,78704,2,0,P|376:156|392:108,1,70
448,56,79057,1,0,0:0:0:0:
304,216,79234,1,0,0:0:0:0:
456,164,79410,1,0,0:0:0:0:
268,72,79587,1,0,0:0:0:0:
420,272,79763,5,0,0:0:0:0:
302,356,79940,1,0,0:0:0:0:
302,321,80028,1,0,0:0:0:0:
303,286,80116,1,0,0:0:0:0:
304,251,80204,1,0,0:0:0:0:
304,216,80292,1,0,0:0:0:0:
305,181,80381,1,0,0:0:0:0:
212,284,80557,2,0,L|184:288,2,17.5
420,164,80822,1,0,0:0:0:0:
420,164,80910,1,0,0:0:0:0:
172,128,81087,1,0,0:0:0:0:
404,288,81263,5,0,0:0:0:0:
404,288,81352,2,0,L|433:290,2,17.5
123,228,81528,1,0,0:0:0:0:
310,233,81704,1,0,0:0:0:0:
208,127,81881,5,0,0:0:0:0:
229,115,81969,1,0,0:0:0:0:
260,112,82057,1,0,0:0:0:0:
298,119,82146,1,0,0:0:0:0:
336,142,82234,1,0,0:0:0:0:
368,183,82322,1,0,0:0:0:0:
383,240,82410,1,0,0:0:0:0:
376,306,82499,1,0,0:0:0:0:
340,370,82587,5,0,0:0:0:0:
185,323,82763,1,0,0:0:0:0:
30,276,82940,1,0,0:0:0:0:
321,191,83116,5,0,0:0:0:0:
286,193,83204,1,0,0:0:0:0:
251,196,83293,2,0,L|197:193,1,41.9999987182618
30,276,83557,2,0,L|84:272,1,41.9999987182618
229,119,83822,1,0,0:0:0:0:
194,117,83910,1,0,0:0:0:0:
164,134,83998,5,0,0:0:0:0:
274,287,84175,2,0,L|276:263,2,20.9999993591309
268,356,84352,1,0,0:0:0:0:
141,207,84528,1,0,0:0:0:0:
410,295,84704,5,0,0:0:0:0:
181,310,84881,2,0,L|203:314,2,20.9999993591309
268,356,85057,2,0,L|267:323,1,20.9999993591309
266,286,85146,2,0,L|265:253,1,20.9999993591309
218,231,85234,2,0,L|219:198,1,20.9999993591309
220,161,85323,2,0,L|221:128,1,20.9999993591309
223,90,85410,5,0,0:0:0:0:
272,13,85499,1,0,0:0:0:0:
348,63,85587,1,0,0:0:0:0:
299,139,85675,1,0,0:0:0:0:
223,90,85763,5,0,0:0:0:0:
383,137,85881,1,0,0:0:0:0:
262,252,85999,1,0,0:0:0:0:
223,90,86116,5,0,0:0:0:0:
408,276,86293,1,0,0:0:0:0:
202,193,86557,6,0,L|200:166,4,20.9999993591309
248,272,86822,2,0,P|208:286|167:279,1,83.9999974365235
119,214,87087,1,0,0:0:0:0:
191,109,87175,2,0,L|205:230,1,83.9999974365235
110,146,87440,2,0,L|112:130,3,13.9999995727539
158,34,87616,5,0,0:0:0:0:
158,34,87704,2,0,L|182:37,2,20.9999993591309
111,132,87881,2,0,L|67:137,1,41.9999987182618
278,109,88057,1,0,0:0:0:0:
293,197,88234,6,0,P|350:166|361:74,1,139.999995727539
236,0,88587,2,0,P|234:64|308:120,1,139.999995727539
316,34,88940,1,0,0:0:0:0:
213,182,89116,6,0,P|241:262|310:277,1,139.999995727539
413,182,89469,2,0,P|330:164|283:216,1,139.999995727539
359,240,89822,1,0,0:0:0:0:
295,68,89999,6,0,P|271:156|305:208,1,139.999995727539
478,145,90352,2,0,L|344:135,1,125.999996154785
270,196,90881,2,0,L|298:194,2,20.9999993591309
134,165,91057,6,0,L|159:168,3,20.9999993591309
121,140,91234,2,0,L|96:143,3,20.9999993591309
134,115,91410,1,0,0:0:0:0:
175,108,91498,1,0,0:0:0:0:
215,119,91586,1,0,0:0:0:0:
256,125,91674,1,0,0:0:0:0:
297,117,91763,5,0,0:0:0:0:
288,149,91851,1,0,0:0:0:0:
289,182,91939,1,0,0:0:0:0:
301,213,92027,1,0,0:0:0:0:
322,239,92115,1,0,0:0:0:0:
350,258,92204,2,0,L|348:284,2,20.9999993591309
404,164,92381,1,0,0:0:0:0:
404,164,92469,5,0,0:0:0:0:
277,140,92587,1,0,0:0:0:0:
360,42,92704,1,0,0:0:0:0:
340,67,92822,5,0,0:0:0:0:
234,140,92940,1,0,0:0:0:0:
223,12,93057,1,0,0:0:0:0:
228,44,93175,5,0,0:0:0:0:
204,171,93293,1,0,0:0:0:0:
106,88,93410,1,0,0:0:0:0:
131,107,93528,5,0,0:0:0:0:
204,213,93646,1,0,0:0:0:0:
76,224,93763,1,0,0:0:0:0:
228,123,93881,5,0,0:0:0:0:
152,320,94057,1,0,0:0:0:0:
70,203,94234,2,0,L|78:231,1,20.9999993591309
84,188,94322,2,0,L|84:217,1,20.9999993591309
101,177,94410,2,0,L|93:205,1,20.9999993591309
120,170,94499,2,0,L|105:195,1,20.9999993591309
140,168,94587,5,0,0:0:0:0:
202,174,94675,1,0,0:0:0:0:
265,181,94763,2,0,L|259:153,2,20.9999993591309
349,81,94940,5,0,0:0:0:0:
286,87,95028,1,0,0:0:0:0:
223,94,95116,2,0,L|227:73,4,13.9999995727539
140,168,95293,6,0,L|199:171,1,41.9999987182618
286,87,95469,2,0,L|227:90,1,41.9999987182618
296,212,95646,1,0,0:0:0:0:
296,212,95704,1,0,0:0:0:0:
296,212,95763,1,0,0:0:0:0:
296,212,95822,2,0,L|288:327,1,83.9999974365235
124,258,96175,6,0,L|156:256,6,20.9999993591309
223,250,96528,1,0,0:0:0:0:
355,164,96704,6,0,P|340:150|293:139,1,41.9999987182618
223,250,96881,2,0,P|242:244|275:208,1,41.9999987182618
142,124,97057,2,0,P|157:138|204:149,1,41.9999987182618
274,38,97234,2,0,P|254:43|221:79,1,41.9999987182618
104,220,97410,6,0,L|154:218,1,41.9999987182618
381,249,97587,2,0,L|331:247,1,41.9999987182618
256,82,97763,2,0,L|258:132,1,41.9999987182618
227,359,97940,2,0,L|229:309,1,41.9999987182618
255,165,98116,6,0,L|256:70,1,83.9999974365235
179,121,98381,1,0,0:0:0:0:
329,121,98469,2,0,P|376:127|411:167,1,83.9999974365235
341,198,98734,1,0,0:0:0:0:
417,223,98822,2,0,L|412:269,1,41.9999987182618
316,352,98999,2,0,L|311:306,1,41.9999987182618
215,223,99175,2,0,L|210:269,1,41.9999987182618
114,352,99352,2,0,L|109:306,1,41.9999987182618
0,203,99528,6,0,L|42:221,1,41.9999987182618
137,95,99704,1,0,0:0:0:0:
176,79,99793,6,0,L|133:97,1,41.9999987182618
77,236,99969,1,0,0:0:0:0:
38,219,100057,1,0,0:0:0:0:
313,219,100234,6,0,L|270:237,1,41.9999987182618
175,111,100410,1,0,0:0:0:0:
137,95,100499,6,0,L|179:113,1,41.9999987182618
236,252,100675,1,0,0:0:0:0:
275,235,100763,1,0,0:0:0:0:
314,218,100852,1,0,0:0:0:0:
352,201,100940,6,0,L|309:219,1,41.9999987182618
255,54,101116,1,0,0:0:0:0:
217,37,101204,6,0,L|259:55,1,41.9999987182618
267,324,101381,1,0,0:0:0:0:
305,307,101469,6,0,L|274:320,2,20.9999993591309
402,178,101646,6,0,P|357:163|307:178,1,83.9999974365235
305,307,101910,2,0,P|340:275|352:224,1,83.9999974365235
241,158,102175,2,0,L|236:190,2,20.9999993591309
284,84,102352,5,0,0:0:0:0:
167,81,102469,1,0,0:0:0:0:
50,78,102587,1,0,0:0:0:0:
120,181,102704,5,0,0:0:0:0:
237,178,102821,1,0,0:0:0:0:
354,175,102939,1,0,0:0:0:0:
416,100,103057,5,0,0:0:0:0:
441,132,103145,1,0,0:0:0:0:
451,173,103233,1,0,0:0:0:0:
442,214,103321,1,0,0:0:0:0:
418,247,103409,5,0,0:0:0:0:
247,136,103528,1,0,0:0:0:0:
429,43,103646,1,0,0:0:0:0:
294,263,103763,5,0,0:0:0:0:
231,32,103881,1,0,0:0:0:0:
185,234,103999,1,0,0:0:0:0:
330,148,104116,6,0,L|373:144,3,41.9999987182618
169,84,104469,2,0,L|126:80,3,41.9999987182618
386,225,104822,2,0,L|429:221,3,41.9999987182618
349,144,105175,5,0,0:0:0:0:
307,175,105263,1,0,0:0:0:0:
292,224,105351,1,0,0:0:0:0:
308,273,105439,1,0,0:0:0:0:
349,304,105528,1,0,0:0:0:0:
297,302,105616,1,0,0:0:0:0:
244,299,105704,1,0,0:0:0:0:
192,297,105792,1,0,0:0:0:0:
139,295,105881,1,0,0:0:0:0:
97,263,105969,1,0,0:0:0:0:
82,214,106057,1,0,0:0:0:0:
98,165,106145,1,0,0:0:0:0:
138,133,106234,1,0,0:0:0:0:
190,126,106322,1,0,0:0:0:0:
236,149,106410,1,0,0:0:0:0:
259,195,106498,1,0,0:0:0:0:
176,211,106587,5,0,0:0:0:0:
200,256,106675,1,0,0:0:0:0:
246,280,106763,1,0,0:0:0:0:
297,272,106851,1,0,0:0:0:0:
334,237,106940,1,0,0:0:0:0:
358,191,107028,1,0,0:0:0:0:
404,167,107116,1,0,0:0:0:0:
455,175,107204,1,0,0:0:0:0:
492,210,107293,1,0,0:0:0:0:
483,159,107381,1,0,0:0:0:0:
475,107,107469,1,0,0:0:0:0:
466,55,107557,1,0,0:0:0:0:
457,3,107646,1,0,0:0:0:0:
436,50,107734,1,0,0:0:0:0:
391,76,107822,1,0,0:0:0:0:
340,73,107910,1,0,0:0:0:0:
300,40,107999,5,0,0:0:0:0:
260,7,108087,1,0,0:0:0:0:
208,3,108175,1,0,0:0:0:0:
164,29,108263,1,0,0:0:0:0:
143,77,108352,1,0,0:0:0:0:
170,121,108440,1,0,0:0:0:0:
175,173,108528,1,0,0:0:0:0:
158,222,108616,1,0,0:0:0:0:
122,259,108704,1,0,0:0:0:0:
166,232,108792,1,0,0:0:0:0:
218,226,108880,1,0,0:0:0:0:
267,243,108968,1,0,0:0:0:0:
304,280,109057,1,0,0:0:0:0:
341,316,109145,1,0,0:0:0:0:
390,333,109233,1,0,0:0:0:0:
442,327,109321,1,0,0:0:0:0:
392,246,109410,5,0,0:0:0:0:
364,201,109498,1,0,0:0:0:0:
325,166,109586,1,0,0:0:0:0:
278,143,109674,1,0,0:0:0:0:
226,134,109763,1,0,0:0:0:0:
278,131,109851,1,0,0:0:0:0:
328,115,109939,1,0,0:0:0:0:
371,86,110027,1,0,0:0:0:0:
405,46,110116,1,0,0:0:0:0:
387,95,110204,1,0,0:0:0:0:
383,147,110292,1,0,0:0:0:0:
394,198,110380,1,0,0:0:0:0:
418,244,110469,1,0,0:0:0:0:
424,296,110557,1,0,0:0:0:0:
397,340,110645,1,0,0:0:0:0:
349,357,110733,1,0,0:0:0:0:
340,276,110822,5,0,0:0:0:0:
293,253,110910,1,0,0:0:0:0:
241,258,110998,1,0,0:0:0:0:
200,288,111086,1,0,0:0:0:0:
180,336,111175,1,0,0:0:0:0:
200,288,111263,1,0,0:0:0:0:
192,236,111351,1,0,0:0:0:0:
159,197,111439,1,0,0:0:0:0:
110,180,111528,1,0,0:0:0:0:
162,177,111616,1,0,0:0:0:0:
215,174,111704,1,0,0:0:0:0:
267,172,111792,1,0,0:0:0:0:
320,169,111881,1,0,0:0:0:0:
368,154,111969,1,0,0:0:0:0:
394,109,112057,1,0,0:0:0:0:
383,59,112145,1,0,0:0:0:0:
341,30,112234,1,0,0:0:0:0:
291,15,112322,1,0,0:0:0:0:
243,32,112410,5,0,0:0:0:0:
261,83,112498,1,0,0:0:0:0:
257,136,112586,1,0,0:0:0:0:
232,184,112674,1,0,0:0:0:0:
190,217,112762,1,0,0:0:0:0:
138,230,112851,1,0,0:0:0:0:
85,221,112939,1,0,0:0:0:0:
40,191,113028,1,0,0:0:0:0:
90,183,113116,1,0,0:0:0:0:
136,201,113204,1,0,0:0:0:0:
168,240,113292,1,0,0:0:0:0:
175,289,113380,1,0,0:0:0:0:
158,335,113469,1,0,0:0:0:0:
202,309,113557,1,0,0:0:0:0:
254,299,113645,1,0,0:0:0:0:
305,308,113733,1,0,0:0:0:0:
350,335,113822,5,0,0:0:0:0:
324,289,113910,1,0,0:0:0:0:
321,237,113998,1,0,0:0:0:0:
341,189,114086,1,0,0:0:0:0:
381,155,114175,1,0,0:0:0:0:
406,200,114263,1,0,0:0:0:0:
409,252,114351,1,0,0:0:0:0:
389,300,114439,1,0,0:0:0:0:
349,334,114528,1,0,0:0:0:0:
306,305,114616,1,0,0:0:0:0:
254,297,114704,1,0,0:0:0:0:
204,311,114792,1,0,0:0:0:0:
164,345,114881,1,0,0:0:0:0:
183,296,114969,1,0,0:0:0:0:
178,244,115057,1,0,0:0:0:0:
152,199,115145,1,0,0:0:0:0:
108,170,115234,1,0,0:0:0:0:
161,167,115322,1,0,0:0:0:0:
213,163,115410,1,0,0:0:0:0:
265,160,115498,1,0,0:0:0:0:
318,156,115587,5,0,0:0:0:0:
296,115,115675,1,0,0:0:0:0:
264,82,115763,1,0,0:0:0:0:
223,60,115851,1,0,0:0:0:0:
177,51,115939,1,0,0:0:0:0:
131,56,116028,1,0,0:0:0:0:
88,74,116116,1,0,0:0:0:0:
53,104,116204,1,0,0:0:0:0:
28,143,116292,1,0,0:0:0:0:
16,188,116381,1,0,0:0:0:0:
17,234,116469,1,0,0:0:0:0:
32,278,116557,1,0,0:0:0:0:
60,316,116645,1,0,0:0:0:0:
97,344,116734,1,0,0:0:0:0:
141,359,116822,1,0,0:0:0:0:
188,361,116910,1,0,0:0:0:0:
233,349,116998,1,0,0:0:0:0:
272,324,117087,1,0,0:0:0:0:
302,289,117175,5,0,0:0:0:0:
256,192,117263,12,0,118587,0:0:0:0:
