osu file format v14

[General]
AudioFilename: audio.mp3
AudioLeadIn: 0
PreviewTime: -1
Countdown: 1
SampleSet: Normal
StackLeniency: 0.8
Mode: 0
LetterboxInBreaks: 0
WidescreenStoryboard: 0

[Editor]
DistanceSpacing: 1.3
BeatDivisor: 4
GridSize: 4
TimelineZoom: 1

[Metadata]
Title:Things are Gonna get Better
TitleUnicode:Things are Gonna get Better
Artist:NightcoreGalaxy
ArtistUnicode:NightcoreGalaxy
Creator:tomas619
Version:Insane
Source:Nightcore
Tags:
BeatmapID:1595967
BeatmapSetID:758783

[Difficulty]
HPDrainRate:7
CircleSize:4
OverallDifficulty:7
ApproachRate:9.3
SliderMultiplier:1.4
SliderTickRate:1

[Events]
//Background and Video events
//Break Periods
2,27303,58101
//Storyboard Layer 0 (Background)
//Storyboard Layer 1 (Fail)
//Storyboard Layer 2 (Pass)
//Storyboard Layer 3 (Foreground)
//Storyboard Sound Samples

[TimingPoints]
724.294117647059,517.241379310345,4,1,0,100,1,0

[HitObjects]
64,264,4862,5,0,0:0:0:0:
344,80,6931,2,0,L|216:184,1,140
365,205,7965,1,0,0:0:0:0:
157,171,8482,5,0,0:0:0:0:
276,104,8870,2,0,L|334:208,1,105,0|0,3:3|3:3,3:3:0:0:
412,152,9517,1,0,0:0:0:0:
336,68,9776,1,0,0:0:0:0:
340,160,10034,1,0,0:0:0:0:
248,168,10293,1,0,0:0:0:0:
320,260,10551,1,0,0:0:0:0:
185,159,10810,1,0,0:0:0:0:
353,217,11069,1,0,0:0:0:0:
139,235,11327,1,0,0:0:0:0:
346,170,11586,1,0,0:0:0:0:
144,149,11844,1,0,0:0:0:0:
352,198,12103,1,0,0:0:0:0:
131,225,12362,1,0,0:0:0:0:
385,141,12620,1,0,0:0:0:0:
395,173,13138,1,0,0:0:0:0:
255,227,13396,1,0,0:0:0:0:
378,142,13655,1,0,0:0:0:0:
159,138,13913,1,0,0:0:0:0:
390,208,14172,1,0,0:0:0:0:
175,237,14431,1,0,0:0:0:0:
394,139,14689,1,0,0:0:0:0:
141,128,14948,1,0,0:0:0:0:
408,195,15207,1,0,0:0:0:0:
220,229,15465,1,0,0:0:0:0:
380,112,15724,1,0,0:0:0:0:
149,128,15982,1,0,0:0:0:0:
432,214,16241,1,0,0:0:0:0:
156,225,16500,1,0,0:0:0:0:
152,104,17276,1,0,0:0:0:0:
461,93,17793,1,0,0:0:0:0:
78,210,18310,1,0,0:0:0:0:
336,180,18569,1,0,0:0:0:0:
176,98,18827,1,0,0:0:0:0:
438,145,19344,1,0,0:0:0:0:
174,172,19603,1,0,0:0:0:0:
410,129,20120,1,0,0:0:0:0:
114,134,20379,1,0,0:0:0:0:
291,149,20896,1,0,0:0:0:0:
53,158,21413,1,0,0:0:0:0:
385,110,21672,1,0,0:0:0:0:
173,126,21931,1,0,0:0:0:0:
126,197,24517,1,0,0:0:0:0:
261,283,25034,1,0,0:0:0:0:
119,107,25551,1,0,0:0:0:0:
378,141,25810,1,0,0:0:0:0:
67,228,26069,1,0,0:0:0:0:
311,195,26327,1,0,0:0:0:0:
81,88,26586,1,0,0:0:0:0:
343,189,26844,1,0,0:0:0:0:
131,265,27103,1,0,0:0:0:0:
132,104,58655,5,0,0:0:0:0:
132,104,58913,1,0,0:0:0:0:
188,96,59172,1,0,0:0:0:0:
296,88,59431,1,0,0:0:0:0:
216,104,59689,1,0,0:0:0:0:
296,84,59948,1,0,0:0:0:0:
224,100,60207,1,0,0:0:0:0:
312,76,60465,1,0,0:0:0:0:
468,32,60982,1,0,0:0:0:0:
392,52,61241,1,0,0:0:0:0:
368,144,61500,1,0,0:0:0:0:
292,176,61758,1,0,0:0:0:0:
180,176,62017,1,0,0:0:0:0:
104,132,62276,1,0,0:0:0:0:
188,112,62534,1,0,0:0:0:0:
232,184,62793,1,0,0:0:0:0:
132,184,63051,1,0,0:0:0:0:
192,144,63310,1,0,0:0:0:0:
256,136,63569,1,0,0:0:0:0:
196,216,63827,1,0,0:0:0:0:
160,152,64086,1,0,0:0:0:0:
240,136,64344,1,0,0:0:0:0:
144,188,64603,1,0,0:0:0:0:
184,120,64862,1,0,0:0:0:0:
256,128,65120,1,0,0:0:0:0:
156,148,65379,1,0,0:0:0:0:
212,96,65638,1,0,0:0:0:0:
148,168,65896,1,0,0:0:0:0:
120,92,66155,1,0,0:0:0:0:
208,88,66413,1,0,0:0:0:0:
148,156,66672,1,0,0:0:0:0:
248,124,66931,1,0,0:0:0:0:
304,112,67189,1,0,0:0:0:0:
208,136,67448,1,0,0:0:0:0:
124,160,67707,1,0,0:0:0:0:
212,128,67965,1,0,0:0:0:0:
288,104,68224,1,0,0:0:0:0:
356,80,68482,1,0,0:0:0:0:
424,116,68741,1,0,0:0:0:0:
420,188,69000,1,0,0:0:0:0:
352,224,69258,1,0,0:0:0:0:
300,236,69517,1,0,0:0:0:0:
204,228,69776,1,0,0:0:0:0:
144,172,70034,1,0,0:0:0:0:
152,88,70293,1,0,0:0:0:0:
248,60,70551,1,0,0:0:0:0:
340,80,70810,1,0,0:0:0:0:
408,132,71069,1,0,0:0:0:0:
356,204,71327,1,0,0:0:0:0:
308,220,71586,1,0,0:0:0:0:
224,228,71844,1,0,0:0:0:0:
220,140,72103,1,0,0:0:0:0:
308,96,72362,1,0,0:0:0:0:
392,144,72620,1,0,0:0:0:0:
304,172,72879,1,0,0:0:0:0:
224,184,73138,1,0,0:0:0:0:
184,108,73396,1,0,0:0:0:0:
264,100,73655,1,0,0:0:0:0:
204,140,73913,1,0,0:0:0:0:
100,128,74948,1,0,0:0:0:0:
192,112,75207,1,0,0:0:0:0:
108,184,75982,1,0,0:0:0:0:
180,128,76241,1,0,0:0:0:0:
288,92,76629,1,0,0:0:0:0:
352,72,76888,1,0,0:0:0:0:
436,48,77146,1,0,0:0:0:0:
436,48,77405,1,0,0:0:0:0:
436,48,77663,1,0,0:0:0:0:
436,48,77922,1,0,0:0:0:0:
436,48,78181,1,0,0:0:0:0:
352,76,78439,1,0,0:0:0:0:
264,108,78698,1,0,0:0:0:0:
188,136,78957,1,0,0:0:0:0:
188,136,79215,1,0,0:0:0:0:
100,164,79474,1,0,0:0:0:0:
168,144,79732,1,0,0:0:0:0:
256,128,79991,1,0,0:0:0:0:
156,148,80120,1,0,0:0:0:0:
144,64,80379,1,0,0:0:0:0:
256,64,80681,1,0,0:0:0:0:
168,120,80982,1,0,0:0:0:0:
252,124,81241,1,0,0:0:0:0:
180,176,81500,1,0,0:0:0:0:
16,116,82017,1,0,0:0:0:0:
348,92,83482,1,0,0:0:0:0:
348,92,83784,1,0,0:0:0:0:
348,92,84043,1,0,0:0:0:0:
348,92,84517,1,0,0:0:0:0:
348,92,84776,1,0,0:0:0:0:
348,92,85034,1,0,0:0:0:0:
