osu file format v14

[General]
AudioFilename: audio.mp3
AudioLeadIn: 0
PreviewTime: 35716
Countdown: 1
SampleSet: None
StackLeniency: 0.7
Mode: 1
LetterboxInBreaks: 0
EpilepsyWarning: 1
WidescreenStoryboard: 1

[Editor]
Bookmarks: 52704,55265,124197
DistanceSpacing: 0.8
BeatDivisor: 4
GridSize: 8
TimelineZoom: 1.8

[Metadata]
Title:Take A Hint
TitleUnicode:Take A Hint
Artist:Nightcore
ArtistUnicode:Nightcore
Creator:Eeveesenpai_4_u
Version:
Source:
Tags:
BeatmapID:1382814
BeatmapSetID:529214

[Difficulty]
HPDrainRate:7
CircleSize:7
OverallDifficulty:7
ApproachRate:9
SliderMultiplier:1.4
SliderTickRate:1

[Events]
//Background and Video events
0,0,"rxOsRGr.jpg",0,0
//Break Periods
//Storyboard Layer 0 (Background)
//Storyboard Layer 1 (Fail)
//Storyboard Layer 2 (Pass)
//Storyboard Layer 3 (Foreground)
//Storyboard Sound Samples

[TimingPoints]
6082,365.853658536585,4,1,0,70,1,0
35350,-66.6666666666667,4,1,0,70,0,1
47057,-100,4,1,0,70,0,0
51424,365.853658536585,4,1,0,100,1,0
58009,-66.6666666666667,4,1,0,100,0,0
58375,-100,4,1,0,100,0,0
60936,-66.6666666666667,4,1,0,100,0,0
61484,-100,4,1,0,100,0,0
64594,-66.6666666666667,4,1,0,70,0,1
76302,-66.6666666666667,4,1,0,70,0,0
82155,-80,4,1,0,70,0,0
95326,-200,4,1,0,70,0,0
101180,-66.6666666666667,4,1,0,70,0,1
107034,-100,4,1,0,70,0,0
107734,365.853658536585,4,1,0,100,1,0
113221,-66.6666666666667,4,1,0,70,0,1
118709,-100,4,1,0,70,0,0

[HitObjects]
128,120,6082,5,0,0:0:0:0:
128,120,6447,1,8,0:0:0:0:
136,112,6630,1,8,0:0:0:0:
128,120,6813,1,0,0:0:0:0:
128,128,6996,1,0,0:0:0:0:
128,120,7179,1,8,0:0:0:0:
128,112,7362,1,8,0:0:0:0:
128,120,7545,1,0,0:0:0:0:
128,120,7911,1,8,0:0:0:0:
128,120,8094,1,8,0:0:0:0:
128,120,8185,1,8,0:0:0:0:
128,120,8277,1,0,0:0:0:0:
128,120,8368,1,0,0:0:0:0:
128,120,8460,1,0,0:0:0:0:
128,120,8551,1,8,0:0:0:0:
120,112,8642,1,8,0:0:0:0:
128,120,8825,1,8,0:0:0:0:
120,112,9008,1,0,0:0:0:0:
120,120,9374,1,8,0:0:0:0:
112,112,9557,1,8,0:0:0:0:
160,280,9649,1,8,0:0:0:0:
120,96,9740,1,0,0:0:0:0:
136,120,9923,1,0,0:0:0:0:
128,96,10106,1,8,0:0:0:0:
136,120,10289,1,8,0:0:0:0:
128,96,10472,1,0,0:0:0:0:
128,96,10655,1,0,0:0:0:0:
128,96,10838,1,8,0:0:0:0:
128,96,11021,1,0,0:0:0:0:
128,96,11203,1,0,0:0:0:0:
112,96,11386,1,0,0:0:0:0:
128,96,11569,1,8,0:0:0:0:
120,104,11935,1,0,0:0:0:0:
120,104,12301,1,8,0:0:0:0:
112,96,12667,1,0,0:0:0:0:
112,96,12850,1,0,0:0:0:0:
112,96,13033,1,8,0:0:0:0:
120,88,13216,1,0,0:0:0:0:
112,96,13399,1,8,0:0:0:0:
112,96,13490,1,8,0:0:0:0:
112,96,13581,1,8,0:0:0:0:
112,96,13764,1,0,0:0:0:0:
120,104,13947,1,0,0:0:0:0:
112,88,14130,1,8,0:0:0:0:
120,88,14313,1,8,0:0:0:0:
120,88,14405,1,8,0:0:0:0:
120,88,14496,1,8,0:0:0:0:
120,88,14588,1,0,0:0:0:0:
120,88,14679,1,8,0:0:0:0:
120,88,14862,1,0,0:0:0:0:
120,80,15045,1,0,0:0:0:0:
120,88,15228,1,8,0:0:0:0:
120,80,15411,1,8,0:0:0:0:
128,88,15594,1,0,0:0:0:0:
128,88,15777,1,0,0:0:0:0:
128,88,15960,1,8,0:0:0:0:
128,88,16325,1,0,0:0:0:0:
128,88,16417,1,0,0:0:0:0:
128,88,16508,1,0,0:0:0:0:
128,88,16691,1,8,0:0:0:0:
128,88,17057,1,0,0:0:0:0:
128,88,17240,1,8,0:0:0:0:
128,88,17423,1,8,0:0:0:0:
128,88,17606,1,8,0:0:0:0:
128,88,17789,1,0,0:0:0:0:
128,80,17972,1,0,0:0:0:0:
128,88,18155,1,8,0:0:0:0:
128,80,18338,1,8,0:0:0:0:
128,88,18521,1,0,0:0:0:0:
128,88,18703,1,0,0:0:0:0:
128,88,18886,1,8,0:0:0:0:
80,176,19252,1,0,0:0:0:0:
80,176,19618,1,8,0:0:0:0:
80,176,19984,1,0,0:0:0:0:
80,176,20167,1,8,0:0:0:0:
80,176,20350,1,8,0:0:0:0:
80,176,20716,1,4,0:0:0:0:
80,176,21081,1,4,0:0:0:0:
80,176,21447,1,4,0:0:0:0:
80,176,21813,1,4,0:0:0:0:
80,176,22179,1,4,0:0:0:0:
80,176,22545,1,4,0:0:0:0:
80,176,22911,1,4,0:0:0:0:
80,176,23277,1,4,0:0:0:0:
80,176,23642,1,0,0:0:0:0:
80,176,23734,1,0,0:0:0:0:
80,176,23825,1,0,0:0:0:0:
80,176,23917,1,0,0:0:0:0:
80,176,24008,1,8,0:0:0:0:
72,176,24191,1,0,0:0:0:0:
72,176,24374,1,8,0:0:0:0:
152,88,24557,1,0,0:0:0:0:
72,176,24740,1,8,0:0:0:0:
80,184,25106,1,0,0:0:0:0:
152,88,25289,1,0,0:0:0:0:
152,88,25472,1,8,0:0:0:0:
152,88,25838,1,0,0:0:0:0:
152,88,25929,1,0,0:0:0:0:
152,88,26021,1,8,0:0:0:0:
152,88,26112,1,8,0:0:0:0:
152,88,26203,1,8,0:0:0:0:
152,88,26295,1,0,0:0:0:0:
152,88,26386,1,8,0:0:0:0:
152,88,26478,1,8,0:0:0:0:
152,88,26569,1,0,0:0:0:0:
