osu file format v14

[General]
AudioFilename: audio.mp3
AudioLeadIn: 0
PreviewTime: -1
Countdown: 1
SampleSet: None
StackLeniency: 0.7
Mode: 0
LetterboxInBreaks: 0
WidescreenStoryboard: 0

[Editor]
DistanceSpacing: 2
BeatDivisor: 4
GridSize: 4
TimelineZoom: 1.6

[Metadata]
Title:My Demons
TitleUnicode:My Demons
Artist:Nightcore
ArtistUnicode:Nightcore
Creator:Ameyy
Version:Away
Source:
Tags:
BeatmapID:988671
BeatmapSetID:461654

[Difficulty]
HPDrainRate:8
CircleSize:4
OverallDifficulty:8
ApproachRate:9
SliderMultiplier:1.6
SliderTickRate:1

[Events]
//Background and Video events
//Break Periods
//Storyboard Layer 0 (Background)
//Storyboard Layer 1 (Fail)
//Storyboard Layer 2 (Pass)
//Storyboard Layer 3 (Foreground)
//Storyboard Sound Samples

[TimingPoints]
147,294.204177699323,4,2,0,70,1,0
5442,-133.333333333333,4,2,0,10,0,0
14268,-100,4,2,0,60,0,0
23683,-133.333333333333,4,2,0,60,0,0
26036,-83.3333333333333,4,1,0,70,0,1
48984,-133.333333333333,4,2,0,5,0,1
49573,-100,4,2,0,40,0,0

[HitObjects]
100,160,5442,6,0,P|164:100|204:88,1,120.000004577637
296,60,6031,2,0,B|252:172|328:172|284:312,2,240.000009155274
424,184,7502,1,0,0:0:0:0:
356,348,7796,2,0,P|304:380|236:352,1,120.000004577637
84,296,8384,2,0,P|180:244|292:308,2,240.000009155274
40,120,9855,6,0,P|100:84|160:88,1,120.000004577637
224,248,10444,2,0,P|144:220|120:184,1,120.000004577637
288,116,11032,1,0,0:0:0:0:
436,224,11326,2,0,B|432:288|432:288|388:324,1,120.000004577637
252,204,11915,5,0,0:0:0:0:
120,328,12209,1,0,0:0:0:0:
36,168,12503,1,0,0:0:0:0:
160,40,12797,1,0,0:0:0:0:
152,220,13091,2,0,P|208:176|264:184,1,120.000004577637
232,264,13680,2,0,P|284:328|424:324,1,210.000008010865
452,300,14268,6,0,L|396:216,1,80,2|0,0:0|0:0,0:0:0:0:
292,124,14563,2,0,L|268:228,1,80
172,312,14857,2,0,L|132:208,1,80,2|0,0:0|0:0,0:0:0:0:
56,104,15151,1,0,0:0:0:0:
204,40,15298,1,0,0:0:0:0:
352,100,15445,6,0,P|372:184|456:232,1,160,2|0,0:0|0:0,0:0:0:0:
512,208,16034,2,0,P|492:296|412:304,1,160,2|0,0:0|0:0,0:0:0:0:
200,44,16622,6,0,B|176:76|176:76|116:104,1,80,2|0,0:0|0:0,0:0:0:0:
76,240,16916,2,0,P|56:172|64:128,1,80
216,148,17210,2,0,P|168:184|128:188,1,80,2|0,0:0|0:0,0:0:0:0:
64,52,17505,1,0,0:0:0:0:
236,252,17652,1,0,0:0:0:0:
332,124,17799,6,0,P|448:104|476:128,1,160,2|0,0:0|0:0,0:0:0:0:
308,216,18387,2,0,P|168:240|128:88,1,320,2|2,0:0|0:0,0:0:0:0:
304,140,19123,5,0,0:0:0:0:
124,96,19270,2,0,L|56:184,1,80
80,316,19564,2,0,L|144:224,1,80,2|0,0:0|0:0,0:0:0:0:
268,320,19858,1,0,0:0:0:0:
386,199,20005,1,0,0:0:0:0:
244,140,20152,6,0,B|276:116|276:116|340:124,1,80,2|0,0:0|0:0,0:0:0:0:
332,272,20447,2,0,B|308:240|308:240|308:184,1,80
448,156,20741,2,0,B|420:192|420:192|364:204,1,80,2|0,0:0|0:0,0:0:0:0:
340,48,21035,2,0,B|376:68|376:68|404:124,1,80
232,100,21329,5,2,0:0:0:0:
148,236,21476,1,0,0:0:0:0:
292,304,21623,1,0,0:0:0:0:
124,104,21771,2,0,L|24:104,1,80,0|2,0:0|0:0,0:0:0:0:
292,304,22065,2,0,L|392:304,2,80
248,152,22506,5,2,0:0:0:0:
104,220,22653,2,0,P|92:272|96:312,1,80
248,152,22947,1,0,0:0:0:0:
408,164,23094,2,0,P|420:112|416:72,1,80,2|0,0:0|0:0,0:0:0:0:
332,220,23389,1,0,0:0:0:0:
176,72,23536,1,0,0:0:0:0:
84,148,23683,6,0,P|60:208|76:288,1,120.000004577637,2|0,0:0|0:0,0:0:0:0:
304,228,24271,2,0,B|244:212|244:236|172:212,1,120.000004577637,2|0,0:0|0:0,0:0:0:0:
232,104,24713,1,0,0:0:0:0:
344,60,24860,2,0,L|388:128,1,60.0000022888184,2|0,0:0|0:0,0:0:0:0:
396,228,25154,2,0,L|372:288,1,60.0000022888184
264,236,25448,5,2,0:0:0:0:
152,76,25595,1,0,0:0:0:0:
404,48,25742,1,0,0:0:0:0:
136,208,25889,1,0,0:0:0:0:
288,28,26036,6,0,P|344:100|332:216,1,191.999994140625,12|0,0:0|0:0,0:0:0:0:
184,84,26478,1,0,0:0:0:0:
224,356,26625,2,0,P|168:284|180:168,1,191.999994140625,8|0,0:0|0:0,0:0:0:0:
332,288,27066,5,0,0:0:0:0:
332,288,27140,1,0,0:0:0:0:
332,288,27213,1,8,0:0:0:0:
420,116,27360,1,0,0:0:0:0:
436,308,27507,1,0,0:0:0:0:
328,148,27655,2,0,P|264:176|228:176,1,95.9999970703126,0|8,0:0|0:0,0:0:0:0:
380,48,27949,2,0,P|448:12|488:4,1,95.9999970703126
460,200,28243,5,0,0:0:0:0:
304,92,28390,2,0,P|212:60|120:116,1,191.999994140625,8|0,0:0|0:0,0:0:0:0:
240,332,28831,1,0,0:0:0:0:
240,332,28979,2,0,B|240:280|240:280|224:192|224:192|224:128,1,191.999994140625,8|0,0:0|0:0,0:0:0:0:
416,144,29420,5,0,0:0:0:0:
416,144,29493,1,0,0:0:0:0:
416,144,29567,2,0,P|420:220|404:252,1,95.9999970703126,8|0,0:0|0:0,0:0:0:0:
288,92,29861,2,0,P|276:24|284:-12,1,95.9999970703126
328,184,30155,1,8,0:0:0:0:
180,60,30302,1,0,0:0:0:0:
56,208,30450,2,0,B|104:224|104:224|172:220,1,95.9999970703126
328,184,30744,6,0,P|344:288|316:376,1,191.999994140625,8|0,0:0|0:0,0:0:0:0:
228,200,31185,1,0,0:0:0:0:
228,200,31332,2,0,P|224:128|252:92,1,95.9999970703126,8|0,0:0|0:0,0:0:0:0:
144,280,31626,2,0,P|148:336|124:392,1,95.9999970703126
72,192,31921,1,8,0:0:0:0:
64,0,32068,1,0,0:0:0:0:
224,104,32215,1,0,0:0:0:0:
32,96,32362,2,0,B|76:80|76:80|132:80,1,95.9999970703126,0|8,0:0|0:0,0:0:0:0:
316,104,32656,5,0,0:0:0:0:
316,104,33097,2,0,B|352:132|364:160|364:160|344:220|368:252|396:304,1,191.999994140625,8|0,0:0|0:0,0:0:0:0:
188,244,33539,2,0,P|144:192|140:152,1,95.9999970703126,0|8,0:0|0:0,0:0:0:0:
256,12,33833,2,0,L|256:128,1,95.9999970703126
324,243,34127,2,0,P|358:211|372:166,1,95.9999970703126,0|8,0:0|0:0,0:0:0:0:
500,24,34421,1,0,0:0:0:0:
320,92,34568,2,0,L|220:148,1,95.9999970703126
132,300,34863,2,0,L|232:240,1,95.9999970703126,8|0,0:0|0:0,0:0:0:0:
136,76,35157,5,0,0:0:0:0:
304,304,35304,1,0,0:0:0:0:
224,128,35451,2,0,P|128:176|48:116,1,191.999994140625,12|0,0:0|0:0,0:0:0:0:
228,40,35892,1,0,0:0:0:0:
224,232,36039,2,0,P|176:320|232:376,1,191.999994140625,8|0,0:0|0:0,0:0:0:0:
336,212,36481,5,0,0:0:0:0:
336,212,36554,1,0,0:0:0:0:
336,212,36628,2,0,B|360:172|360:172|400:144,1,95.9999970703126,8|0,0:0|0:0,0:0:0:0:
228,64,36922,2,0,P|204:120|140:160,1,95.9999970703126
252,320,37216,2,0,L|252:216,1,95.9999970703126,8|0,0:0|0:0,0:0:0:0:
80,140,37510,2,0,P|60:76|76:16,1,95.9999970703126
256,36,37805,6,0,P|232:144|264:248,1,191.999994140625,8|0,0:0|0:0,0:0:0:0:
412,120,38246,1,0,0:0:0:0:
444,308,38393,1,8,0:0:0:0:
272,228,38540,1,0,0:0:0:0:
424,112,38687,1,0,0:0:0:0:
436,304,38834,2,0,L|388:400,1,95.9999970703126,0|8,0:0|0:0,0:0:0:0:
424,112,39129,2,0,L|472:12,1,95.9999970703126
284,84,39423,5,0,0:0:0:0:
176,244,39570,1,8,0:0:0:0:
108,64,39717,2,0,P|52:44|4:0,1,95.9999970703126
176,244,40011,1,0,0:0:0:0:
368,216,40158,6,0,P|416:256|464:264,1,95.9999970703126,8|0,0:0|0:0,0:0:0:0:
436,80,40452,2,0,P|448:156|440:200,1,95.9999970703126
272,96,40747,1,8,0:0:0:0:
212,276,40894,1,0,0:0:0:0:
100,120,41041,2,0,L|200:168,2,95.9999970703126,0|0|8,0:0|0:0|0:0,0:0:0:0:
64,308,41482,1,0,0:0:0:0:
248,360,41629,1,0,0:0:0:0:
248,360,41923,2,0,P|280:252|360:196,1,191.999994140625,8|0,0:0|0:0,0:0:0:0:
339,204,42512,6,0,P|244:168|192:88,1,191.999994140625,8|0,0:0|0:0,0:0:0:0:
376,32,42953,1,0,0:0:0:0:
136,172,43100,2,0,L|72:256,1,95.9999970703126,8|0,0:0|0:0,0:0:0:0:
240,356,43395,2,0,L|248:240,1,95.9999970703126
424,188,43689,1,8,0:0:0:0:
268,76,43836,1,8,0:0:0:0:
172,244,43983,1,8,0:0:0:0:
384,100,44130,1,8,0:0:0:0:
168,28,44277,5,8,0:0:0:0:
320,320,44424,1,8,0:0:0:0:
320,12,44571,1,8,0:0:0:0:
172,244,44718,1,8,0:0:0:0:
28,116,44866,6,0,P|56:216|12:304,2,191.999994140625,8|0|8,0:0|0:0|0:0,0:0:0:0:
204,192,45601,2,0,B|296:176|296:212|428:184,1,191.999994140625
312,16,46042,2,0,P|300:88|252:124,1,95.9999970703126,8|0,0:0|0:0,0:0:0:0:
100,148,46337,2,0,P|120:88|164:56,1,95.9999970703126
248,220,46631,2,0,P|232:280|184:320,1,95.9999970703126,8|0,0:0|0:0,0:0:0:0:
32,240,46925,1,0,0:0:0:0:
280,360,47072,1,0,0:0:0:0:
372,192,47219,6,0,P|336:148|188:92,1,191.999994140625,8|0,0:0|0:0,0:0:0:0:
200,300,47808,2,0,P|280:240|232:188,1,191.999994140625,8|0,0:0|0:0,0:0:0:0:
56,256,48249,1,0,0:0:0:0:
148,88,48396,1,8,0:0:0:0:
332,244,48984,6,0,P|240:248|300:156,1,240.000009155274,0|4,0:0|0:0,0:0:0:0:
