osu file format v14

[General]
AudioFilename: audio.mp3
AudioLeadIn: 0
PreviewTime: 153131
Countdown: 1
SampleSet: Soft
StackLeniency: 0.7
Mode: 2
LetterboxInBreaks: 0
WidescreenStoryboard: 0

[Editor]
DistanceSpacing: 1.4
BeatDivisor: 4
GridSize: 8
TimelineZoom: 2.4

[Metadata]
Title:My Demons
TitleUnicode:My Demons
Artist:Nightcore
ArtistUnicode:Nightcore
Creator:[-naniwa-]
Version:Nightmare
Source:
Tags:Nightcore Starset my demons naniwa ctb
BeatmapID:1774396
BeatmapSetID:848542

[Difficulty]
HPDrainRate:8
CircleSize:4
OverallDifficulty:9.4
ApproachRate:9.4
SliderMultiplier:2.2
SliderTickRate:1

[Events]
//Background and Video events
0,0,"wp2277362.jpg",0,0
//Break Periods
2,48625,51414
//Storyboard Layer 0 (Background)
//Storyboard Layer 1 (Fail)
//Storyboard Layer 2 (Pass)
//Storyboard Layer 3 (Foreground)
//Storyboard Sound Samples

[TimingPoints]
190,588.235294117647,4,2,0,30,1,0
4895,-100,4,2,0,10,0,0
14307,-100,4,2,0,30,0,0
14601,-100,4,2,0,50,0,0
16660,-100,4,2,0,30,0,0
16954,-100,4,2,0,50,0,0
19013,-100,4,2,0,30,0,0
19307,-100,4,2,0,50,0,0
21366,-100,4,2,0,30,0,0
21660,-100,4,2,0,50,0,0
23131,-100,4,2,0,30,0,0
23719,-90.9090909090909,4,2,0,70,0,0
26072,-76.9230769230769,4,2,0,100,0,1
48425,-100,4,2,0,100,0,0
51954,-100,4,2,0,50,0,0
52248,-100,4,2,0,70,0,0
53131,-100,4,2,0,50,0,0
54601,-100,4,2,0,70,0,0
55484,-100,4,2,0,50,0,0
56954,-100,4,2,0,70,0,0
57837,-100,4,2,0,50,0,0
59307,-100,4,2,0,70,0,0
60189,-100,4,2,0,50,0,0
61660,-100,4,2,0,70,0,0
62542,-100,4,2,0,50,0,0
64013,-100,4,2,0,70,0,0
64895,-100,4,2,0,50,0,0
66072,-100,4,2,0,70,0,0
67248,-100,4,2,0,80,0,0
68425,-100,4,2,0,70,0,0
70778,-76.9230769230769,4,2,0,100,0,1
94307,-83.3333333333333,4,2,0,80,0,0
110778,-83.3333333333333,4,2,0,90,0,0
113131,-83.3333333333333,4,2,0,70,0,0
115484,-125,4,2,0,40,0,0
134307,-100,4,2,0,30,0,0
139013,-100,4,2,0,50,0,0
143719,-100,4,2,0,30,0,0
148425,-100,4,2,0,20,0,0
150778,-100,4,2,0,40,0,0
151366,-100,4,2,0,60,0,0
151954,-100,4,2,0,80,0,0
152542,-100,4,2,0,100,0,0
153131,-66.6666666666667,4,2,0,100,0,1
199013,-100,4,2,0,50,0,0

[HitObjects]
122,278,190,6,0,L|85:184,1,55,2|0,0:0|0:0,0:0:0:0:
204,190,484,2,0,L|185:89,1,55,2|0,0:0|0:0,0:0:0:0:
334,267,778,1,0,0:0:0:0:
403,243,925,1,0,0:0:0:0:
416,190,1072,1,0,0:0:0:0:
367,132,1219,1,0,0:0:0:0:
239,134,1366,6,0,L|314:134,1,55,2|0,0:0|0:0,0:0:0:0:
400,69,1660,2,0,L|311:68,1,55,2|0,0:0|0:0,0:0:0:0:
182,228,1954,1,0,0:0:0:0:
112,209,2101,1,0,0:0:0:0:
103,156,2248,1,0,0:0:0:0:
160,106,2395,1,0,0:0:0:0:
292,135,2542,6,0,L|359:135,1,55,2|0,0:0|0:0,0:0:0:0:
223,81,2837,2,0,L|142:81,1,55,2|0,0:0|0:0,0:0:0:0:
322,165,3131,1,0,0:0:0:0:
251,131,3278,1,0,0:0:0:0:
256,78,3425,1,0,0:0:0:0:
332,61,3572,1,0,0:0:0:0:
420,84,3719,5,0,0:0:0:0:
205,232,3866,1,4,0:0:0:0:
281,231,4013,1,2,0:0:0:0:
357,231,4160,1,2,0:0:0:0:
109,197,4307,2,0,L|25:197,1,55,8|0,0:0|0:0,0:0:0:0:
283,161,4601,2,0,L|382:160,1,55,8|0,0:0|0:0,0:0:0:0:
122,249,4895,5,2,0:0:0:0:
46,200,5042,1,0,0:0:0:0:
122,249,5189,1,0,0:0:0:0:
46,200,5336,1,0,0:0:0:0:
122,249,5484,1,0,0:0:0:0:
46,200,5631,1,0,0:0:0:0:
122,249,5778,1,0,0:0:0:0:
46,200,5925,1,0,0:0:0:0:
106,152,6072,5,0,0:0:0:0:
174,117,6219,1,0,0:0:0:0:
249,131,6366,1,0,0:0:0:0:
298,189,6513,1,0,0:0:0:0:
282,264,6660,1,0,0:0:0:0:
214,301,6807,1,0,0:0:0:0:
149,258,6954,1,0,0:0:0:0:
174,185,7101,1,0,0:0:0:0:
241,148,7248,5,2,0:0:0:0:
313,174,7395,1,0,0:0:0:0:
347,242,7542,1,0,0:0:0:0:
323,315,7689,1,0,0:0:0:0:
253,349,7837,1,0,0:0:0:0:
177,335,7984,1,0,0:0:0:0:
136,269,8131,1,0,0:0:0:0:
143,192,8278,1,0,0:0:0:0:
202,142,8425,5,0,0:0:0:0:
278,137,8572,1,0,0:0:0:0:
348,105,8719,1,0,0:0:0:0:
316,34,8866,1,0,0:0:0:0:
240,20,9013,1,0,0:0:0:0:
164,35,9160,1,0,0:0:0:0:
122,99,9307,1,0,0:0:0:0:
149,170,9454,1,0,0:0:0:0:
236,216,9601,5,2,0:0:0:0:
312,167,9748,1,0,0:0:0:0:
236,216,9895,1,0,0:0:0:0:
312,167,10042,1,0,0:0:0:0:
236,216,10190,1,0,0:0:0:0:
312,167,10337,1,0,0:0:0:0:
236,216,10484,1,0,0:0:0:0:
312,167,10631,1,0,0:0:0:0:
255,114,10778,5,0,0:0:0:0:
188,74,10925,1,0,0:0:0:0:
111,85,11072,1,0,0:0:0:0:
55,138,11219,1,0,0:0:0:0:
45,214,11366,1,0,0:0:0:0:
90,275,11513,1,0,0:0:0:0:
159,308,11660,1,0,0:0:0:0:
234,292,11807,1,0,0:0:0:0:
333,231,11954,5,2,0:0:0:0:
257,182,12101,1,0,0:0:0:0:
333,231,12248,1,0,0:0:0:0:
257,182,12395,1,0,0:0:0:0:
333,231,12543,1,0,0:0:0:0:
257,182,12690,1,0,0:0:0:0:
333,231,12837,1,0,0:0:0:0:
257,182,12984,1,0,0:0:0:0:
333,231,13131,5,2,0:0:0:0:
409,182,13278,1,0,0:0:0:0:
333,231,13425,1,0,0:0:0:0:
409,182,13572,1,0,0:0:0:0:
333,231,13720,1,0,0:0:0:0:
409,182,13867,1,0,0:0:0:0:
333,231,14014,1,0,0:0:0:0:
409,182,14161,1,0,0:0:0:0:
149,239,14307,6,0,L|39:239,2,110,8|0|0,0:0|0:0|0:0,0:0:0:0:
22,153,15189,1,0,0:0:0:0:
383,291,15484,6,0,L|184:291,1,165,2|0,0:0|0:0,0:0:0:0:
431,266,16072,2,0,P|484:238|426:154,1,165,2|0,0:0|0:0,0:0:0:0:
177,144,16660,6,0,L|299:144,1,110,8|0,0:0|0:0,0:0:0:0:
74,166,17248,2,0,L|74:284,1,110
232,261,17837,5,2,0:0:0:0:
74,276,18131,1,0,0:0:0:0:
320,150,18425,1,2,0:0:0:0:
240,152,18572,1,0,0:0:0:0:
160,152,18719,1,2,0:0:0:0:
408,112,19013,6,0,L|408:256,1,110,8|0,0:0|0:0,0:0:0:0:
192,184,19601,2,0,L|288:184,1,55,2|0,0:0|0:0,0:0:0:0:
104,128,19895,2,0,L|32:128,1,55
447,86,20189,6,0,P|487:158|407:230,1,165,2|0,0:0|0:0,0:0:0:0:
238,176,20778,2,0,L|366:176,1,110,2|0,0:0|0:0,0:0:0:0:
238,96,21219,1,0,0:0:0:0:
20,264,21366,6,0,L|20:136,1,110,8|0,0:0|0:0,0:0:0:0:
208,200,21954,2,0,L|56:200,1,110
272,320,22542,5,2,0:0:0:0:
352,296,22689,1,0,0:0:0:0:
354,243,22837,1,2,0:0:0:0:
278,201,22983,1,0,0:0:0:0:
114,178,23131,2,0,L|26:178,1,55,8|0,0:0|0:0,0:0:0:0:
202,138,23425,2,0,L|282:138,1,55,8|0,0:0|0:0,0:0:0:0:
468,227,23719,6,0,L|328:227,1,121.000003692627,4|0,0:0|0:0,0:0:0:0:
165,227,24307,2,0,L|242:227,1,60.5000018463135,8|0,0:0|0:0,0:0:0:0:
376,167,24601,2,0,L|294:167,1,60.5000018463135,8|0,0:0|0:0,0:0:0:0:
44,227,24895,6,0,L|184:227,1,121.000003692627,4|0,0:0|0:0,0:0:0:0:
371,194,25484,1,2,0:0:0:0:
455,191,25631,1,2,0:0:0:0:
370,192,25778,1,2,0:0:0:0:
285,192,25925,1,2,0:0:0:0:
57,218,26072,6,0,P|91:152|243:147,1,214.49999018097,4|0,0:0|0:0,0:0:0:0:
57,218,26660,2,0,P|85:301|166:318,1,142.99999345398,8|0,0:0|0:0,0:0:0:0:
408,158,27101,1,0,0:0:0:0:
173,234,27248,6,0,L|45:167,1,142.99999345398,2|0,0:0|0:0,0:0:0:0:
178,96,27689,1,0,0:0:0:0:
408,158,27837,2,0,L|497:158,1,71.4999967269899,2|0,0:0|0:0,0:0:0:0:
104,158,28131,2,0,L|15:158,1,71.4999967269899,2|0,0:0|0:0,0:0:0:0:
389,303,28425,6,0,P|484:199|447:107,1,214.49999018097,4|0,0:0|0:0,0:0:0:0:
329,184,29013,2,0,L|483:185,1,142.99999345398,8|0,0:0|0:0,0:0:0:0:
195,184,29454,1,0,0:0:0:0:
400,184,29601,6,0,L|471:184,2,71.4999967269899,2|0|0,0:0|0:0|0:0,0:0:0:0:
139,273,30189,1,2,0:0:0:0:
71,227,30336,1,0,0:0:0:0:
74,158,30483,1,2,0:0:0:0:
145,115,30630,1,0,0:0:0:0:
408,272,30778,6,0,L|200:192,1,214.49999018097,4|0,0:0|0:0,0:0:0:0:
336,48,31366,1,2,0:0:0:0:
392,104,31513,1,0,0:0:0:0:
371,169,31660,1,2,0:0:0:0:
294,175,31807,1,0,0:0:0:0:
56,192,31954,6,0,L|216:136,1,142.99999345398,4|0,0:0|0:0,0:0:0:0:
344,152,32395,1,0,0:0:0:0:
112,256,32542,1,2,0:0:0:0:
48,200,32689,1,0,0:0:0:0:
61,132,32836,1,2,0:0:0:0:
139,113,32983,1,0,0:0:0:0:
384,312,33131,6,0,P|432:232|354:158,1,214.49999018097,4|0,0:0|0:0,0:0:0:0:
200,200,33719,2,0,P|240:112|367:100,1,214.49999018097,2|0,0:0|0:0,0:0:0:0:
453,283,34307,6,0,P|456:220|365:197,1,142.99999345398,8|0,0:0|0:0,0:0:0:0:
144,304,34895,1,2,0:0:0:0:
80,256,35042,1,0,0:0:0:0:
86,188,35189,1,2,0:0:0:0:
156,151,35336,1,0,0:0:0:0:
441,290,35484,6,0,L|245:149,1,214.49999018097,4|0,0:0|0:0,0:0:0:0:
409,164,36072,2,0,L|261:164,1,142.99999345398,8|0,0:0|0:0,0:0:0:0:
55,193,36513,1,0,0:0:0:0:
267,173,36660,5,2,0:0:0:0:
191,173,36807,1,0,0:0:0:0:
116,174,36954,1,2,0:0:0:0:
469,187,37248,1,4,0:0:0:0:
319,145,37542,2,0,L|397:144,1,71.4999967269899
106,294,37837,6,0,P|40:210|126:137,1,214.49999018097,4|0,0:0|0:0,0:0:0:0:
218,114,38425,2,0,L|60:114,1,142.99999345398,8|0,0:0|0:0,0:0:0:0:
337,79,38866,1,0,0:0:0:0:
105,248,39013,6,0,L|177:248,1,71.4999967269899,2|0,0:0|0:0,0:0:0:0:
395,185,39307,2,0,L|323:184,1,71.4999967269899,2|0,0:0|0:0,0:0:0:0:
72,267,39601,2,0,P|37:200|97:136,1,142.99999345398,8|0,0:0|0:0,0:0:0:0:
448,144,40189,6,0,P|477:242|402:311,1,214.49999018097,4|0,0:0|0:0,0:0:0:0:
192,200,40778,1,2,0:0:0:0:
296,200,40925,1,0,0:0:0:0:
400,200,41072,1,2,0:0:0:0:
72,144,41219,6,0,L|240:144,1,142.99999345398
464,208,41660,2,0,L|360:208,1,71.4999967269899,2|0,0:0|0:0,0:0:0:0:
72,144,41954,2,0,L|215:144,1,142.99999345398,8|0,0:0|0:0,0:0:0:0:
459,289,42542,6,0,P|461:186|348:132,1,214.49999018097,4|0,0:0|0:0,0:0:0:0:
176,195,43131,2,0,L|15:196,1,142.99999345398,8|0,0:0|0:0,0:0:0:0:
176,195,43572,1,2,0:0:0:0:
394,201,43719,6,0,L|479:200,1,71.4999967269899,8|8,0:0|0:0,0:0:0:0:
185,187,44013,1,2,0:0:0:0:
396,71,44160,1,2,0:0:0:0:
185,187,44307,2,0,L|281:187,1,71.4999967269899,8|8,0:0|0:0,0:0:0:0:
46,120,44601,1,2,0:0:0:0:
256,187,44748,1,2,0:0:0:0:
46,120,44895,6,0,L|46:296,1,142.99999345398,4|0,0:0|0:0,0:0:0:0:
399,280,45484,1,8,0:0:0:0:
469,237,45631,1,0,0:0:0:0:
473,167,45778,1,8,0:0:0:0:
409,119,45925,1,0,0:0:0:0:
163,181,46072,6,0,L|319:181,1,142.99999345398,4|0,0:0|0:0,0:0:0:0:
163,181,46513,1,0,0:0:0:0:
437,120,46660,2,0,L|348:120,1,71.4999967269899,2|0,0:0|0:0,0:0:0:0:
75,120,46954,2,0,L|164:120,1,71.4999967269899,2|0,0:0|0:0,0:0:0:0:
437,120,47248,5,8,0:0:0:0:
75,120,47542,1,8,0:0:0:0:
436,182,47837,2,0,L|324:182,2,71.4999967269899,2|0|2,0:0|0:0|0:0,0:0:0:0:
76,182,48425,5,4,0:0:0:0:
355,224,51954,5,8,0:0:0:0:
176,173,52248,1,0,0:0:0:0:
432,181,52542,2,0,L|432:59,1,110,2|0,0:0|0:0,0:0:0:0:
300,59,52984,1,0,0:0:0:0:
94,228,53131,5,8,0:0:0:0:
302,169,53425,1,2,0:0:0:0:
38,90,53719,1,8,0:0:0:0:
170,226,54307,6,0,L|42:226,1,110,8|0,0:0|0:0,0:0:0:0:
416,152,54895,1,2,0:0:0:0:
256,111,55042,2,0,L|342:111,1,55,0|2,0:0|0:0,0:0:0:0:
485,240,55484,6,2,L|484:86,1,110,8|2,0:0|0:0,0:0:0:0:
268,150,56072,1,8,0:0:0:0:
429,170,56660,5,8,0:0:0:0:
247,124,56954,1,0,0:0:0:0:
384,113,57248,2,0,L|441:113,2,55,2|0|2,0:0|0:0|0:0,0:0:0:0:
219,117,57689,1,0,0:0:0:0:
434,200,57837,6,0,L|276:200,2,110,8|2|8,0:0|0:0|0:0,0:0:0:0:
168,306,59013,6,0,L|169:160,1,110,8|0,0:0|0:0,0:0:0:0:
401,218,59601,1,2,0:0:0:0:
477,217,59748,1,0,0:0:0:0:
400,219,59895,1,2,0:0:0:0:
323,220,60042,1,0,0:0:0:0:
113,166,60189,5,8,0:0:0:0:
299,131,60484,2,0,L|226:131,1,55,2|0,0:0|0:0,0:0:0:0:
394,277,60778,2,0,L|394:157,1,110,8|0,0:0|0:0,0:0:0:0:
35,226,61366,6,0,L|35:107,1,110,8|0,0:0|0:0,0:0:0:0:
152,101,61807,1,0,0:0:0:0:
365,192,61954,2,0,L|454:192,1,55,2|0,0:0|0:0,0:0:0:0:
274,152,62248,2,0,L|204:152,1,55,2|0,0:0|0:0,0:0:0:0:
361,196,62542,6,0,L|362:55,1,110,8|0,0:0|0:0,0:0:0:0:
185,187,62984,2,0,L|270:187,1,55,0|8,0:0|0:0,0:0:0:0:
48,280,63719,6,0,L|48:128,1,110,8|0,0:0|0:0,0:0:0:0:
408,288,64307,1,2,0:0:0:0:
471,251,64454,1,0,0:0:0:0:
483,201,64601,1,2,0:0:0:0:
408,165,64748,1,0,0:0:0:0:
282,165,64895,6,0,L|392:164,1,110,8|0,0:0|0:0,0:0:0:0:
282,165,65337,1,0,0:0:0:0:
391,164,65484,1,8,0:0:0:0:
446,164,65778,2,0,L|391:164,1,55,2|0,0:0|0:0,0:0:0:0:
96,176,66072,5,8,0:0:0:0:
272,128,66366,1,0,0:0:0:0:
144,200,66660,2,0,L|16:200,1,110,2|0,0:0|0:0,0:0:0:0:
144,200,67101,1,0,0:0:0:0:
496,216,67248,6,0,L|400:216,1,55,8|0,0:0|0:0,0:0:0:0:
233,208,67542,2,0,L|288:208,1,55,2|0,0:0|0:0,0:0:0:0:
16,216,67837,2,0,L|112:216,1,55,2|0,0:0|0:0,0:0:0:0:
279,208,68131,2,0,L|224:208,1,55,2|0,0:0|0:0,0:0:0:0:
496,216,68425,5,8,0:0:0:0:
312,168,68719,2,0,L|376:168,1,55,2|0,0:0|0:0,0:0:0:0:
477,168,69013,2,0,L|333:168,1,110,2|0,0:0|0:0,0:0:0:0:
168,208,69601,5,8,0:0:0:0:
32,152,69895,1,2,0:0:0:0:
416,112,70189,1,2,0:0:0:0:
64,224,70484,1,2,0:0:0:0:
80,192,70557,1,0,0:0:0:0:
104,160,70631,1,2,0:0:0:0:
136,144,70704,1,0,0:0:0:0:
374,276,70778,6,0,P|423:181|314:134,1,214.49999018097,4|0,0:0|0:0,0:0:0:0:
208,126,71366,2,0,L|390:125,1,142.99999345398,8|0,0:0|0:0,0:0:0:0:
208,126,71807,1,0,0:0:0:0:
422,126,71954,6,0,L|336:125,2,71.4999967269899,2|0|2,0:0|0:0|0:0,0:0:0:0:
257,171,72542,2,2,L|102:171,1,142.99999345398,10|2,0:0|0:0,0:0:0:0:
257,171,72984,1,0,0:0:0:0:
42,312,73131,6,0,P|18:225|130:133,1,214.49999018097,4|0,0:0|0:0,0:0:0:0:
220,143,73719,2,0,L|363:143,1,142.99999345398,8|0,0:0|0:0,0:0:0:0:
220,143,74160,1,0,0:0:0:0:
429,146,74307,6,2,L|501:146,2,71.4999967269899,2|0|0,0:0|0:0|0:0,0:0:0:0:
177,206,74895,1,8,0:0:0:0:
403,120,75189,2,0,L|332:120,1,71.4999967269899
58,214,75484,6,0,L|281:214,1,214.49999018097,4|0,0:0|0:0,0:0:0:0:
142,132,76072,1,2,0:0:0:0:
41,131,76219,1,0,0:0:0:0:
140,135,76366,1,2,0:0:0:0:
240,137,76513,1,0,0:0:0:0:
462,175,76660,6,0,L|281:174,1,142.99999345398,4|2,0:0|0:0,0:0:0:0:
462,175,77101,1,0,0:0:0:0:
109,214,77248,1,2,0:0:0:0:
209,214,77395,1,0,0:0:0:0:
309,212,77542,1,2,0:0:0:0:
409,212,77689,1,0,0:0:0:0:
97,173,77837,6,0,L|322:172,1,214.49999018097,4|0,0:0|0:0,0:0:0:0:
169,174,78425,2,0,L|75:173,1,71.4999967269899,2|0,0:0|0:0,0:0:0:0:
424,162,78719,6,0,L|225:161,1,142.99999345398,4|0,0:0|0:0,0:0:0:0:
424,162,79160,1,0,0:0:0:0:
25,173,79307,2,0,L|122:173,1,71.4999967269899,2|0,0:0|0:0,0:0:0:0:
496,103,79601,2,0,L|397:103,1,71.4999967269899,2|0,0:0|0:0,0:0:0:0:
200,172,79895,1,2,0:0:0:0:
424,103,80042,1,0,0:0:0:0:
201,170,80189,6,0,L|25:171,1,142.99999345398,4|0,0:0|0:0,0:0:0:0:
201,170,80631,1,0,0:0:0:0:
415,170,80778,2,0,L|201:170,1,214.49999018097,8|0,0:0|0:0,0:0:0:0:
415,170,81366,6,0,L|304:170,2,71.4999967269899,2|0|2,0:0|0:0|0:0,0:0:0:0:
199,171,81954,2,0,L|342:171,1,142.99999345398,8|0,0:0|0:0,0:0:0:0:
199,171,82395,1,0,0:0:0:0:
471,212,82542,6,0,L|247:212,1,214.49999018097,4|0,0:0|0:0,0:0:0:0:
399,212,83131,2,0,L|251:212,1,142.99999345398,8|0,0:0|0:0,0:0:0:0:
399,212,83572,1,0,0:0:0:0:
159,212,83719,5,2,0:0:0:0:
253,212,83866,1,0,0:0:0:0:
353,212,84013,1,2,0:0:0:0:
253,212,84160,1,0,0:0:0:0:
43,171,84307,2,0,L|122:170,1,71.4999967269899,2|0,0:0|0:0,0:0:0:0:
397,170,84601,2,0,L|469:171,1,71.4999967269899,2|0,0:0|0:0,0:0:0:0:
127,253,84895,6,0,P|40:172|94:79,1,214.49999018097,4|0,0:0|0:0,0:0:0:0:
236,164,85484,1,2,0:0:0:0:
135,165,85631,1,0,0:0:0:0:
34,165,85778,1,2,0:0:0:0:
278,166,85925,6,0,L|85:165,1,142.99999345398,2|2,0:0|0:0,0:0:0:0:
378,164,86366,2,0,L|461:164,1,71.4999967269899,2|0,0:0|0:0,0:0:0:0:
135,165,86660,2,0,L|289:166,1,142.99999345398,4|0,0:0|0:0,0:0:0:0:
135,165,87101,1,0,0:0:0:0:
378,164,87248,6,0,P|462:156|449:35,1,214.49999018097,4|0,0:0|0:0,0:0:0:0:
276,111,87837,2,0,L|425:111,1,142.99999345398,2|0,0:0|0:0,0:0:0:0:
276,111,88278,1,0,0:0:0:0:
59,272,88425,5,2,0:0:0:0:
282,188,88572,1,2,0:0:0:0:
59,272,88719,2,8,L|130:271,1,71.4999967269899
456,275,89013,1,2,0:0:0:0:
230,188,89160,1,2,0:0:0:0:
456,275,89307,2,8,L|378:275,1,71.4999967269899
67,257,89601,6,0,L|67:101,1,142.99999345398,4|0,0:0|0:0,0:0:0:0:
172,91,90042,1,0,0:0:0:0:
302,241,90189,1,2,0:0:0:0:
369,229,90336,1,0,0:0:0:0:
390,164,90483,1,2,0:0:0:0:
343,115,90630,1,0,0:0:0:0:
69,141,90778,6,0,L|214:141,1,142.99999345398,4|0,0:0|0:0,0:0:0:0:
69,141,91219,1,0,0:0:0:0:
393,140,91366,2,0,L|480:139,1,71.4999967269899,8|0,0:0|0:0,0:0:0:0:
138,140,91660,2,0,L|67:140,1,71.4999967269899,8|0,0:0|0:0,0:0:0:0:
464,139,91954,5,4,0:0:0:0:
308,226,92248,2,0,L|391:226,1,71.4999967269899,2|0,0:0|0:0,0:0:0:0:
34,221,92542,1,2,0:0:0:0:
189,153,92689,2,0,L|260:152,2,71.4999967269899,0|2|0,0:0|0:0|0:0,0:0:0:0:
464,139,93131,6,0,L|379:139,1,71.4999967269899,8|0,0:0|0:0,0:0:0:0:
48,139,93425,2,0,L|133:139,1,71.4999967269899,2|0,0:0|0:0,0:0:0:0:
346,193,93719,1,8,0:0:0:0:
199,149,93866,1,0,0:0:0:0:
446,98,94013,2,0,L|491:98,2,35.749998363495
132,214,94307,6,0,L|-25:214,1,131.99999597168,4|0,0:0|0:0,0:0:0:0:
132,214,94748,1,0,0:0:0:0:
272,163,94895,2,0,L|176:164,1,65.9999979858399,2|0,0:0|0:0,0:0:0:0:
337,162,95189,2,0,L|251:163,1,65.9999979858399,2|0,0:0|0:0,0:0:0:0:
479,177,95484,6,0,L|479:36,1,131.99999597168,8|0,0:0|0:0,0:0:0:0:
318,95,95925,2,0,L|397:95,1,65.9999979858399,0|2,0:0|0:0,0:0:0:0:
252,95,96219,1,0,0:0:0:0:
106,182,96366,2,0,L|40:182,1,65.9999979858399,2|0,0:0|0:0,0:0:0:0:
328,183,96660,6,0,L|476:183,1,131.99999597168,4|0,0:0|0:0,0:0:0:0:
328,183,97101,1,0,0:0:0:0:
87,247,97248,1,2,0:0:0:0:
30,173,97395,1,0,0:0:0:0:
61,103,97542,1,2,0:0:0:0:
148,94,97689,1,0,0:0:0:0:
382,185,97837,5,8,0:0:0:0:
289,184,97984,1,0,0:0:0:0:
196,184,98131,1,2,0:0:0:0:
383,186,98278,1,0,0:0:0:0:
130,185,98425,1,8,0:0:0:0:
223,184,98572,1,0,0:0:0:0:
316,184,98719,1,2,0:0:0:0:
129,186,98866,1,0,0:0:0:0:
386,310,99013,6,0,P|443:240|381:186,1,131.99999597168,4|0,0:0|0:0,0:0:0:0:
321,155,99454,1,0,0:0:0:0:
465,96,99601,2,2,L|365:98,2,65.9999979858399,2|0|2,0:0|0:0|0:0,0:0:0:0:
112,196,100189,6,0,L|280:196,1,131.99999597168,8|0,0:0|0:0,0:0:0:0:
112,196,100631,1,0,0:0:0:0:
19,196,100778,1,2,0:0:0:0:
111,198,100925,1,0,0:0:0:0:
203,198,101072,1,2,0:0:0:0:
342,199,101219,1,0,0:0:0:0:
86,310,101366,6,0,P|22:243|56:187,1,131.99999597168,4|0,0:0|0:0,0:0:0:0:
146,152,101807,1,0,0:0:0:0:
361,238,101954,2,0,L|270:238,1,65.9999979858399,2|0,0:0|0:0,0:0:0:0:
80,152,102248,2,0,L|149:152,1,65.9999979858399,2|0,0:0|0:0,0:0:0:0:
391,200,102542,5,2,0:0:0:0:
437,200,102616,1,2,0:0:0:0:
482,201,102689,1,2,0:0:0:0:
269,116,102837,2,0,L|355:116,1,65.9999979858399,8|0,0:0|0:0,0:0:0:0:
121,200,103131,1,2,0:0:0:0:
75,200,103205,1,2,0:0:0:0:
30,201,103278,1,2,0:0:0:0:
243,116,103425,2,0,L|157:116,1,65.9999979858399,8|0,0:0|0:0,0:0:0:0:
421,254,103719,6,0,P|441:191|382:141,1,131.99999597168,4|0,0:0|0:0,0:0:0:0:
295,138,104160,1,0,0:0:0:0:
136,189,104307,2,0,L|35:188,1,65.9999979858399,2|0,0:0|0:0,0:0:0:0:
217,153,104601,2,0,L|303:153,1,65.9999979858399,2|0,0:0|0:0,0:0:0:0:
44,183,104895,6,0,L|190:183,1,131.99999597168,8|0,0:0|0:0,0:0:0:0:
44,183,105337,1,0,0:0:0:0:
176,183,105484,2,0,L|245:183,1,65.9999979858399,2|0,0:0|0:0,0:0:0:0:
82,118,105778,2,0,L|-37:119,1,65.9999979858399,2|0,0:0|0:0,0:0:0:0:
298,128,106072,5,4,0:0:0:0:
205,125,106219,1,0,0:0:0:0:
298,128,106366,2,0,L|371:128,1,65.9999979858399,2|0,0:0|0:0,0:0:0:0:
200,126,106660,2,0,L|90:126,1,65.9999979858399,2|0,0:0|0:0,0:0:0:0:
298,128,106954,1,2,0:0:0:0:
134,126,107101,1,0,0:0:0:0:
363,129,107248,6,0,L|224:129,1,131.99999597168,8|2,0:0|0:0,0:0:0:0:
363,129,107689,1,0,0:0:0:0:
134,126,107837,2,0,L|273:126,1,131.99999597168,8|0,0:0|0:0,0:0:0:0:
134,126,108278,1,2,0:0:0:0:
391,213,108425,5,4,0:0:0:0:
175,235,108719,2,0,L|260:235,1,65.9999979858399,2|0,0:0|0:0,0:0:0:0:
76,176,109013,2,0,L|213:175,1,131.99999597168,2|0,0:0|0:0,0:0:0:0:
76,176,109454,1,0,0:0:0:0:
427,235,109601,5,2,0:0:0:0:
334,235,109748,1,0,0:0:0:0:
241,235,109895,1,2,0:0:0:0:
427,235,110042,1,0,0:0:0:0:
109,189,110189,2,0,L|277:189,1,131.99999597168,8|0,0:0|0:0,0:0:0:0:
109,189,110631,1,0,0:0:0:0:
352,192,110778,5,8,0:0:0:0:
304,192,110851,1,0,0:0:0:0:
256,192,110925,1,2,0:0:0:0:
488,192,111072,1,2,0:0:0:0:
344,192,111219,1,0,0:0:0:0:
40,192,111366,1,8,0:0:0:0:
88,192,111439,1,0,0:0:0:0:
136,192,111513,1,2,0:0:0:0:
344,192,111660,1,2,0:0:0:0:
176,144,111807,1,0,0:0:0:0:
392,136,111954,5,2,0:0:0:0:
488,136,112101,1,0,0:0:0:0:
392,136,112248,1,2,0:0:0:0:
256,136,112395,1,0,0:0:0:0:
488,136,112542,2,0,L|400:136,1,65.9999979858399,8|0,0:0|0:0,0:0:0:0:
256,136,112837,1,2,0:0:0:0:
304,136,112910,1,0,0:0:0:0:
352,136,112984,1,0,0:0:0:0:
90,136,113131,5,8,0:0:0:0:
304,136,113719,1,2,0:0:0:0:
96,136,114160,1,0,0:0:0:0:
216,96,114307,6,0,L|48:96,1,131.99999597168,8|0,0:0|0:0,0:0:0:0:
304,136,114895,1,2,0:0:0:0:
184,304,115484,6,0,P|112:264|352:160,1,616
216,224,117837,5,0,0:0:0:0:
400,264,118425,2,0,P|304:160|72:136,1,352
264,56,120189,6,0,P|376:112|152:264,1,528
320,224,122542,6,0,P|384:176|384:72,1,176
216,168,123719,2,0,P|128:128|128:48,1,176
320,304,124895,6,0,P|408:248|288:56,1,352
160,136,126660,1,0,0:0:0:0:
56,80,127248,6,0,P|48:176|256:264,1,352
408,160,128719,1,0,0:0:0:0:
240,128,129013,2,0,L|312:128,1,44
128,280,129601,6,0,P|128:128|320:112,1,352
152,176,131072,1,0,0:0:0:0:
297,94,131366,2,0,L|225:94,1,44
408,168,131954,6,0,P|384:264|144:280,1,352
163,298,133719,1,0,0:0:0:0:
352,152,134307,5,2,0:0:0:0:
144,120,134895,1,0,0:0:0:0:
304,120,135484,2,0,L|152:120,1,110
392,88,136072,2,0,L|392:224,1,110
168,224,136660,5,2,0:0:0:0:
304,120,137248,1,0,0:0:0:0:
152,192,137542,2,0,L|80:192,1,55
216,192,137837,2,0,L|352:192,1,110
97,192,138425,2,0,L|97:48,1,110
368,288,139013,6,0,P|432:208|320:152,1,220
176,216,140189,2,0,L|368:80,1,220
80,312,141366,6,0,L|80:88,1,220
352,192,142542,2,0,L|104:192,1,220
432,184,143719,5,2,0:0:0:0:
224,152,144307,1,0,0:0:0:0:
416,152,144895,2,0,L|264:152,1,110
472,96,145484,2,0,L|472:232,1,110
192,232,146072,5,2,0:0:0:0:
408,136,146660,1,0,0:0:0:0:
240,168,146954,2,0,L|168:168,1,55
64,120,147248,2,0,L|192:120,1,110
368,88,147837,2,0,L|216:88,1,110
256,192,148425,12,0,152542,0:0:0:0:
365,192,153131,6,0,L|192:191,1,165.000006294251,4|2,0:0|0:0,0:0:0:0:
365,192,153572,1,0,0:0:0:0:
140,191,153719,2,0,L|20:192,1,82.5000031471254,8|0,0:0|0:0,0:0:0:0:
365,192,154013,2,0,L|462:192,1,82.5000031471254,2|8,0:0|0:0,0:0:0:0:
188,191,154307,6,0,L|367:193,1,165.000006294251,2|8,0:0|0:0,0:0:0:0:
146,275,154895,1,10,0:0:0:0:
88,220,155042,1,0,0:0:0:0:
101,142,155189,1,8,0:0:0:0:
173,110,155336,1,0,0:0:0:0:
448,184,155484,6,0,L|282:184,1,165.000006294251,4|2,0:0|0:0,0:0:0:0:
448,184,155925,1,0,0:0:0:0:
200,184,156072,2,0,L|294:184,1,82.5000031471254,8|0,0:0|0:0,0:0:0:0:
448,184,156513,1,8,0:0:0:0:
200,184,156660,5,2,0:0:0:0:
123,184,156807,1,0,0:0:0:0:
47,184,156954,1,8,0:0:0:0:
123,184,157101,1,0,0:0:0:0:
336,248,157248,1,8,0:0:0:0:
376,243,157321,1,0,0:0:0:0:
413,226,157395,1,0,0:0:0:0:
442,197,157468,1,0,0:0:0:0:
477,150,157542,2,0,L|369:151,1,82.5000031471254,8|0,0:0|0:0,0:0:0:0:
120,184,157837,6,0,L|288:184,1,165.000006294251,4|2,0:0|0:0,0:0:0:0:
119,184,158278,2,0,L|37:184,2,82.5000031471254,8|2|0,0:0|0:0|0:0,0:0:0:0:
424,184,158719,2,0,L|256:184,1,165.000006294251,8|2,0:0|0:0,0:0:0:0:
424,184,159160,5,8,0:0:0:0:
264,184,159307,2,0,L|392:184,1,82.5000031471254,2|0,0:0|0:0,0:0:0:0:
96,272,159601,1,8,0:0:0:0:
34,206,159748,1,0,0:0:0:0:
48,127,159895,1,8,0:0:0:0:
127,91,160042,1,0,0:0:0:0:
408,176,160189,6,0,L|160:176,1,247.500009441376,4|8,0:0|0:0,0:0:0:0:
408,176,160778,1,2,0:0:0:0:
291,175,160925,1,2,0:0:0:0:
77,176,161072,2,0,L|159:176,1,82.5000031471254,8|0,0:0|0:0,0:0:0:0:
408,171,161366,5,2,0:0:0:0:
159,176,161513,1,8,0:0:0:0:
490,170,161660,2,0,L|408:170,1,82.5000031471254,2|0,0:0|0:0,0:0:0:0:
202,168,161954,1,8,0:0:0:0:
260,168,162028,1,0,0:0:0:0:
317,168,162101,1,2,0:0:0:0:
106,166,162248,2,8,L|12:166,1,82.5000031471254
280,161,162542,6,0,L|445:161,1,165.000006294251,4|0,0:0|0:0,0:0:0:0:
280,161,162984,1,0,0:0:0:0:
486,164,163131,2,0,L|403:164,1,82.5000031471254,8|0,0:0|0:0,0:0:0:0:
132,116,163425,2,0,L|214:116,1,82.5000031471254,2|8,0:0|0:0,0:0:0:0:
483,163,163719,6,0,L|304:163,1,165.000006294251,2|8,0:0|0:0,0:0:0:0:
483,163,164160,1,0,0:0:0:0:
79,121,164307,1,8,0:0:0:0:
194,123,164454,1,0,0:0:0:0:
309,123,164601,1,8,0:0:0:0:
424,124,164748,1,0,0:0:0:0:
76,121,164895,6,0,L|282:121,1,165.000006294251,4|0,0:0|0:0,0:0:0:0:
76,121,165337,1,0,0:0:0:0:
323,121,165484,2,0,L|423:121,2,82.5000031471254,8|0|2,0:0|0:0|0:0,0:0:0:0:
77,121,165925,1,8,0:0:0:0:
264,121,166219,6,0,L|158:121,1,82.5000031471254,0|8,0:0|0:0,0:0:0:0:
77,121,166513,1,0,0:0:0:0:
399,275,166660,1,8,0:0:0:0:
452,252,166734,1,0,0:0:0:0:
482,203,166807,1,2,0:0:0:0:
481,144,166881,1,0,0:0:0:0:
456,95,166954,1,8,0:0:0:0:
403,67,167028,1,0,0:0:0:0:
346,57,167101,1,2,0:0:0:0:
113,131,167248,6,0,L|30:131,1,82.5000031471254,4|0,0:0|0:0,0:0:0:0:
346,56,167542,2,0,L|212:56,1,82.5000031471254,0|8,0:0|0:0,0:0:0:0:
31,131,167837,1,2,0:0:0:0:
263,56,167984,1,0,0:0:0:0:
346,56,168131,1,8,0:0:0:0:
115,161,168278,2,0,L|227:160,1,82.5000031471254,2|2,0:0|0:0,0:0:0:0:
424,216,168572,1,10,0:0:0:0:
197,161,168719,6,0,L|74:160,1,82.5000031471254,2|0,0:0|0:0,0:0:0:0:
382,125,169013,2,0,L|503:125,1,82.5000031471254,8|0,0:0|0:0,0:0:0:0:
117,163,169307,2,0,L|25:163,1,82.5000031471254,2|0,0:0|0:0,0:0:0:0:
350,158,169601,6,0,L|168:158,1,165.000006294251,4|0,0:0|0:0,0:0:0:0:
350,158,170042,1,0,0:0:0:0:
98,155,170189,2,0,L|181:155,1,82.5000031471254,8|0,0:0|0:0,0:0:0:0:
428,159,170484,2,0,L|346:159,1,82.5000031471254,2|0,0:0|0:0,0:0:0:0:
98,155,170778,5,8,0:0:0:0:
264,156,170925,1,0,0:0:0:0:
36,226,171072,2,0,L|144:226,1,82.5000031471254,8|0,0:0|0:0,0:0:0:0:
344,189,171366,1,8,0:0:0:0:
286,189,171439,1,0,0:0:0:0:
227,189,171513,1,2,0:0:0:0:
368,190,171660,2,0,L|451:190,1,82.5000031471254,2|0,0:0|0:0,0:0:0:0:
159,226,171954,5,4,0:0:0:0:
302,178,172248,1,8,0:0:0:0:
61,99,172542,2,0,L|60:191,1,82.5000031471254,2|0,0:0|0:0,0:0:0:0:
247,168,172837,2,0,L|128:168,1,82.5000031471254,2|0,0:0|0:0,0:0:0:0:
446,162,173131,6,0,L|281:162,1,165.000006294251,8|2,0:0|0:0,0:0:0:0:
446,162,173572,1,0,0:0:0:0:
112,160,173719,1,8,0:0:0:0:
297,164,174013,2,0,L|209:164,1,82.5000031471254,2|0,0:0|0:0,0:0:0:0:
58,271,174307,6,0,L|159:271,1,82.5000031471254,8|0,0:0|0:0,0:0:0:0:
302,218,174601,2,0,L|164:219,1,82.5000031471254,8|0,0:0|0:0,0:0:0:0:
57,272,174895,1,2,0:0:0:0:
305,215,175189,1,8,0:0:0:0:
157,166,175484,6,0,L|248:166,1,82.5000031471254,8|0,0:0|0:0,0:0:0:0:
60,198,175778,2,0,L|60:286,1,82.5000031471254,2|0,0:0|0:0,0:0:0:0:
240,166,176072,2,0,L|121:166,1,82.5000031471254,8|0,0:0|0:0,0:0:0:0:
319,288,176366,2,0,L|319:162,1,82.5000031471254,2|0,0:0|0:0,0:0:0:0:
80,216,176660,6,0,L|248:216,1,165.000006294251,4|0,0:0|0:0,0:0:0:0:
80,216,177101,1,0,0:0:0:0:
327,216,177248,2,0,L|245:216,1,82.5000031471254,8|0,0:0|0:0,0:0:0:0:
409,216,177542,2,0,L|297:216,1,82.5000031471254,2|8,0:0|0:0,0:0:0:0:
80,224,177837,6,0,L|256:224,1,165.000006294251,2|8,0:0|0:0,0:0:0:0:
80,224,178278,1,0,0:0:0:0:
368,224,178425,1,8,0:0:0:0:
256,224,178572,1,0,0:0:0:0:
144,224,178719,1,8,0:0:0:0:
256,224,178866,1,0,0:0:0:0:
464,144,179013,6,0,L|272:144,1,165.000006294251,4|0,0:0|0:0,0:0:0:0:
464,144,179454,1,0,0:0:0:0:
112,176,179601,2,0,L|0:176,1,82.5000031471254,8|0,0:0|0:0,0:0:0:0:
328,112,179895,2,0,L|448:112,1,82.5000031471254,2|8,0:0|0:0,0:0:0:0:
128,56,180189,5,2,0:0:0:0:
80,80,180263,1,0,0:0:0:0:
72,136,180337,1,2,0:0:0:0:
112,176,180410,1,0,0:0:0:0:
296,240,180484,2,0,L|184:240,1,82.5000031471254,8|0,0:0|0:0,0:0:0:0:
461,240,180778,2,0,L|293:240,1,165.000006294251,8|8,0:0|0:0,0:0:0:0:
461,240,181219,1,0,0:0:0:0:
72,232,181366,6,0,P|64:136|232:64,1,247.500009441376,4|0,0:0|0:0,0:0:0:0:
400,168,181954,1,8,0:0:0:0:
288,168,182101,1,0,0:0:0:0:
176,168,182248,1,8,0:0:0:0:
480,224,182395,6,0,L|288:224,1,165.000006294251,2|0,0:0|0:0,0:0:0:0:
480,224,182837,1,10,0:0:0:0:
312,224,182984,1,0,0:0:0:0:
72,232,183131,2,0,L|155:232,2,82.5000031471254,8|0|2,0:0|0:0|0:0,0:0:0:0:
296,184,183719,6,0,L|488:184,1,165.000006294251,4|0,0:0|0:0,0:0:0:0:
296,184,184160,1,8,0:0:0:0:
48,184,184307,2,0,L|152:184,1,82.5000031471254,2|0,0:0|0:0,0:0:0:0:
464,184,184601,2,0,L|360:184,1,82.5000031471254,8|0,0:0|0:0,0:0:0:0:
136,296,184895,5,8,0:0:0:0:
80,272,184968,1,0,0:0:0:0:
48,224,185042,1,2,0:0:0:0:
56,168,185115,1,0,0:0:0:0:
104,136,185189,1,2,0:0:0:0:
208,64,185336,1,0,0:0:0:0:
456,216,185484,2,0,L|373:216,1,82.5000031471254,8|0,0:0|0:0,0:0:0:0:
40,152,185778,2,0,L|122:152,1,82.5000031471254,2|0,0:0|0:0,0:0:0:0:
352,208,186072,6,0,L|496:88,1,165.000006294251,4|0,0:0|0:0,0:0:0:0:
352,208,186513,1,0,0:0:0:0:
96,200,186660,2,0,L|280:200,1,165.000006294251,8|0,0:0|0:0,0:0:0:0:
96,200,187101,1,0,0:0:0:0:
352,208,187248,6,0,L|232:208,1,82.5000031471254,10|0,0:0|0:0,0:0:0:0:
57,202,187542,2,0,L|193:202,1,82.5000031471254,2|0,0:0|0:0,0:0:0:0:
352,208,187837,1,8,0:0:0:0:
96,200,188131,2,0,L|208:200,1,82.5000031471254,10|8,0:0|0:0,0:0:0:0:
400,320,188425,5,8,0:0:0:0:
488,248,188572,1,2,0:0:0:0:
448,144,188719,1,8,0:0:0:0:
336,104,188866,1,2,0:0:0:0:
88,240,189013,2,0,L|176:240,1,82.5000031471254,4|0,0:0|0:0,0:0:0:0:
384,224,189307,2,0,L|480:224,1,82.5000031471254,4|0,0:0|0:0,0:0:0:0:
168,232,189601,5,8,0:0:0:0:
56,232,189748,1,0,0:0:0:0:
168,232,189895,1,8,0:0:0:0:
280,232,190042,1,0,0:0:0:0:
56,200,190189,2,0,L|56:88,1,82.5000031471254,2|0,0:0|0:0,0:0:0:0:
456,200,190484,2,0,L|456:88,1,82.5000031471254,2|0,0:0|0:0,0:0:0:0:
144,184,190778,6,0,L|32:184,1,82.5000031471254,4|0,0:0|0:0,0:0:0:0:
272,144,191072,2,0,L|368:144,1,82.5000031471254,8|0,0:0|0:0,0:0:0:0:
64,184,191366,1,2,0:0:0:0:
456,160,191513,6,0,L|320:160,1,82.5000031471254,0|4,0:0|0:0,0:0:0:0:
64,184,191807,2,0,L|200:184,1,82.5000031471254,0|8,0:0|0:0,0:0:0:0:
456,160,192101,1,8,0:0:0:0:
144,304,192248,5,2,0:0:0:0:
48,232,192395,1,8,0:0:0:0:
144,304,192542,1,2,0:0:0:0:
368,304,192689,1,2,0:0:0:0:
464,232,192836,1,8,0:0:0:0:
368,304,192983,1,2,0:0:0:0:
104,128,193131,6,0,L|288:128,1,165.000006294251,4|2,0:0|0:0,0:0:0:0:
104,128,193572,1,0,0:0:0:0:
408,128,193719,1,8,0:0:0:0:
192,208,194013,2,0,L|312:208,1,82.5000031471254,8|0,0:0|0:0,0:0:0:0:
480,160,194307,6,0,L|368:160,1,82.5000031471254,8|0,0:0|0:0,0:0:0:0:
120,136,194601,2,0,L|24:136,1,82.5000031471254,2|0,0:0|0:0,0:0:0:0:
312,160,194895,1,8,0:0:0:0:
368,160,194969,1,0,0:0:0:0:
424,160,195042,1,2,0:0:0:0:
88,128,195189,1,2,0:0:0:0:
144,128,195263,1,0,0:0:0:0:
200,128,195336,1,2,0:0:0:0:
456,120,195484,5,4,0:0:0:0:
320,200,195778,2,0,L|432:200,1,82.5000031471254,2|0,0:0|0:0,0:0:0:0:
192,200,196072,2,0,L|24:200,1,165.000006294251,8|2,0:0|0:0,0:0:0:0:
192,200,196513,1,0,0:0:0:0:
357,200,196660,6,0,L|192:200,1,165.000006294251,8|2,0:0|0:0,0:0:0:0:
48,200,197101,1,0,0:0:0:0:
448,200,197248,2,0,L|448:88,1,82.5000031471254,8|0,0:0|0:0,0:0:0:0:
192,200,197542,1,2,0:0:0:0:
248,200,197616,1,0,0:0:0:0:
304,200,197689,1,2,0:0:0:0:
96,112,197837,5,4,0:0:0:0:
40,128,197910,1,0,0:0:0:0:
25,165,197984,1,2,0:0:0:0:
56,212,198057,1,0,0:0:0:0:
432,240,198131,2,0,L|312:240,1,82.5000031471254,6|0,0:0|0:0,0:0:0:0:
88,208,198425,2,0,L|200:208,1,82.5000031471254,4|0,0:0|0:0,0:0:0:0:
472,168,198719,2,0,L|352:168,1,82.5000031471254,8|0,0:0|0:0,0:0:0:0:
256,192,199013,12,0,200778,0:0:0:0:
