osu file format v14

[General]
AudioFilename: audio.mp3
AudioLeadIn: 0
PreviewTime: 0
Countdown: 0
SampleSet: Soft
StackLeniency: 0.2
Mode: 0
LetterboxInBreaks: 0
WidescreenStoryboard: 0

[Editor]
Bookmarks: 31424,43941,56457,68973,81489,94006,119038,137813,150329,162845,175362,187878,212911
DistanceSpacing: 1.3
BeatDivisor: 4
GridSize: 32
TimelineZoom: 1.8

[Metadata]
Title:Ievan Polkka (VSNS Remix)
TitleUnicode:Ievan Polkka (VSNS Remix)
Artist:Nightcore
ArtistUnicode:Nightcore
Creator:GalenTori
Version:xD
Source:
Tags:
BeatmapID:1683037
BeatmapSetID:801833

[Difficulty]
HPDrainRate:7
CircleSize:4
OverallDifficulty:7.5
ApproachRate:9
SliderMultiplier:3.09999990463257
SliderTickRate:1

[Events]
//Background and Video events
0,0,"867629000.png",0,0
//Break Periods
2,31624,42949
//Storyboard Layer 0 (Background)
//Storyboard Layer 1 (Fail)
//Storyboard Layer 2 (Pass)
//Storyboard Layer 3 (Foreground)
//Storyboard Sound Samples

[TimingPoints]
134,391.134289439374,4,2,1,70,1,0
134,-200,4,2,1,70,0,0
6001,-133.333333333333,4,2,1,70,0,0
6392,-200,4,2,1,70,0,0
25166,-333.333333333333,4,2,1,70,0,0
25264,-333.333333333333,4,2,1,5,0,0
27904,-333.333333333333,4,2,1,70,0,0
28393,-333.333333333333,4,2,1,5,0,0
30446,-333.333333333333,4,2,1,70,0,0
43941,-133.333333333333,4,2,1,70,0,0
94006,-100,4,2,1,70,0,1
106522,-100,4,2,1,70,0,0
106913,-100,4,2,1,70,0,1
119038,-333.333333333333,4,2,1,70,0,0
125296,-200,4,2,1,70,0,0
137813,-133.333333333333,4,2,1,70,0,0
187878,-100,4,2,1,70,0,1
200394,-100,4,2,1,70,0,0
200785,-100,4,2,1,70,0,1
212911,-133.333333333333,4,2,1,70,0,0

[Colours]
Combo1 : 128,128,255
Combo2 : 0,255,168
Combo3 : 255,140,140
Combo4 : 43,255,255

[HitObjects]
29,73,134,6,0,B|92:64|92:64|205:74,1,154.999995231628
277,33,720,1,0,0:0:0:0:
277,33,818,1,0,0:0:0:0:
277,33,916,2,0,P|285:78|275:111,1,77.4999976158142
214,187,1307,1,0,0:0:0:0:
278,264,1502,1,0,0:0:0:0:
278,264,1600,1,0,0:0:0:0:
278,264,1698,6,0,P|323:259|372:256,1,77.4999976158142
436,317,2089,1,0,0:0:0:0:
345,362,2285,1,0,0:0:0:0:
345,362,2383,1,0,0:0:0:0:
345,362,2480,2,0,P|274:351|238:346,1,77.4999976158142
191,285,2871,2,0,P|171:331|181:377,1,77.4999976158142
147,177,3263,6,0,L|241:169,1,77.4999976158142
308,115,3654,1,0,0:0:0:0:
401,152,3849,1,0,0:0:0:0:
401,152,3947,1,0,0:0:0:0:
401,152,4045,2,0,P|406:109|397:75,1,77.4999976158142
329,1,4436,1,0,0:0:0:0:
236,42,4632,1,0,0:0:0:0:
236,42,4729,1,0,0:0:0:0:
236,42,4827,6,0,P|232:105|228:149,1,77.4999976158142
140,164,5218,1,0,0:0:0:0:
44,131,5414,1,0,0:0:0:0:
44,131,5512,1,0,0:0:0:0:
44,131,5609,1,0,0:0:0:0:
69,228,5805,2,0,P|75:257|77:279,1,38.7499988079071
264,203,6001,2,0,P|260:253|235:193,1,174.37500128746
264,203,6392,6,0,B|281:264|281:264|256:368,1,154.999995231629
169,307,6978,1,0,0:0:0:0:
169,307,7076,1,0,0:0:0:0:
169,307,7174,2,0,P|121:292|86:291,1,77.4999976158143
26,215,7565,1,0,0:0:0:0:
89,136,7761,1,0,0:0:0:0:
89,136,7858,1,0,0:0:0:0:
89,136,7956,6,0,P|80:74|76:39,1,77.4999976158143
236,20,8347,2,0,P|232:65|224:115,1,77.4999976158143
361,183,8738,1,0,0:0:0:0:
390,75,8934,1,0,0:0:0:0:
390,75,9032,1,0,0:0:0:0:
390,75,9130,1,0,0:0:0:0:
277,189,9325,1,0,0:0:0:0:
474,250,9521,6,0,P|482:206|488:157,1,77.4999976158143
351,228,9912,2,0,P|356:281|360:314,1,77.4999976158143
483,214,10303,2,0,P|490:151|495:115,1,77.4999976158143
355,263,10694,2,0,P|360:311|366:354,1,77.4999976158143
320,365,10987,1,0,0:0:0:0:
320,365,11085,6,0,P|246:350|224:348,1,77.4999976158143
132,268,11476,2,0,P|191:261|234:259,1,77.4999976158143
27,178,11868,2,0,L|16:224,1,38.7499988079071
127,172,12063,2,0,L|115:125,1,38.7499988079071
237,174,12259,1,0,0:0:0:0:
265,171,12356,1,0,0:0:0:0:
294,168,12454,1,0,0:0:0:0:
323,165,12552,1,0,0:0:0:0:
352,162,12650,6,0,P|364:225|305:287,1,154.999995231629
212,248,13236,1,0,0:0:0:0:
212,248,13334,1,0,0:0:0:0:
212,248,13432,2,0,P|202:293|222:331,1,77.4999976158143
308,354,13823,1,0,0:0:0:0:
398,309,14019,1,0,0:0:0:0:
398,309,14117,1,0,0:0:0:0:
398,309,14214,6,0,P|464:300|497:299,1,77.4999976158143
501,202,14605,2,0,P|449:195|412:193,1,77.4999976158143
372,195,14899,1,0,0:0:0:0:
372,195,14997,2,0,P|366:157|379:116,1,77.4999976158143
421,27,15388,2,0,P|380:15|339:27,1,77.4999976158143
231,159,15779,6,0,P|222:110|214:67,1,77.4999976158143
203,34,16072,1,0,0:0:0:0:
203,34,16170,2,0,P|156:32|123:44,1,77.4999976158143
23,169,16561,2,0,P|66:168|106:143,1,77.4999976158143
187,194,16952,1,0,0:0:0:0:
281,157,17148,1,0,0:0:0:0:
281,157,17246,1,0,0:0:0:0:
281,157,17343,6,0,P|279:210|275:260,1,77.4999976158143
293,282,17637,1,0,0:0:0:0:
293,282,17735,2,0,P|340:274|389:271,1,77.4999976158143
463,308,18126,2,0,P|470:263|449:218,1,77.4999976158143
433,190,18419,1,0,0:0:0:0:
433,190,18517,2,0,P|422:145|444:94,1,77.4999976158143
225,33,18908,6,0,P|277:24|322:37,1,77.4999976158143
345,50,19201,1,0,0:0:0:0:
345,50,19299,2,0,L|339:138,1,77.4999976158143
195,204,19690,2,0,L|203:113,1,77.4999976158143
313,218,20081,1,0,0:0:0:0:
235,322,20277,1,0,0:0:0:0:
235,322,20375,1,0,0:0:0:0:
235,322,20472,6,0,P|179:307|145:304,1,77.4999976158143
113,326,20766,1,0,0:0:0:0:
113,326,20864,2,0,P|70:328|34:302,1,77.4999976158143
102,230,21255,2,0,P|110:181|94:142,1,77.4999976158143
85,107,21548,1,0,0:0:0:0:
85,107,21646,2,0,P|131:92|173:97,1,77.4999976158143
279,19,22037,5,0,0:0:0:0:
288,46,22134,1,0,0:0:0:0:
290,75,22232,1,0,0:0:0:0:
287,104,22330,1,0,0:0:0:0:
276,131,22428,2,0,P|264:169|268:201,1,38.7499988079071
190,250,22624,2,0,P|195:220|190:196,1,38.7499988079071
295,360,22819,5,0,0:0:0:0:
323,355,22916,1,0,0:0:0:0:
352,351,23014,1,0,0:0:0:0:
381,348,23112,1,0,0:0:0:0:
410,346,23210,2,0,P|411:309|409:295,1,38.7499988079071
471,188,23406,2,0,P|464:220|465:240,1,38.7499988079071
357,138,23602,2,0,P|397:134|419:138,1,38.7499988079071
480,56,23797,6,0,L|475:85,7,19.3749994039536
384,43,24188,2,0,L|376:12,7,19.3749994039536
288,58,24579,2,0,L|291:80,7,19.3749994039536
228,176,24971,2,0,P|257:169|282:167,1,38.7499988079071
343,160,25166,6,8,B|349:210|340:247|340:247|308:365|408:394|473:305|458:235|422:180|361:230|162:359|258:192|69:248,1,650.999960105898,0|0,0:0|0:0,0:0:0:0:
225,325,28295,6,0,B|201:274|233:242|233:242|264:211|288:159|272:106|272:106|263:162|189:198|103:137|144:68|144:68|155:88|173:95,1,511.499968654634
196,86,30544,1,0,0:0:0:0:
196,86,30642,1,0,0:0:0:0:
357,182,30838,1,0,0:0:0:0:
428,72,31033,1,0,0:0:0:0:
387,272,31229,1,0,0:0:0:0:
387,272,31326,1,0,0:0:0:0:
387,272,31424,5,0,0:0:0:0:
74,242,43549,5,0,0:0:0:0:
104,248,43646,1,0,0:0:0:0:
135,240,43744,1,0,0:0:0:0:
158,219,43842,1,0,0:0:0:0:
169,189,43941,6,0,P|169:148|165:129,1,58.1250004291535
263,39,44136,2,0,P|257:71|263:98,1,58.1250004291535
466,201,44332,2,0,P|411:190|336:187,1,116.250000858307
284,222,44625,1,0,0:0:0:0:
274,236,44723,2,0,P|265:272|274:304,1,58.1250004291535
366,348,44918,2,0,P|371:310|361:285,1,58.1250004291535
169,189,45114,2,0,P|158:245|168:306,1,116.250000858307
108,350,45407,1,0,0:0:0:0:
98,341,45505,6,0,P|59:333|39:333,1,58.1250004291535
18,186,45701,2,0,P|27:220|24:249,1,58.1250004291535
137,102,45896,2,0,P|203:95|268:84,1,116.250000858307
314,42,46190,1,0,0:0:0:0:
324,51,46287,2,0,P|333:85|321:122,1,58.1250004291535
275,180,46483,2,0,P|268:217|280:244,1,58.1250004291535
371,356,46678,2,0,L|234:340,1,116.250000858307
182,363,46972,1,0,0:0:0:0:
171,356,47070,6,0,P|166:326|173:295,1,58.1250004291535
142,203,47265,2,0,P|180:198|225:216,1,58.1250004291535
75,24,47461,2,0,P|89:86|73:143,1,116.250000858307
17,183,47754,1,0,0:0:0:0:
8,198,47852,2,0,P|2:235|9:264,1,58.1250004291535
98,332,48047,2,0,P|105:296|96:264,1,58.1250004291535
199,202,48243,1,0,0:0:0:0:
227,198,48340,1,0,0:0:0:0:
256,195,48438,1,0,0:0:0:0:
285,191,48536,1,0,0:0:0:0:
314,188,48634,6,0,P|360:180|386:178,1,58.1250004291535
492,251,48830,2,0,P|449:246|414:244,1,58.1250004291535
357,354,49025,2,0,P|352:294|351:279,1,58.1250004291535
233,224,49221,2,0,P|237:269|240:302,1,58.1250004291535
29,356,49416,2,0,P|96:345|153:346,1,116.250000858307
218,364,49710,1,0,0:0:0:0:
235,361,49808,2,0,L|299:356,1,58.1250004291535
213,202,50003,1,0,0:0:0:0:
213,202,50101,1,0,0:0:0:0:
213,202,50199,6,0,P|143:193|97:228,1,116.250000858307
34,239,50492,1,0,0:0:0:0:
32,220,50590,2,0,L|27:159,1,58.1250004291535
86,35,50785,2,0,L|92:101,1,58.1250004291535
243,135,50981,2,0,P|228:72|254:18,1,116.250000858307
322,33,51274,1,0,0:0:0:0:
334,40,51372,2,0,P|378:34|407:29,1,58.1250004291535
504,108,51568,2,0,P|463:101|429:94,1,58.1250004291535
349,187,51763,6,0,P|343:153|355:116,1,58.1250004291535
449,207,51959,2,0,P|456:243|445:277,1,58.1250004291535
223,347,52154,1,0,0:0:0:0:
249,334,52251,1,0,0:0:0:0:
277,329,52349,1,0,0:0:0:0:
306,333,52447,1,0,0:0:0:0:
337,348,52545,2,0,P|400:339|476:342,1,116.250000858307
498,278,52839,1,0,0:0:0:0:
508,265,52937,2,0,P|508:223|496:195,1,58.1250004291535
448,132,53132,2,0,P|488:116|522:125,1,58.1250004291535
311,21,53328,6,0,P|299:80|319:149,1,116.250000858307
336,205,53621,1,0,0:0:0:0:
341,222,53719,2,0,P|347:264|334:294,1,58.1250004291535
232,189,53914,2,0,P|227:145|239:120,1,58.1250004291535
259,297,54110,2,0,P|232:305|192:296,1,58.1250004291535
101,223,54306,2,0,P|129:217|175:229,1,58.1250004291535
15,353,54501,1,0,0:0:0:0:
12,309,54598,1,0,0:0:0:0:
10,265,54696,1,0,0:0:0:0:
8,222,54794,1,0,0:0:0:0:
6,178,54892,5,0,0:0:0:0:
133,33,56261,1,0,0:0:0:0:
133,33,56359,1,0,0:0:0:0:
133,33,56457,6,0,P|136:99|139:161,1,116.250000858307
231,210,56848,1,0,0:0:0:0:
350,83,57044,1,0,0:0:0:0:
472,184,57239,2,0,P|399:174|297:163,1,174.37500128746
402,358,57826,1,0,0:0:0:0:
402,358,57924,1,0,0:0:0:0:
402,358,58021,6,0,P|417:303|395:243,1,116.250000858307
315,308,58413,1,0,0:0:0:0:
443,175,58608,1,0,0:0:0:0:
333,116,58804,2,0,P|318:178|332:234,1,116.250000858307
388,41,59195,2,0,P|310:26|260:49,1,116.250000858307
171,216,59586,6,0,P|166:113|163:81,1,116.250000858307
93,21,59977,1,0,0:0:0:0:
259,120,60173,1,0,0:0:0:0:
356,29,60368,2,0,P|390:114|362:194,1,174.37500128746
174,288,60955,1,0,0:0:0:0:
179,294,61053,1,0,0:0:0:0:
179,294,61150,6,0,P|265:283|315:278,1,116.250000858307
481,353,61542,2,0,P|402:347|344:342,1,116.250000858307
422,222,61933,1,0,0:0:0:0:
282,359,62128,1,0,0:0:0:0:
210,217,62324,1,0,0:0:0:0:
299,22,62519,1,0,0:0:0:0:
299,22,62617,1,0,0:0:0:0:
299,22,62715,6,0,P|310:80|293:140,1,116.250000858307
359,175,63008,1,0,0:0:0:0:
359,175,63106,2,0,P|432:167|476:163,1,116.250000858307
330,320,63497,2,0,P|246:312|196:306,1,116.250000858307
363,248,63888,1,0,0:0:0:0:
491,357,64084,1,0,0:0:0:0:
491,357,64182,1,0,0:0:0:0:
491,357,64280,6,0,P|497:269|501:222,1,116.250000858307
494,165,64573,1,0,0:0:0:0:
494,165,64671,2,0,P|435:145|370:159,1,116.250000858307
219,78,65062,2,0,P|274:63|337:72,1,116.250000858307
149,13,65453,1,0,0:0:0:0:
34,186,65648,1,0,0:0:0:0:
34,186,65746,1,0,0:0:0:0:
34,186,65844,6,0,P|13:119|45:66,1,116.250000858307
84,133,66137,1,0,0:0:0:0:
84,133,66235,2,0,P|175:124|218:118,1,116.250000858307
346,259,66626,2,0,P|268:256|205:250,1,116.250000858307
81,363,67017,1,0,0:0:0:0:
299,357,67213,5,0,0:0:0:0:
327,355,67310,1,0,0:0:0:0:
356,353,67408,1,0,0:0:0:0:
498,194,67604,1,0,0:0:0:0:
468,195,67701,1,0,0:0:0:0:
439,196,67799,1,0,0:0:0:0:
333,87,67995,1,0,0:0:0:0:
434,312,68191,2,0,P|436:249|440:187,1,116.250000858307
333,87,68582,5,0,0:0:0:0:
319,88,68680,1,0,0:0:0:0:
304,89,68778,1,0,0:0:0:0:
290,90,68876,1,0,0:0:0:0:
280,92,68973,6,0,B|236:85|236:85|158:97,1,116.250000858307
21,196,69364,2,0,B|70:207|70:207|144:186,1,116.250000858307
205,214,69658,1,0,0:0:0:0:
205,214,69755,2,0,L|282:216,1,58.1250004291535
332,248,69951,2,0,L|406:240,1,58.1250004291535
493,356,70147,2,0,L|499:220,1,116.250000858307
480,166,70440,1,0,0:0:0:0:
466,156,70538,6,0,P|403:138|343:146,1,116.250000858307
241,17,70929,2,0,P|258:72|236:140,1,116.250000858307
90,224,71320,2,0,P|75:167|98:103,1,116.250000858307
118,77,71613,1,0,0:0:0:0:
118,77,71711,1,0,0:0:0:0:
172,174,71907,1,0,0:0:0:0:
172,174,72004,1,0,0:0:0:0:
172,174,72102,6,0,P|275:161|315:156,1,116.250000858307
471,260,72493,2,0,P|390:252|334:248,1,116.250000858307
279,262,72787,1,0,0:0:0:0:
279,262,72884,2,0,L|212:267,1,58.1250004291535
148,291,73080,2,0,L|75:279,1,58.1250004291535
16,86,73276,2,0,L|24:206,1,116.250000858307
98,214,73569,1,0,0:0:0:0:
98,214,73667,6,0,P|175:198|222:222,1,116.250000858307
274,247,73960,1,0,0:0:0:0:
274,247,74058,2,0,P|290:186|272:126,1,116.250000858307
197,70,74351,1,0,0:0:0:0:
197,70,74449,2,0,L|268:62,1,58.1250004291535
327,40,74645,2,0,L|390:44,1,58.1250004291535
492,250,74840,1,0,0:0:0:0:
491,235,74937,1,0,0:0:0:0:
490,220,75035,1,0,0:0:0:0:
490,206,75133,1,0,0:0:0:0:
489,191,75231,5,0,0:0:0:0:
