osu file format v14

[General]
AudioFilename: audio.mp3
AudioLeadIn: 0
PreviewTime: -1
Countdown: 1
SampleSet: Normal
StackLeniency: 0.7
Mode: 0
LetterboxInBreaks: 0
WidescreenStoryboard: 0

[Editor]
DistanceSpacing: 0.8
BeatDivisor: 4
GridSize: 16
TimelineZoom: 2.7

[Metadata]
Title:Ievan Polkka (Remix)
TitleUnicode:Ievan Polkka (Remix) ✕
Artist:Nightcore
ArtistUnicode:Nightcore
Creator:ZipFox189
Version:More Insane
Source:
Tags:Remix, Nightcore
BeatmapID:1577490
BeatmapSetID:748843

[Difficulty]
HPDrainRate:6
CircleSize:6
OverallDifficulty:5
ApproachRate:6
SliderMultiplier:1.8
SliderTickRate:2

[Events]
//Background and Video events
0,0,"50832411_p0_master1200.jpg",0,0
//Break Periods
//Storyboard Layer 0 (Background)
//Storyboard Layer 1 (Fail)
//Storyboard Layer 2 (Pass)
//Storyboard Layer 3 (Foreground)
//Storyboard Sound Samples

[TimingPoints]
0,363.878949602765,4,1,0,100,1,0
69287,-100,4,1,0,100,0,1
94790,-100,4,1,0,100,0,0
159131,-100,4,1,0,100,0,1
181939,-100,4,1,0,100,0,0

[Colours]
Combo1 : 255,128,128
Combo2 : 255,0,255
Combo3 : 255,128,0
Combo4 : 64,128,128

[HitObjects]
81,64,5367,5,0,0:0:0:0:
161,17,5731,1,0,0:0:0:0:
236,14,6095,1,0,0:0:0:0:
303,44,6459,1,0,0:0:0:0:
380,147,6823,1,0,0:0:0:0:
408,206,7187,1,0,0:0:0:0:
326,237,7550,1,0,0:0:0:0:
271,242,7914,1,0,0:0:0:0:
266,166,8278,1,0,0:0:0:0:
257,103,8642,1,0,0:0:0:0:
226,56,9006,1,0,0:0:0:0:
159,47,9370,1,0,0:0:0:0:
119,93,9734,1,0,0:0:0:0:
108,160,10098,1,0,0:0:0:0:
175,214,10461,1,0,0:0:0:0:
304,222,10825,1,0,0:0:0:0:
309,158,11189,2,0,P|341:67|407:117,1,180
445,159,11917,1,0,0:0:0:0:
461,94,12281,1,0,0:0:0:0:
406,50,12645,1,0,0:0:0:0:
340,60,13009,1,0,0:0:0:0:
275,83,13372,1,0,0:0:0:0:
194,121,13736,1,0,0:0:0:0:
177,188,14100,1,0,0:0:0:0:
317,230,14464,1,0,0:0:0:0:
389,131,14828,1,0,0:0:0:0:
277,98,15192,1,0,0:0:0:0:
187,149,15556,1,0,0:0:0:0:
160,216,15920,1,0,0:0:0:0:
100,192,16284,1,0,0:0:0:0:
94,110,16647,1,0,0:0:0:0:
157,41,17011,1,0,0:0:0:0:
344,12,17375,1,0,0:0:0:0:
451,37,17739,1,0,0:0:0:0:
487,99,18103,1,0,0:0:0:0:
475,183,18467,1,0,0:0:0:0:
431,216,18831,1,0,0:0:0:0:
358,223,19195,1,0,0:0:0:0:
371,133,19558,1,0,0:0:0:0:
422,37,19922,1,0,0:0:0:0:
471,149,20286,1,0,0:0:0:0:
324,169,20650,1,0,0:0:0:0:
317,53,21014,1,0,0:0:0:0:
243,57,21378,1,0,0:0:0:0:
265,110,21742,1,0,0:0:0:0:
327,96,22106,1,0,0:0:0:0:
315,44,22469,1,0,0:0:0:0:
254,68,22833,1,0,0:0:0:0:
269,133,23197,1,0,0:0:0:0:
267,193,23561,1,0,0:0:0:0:
210,208,23925,1,0,0:0:0:0:
171,160,24289,1,0,0:0:0:0:
204,87,24653,1,0,0:0:0:0:
279,32,25017,1,0,0:0:0:0:
226,0,25380,1,0,0:0:0:0:
171,25,25744,1,0,0:0:0:0:
175,113,26108,1,0,0:0:0:0:
277,136,26472,1,0,0:0:0:0:
424,121,26836,1,0,0:0:0:0:
392,43,27200,1,0,0:0:0:0:
279,69,27564,1,0,0:0:0:0:
263,229,27928,1,0,0:0:0:0:
384,252,28292,1,0,0:0:0:0:
463,140,28655,1,0,0:0:0:0:
298,167,29019,1,0,0:0:0:0:
224,109,29383,1,0,0:0:0:0:
280,58,29747,1,0,0:0:0:0:
415,31,30111,1,0,0:0:0:0:
438,117,30475,1,0,0:0:0:0:
383,198,30839,1,0,0:0:0:0:
319,203,31203,1,0,0:0:0:0:
301,96,31566,1,0,0:0:0:0:
415,51,31930,1,0,0:0:0:0:
456,127,32294,1,0,0:0:0:0:
414,211,32658,1,0,0:0:0:0:
282,224,33022,1,0,0:0:0:0:
219,192,33386,1,0,0:0:0:0:
318,76,33750,1,0,0:0:0:0:
385,67,34114,1,0,0:0:0:0:
411,136,34477,5,0,0:0:0:0:
377,192,34841,1,0,0:0:0:0:
322,238,35205,1,0,0:0:0:0:
243,216,35569,1,0,0:0:0:0:
221,131,35933,1,0,0:0:0:0:
284,71,36297,1,0,0:0:0:0:
338,41,36661,1,0,0:0:0:0:
416,43,37025,1,0,0:0:0:0:
455,118,37389,1,0,0:0:0:0:
375,193,37752,1,0,0:0:0:0:
270,201,38116,1,0,0:0:0:0:
202,126,38480,1,0,0:0:0:0:
256,48,38844,1,0,0:0:0:0:
359,36,39208,1,0,0:0:0:0:
382,122,39572,1,0,0:0:0:0:
305,208,39936,1,0,0:0:0:0:
197,188,40300,1,0,0:0:0:0:
221,86,40663,1,0,0:0:0:0:
339,135,41027,1,0,0:0:0:0:
437,166,41391,1,0,0:0:0:0:
452,248,41755,1,0,0:0:0:0:
357,268,42119,1,0,0:0:0:0:
249,245,42483,1,0,0:0:0:0:
261,135,42847,1,0,0:0:0:0:
323,53,43211,1,0,0:0:0:0:
404,21,43574,1,0,0:0:0:0:
474,82,43938,1,0,0:0:0:0:
470,168,44302,1,0,0:0:0:0:
363,219,44666,1,0,0:0:0:0:
191,220,45030,1,0,0:0:0:0:
194,101,45394,1,0,0:0:0:0:
260,57,45758,2,0,P|307:75|275:114,1,90
279,228,46122,1,0,0:0:0:0:
223,238,46485,1,0,0:0:0:0:
174,185,46849,1,0,0:0:0:0:
167,126,47213,1,0,0:0:0:0:
257,75,47577,1,0,0:0:0:0:
345,90,47941,1,0,0:0:0:0:
405,172,48305,1,0,0:0:0:0:
415,283,48669,1,0,0:0:0:0:
485,180,49033,1,0,0:0:0:0:
434,108,49397,1,0,0:0:0:0:
338,102,49760,1,0,0:0:0:0:
252,148,50124,1,0,0:0:0:0:
197,192,50488,1,0,0:0:0:0:
185,93,50852,1,0,0:0:0:0:
347,34,51216,1,0,0:0:0:0:
431,100,51580,1,0,0:0:0:0:
446,181,51944,1,0,0:0:0:0:
358,241,52308,1,0,0:0:0:0:
268,188,52671,1,0,0:0:0:0:
265,121,53035,1,0,0:0:0:0:
352,54,53399,1,0,0:0:0:0:
445,116,53763,1,0,0:0:0:0:
347,228,54127,1,0,0:0:0:0:
231,232,54491,1,0,0:0:0:0:
172,155,54855,1,0,0:0:0:0:
213,91,55219,1,0,0:0:0:0:
324,85,55582,1,0,0:0:0:0:
387,156,55946,1,0,0:0:0:0:
326,238,56310,1,0,0:0:0:0:
222,232,56674,1,0,0:0:0:0:
206,79,57038,1,0,0:0:0:0:
222,83,57750,5,0,0:0:0:0:
316,89,58114,1,0,0:0:0:0:
356,164,58477,1,0,0:0:0:0:
365,240,58841,1,0,0:0:0:0:
290,277,59205,1,0,0:0:0:0:
193,213,59569,1,0,0:0:0:0:
201,127,59933,1,0,0:0:0:0:
285,93,60297,1,0,0:0:0:0:
375,145,60661,1,0,0:0:0:0:
388,231,61025,1,0,0:0:0:0:
340,315,61389,1,0,0:0:0:0:
231,305,61752,1,0,0:0:0:0:
154,215,62116,1,0,0:0:0:0:
202,128,62480,1,0,0:0:0:0:
314,115,62844,1,0,0:0:0:0:
316,174,63208,1,0,0:0:0:0:
214,215,63572,1,0,0:0:0:0:
240,80,63936,1,0,0:0:0:0:
341,102,64300,1,0,0:0:0:0:
385,175,64663,1,0,0:0:0:0:
336,240,65027,1,0,0:0:0:0:
212,242,65391,1,0,0:0:0:0:
154,220,65755,1,0,0:0:0:0:
68,176,66119,1,0,0:0:0:0:
111,95,66483,1,0,0:0:0:0:
152,91,66574,1,0,0:0:0:0:
190,97,66665,1,0,0:0:0:0:
229,109,66756,1,0,0:0:0:0:
267,124,66847,1,0,0:0:0:0:
304,138,66938,1,0,0:0:0:0:
334,160,67029,1,0,0:0:0:0:
350,192,67120,1,0,0:0:0:0:
343,227,67211,1,0,0:0:0:0:
309,247,67302,1,0,0:0:0:0:
270,245,67393,1,0,0:0:0:0:
238,221,67483,1,0,0:0:0:0:
211,197,67574,1,0,0:0:0:0:
184,169,67665,1,0,0:0:0:0:
152,148,67756,1,0,0:0:0:0:
85,122,67938,1,0,0:0:0:0:
42,186,68302,1,0,0:0:0:0:
93,248,68666,1,4,0:0:0:0:
259,91,69030,1,4,0:0:0:0:
325,145,69394,1,0,0:0:0:0:
342,314,69758,1,4,0:0:0:0:
213,301,70122,1,4,0:0:0:0:
146,202,70485,1,0,0:0:0:0:
251,127,70849,1,0,0:0:0:0:
326,72,71213,1,0,0:0:0:0:
438,79,71577,1,0,0:0:0:0:
452,171,71941,1,0,0:0:0:0:
471,289,72305,1,0,0:0:0:0:
379,260,72669,1,0,0:0:0:0:
215,253,73033,1,0,0:0:0:0:
215,253,73397,1,0,0:0:0:0:
154,162,73760,1,0,0:0:0:0:
319,102,74124,1,0,0:0:0:0:
451,111,74488,1,0,0:0:0:0:
461,233,74852,1,0,0:0:0:0:
184,289,75216,1,0,0:0:0:0:
68,174,75580,1,0,0:0:0:0:
179,123,75944,1,0,0:0:0:0:
336,124,76308,1,0,0:0:0:0:
367,214,76671,1,0,0:0:0:0:
317,293,77035,1,0,0:0:0:0:
226,292,77399,1,0,0:0:0:0:
165,271,77763,1,0,0:0:0:0:
78,222,78127,1,0,0:0:0:0:
43,137,78491,1,0,0:0:0:0:
122,62,78855,1,0,0:0:0:0:
211,61,79219,1,0,0:0:0:0:
295,66,79582,1,0,0:0:0:0:
372,79,79946,1,0,0:0:0:0:
417,142,80310,1,0,0:0:0:0:
335,159,80674,1,0,0:0:0:0:
237,158,81038,1,0,0:0:0:0:
153,118,81402,1,0,0:0:0:0:
194,65,81766,1,0,0:0:0:0:
308,71,82130,1,0,0:0:0:0:
47,174,82493,1,0,0:0:0:0:
379,60,82857,1,0,0:0:0:0:
374,268,83221,1,0,0:0:0:0:
201,169,83585,1,0,0:0:0:0:
309,85,83949,1,0,0:0:0:0:
309,280,84313,1,8,0:0:0:0:
168,240,84677,1,8,0:0:0:0:
316,188,85041,1,0,0:0:0:0:
233,291,85405,1,0,0:0:0:0:
223,174,85768,1,0,0:0:0:0:
288,331,86132,1,2,0:0:0:0:
298,163,86496,1,0,0:0:0:0:
245,280,86860,1,0,0:0:0:0:
218,195,87224,1,0,0:0:0:0:
479,260,87588,1,0,0:0:0:0:
324,165,87952,1,0,0:0:0:0:
213,303,88316,1,0,0:0:0:0:
205,153,88679,1,0,0:0:0:0:
366,336,89043,1,0,0:0:0:0:
385,144,89407,1,0,0:0:0:0:
229,329,89771,1,0,0:0:0:0:
87,199,90135,1,0,0:0:0:0:
354,329,90499,1,0,0:0:0:0:
365,231,90863,1,0,0:0:0:0:
254,329,91227,1,0,0:0:0:0:
261,217,91590,1,0,0:0:0:0:
333,326,91954,1,0,0:0:0:0:
282,126,92318,5,0,0:0:0:0:
374,88,92682,1,0,0:0:0:0:
438,153,93046,1,0,0:0:0:0:
392,234,93410,1,0,0:0:0:0:
257,262,93774,1,0,0:0:0:0:
57,206,94138,1,0,0:0:0:0:
73,109,94501,1,0,0:0:0:0:
222,71,94865,1,0,0:0:0:0:
359,69,95229,1,0,0:0:0:0:
440,178,95593,1,0,0:0:0:0:
296,173,95957,1,0,0:0:0:0:
279,87,96321,1,0,0:0:0:0:
350,231,96685,1,0,0:0:0:0:
350,108,97049,1,0,0:0:0:0:
241,198,97413,1,0,0:0:0:0:
187,142,97776,1,0,0:0:0:0:
127,94,98140,1,0,0:0:0:0:
185,30,98504,1,0,0:0:0:0:
91,36,98868,1,0,0:0:0:0:
37,96,99232,1,0,0:0:0:0:
56,153,99596,1,0,0:0:0:0:
98,198,99960,1,0,0:0:0:0:
168,199,100324,1,0,0:0:0:0:
274,150,100687,1,0,0:0:0:0:
284,96,101051,1,0,0:0:0:0:
358,117,101415,1,0,0:0:0:0:
355,191,101779,1,0,0:0:0:0:
265,234,102143,1,0,0:0:0:0:
183,205,102507,1,0,0:0:0:0:
205,111,102871,1,0,0:0:0:0:
337,205,103235,1,0,0:0:0:0:
383,92,103598,1,0,0:0:0:0:
225,209,103962,1,0,0:0:0:0:
112,91,104326,1,0,0:0:0:0:
305,116,104690,1,0,0:0:0:0:
322,216,105054,1,0,0:0:0:0:
385,69,105418,1,0,0:0:0:0:
229,159,105782,1,0,0:0:0:0:
180,32,106146,1,0,0:0:0:0:
365,162,106510,1,0,0:0:0:0:
348,60,106873,1,0,0:0:0:0:
146,172,107237,1,0,0:0:0:0:
128,74,107601,1,0,0:0:0:0:
317,104,107965,1,0,0:0:0:0:
356,196,108329,1,0,0:0:0:0:
283,251,108693,1,0,0:0:0:0:
192,96,109057,1,0,0:0:0:0:
368,48,109421,1,0,0:0:0:0:
419,217,109784,1,0,0:0:0:0:
266,250,110148,1,0,0:0:0:0:
288,144,110512,1,0,0:0:0:0:
359,242,110876,1,0,0:0:0:0:
375,105,111240,1,0,0:0:0:0:
292,218,111604,1,0,0:0:0:0:
190,94,111968,1,0,0:0:0:0:
357,172,112332,1,0,0:0:0:0:
300,61,112695,1,0,0:0:0:0:
219,163,113059,1,0,0:0:0:0:
128,111,113423,1,0,0:0:0:0:
225,66,113787,1,0,0:0:0:0:
336,157,114151,1,0,0:0:0:0:
333,38,114515,1,0,0:0:0:0:
239,120,114879,1,0,0:0:0:0:
105,107,115243,1,0,0:0:0:0:
240,64,115606,1,0,0:0:0:0:
256,192,115970,12,0,117790,0:0:0:0:
246,142,118533,5,0,0:0:0:0:
333,258,119261,1,0,0:0:0:0:
146,238,119989,1,0,0:0:0:0:
1,126,120716,1,0,0:0:0:0:
5,218,121444,1,0,0:0:0:0:
179,190,122172,1,0,0:0:0:0:
97,88,122900,1,0,0:0:0:0:
172,262,123627,1,0,0:0:0:0:
359,93,124355,1,0,0:0:0:0:
172,51,125083,1,0,0:0:0:0:
57,177,125811,1,0,0:0:0:0:
160,262,126538,1,0,0:0:0:0:
287,145,127266,1,0,0:0:0:0:
419,196,127994,1,0,0:0:0:0:
259,217,128722,1,0,0:0:0:0:
154,97,129449,1,0,0:0:0:0:
64,128,130177,1,0,0:0:0:0:
305,148,130905,1,0,0:0:0:0:
392,339,131633,1,0,0:0:0:0:
122,290,132360,1,0,0:0:0:0:
101,129,133088,1,0,0:0:0:0:
192,80,133816,1,0,0:0:0:0:
266,80,133982,2,0,L|324:80,2,45
368,112,134908,5,0,0:0:0:0:
452,212,135635,1,0,0:0:0:0:
411,275,135999,1,0,0:0:0:0:
319,261,136363,1,0,0:0:0:0:
247,226,136727,1,0,0:0:0:0:
164,175,137091,1,0,0:0:0:0:
233,121,137455,1,0,0:0:0:0:
317,113,137819,1,0,0:0:0:0:
391,98,138183,1,0,0:0:0:0:
423,168,138546,1,0,0:0:0:0:
406,225,138910,1,0,0:0:0:0:
336,238,139274,1,0,0:0:0:0:
310,170,139638,1,0,0:0:0:0:
344,111,140002,1,0,0:0:0:0:
424,93,140366,1,0,0:0:0:0:
469,139,140730,1,0,0:0:0:0:
454,213,141094,1,0,0:0:0:0:
367,200,141457,1,0,0:0:0:0:
300,217,141821,1,0,0:0:0:0:
248,238,142185,1,0,0:0:0:0:
197,265,142549,1,0,0:0:0:0:
147,296,142913,1,0,0:0:0:0:
88,304,143277,1,0,0:0:0:0:
40,267,143641,1,0,0:0:0:0:
55,204,144005,1,0,0:0:0:0:
88,154,144368,1,0,0:0:0:0:
132,97,144732,1,0,0:0:0:0:
219,84,145096,1,0,0:0:0:0:
294,135,145460,1,0,0:0:0:0:
330,188,145824,1,0,0:0:0:0:
404,169,146188,1,0,0:0:0:0:
403,100,146552,1,0,0:0:0:0:
355,48,146916,1,0,0:0:0:0:
310,138,147734,5,0,0:0:0:0:
183,43,148098,1,0,0:0:0:0:
99,46,148462,1,0,0:0:0:0:
32,103,148826,1,0,0:0:0:0:
9,176,149190,1,0,0:0:0:0:
232,189,149554,1,0,0:0:0:0:
388,177,149918,1,0,0:0:0:0:
445,233,150282,1,0,0:0:0:0:
294,271,150645,1,0,0:0:0:0:
172,196,151009,1,0,0:0:0:0:
157,91,151373,1,0,0:0:0:0:
313,61,151737,1,0,0:0:0:0:
410,101,152101,1,0,0:0:0:0:
443,175,152465,1,0,0:0:0:0:
401,245,152829,1,0,0:0:0:0:
281,256,153193,1,0,0:0:0:0:
215,144,153556,1,0,0:0:0:0:
281,75,153920,1,0,0:0:0:0:
421,119,154284,1,0,0:0:0:0:
446,222,154648,1,0,0:0:0:0:
322,260,155012,1,0,0:0:0:0:
220,244,155376,1,0,0:0:0:0:
146,185,155740,1,0,0:0:0:0:
162,116,156104,1,0,0:0:0:0:
251,75,156467,1,0,0:0:0:0:
363,76,156543,1,0,0:0:0:0:
417,82,156634,1,0,0:0:0:0:
466,106,156725,1,0,0:0:0:0:
472,159,156816,1,0,0:0:0:0:
472,213,156907,1,0,0:0:0:0:
459,262,156998,1,0,0:0:0:0:
429,303,157089,1,0,0:0:0:0:
377,307,157180,1,0,0:0:0:0:
332,285,157271,1,0,0:0:0:0:
285,265,157362,1,0,0:0:0:0:
236,247,157453,1,0,0:0:0:0:
198,211,157544,1,0,0:0:0:0:
173,169,157634,1,0,0:0:0:0:
133,135,157725,1,0,0:0:0:0:
85,145,157816,1,0,0:0:0:0:
65,192,157907,1,0,0:0:0:0:
138,126,159378,5,0,0:0:0:0:
161,73,159743,1,0,0:0:0:0:
237,67,160107,1,0,0:0:0:0:
301,98,160471,1,0,0:0:0:0:
317,172,160834,1,0,0:0:0:0:
288,222,161198,1,0,0:0:0:0:
241,173,161563,1,0,0:0:0:0:
270,116,161927,1,0,0:0:0:0:
296,66,162291,1,0,0:0:0:0:
379,71,162654,1,0,0:0:0:0:
397,124,163018,1,0,0:0:0:0:
383,179,163382,1,0,0:0:0:0:
310,176,163746,1,0,0:0:0:0:
306,108,164110,1,0,0:0:0:0:
356,46,164474,1,0,0:0:0:0:
428,68,164838,1,0,0:0:0:0:
438,135,165202,1,0,0:0:0:0:
325,156,165565,1,0,0:0:0:0:
268,109,165929,1,0,0:0:0:0:
186,81,166293,1,0,0:0:0:0:
116,98,166657,1,0,0:0:0:0:
51,142,167021,1,0,0:0:0:0:
48,205,167385,1,0,0:0:0:0:
131,259,167749,1,0,0:0:0:0:
257,265,168113,1,0,0:0:0:0:
378,278,168476,1,0,0:0:0:0:
497,278,168840,1,0,0:0:0:0:
499,180,169204,1,0,0:0:0:0:
475,124,169568,1,0,0:0:0:0:
417,74,169932,1,0,0:0:0:0:
288,82,170296,1,0,0:0:0:0:
185,121,170660,1,0,0:0:0:0:
140,161,171024,1,0,0:0:0:0:
325,262,171387,1,0,0:0:0:0:
335,92,171751,1,0,0:0:0:0:
119,235,172115,1,0,0:0:0:0:
118,65,172479,1,0,0:0:0:0:
363,244,172843,1,0,0:0:0:0:
469,127,173207,1,0,0:0:0:0:
195,307,173571,1,0,0:0:0:0:
202,72,173935,1,0,0:0:0:0:
370,91,174299,1,0,0:0:0:0:
435,223,174662,1,0,0:0:0:0:
413,78,175026,1,0,0:0:0:0:
270,280,175390,1,0,0:0:0:0:
163,218,175754,1,0,0:0:0:0:
87,123,176118,1,0,0:0:0:0:
391,71,176482,1,0,0:0:0:0:
405,271,176846,1,0,0:0:0:0:
317,228,177210,1,0,0:0:0:0:
296,59,177573,1,0,0:0:0:0:
337,303,177937,1,0,0:0:0:0:
219,207,178301,1,0,0:0:0:0:
389,102,178665,1,0,0:0:0:0:
128,275,179028,1,0,0:0:0:0:
171,88,179392,1,0,0:0:0:0:
414,250,179756,1,0,0:0:0:0:
461,82,180120,1,0,0:0:0:0:
359,155,180484,1,0,0:0:0:0:
243,83,180848,1,0,0:0:0:0:
269,263,181212,1,0,0:0:0:0:
184,137,181576,1,0,0:0:0:0:
422,179,181939,1,0,0:0:0:0:
352,48,182666,5,0,0:0:0:0:
225,35,183030,1,0,0:0:0:0:
176,61,183394,1,0,0:0:0:0:
139,126,183758,1,0,0:0:0:0:
145,203,184122,1,0,0:0:0:0:
243,265,184486,1,0,0:0:0:0:
375,244,184849,1,0,0:0:0:0:
432,106,185213,1,0,0:0:0:0:
306,64,185577,1,0,0:0:0:0:
203,117,185941,1,0,0:0:0:0:
117,230,186305,1,0,0:0:0:0:
143,317,186669,1,0,0:0:0:0:
352,195,187033,1,0,0:0:0:0:
134,126,187397,1,0,0:0:0:0:
181,286,187761,1,0,0:0:0:0:
377,132,188124,1,0,0:0:0:0:
137,173,188488,1,0,0:0:0:0:
128,288,188852,1,0,0:0:0:0:
227,129,189216,1,0,0:0:0:0:
287,288,189580,1,0,0:0:0:0:
321,120,189944,1,0,0:0:0:0:
346,273,190308,1,0,0:0:0:0:
256,176,190672,1,0,0:0:0:0:
274,295,191035,1,0,0:0:0:0:
347,96,191399,1,0,0:0:0:0:
416,272,191763,1,0,0:0:0:0:
428,87,192127,1,0,0:0:0:0:
288,230,192491,1,0,0:0:0:0:
111,118,192855,1,0,0:0:0:0:
161,291,193219,1,0,0:0:0:0:
297,97,193583,1,0,0:0:0:0:
345,305,193946,1,0,0:0:0:0:
86,98,194310,1,0,0:0:0:0:
195,251,194674,1,0,0:0:0:0:
308,101,195038,1,0,0:0:0:0:
384,272,195402,1,0,0:0:0:0:
384,136,195766,1,0,0:0:0:0:
258,229,196130,1,0,0:0:0:0:
210,118,196494,1,0,0:0:0:0:
306,137,196857,1,0,0:0:0:0:
412,244,197221,1,0,0:0:0:0:
432,109,197585,1,0,0:0:0:0:
357,198,197949,1,0,0:0:0:0:
259,245,198313,1,0,0:0:0:0:
248,91,198677,1,0,0:0:0:0:
414,106,199041,1,0,0:0:0:0:
443,222,199405,1,0,0:0:0:0:
317,252,199769,1,0,0:0:0:0:
264,70,200132,1,0,0:0:0:0:
123,149,200496,1,0,0:0:0:0:
51,237,200860,1,0,0:0:0:0:
55,308,201224,1,0,0:0:0:0:
178,343,201588,1,0,0:0:0:0:
294,262,201952,1,0,0:0:0:0:
417,249,202316,1,0,0:0:0:0:
434,137,202680,1,0,0:0:0:0:
313,88,203043,1,0,0:0:0:0:
137,133,203407,1,0,0:0:0:0:
110,214,203771,1,0,0:0:0:0:
238,298,204135,1,0,0:0:0:0:
419,251,204499,1,0,0:0:0:0:
470,153,204863,1,0,0:0:0:0:
375,75,205227,1,0,0:0:0:0:
178,146,205591,1,0,0:0:0:0:
231,260,205954,1,0,0:0:0:0:
383,158,206318,1,0,0:0:0:0:
495,205,206682,1,0,0:0:0:0:
430,96,207046,1,0,0:0:0:0:
357,63,207410,1,0,0:0:0:0:
236,54,207774,1,0,0:0:0:0:
106,97,208138,1,0,0:0:0:0:
88,227,208502,1,0,0:0:0:0:
154,300,208865,1,0,0:0:0:0:
319,276,209229,1,0,0:0:0:0:
456,255,209593,1,0,0:0:0:0:
454,112,209957,1,0,0:0:0:0:
406,48,210321,1,0,0:0:0:0:
286,77,210685,1,0,0:0:0:0:
126,122,211049,1,0,0:0:0:0:
65,191,211413,1,0,0:0:0:0:
117,305,211777,1,0,0:0:0:0:
253,288,212140,1,0,0:0:0:0:
372,262,212504,1,0,0:0:0:0:
457,244,212868,1,0,0:0:0:0:
445,115,213232,1,0,0:0:0:0:
269,119,213596,1,0,0:0:0:0:
153,133,213960,1,0,0:0:0:0:
44,109,214324,1,0,0:0:0:0:
105,51,214688,1,0,0:0:0:0:
171,46,214779,2,0,L|266:44,6,90
210,72,217599,2,0,B|272:48|320:64|368:128,47,180
274,133,235338,5,0,0:0:0:0:
190,146,235702,1,0,0:0:0:0:
277,241,236065,1,0,0:0:0:0:
381,171,236429,1,0,0:0:0:0:
366,41,236793,1,0,0:0:0:0:
195,65,237157,1,2,0:0:0:0:
139,153,237521,1,0,0:0:0:0:
248,205,237794,1,0,0:0:0:0:
286,242,237885,1,0,0:0:0:0:
329,271,237976,1,0,0:0:0:0:
370,295,238067,1,0,0:0:0:0:
419,306,238158,1,0,0:0:0:0:
451,262,238249,1,0,0:0:0:0:
465,209,238340,1,0,0:0:0:0:
468,158,238431,1,0,0:0:0:0:
448,112,238522,1,0,0:0:0:0:
413,74,238613,1,0,0:0:0:0:
375,39,238704,1,0,0:0:0:0:
324,37,238794,1,0,0:0:0:0:
274,34,238885,1,0,0:0:0:0:
223,33,238976,1,0,0:0:0:0:
173,34,239067,1,0,0:0:0:0:
122,36,239158,1,0,0:0:0:0:
78,59,239249,1,0,0:0:0:0:
50,100,239340,1,0,0:0:0:0:
56,150,239431,1,0,0:0:0:0:
64,198,239522,1,0,0:0:0:0:
80,245,239613,1,0,0:0:0:0:
105,288,239704,1,0,0:0:0:0:
148,308,239795,1,0,0:0:0:0:
194,318,239886,1,0,0:0:0:0:
240,317,239977,1,0,0:0:0:0:
284,317,240068,1,0,0:0:0:0:
326,302,240159,1,0,0:0:0:0:
331,253,240250,1,0,0:0:0:0:
282,183,240341,1,0,0:0:0:0:
256,192,240523,12,0,248165,0:0:0:0:
