osu file format v14

[General]
AudioFilename: audio.mp3
AudioLeadIn: 0
PreviewTime: 76265
Countdown: 0
SampleSet: Soft
StackLeniency: 0.7
Mode: 0
LetterboxInBreaks: 0
WidescreenStoryboard: 1

[Editor]
Bookmarks: 7097,12375,16125,23637,24013,31155,34163,39425,39801,40177,46192,52207,57469,57845,63108,63672,70251,78897,79085,80400,80588,80776,81152,81340,81528,81904,84535,84911,85287,85663,85851,86039,86227,86791,87167,87543,87919,89046,89422,90550,90926,92618,92994,95249,95813,96001,99384,122879,123443,123631,124195
DistanceSpacing: 1
BeatDivisor: 4
GridSize: 4
TimelineZoom: 3.399999

[Metadata]
Title:Ievan Polka
TitleUnicode:Ievan Polka
Artist:Nightcore
ArtistUnicode:Nightcore
Creator:Tsukikolover
Version:Insane
Source:
Tags:Ievan Polka Levan Polloka Polkka
BeatmapID:1909640
BeatmapSetID:914278

[Difficulty]
HPDrainRate:6
CircleSize:3.5
OverallDifficulty:8
ApproachRate:9.4
SliderMultiplier:2.4
SliderTickRate:1

[Events]
//Background and Video events
0,0,"QQ-nWmPlVxI.jpg",0,0
//Break Periods
2,64248,69606
//Storyboard Layer 0 (Background)
//Storyboard Layer 1 (Fail)
//Storyboard Layer 2 (Pass)
//Storyboard Layer 3 (Foreground)
//Storyboard Layer 4 (Overlay)
//Storyboard Sound Samples

[TimingPoints]
12360,375.91629597143,3,2,0,50,1,0
13587,-100,4,2,0,100,0,0
13687,-100,4,2,0,100,0,0
13687,-50,4,2,0,100,0,0
13687,-100,4,2,0,100,0,0
16119,-100,4,2,0,100,0,0
34163,-66.6666666666667,4,2,0,100,0,0
40929,-100,4,2,0,100,0,0
46568,-200,4,2,0,100,0,0
49199,-66.6666666666667,4,2,0,100,0,0
94121,-50,4,2,0,100,0,0
97505,-200,4,2,0,100,0,0
97692,-100,4,2,0,100,0,0
97880,-66.6666666666667,4,2,0,100,0,0
98068,-50,4,2,0,100,0,0
99196,-400,4,2,0,100,0,0
99572,-66.6666666666667,4,2,0,100,0,0
102955,-200,4,2,0,100,0,0
103519,-66.6666666666667,4,2,0,100,0,0
110850,-66.6666666666667,4,2,0,100,0,0
111601,-100,4,2,0,100,0,0
113669,-50,4,2,0,100,0,0
116394,-100,4,2,0,100,0,0
118180,-50,4,2,0,100,0,0
123819,-100,4,2,0,100,0,0

[Colours]
Combo1 : 228,181,238
Combo2 : 149,208,182
Combo3 : 151,198,255
Combo4 : 251,231,189
Combo5 : 241,165,167
Combo6 : 253,251,181

[HitObjects]
103,160,7097,6,0,P|112:210|148:272,2,120
300,64,7661,1,0,0:0:0:0:
103,160,7849,1,0,0:0:0:0:
328,32,8036,2,0,P|336:76|312:152,1,120
235,344,8412,1,0,0:0:0:0:
264,292,8600,6,0,L|236:344,1,60
220,196,8788,2,0,L|248:144,1,60
376,88,8976,1,0,0:0:0:0:
388,280,9164,1,0,0:0:0:0:
220,196,9352,1,0,0:0:0:0:
264,292,9540,1,0,0:0:0:0:
388,280,9728,1,0,0:0:0:0:
160,152,9916,5,0,0:0:0:0:
220,196,10104,2,0,P|236:144|188:84,1,120
151,35,10480,1,0,0:0:0:0:
265,37,10668,2,0,P|208:20|144:40,2,120
360,92,11232,1,0,0:0:0:0:
468,176,11420,2,0,P|396:180|356:136,1,120
240,48,11796,2,0,P|283:37|343:61,1,60
468,176,11984,2,0,L|480:216,4,35
240,48,12359,1,4,0:0:0:0:
256,188,13111,5,2,1:2:0:0:
400,248,13299,1,0,0:0:0:0:
432,264,13393,1,0,0:0:0:0:
472,248,13487,2,0,P|448:192|392:184,1,120
256,192,13863,5,2,1:2:0:0:
112,248,14051,1,0,0:0:0:0:
80,264,14145,1,0,0:0:0:0:
40,248,14239,2,0,P|64:192|120:184,1,120
256,192,14615,5,2,1:2:0:0:
433,252,14803,1,0,0:0:0:0:
461,205,14897,1,0,0:0:0:0:
395,275,14991,2,0,P|412:328|464:364,1,120
256,192,15367,5,2,1:2:0:0:
79,132,15555,1,0,0:0:0:0:
51,179,15649,1,0,0:0:0:0:
117,109,15743,2,0,P|100:56|48:20,1,120
51,179,16119,6,0,P|103:231|187:235,1,120,0|0,1:0|1:0,1:0:0:0:
312,108,16495,1,0,1:0:0:0:
428,232,16683,1,0,0:0:0:0:
240,296,16870,2,0,P|228:224|248:164,1,120
376,72,17246,2,0,P|408:56|448:60,2,60
384,220,17622,2,0,P|392:252|432:292,1,60
448,192,17810,1,0,3:0:0:0:
280,276,17998,1,0,1:0:0:0:
224,316,18186,5,0,0:0:0:0:
188,296,18280,1,0,0:0:0:0:
148,316,18374,1,0,0:0:0:0:
28,320,18562,5,0,1:0:0:0:
124,168,18750,1,0,3:0:0:0:
288,96,19126,2,0,P|280:184|256:208,1,120
168,248,19502,1,0,0:0:0:0:
128,100,19689,1,0,3:0:0:0:
308,52,19878,1,0,0:0:0:0:
360,224,20066,2,0,P|272:216|248:192,1,120
308,52,20442,1,0,0:0:0:0:
248,292,20630,5,0,0:0:0:0:
184,56,20818,1,0,0:0:0:0:
284,36,21006,1,0,0:0:0:0:
72,252,21194,1,0,0:0:0:0:
88,80,21382,1,0,0:0:0:0:
408,332,21569,1,0,0:0:0:0:
116,72,21757,1,0,0:0:0:0:
100,52,22133,5,8,1:2:0:0:
84,33,22321,1,0,3:0:0:0:
196,100,22509,5,8,1:2:0:0:
212,119,22697,1,0,3:0:0:0:
328,196,22885,5,8,1:2:0:0:
312,177,23073,1,0,3:0:0:0:
412,240,23261,5,8,1:2:0:0:
428,259,23449,1,0,3:0:0:0:
420,336,23637,1,0,0:0:0:0:
336,316,23731,1,0,0:0:0:0:
292,328,23825,1,0,0:0:0:0:
226,306,23919,1,0,0:0:0:0:
152,332,24013,1,0,0:0:0:0:
48,264,24201,5,0,0:0:0:0:
80,220,24389,1,0,0:0:0:0:
64,168,24577,1,0,0:0:0:0:
96,124,24765,1,0,0:0:0:0:
404,188,24953,1,0,0:0:0:0:
404,188,25141,2,8,B|400:144|400:144|424:116|424:116|416:72,2,120
260,340,25705,5,0,0:0:0:0:
108,196,25892,1,8,0:0:0:0:
252,44,26080,1,0,0:0:0:0:
404,188,26268,1,8,0:0:0:0:
108,196,26456,5,0,0:0:0:0:
260,340,26643,1,8,0:0:0:0:
404,188,26831,1,0,0:0:0:0:
252,44,27019,1,8,0:0:0:0:
108,196,27208,5,0,0:0:0:0:
252,44,27396,1,8,0:0:0:0:
404,188,27584,1,0,0:0:0:0:
252,44,27772,1,8,0:0:0:0:
142,149,28148,5,8,0:0:0:0:
154,171,28336,1,0,0:0:0:0:
168,192,28524,2,0,P|96:200|48:184,2,120,8|0|8,0:0|0:0|0:0,0:0:0:0:
355,91,29088,1,0,0:0:0:0:
308,119,29182,1,0,0:0:0:0:
378,53,29276,2,0,P|431:70|467:122,1,120
304,316,29652,5,8,0:2:0:0:
252,268,29840,1,0,0:0:0:0:
276,208,30028,1,8,0:0:0:0:
228,160,30216,1,0,0:0:0:0:
196,60,30403,5,8,0:0:0:0:
280,64,30497,1,0,0:0:0:0:
172,68,30591,1,0,0:0:0:0:
28,140,30779,1,8,0:0:0:0:
117,210,31155,2,0,P|61:187|21:99,2,120,8|0|8,0:0|0:0|0:0,0:0:0:0:
141,206,31625,1,0,0:0:0:0:
165,214,31719,1,0,0:0:0:0:
220,272,31907,5,8,0:0:0:0:
248,288,32095,1,0,0:0:0:0:
291,226,32283,5,8,0:0:0:0:
328,205,32471,1,0,0:0:0:0:
421,193,32659,5,8,0:0:0:0:
394,146,32847,1,0,0:0:0:0:
338,88,33035,5,8,0:0:0:0:
282,120,33223,1,0,0:0:0:0:
168,144,33411,1,0,0:0:0:0:
132,104,33505,1,0,0:0:0:0:
104,64,33599,2,0,L|80:148,1,60
76,256,33787,2,0,P|124:272|152:213,1,120,0|4,0:0|0:0,0:0:0:0:
132,104,34163,6,0,P|218:102|306:146,1,180.000006866455,8|0,0:0|0:0,0:0:0:0:
428,264,34539,1,8,0:0:0:0:
448,300,34633,1,0,0:0:0:0:
472,336,34727,2,0,P|480:228|460:136,1,180.000006866455,0|8,0:0|0:0,0:0:0:0:
356,48,35102,5,0,0:0:0:0:
190,271,35290,1,8,0:0:0:0:
291,133,35478,2,0,B|242:182|242:182|232:240|232:240|166:290,2,180.000006866455,0|8|0,0:0|0:0|0:0,0:0:0:0:
356,48,36042,5,8,0:0:0:0:
467,158,36230,1,0,0:0:0:0:
45,151,36418,2,0,L|80:52,1,90.0000034332277
232,28,36606,2,0,L|200:120,1,90.0000034332277
179,348,36794,6,0,P|153:220|187:164,1,180.000006866455,8|0,0:0|0:0,0:0:0:0:
296,296,37170,6,0,P|188:224|172:160,1,180.000006866455,8|0,0:0|0:0,0:0:0:0:
190,31,37546,1,8,0:0:0:0:
291,133,37734,1,0,0:0:0:0:
296,296,37922,1,8,0:0:0:0:
142,140,38110,5,0,0:0:0:0:
400,246,38298,1,0,0:0:0:0:
240,264,38486,1,8,0:0:0:0:
224,244,38674,5,8,0:0:0:0:
296,144,38862,1,0,0:0:0:0:
449,144,39050,1,0,0:0:0:0:
464,196,39238,1,0,0:0:0:0:
480,248,39425,5,8,0:0:0:0:
448,297,39518,1,0,0:0:0:0:
379,281,39613,1,0,0:0:0:0:
323,305,39707,1,0,0:0:0:0:
271,269,39801,1,12,0:0:0:0:
188,152,40177,6,0,P|136:144|80:160,2,90.0000034332277
384,208,40553,1,0,0:0:0:0:
320,60,40741,1,0,0:0:0:0:
188,152,40929,2,0,P|208:216|292:264,1,120
320,264,41211,1,0,0:0:0:0:
384,208,41305,1,0,0:0:0:0:
440,136,41493,6,0,P|385:123|312:136,1,120
104,140,41869,1,0,0:0:0:0:
184,96,41963,1,0,0:0:0:0:
176,148,42057,1,0,0:0:0:0:
148,276,42245,5,0,0:0:0:0:
148,276,42433,2,0,P|116:304|60:320,2,60
322,131,42809,1,0,0:0:0:0:
440,316,43185,6,0,P|344:280|324:252,1,120
92,120,43561,1,0,0:0:0:0:
80,92,43655,1,0,0:0:0:0:
72,68,43749,2,0,P|168:104|188:132,1,120
236,344,44124,1,0,0:0:0:0:
334,269,44312,1,0,0:0:0:0:
372,140,44500,1,0,0:0:0:0:
372,140,44688,6,0,P|320:76|264:60,2,120
440,316,45252,1,0,0:0:0:0:
334,269,45440,1,0,0:0:0:0:
232,344,45628,1,0,0:0:0:0:
112,267,45816,1,0,0:0:0:0:
358,55,46192,5,8,0:0:0:0:
400,196,46380,1,0,0:0:0:0:
411,191,46474,1,0,0:0:0:0:
416,208,46568,2,0,L|468:256,1,60
252,192,46944,5,8,0:0:0:0:
101,176,47132,1,0,0:0:0:0:
96,186,47226,1,0,0:0:0:0:
88,176,47320,2,0,L|36:128,1,60
252,190,47696,5,8,0:0:0:0:
389,329,47884,1,0,0:0:0:0:
403,332,47978,1,0,0:0:0:0:
402,321,48072,2,0,L|364:261,1,60
252,190,48447,5,8,0:0:0:0:
119,59,48635,1,0,0:0:0:0:
108,48,48729,1,0,0:0:0:0:
102,59,48823,2,0,L|139:118,1,60
414,127,49199,6,0,P|342:175|230:187,1,180.000006866455
96,200,49575,1,0,0:0:0:0:
40,176,49669,1,0,0:0:0:0:
16,124,49763,2,0,P|16:176|40:244,1,90.0000034332277
68,292,49951,1,0,0:0:0:0:
152,340,50139,2,0,P|200:316|220:280,1,90.0000034332277
162,146,50327,2,0,P|114:170|94:206,1,90.0000034332277
68,292,50515,1,0,0:0:0:0:
218,286,50703,5,0,0:0:0:0:
240,300,50891,5,0,0:0:0:0:
260,312,51079,1,0,0:0:0:0:
284,324,51267,1,0,0:0:0:0:
416,328,51455,1,0,0:0:0:0:
389,242,51643,2,0,L|425:358,2,90.0000034332277,0|0|4,0:0|0:0|0:0,0:0:0:0:
344,96,52207,5,0,0:0:0:0:
336,80,52395,1,0,0:0:0:0:
328,64,52583,2,0,B|256:40|204:108|204:108|180:72|180:72|120:108|76:40,1,270.000010299683
32,36,52958,1,0,0:0:0:0:
176,208,53146,1,0,0:0:0:0:
111,240,53334,2,0,P|243:236|227:156,1,180.000006866455
296,136,53710,5,0,0:0:0:0:
328,64,54086,1,0,0:0:0:0:
328,64,54462,1,0,0:0:0:0:
416,284,54650,1,0,0:0:0:0:
344,96,54838,1,0,0:0:0:0:
328,64,55214,6,0,P|200:64|136:116,1,180.000006866455
192,232,55590,1,0,0:0:0:0:
159,89,55778,1,0,0:0:0:0:
23,258,55966,2,0,P|151:258|215:206,1,180.000006866455
416,100,56342,1,0,0:0:0:0:
23,258,56530,1,0,0:0:0:0:
191,232,56718,1,0,0:0:0:0:
159,89,56906,1,0,0:0:0:0:
23,258,57094,1,0,0:0:0:0:
191,232,57281,1,0,0:0:0:0:
352,180,57469,5,0,0:0:0:0:
378,177,57562,1,0,0:0:0:0:
407,144,57657,1,0,0:0:0:0:
452,120,57751,1,0,0:0:0:0:
452,62,57845,1,0,0:0:0:0:
204,208,58221,5,8,0:0:0:0:
228,368,58409,1,0,0:0:0:0:
172,296,58503,1,0,0:0:0:0:
168,320,58597,2,0,B|176:292|176:292|296:280|284:168,1,180.000006866455,8|0,0:0|0:0,0:0:0:0:
228,48,58973,5,8,0:0:0:0:
96,168,59161,1,0,0:0:0:0:
168,320,59349,1,8,0:0:0:0:
48,188,59537,5,0,0:0:0:0:
168,320,59725,1,8,0:0:0:0:
320,248,59913,1,0,0:0:0:0:
188,368,60101,5,8,0:0:0:0:
320,248,60289,1,0,0:0:0:0:
236,68,60477,5,8,0:0:0:0:
200,60,60571,1,0,0:0:0:0:
160,104,60665,1,0,0:0:0:0:
88,88,60759,1,0,0:0:0:0:
36,140,60853,1,12,0:0:0:0:
456,100,61229,5,0,0:0:0:0:
212,104,61417,1,0,0:0:0:0:
249,177,61510,1,0,0:0:0:0:
304,240,61605,2,0,P|210:191|202:166,1,90.0000034332277
360,268,61792,1,0,0:0:0:0:
400,296,61885,1,0,0:0:0:0:
448,328,61980,2,0,P|352:316|304:280,2,90.0000034332277
180,144,62356,2,0,P|101:183|64:264,1,180.000006866455
331,243,62732,6,0,P|410:204|448:124,1,180.000006866455
448,123,63108,1,8,0:0:0:0:
448,123,63296,1,8,0:0:0:0:
360,108,63484,1,0,0:0:0:0:
305,95,63577,1,0,0:0:0:0:
252,84,63671,1,0,0:0:0:0:
154,118,63766,1,0,0:0:0:0:
104,104,63860,1,0,0:0:0:0:
200,128,64048,5,4,0:0:0:0:
400,100,70251,6,0,P|376:188|292:216,1,180.000006866455
132,160,70627,1,0,0:0:0:0:
182,317,70814,6,0,P|270:293|298:209,1,180.000006866455
260,64,71190,1,0,0:0:0:0:
132,160,71378,1,0,0:0:0:0:
182,317,71566,6,0,P|121:248|34:260,1,180.000006866455
88,328,71942,1,0,0:0:0:0:
400,104,72130,1,0,0:0:0:0:
432,248,72318,1,0,0:0:0:0:
296,220,72506,1,0,0:0:0:0:
368,220,72600,1,0,0:0:0:0:
320,248,72694,1,0,0:0:0:0:
264,280,72788,1,0,0:0:0:0:
204,244,72882,1,0,0:0:0:0:
128,96,73070,6,0,B|136:60|200:60|200:60|208:36|208:36|248:40|284:16,2,180.000006866455
104,144,73634,1,0,0:0:0:0:
80,240,73822,2,0,P|96:289|142:294,1,90.0000034332277
119,347,74010,6,0,P|183:331|200:294,1,90.0000034332277
228,272,74198,1,0,0:0:0:0:
236,240,74292,1,0,0:0:0:0:
276,188,74386,1,0,0:0:0:0:
272,132,74480,1,0,0:0:0:0:
304,80,74574,1,0,0:0:0:0:
412,56,74762,5,0,0:0:0:0:
436,40,74950,1,0,0:0:0:0:
256,192,75138,12,0,75890,0:0:0:0:
220,36,76265,5,8,0:0:0:0:
304,204,76453,1,0,0:0:0:0:
344,180,76547,1,0,0:0:0:0:
348,140,76641,2,8,P|248:152|224:240,1,180.000006866455
268,312,77017,6,8,L|356:360,1,90.0000034332277
348,140,77205,2,0,L|312:48,1,90.0000034332277
235,255,77393,2,8,L|323:303,2,90.0000034332277
88,216,77769,5,8,0:0:0:0:
72,100,77957,1,0,0:0:0:0:
52,84,78051,1,0,0:0:0:0:
92,64,78145,1,8,0:0:0:0:
235,255,78333,1,0,0:0:0:0:
320,296,78521,2,0,L|432:220,1,90.0000034332277,8|0,0:0|0:0,0:0:0:0:
476,244,78709,2,0,P|424:160|392:152,1,90.0000034332277
336,124,78897,2,0,L|332:48,4,45.0000017166138,8|0|0|0|0,0:0|0:0|0:0|0:0|0:0,0:0:0:0:
394,245,79273,5,8,0:0:0:0:
320,296,79461,1,0,0:0:0:0:
436,167,79649,1,8,0:0:0:0:
232,128,79836,1,0,0:0:0:0:
88,256,80024,1,8,0:0:0:0:
188,213,80211,1,0,0:0:0:0:
96,96,80400,1,8,0:0:0:0:
72,84,80494,1,0,0:0:0:0:
160,64,80588,1,0,0:0:0:0:
244,40,80776,2,0,P|244:88|212:128,1,90.0000034332277
147,162,80964,2,0,P|180:128|231:122,1,90.0000034332277
293,164,81152,2,0,P|246:151|216:110,1,90.0000034332277
244,40,81340,5,0,0:0:0:0:
334,126,81528,5,0,0:0:0:0:
360,136,81621,1,0,0:0:0:0:
386,146,81715,1,0,0:0:0:0:
412,156,81809,1,0,0:0:0:0:
439,166,81903,1,4,0:0:0:0:
348,328,82280,1,0,0:0:0:0:
232,300,82468,2,0,P|192:288|152:224,1,90.0000034332277
132,128,82656,2,0,P|172:140|212:204,1,90.0000034332277
232,300,82844,1,0,0:0:0:0:
356,320,83032,5,0,0:0:0:0:
324,316,83126,1,0,0:0:0:0:
416,292,83220,1,0,0:0:0:0:
436,172,83408,2,0,P|368:100|280:84,1,180.000006866455
176,104,83784,5,0,0:0:0:0:
132,100,83878,1,0,0:0:0:0:
292,84,83972,1,0,0:0:0:0:
280,112,84160,5,0,0:0:0:0:
268,136,84347,1,0,0:0:0:0:
248,156,84535,5,0,0:0:0:0:
260,180,84629,1,0,0:0:0:0:
224,192,84723,1,0,0:0:0:0:
248,248,84817,1,0,0:0:0:0:
180,268,84911,1,0,0:0:0:0:
132,100,85099,1,0,0:0:0:0:
292,84,85287,5,0,0:0:0:0:
352,104,85381,1,0,0:0:0:0:
352,161,85475,1,0,0:0:0:0:
292,181,85569,1,0,0:0:0:0:
253,135,85663,2,0,P|247:100|291:83,1,90.0000034332277
352,104,85851,1,0,0:0:0:0:
132,100,86039,5,0,0:0:0:0:
128,204,86227,1,0,0:0:0:0:
152,256,86415,1,0,0:0:0:0:
132,328,86603,1,0,0:0:0:0:
184,376,86791,5,0,0:0:0:0:
228,356,86885,1,0,0:0:0:0:
280,360,86979,1,0,0:0:0:0:
316,308,87073,1,0,0:0:0:0:
364,240,87167,1,0,0:0:0:0:
352,104,87355,5,0,0:0:0:0:
145,100,87543,1,0,0:0:0:0:
104,132,87637,1,0,0:0:0:0:
76,176,87731,1,0,0:0:0:0:
97,332,87919,2,0,P|113:218|65:170,1,180.000006866455
145,100,88295,1,0,0:0:0:0:
153,96,88483,1,0,0:0:0:0:
141,92,88671,1,0,0:0:0:0:
404,212,89046,5,0,0:0:0:0:
496,160,89140,1,0,0:0:0:0:
484,192,89234,1,0,0:0:0:0:
464,212,89328,2,0,P|460:256|420:304,2,90.0000034332277
416,100,89610,1,0,0:0:0:0:
316,64,89798,1,0,0:0:0:0:
227,114,89986,1,0,0:0:0:0:
127,78,90174,1,0,0:0:0:0:
130,70,90362,1,0,0:0:0:0:
119,72,90550,5,0,0:0:0:0:
86,118,90643,1,0,0:0:0:0:
91,206,90737,1,0,0:0:0:0:
60,244,90831,1,0,0:0:0:0:
24,281,90925,1,0,0:0:0:0:
202,349,91114,5,0,0:0:0:0:
360,280,91302,2,0,P|424:228|420:136,2,180.000006866455
72,236,91960,1,0,0:0:0:0:
92,288,92054,1,0,0:0:0:0:
236,264,92242,1,0,0:0:0:0:
256,316,92336,1,0,0:0:0:0:
400,280,92524,5,0,0:0:0:0:
420,332,92618,1,0,0:0:0:0:
432,368,92712,1,0,0:0:0:0:
415,193,92806,2,0,B|401:283|401:283|294:319,1,180.000006866455
112,259,93182,2,0,L|208:235,1,90.0000034332277
402,282,93369,2,0,L|299:318,1,90.0000034332277
199,237,93557,2,0,L|263:157,2,90.0000034332277
50,338,93933,1,0,0:0:0:0:
50,338,94121,6,0,P|54:300|49:338,1,120
49,338,94309,2,0,P|45:300|50:338,1,120
49,338,94497,2,0,P|46:268|130:342,1,240
49,338,94873,2,0,P|37:288|126:258,1,120
255,222,95061,5,0,0:0:0:0:
142,323,95249,2,0,P|234:321|298:226,1,120
401,144,95437,2,0,P|454:209|442:293,1,120
255,222,95625,2,0,P|242:171|298:103,1,120
401,144,95813,1,0,0:0:0:0:
399,201,95906,1,0,0:0:0:0:
361,244,96000,1,0,0:0:0:0:
303,252,96094,1,0,0:0:0:0:
255,222,96189,1,0,0:0:0:0:
142,323,96377,5,0,0:0:0:0:
49,338,96565,1,0,0:0:0:0:
142,323,96753,1,0,0:0:0:0:
255,222,96847,1,0,0:0:0:0:
306,249,96941,1,0,0:0:0:0:
359,262,97129,2,0,P|353:197|320:245,1,120
216,156,97317,6,0,P|224:232|253:160,1,120
306,249,97505,2,0,P|320:223|322:201,1,30
306,249,97692,2,0,P|333:231|340:190,1,60
299,245,97880,2,0,P|362:197|373:140,1,90.0000034332277
365,189,98068,2,0,P|344:325|307:349,1,120
362,303,98256,2,0,P|440:247|442:167,1,120
446,228,98444,2,0,P|421:194|448:225,1,120
393,231,98632,5,0,0:0:0:0:
365,189,98726,1,0,0:0:0:0:
259,189,98820,1,0,0:0:0:0:
217,217,98914,1,0,0:0:0:0:
103,237,99008,1,0,0:0:0:0:
75,195,99102,1,0,0:0:0:0:
261,75,99196,2,0,L|245:93,1,22.5
153,143,99384,2,0,L|135:126,1,22.5
59,78,99572,2,0,P|90:38|60:80,1,157.500006008148
68,88,99760,2,0,P|95:78|66:87,1,90.0000034332277
68,88,99948,2,0,P|95:79|66:87,1,90.0000034332277
79,245,100324,6,0,P|112:294|208:280,1,90.0000034332277
389,266,100512,1,0,0:0:0:0:
244,339,100606,1,0,0:0:0:0:
244,339,100700,2,0,P|332:262|394:267,1,180.000006866455
446,336,101076,6,0,L|476:247,1,90.0000034332277
388,265,101264,2,0,L|367:164,1,90.0000034332277
285,56,101452,2,0,P|258:152|186:234,1,180.000006866455
90,284,101828,2,0,L|21:350,1,90.0000034332277
193,223,102016,1,0,0:0:0:0:
201,219,102110,1,0,0:0:0:0:
209,214,102203,2,0,P|250:167|299:38,1,180.000006866455
298,44,102579,2,0,L|375:106,1,90.0000034332277
263,143,102767,2,0,L|362:180,1,90.0000034332277
274,259,102955,2,0,L|369:250,1,90.0000034332277
446,231,103331,5,0,0:0:0:0:
485,150,103424,1,0,0:0:0:0:
485,150,103519,2,0,L|441:62,1,90.0000034332277
438,61,103707,1,0,0:0:0:0:
435,55,103800,1,0,0:0:0:0:
446,231,103895,2,0,L|402:316,1,90.0000034332277
303,338,104083,5,0,0:0:0:0:
404,310,104271,2,0,P|336:220|227:207,1,180.000006866455
136,237,104647,1,0,0:0:0:0:
39,331,104835,1,0,0:0:0:0:
355,113,105023,1,0,0:0:0:0:
415,46,105211,2,0,L|337:132,1,90.0000034332277
41,74,105399,2,0,L|129:135,1,90.0000034332277
87,212,105587,2,0,L|170:265,1,90.0000034332277
424,169,105775,2,0,L|343:217,1,90.0000034332277
223,272,105963,2,0,P|105:244|204:217,1,270.000010299683
163,260,106339,5,0,0:0:0:0:
155,201,106527,1,0,0:0:0:0:
177,101,106714,1,0,0:0:0:0:
90,47,106901,1,0,0:0:0:0:
66,79,107090,1,0,0:0:0:0:
42,115,107278,1,0,0:0:0:0:
16,150,107466,2,0,L|80:236,1,90.0000034332277
88,248,107654,1,0,0:0:0:0:
284,202,107842,5,0,0:0:0:0:
66,279,108030,1,0,0:0:0:0:
40,318,108218,1,0,0:0:0:0:
284,202,108406,2,0,P|391:183|430:104,1,180.000006866455
430,66,108782,1,0,0:0:0:0:
392,26,108970,1,0,0:0:0:0:
339,22,109158,1,0,0:0:0:0:
423,127,109346,5,0,0:0:0:0:
339,175,109439,1,0,0:0:0:0:
440,166,109533,1,0,0:0:0:0:
350,196,109628,1,0,0:0:0:0:
443,205,109721,1,0,0:0:0:0:
210,255,109910,2,0,L|336:224,1,90.0000034332277
360,216,110098,1,0,0:0:0:0:
229,72,110286,2,0,P|192:104|172:160,1,90.0000034332277
210,255,110474,2,0,L|278:170,1,90.0000034332277
323,96,110662,1,0,0:0:0:0:
229,72,110850,5,0,0:0:0:0:
173,116,110943,1,0,0:0:0:0:
142,180,111037,1,0,0:0:0:0:
392,347,111225,5,0,0:0:0:0:
448,303,111318,1,0,0:0:0:0:
479,239,111412,1,0,0:0:0:0:
462,182,111601,2,0,L|486:260,2,60
455,56,111977,2,0,L|364:176,1,120
336,217,112353,5,0,0:0:0:0:
327,158,112541,1,0,0:0:0:0:
314,93,112729,2,0,L|299:15,2,60
327,158,113011,1,0,0:0:0:0:
336,217,113105,1,0,0:0:0:0:
432,205,113199,1,0,0:0:0:0:
442,264,113292,1,0,0:0:0:0:
200,299,113481,5,0,0:0:0:0:
124,333,113669,6,0,P|133:276|172:230,1,120
200,299,113857,2,0,P|251:258|324:268,1,120
281,329,114045,1,0,0:0:0:0:
200,299,114233,1,0,0:0:0:0:
124,333,114421,1,0,0:0:0:0:
68,208,114609,2,0,P|104:137|196:122,1,120
258,56,114797,1,0,0:0:0:0:
390,142,114985,1,0,0:0:0:0:
276,246,115173,6,0,B|212:287|174:221|174:221|157:227|157:227|118:180|64:210,1,240
340,182,115549,1,0,0:0:0:0:
352,167,115643,1,0,0:0:0:0:
361,153,115736,2,0,P|436:177|366:290,1,240
379,221,116018,5,0,0:0:0:0:
340,182,116112,1,0,0:0:0:0:
219,162,116300,1,0,0:0:0:0:
180,123,116394,1,0,0:0:0:0:
80,60,116582,5,0,0:0:0:0:
67,100,116675,1,0,0:0:0:0:
195,162,116769,1,0,0:0:0:0:
180,123,116863,1,0,0:0:0:0:
67,100,116957,1,0,0:0:0:0:
103,120,117051,1,0,0:0:0:0:
180,123,117146,2,0,L|218:61,1,60
109,230,117428,1,0,0:0:0:0:
180,123,117616,2,0,L|218:61,1,60
325,204,117804,2,0,L|341:274,1,60
160,261,117992,2,0,L|98:222,1,60
462,46,118180,6,0,P|458:84|463:46,1,120
463,46,118368,2,0,P|467:84|462:46,1,120
463,46,118556,2,0,P|466:116|382:42,1,240
463,46,118932,2,0,P|475:96|386:126,1,120
268,156,119120,5,0,0:0:0:0:
381,55,119308,2,0,P|289:57|225:152,1,120
122,234,119496,2,0,P|69:169|81:85,1,120
268,156,119684,2,0,P|281:207|225:275,1,120
122,234,119872,1,0,0:0:0:0:
124,177,119965,1,0,0:0:0:0:
162,134,120059,1,0,0:0:0:0:
220,126,120153,1,0,0:0:0:0:
268,156,120248,1,0,0:0:0:0:
370,61,120436,5,0,0:0:0:0:
464,48,120624,1,0,0:0:0:0:
370,61,120812,1,0,0:0:0:0:
271,153,120906,1,0,0:0:0:0:
220,126,121000,1,0,0:0:0:0:
167,113,121188,2,0,P|173:178|206:130,1,120
296,228,121376,6,0,P|288:152|259:224,1,120
199,168,121564,2,0,P|185:194|196:285,1,120
247,272,121751,2,0,P|234:211|180:155,1,120
199,168,121939,2,0,P|136:216|113:312,1,120
118,251,122127,2,0,P|139:115|176:91,1,120
121,137,122315,2,0,P|43:193|41:273,1,120
36,211,122503,2,0,P|61:245|34:214,1,120
121,137,122691,5,0,0:0:0:0:
149,179,122785,1,0,0:0:0:0:
253,195,122879,1,0,0:0:0:0:
295,167,122973,1,0,0:0:0:0:
409,147,123067,1,0,0:0:0:0:
437,189,123161,1,0,0:0:0:0:
453,306,123255,2,0,P|389:282|361:224,1,120
253,195,123443,2,0,P|277:131|335:103,1,120
463,135,123631,1,0,0:0:0:0:
363,239,123819,6,0,L|314:284,1,60
299,49,124007,2,0,L|341:169,1,120
