osu file format v14

[General]
AudioFilename: audio.mp3
AudioLeadIn: 0
PreviewTime: -1
Countdown: 1
SampleSet: Soft
StackLeniency: 0.7
Mode: 0
LetterboxInBreaks: 0
WidescreenStoryboard: 0

[Editor]
DistanceSpacing: 0.6
BeatDivisor: 4
GridSize: 4
TimelineZoom: 1.2

[Metadata]
Title:For The Love Of The Game
TitleUnicode:For The Love Of The Game
Artist:Nightcore
ArtistUnicode:Nightcore
Creator:Sinsiare
Version:somewhat something
Source:Take Us To Vegas
Tags:Nightcore Take Us To Vegas
BeatmapID:1515679
BeatmapSetID:717440

[Difficulty]
HPDrainRate:4
CircleSize:4
OverallDifficulty:9
ApproachRate:10
SliderMultiplier:1.4
SliderTickRate:1

[Events]
//Background and Video events
//Break Periods
2,19048,57121
//Storyboard Layer 0 (Background)
//Storyboard Layer 1 (Fail)
//Storyboard Layer 2 (Pass)
//Storyboard Layer 3 (Foreground)
//Storyboard Sound Samples

[TimingPoints]
9222,289.519397799653,4,2,0,100,1,0

[HitObjects]
92,108,9221,6,0,L|120:132,2,35
184,88,9511,5,0,0:0:0:0:
184,88,9656,2,0,L|236:140,1,70
233,137,9945,1,0,0:0:0:0:
233,137,10090,2,0,L|285:189,1,70
282,186,10380,1,0,0:0:0:0:
282,186,10524,1,0,0:0:0:0:
282,186,10669,2,0,L|334:238,1,70
331,235,10959,1,0,0:0:0:0:
331,235,11103,1,0,0:0:0:0:
464,68,11393,6,0,L|432:100,2,35
336,56,11683,5,0,0:0:0:0:
336,56,11827,2,0,L|260:116,1,70
281,99,12117,1,0,0:0:0:0:
281,99,12262,2,0,L|205:159,1,70
226,142,12551,1,0,0:0:0:0:
226,142,12696,1,0,0:0:0:0:
226,142,12841,2,0,L|150:202,1,70
171,185,13130,1,0,0:0:0:0:
171,185,13275,1,0,0:0:0:0:
456,312,13565,6,0,L|416:280,2,35
340,336,13854,5,0,0:0:0:0:
340,336,13999,2,0,L|272:268,1,70
290,286,14289,1,0,0:0:0:0:
290,286,14433,2,0,L|222:218,1,70
240,236,14723,1,0,0:0:0:0:
240,236,14868,1,0,0:0:0:0:
240,236,15012,2,0,L|172:168,1,70
190,186,15302,1,0,0:0:0:0:
190,186,15447,1,0,0:0:0:0:
60,320,15736,6,0,L|84:280,2,35
160,292,16025,5,0,0:0:0:0:
160,292,16170,2,0,L|224:232,1,70
211,244,16459,1,0,0:0:0:0:
211,244,16604,1,0,0:0:0:0:
211,244,16749,2,0,L|275:184,1,70
262,196,17039,1,0,0:0:0:0:
262,196,17183,2,0,L|326:136,1,70
313,148,17473,1,0,0:0:0:0:
313,148,17618,1,0,0:0:0:0:
48,116,17762,6,0,L|52:152,1,35
108,108,17907,6,0,L|112:72,1,35
164,120,18052,6,0,L|168:156,1,35
220,112,18197,6,0,L|224:76,1,35
280,124,18341,6,0,L|280:160,1,35
336,112,18486,6,0,L|340:76,1,35
388,128,18631,6,0,L|388:164,1,35
440,120,18776,6,0,L|444:84,1,35
416,192,57571,5,0,0:0:0:0:
153,292,57716,1,0,0:0:0:0:
357,259,57861,5,0,0:0:0:0:
111,191,58006,1,0,0:0:0:0:
255,335,58150,5,0,0:0:0:0:
153,89,58295,1,0,0:0:0:0:
153,292,58440,5,0,0:0:0:0:
255,47,58585,1,0,0:0:0:0:
111,191,58729,5,0,0:0:0:0:
357,87,58874,1,0,0:0:0:0:
153,89,59019,5,0,0:0:0:0:
399,191,59164,1,0,0:0:0:0:
255,47,59308,5,0,0:0:0:0:
356,292,59453,1,0,0:0:0:0:
357,89,59598,5,0,0:0:0:0:
225,335,59743,1,0,0:0:0:0:
416,196,59887,6,0,L|404:232,1,35
360,208,60032,2,0,L|348:240,1,35
308,224,60177,2,0,L|292:256,1,35
