osu file format v14

[General]
AudioFilename: Nightcore - Flower Dance.mp3
AudioLeadIn: 0
PreviewTime: 2879
Countdown: 0
SampleSet: None
StackLeniency: 0.4
Mode: 0
LetterboxInBreaks: 1
WidescreenStoryboard: 1

[Editor]
Bookmarks: 322,24356,41810,59265,94174,111628,129083,146537,181446,218537,238614
DistanceSpacing: 0.6
BeatDivisor: 4
GridSize: 16
TimelineZoom: 2.2

[Metadata]
Title:Flower Dance
TitleUnicode:Flower Dance
Artist:Nightcore
ArtistUnicode:Nightcore
Creator:_Nasha
Version:AR9
Source:
Tags:dance,babyman
BeatmapID:1419989
BeatmapSetID:671618

[Difficulty]
HPDrainRate:5
CircleSize:4.5
OverallDifficulty:8
ApproachRate:9
SliderMultiplier:1.7
SliderTickRate:4

[Events]
//Background and Video events
0,0,"bg.jpg",0,0
//Break Periods
2,22510,23756
//Storyboard Layer 0 (Background)
//Storyboard Layer 1 (Fail)
//Storyboard Layer 2 (Pass)
//Storyboard Layer 3 (Foreground)
//Storyboard Sound Samples

[TimingPoints]
152,681.818181818182,4,2,0,35,1,0
2538,-100,4,2,0,5,0,0
21970,-100,4,2,0,15,0,0
24356,272.727272727273,4,1,0,20,1,0
25446,-133.333333333333,4,1,0,20,0,0
41810,-133.333333333333,4,1,0,25,0,1
59265,-133.333333333333,4,2,0,50,0,0
89810,-133.333333333333,4,2,0,45,0,0
94174,-100,4,1,0,25,0,1
109446,-100,4,1,0,25,0,0
111628,-133.333333333333,4,2,0,35,0,1
129083,-133.333333333333,4,1,0,25,0,0
146537,-100,4,1,0,25,0,1
163992,-100,4,1,0,25,0,0
181446,-200,4,1,0,25,0,0
183628,-100,4,1,0,25,0,1
218537,277.777777777778,4,2,0,40,1,0
218537,-200,4,2,0,40,0,0
220759,280.373831775701,4,2,0,40,1,0
220759,-200,4,2,0,40,0,0
223001,283.018867924528,4,2,0,40,1,0
223001,-200,4,2,0,40,0,0
225265,285.714285714286,4,2,0,40,1,0
225836,292.682926829268,4,2,0,40,1,0
226421,307.692307692308,4,2,0,40,1,0
227036,315.789473684211,4,2,0,40,1,0
227667,306.122448979592,4,2,0,40,1,0
227667,-200,4,2,0,35,0,0
230115,348.837209302326,4,2,0,35,1,0
230115,-200,4,2,0,35,0,0
232905,357.142857142857,4,2,0,25,1,0
235762,368.098159509202,4,2,0,25,1,0
235762,-200,4,2,0,10,0,0
238614,4000,4,2,0,5,1,0

[Colours]
Combo1 : 0,128,128
Combo2 : 64,0,0
Combo3 : 0,0,128

[HitObjects]
416,80,2879,6,0,P|400:128|368:160,1,85
352,112,3561,2,0,P|336:176|368:208,1,85
224,80,4242,5,0,0:0:0:0:
224,128,4413,1,0,0:0:0:0:
224,176,4583,1,0,0:0:0:0:
224,224,4754,1,0,0:0:0:0:
224,272,4924,1,0,0:0:0:0:
257,248,5265,1,0,0:0:0:0:
128,192,5436,1,0,0:0:0:0:
384,192,5606,6,0,P|432:208|464:240,1,85
128,320,6288,2,0,P|80:304|48:272,1,85
256,80,6970,2,0,B|240:144|272:192|256:256,1,170,2|0,0:0|0:0,0:0:0:0:
257,248,7992,1,0,0:0:0:0:
80,144,8333,6,0,B|112:112|112:112|160:96,1,85
432,144,9015,2,0,B|400:112|400:112|352:96,1,85
256,336,9697,2,0,L|256:160,1,170,2|0,0:0|0:0,0:0:0:0:
256,32,10549,1,0,0:0:0:0:
112,288,10720,1,0,0:0:0:0:
400,288,10890,1,0,0:0:0:0:
320,240,11061,6,0,P|272:256|224:256,1,85
176,48,11742,2,0,P|224:32|272:32,1,85
96,144,12424,6,0,L|144:128,1,42.5
224,240,12765,6,0,L|288:224,1,42.5
384,320,13106,6,0,L|432:304,1,42.5
288,144,13447,2,0,L|224:160,1,42.5
288,320,13788,6,0,P|240:336|192:336,1,85
288,64,14470,2,0,P|240:48|192:48,1,85
144,192,15152,2,0,B|208:208|256:176|320:192,1,170,2|0,0:0|0:0,0:0:0:0:
312,190,16174,1,0,0:0:0:0:
208,336,16345,1,0,0:0:0:0:
208,48,16515,6,0,P|272:32|304:32,1,85
304,336,17197,2,0,P|240:352|208:352,1,85
144,192,17879,2,0,B|208:176|256:208|320:192,1,170,2|0,0:0|0:0,0:0:0:0:
312,193,18902,1,0,0:0:0:0:
48,128,19242,6,0,P|32:176|32:224,1,85
416,256,19924,2,0,P|432:208|432:160,1,85
48,240,20606,1,2,0:0:0:0:
416,144,20947,1,0,0:0:0:0:
112,304,21288,1,0,0:0:0:0:
352,80,21629,1,0,0:0:0:0:
160,320,21970,6,0,L|192:288,2,42.5
48,256,24356,5,0,0:0:0:0:
464,256,24628,1,0,0:0:0:0:
256,320,25037,1,0,0:0:0:0:
208,224,25174,1,0,0:0:0:0:
256,128,25310,1,0,0:0:0:0:
272,336,25446,6,0,P|208:352|144:336,1,127.500004863739
149,338,25856,1,0,0:0:0:0:
208,192,25992,2,0,P|224:144|224:112,1,63.7500024318696
80,192,26265,2,0,P|84:223|96:252,1,63.7500024318696
320,256,26537,6,0,P|336:192|320:128,1,127.500004863739
208,272,26946,1,0,0:0:0:0:
416,224,27083,2,0,L|448:224,2,31.8750012159348,0|0|0,0:0|0:0|0:0,0:0:0:0:
368,112,27356,1,0,0:0:0:0:
320,256,27492,1,0,0:0:0:0:
432,336,27628,2,0,L|464:352,2,31.8750012159348,0|0|0,0:0|0:0|0:0,0:0:0:0:
208,272,27901,2,0,L|176:256,2,31.8750012159348,0|0|0,0:0|0:0|0:0,0:0:0:0:
416,352,28174,5,0,0:0:0:0:
224,288,28310,1,0,0:0:0:0:
496,272,28446,1,0,0:0:0:0:
304,336,28583,1,0,0:0:0:0:
304,176,28719,6,0,P|256:160|240:160,1,63.7500024318696
352,336,28992,2,0,P|400:352|416:352,1,63.7500024318696
480,192,29265,1,0,0:0:0:0:
304,80,29401,1,0,0:0:0:0:
368,352,29537,2,0,L|368:288,1,63.7500024318696
368,128,29810,5,0,0:0:0:0:
368,272,29946,1,0,0:0:0:0:
368,128,30083,2,0,P|360:96|352:80,2,42.5000016212464,0|0|0,0:0|0:0|0:0,0:0:0:0:
368,272,30356,2,0,L|288:256,1,63.7500024318696
144,272,30628,2,0,L|224:256,1,63.7500024318696
96,352,30901,6,0,P|56:312|56:232,1,127.500004863739
128,144,31310,1,0,0:0:0:0:
112,368,31446,1,0,0:0:0:0:
0,272,31583,1,0,0:0:0:0:
256,208,31719,2,0,L|256:288,1,63.7500024318696
256,288,31992,5,0,0:0:0:0:
224,112,32128,1,0,0:0:0:0:
336,288,32265,1,0,0:0:0:0:
144,256,32401,1,0,0:0:0:0:
416,208,32537,5,0,0:0:0:0:
384,384,32674,1,0,0:0:0:0:
176,208,32810,1,0,0:0:0:0:
208,32,32947,1,0,0:0:0:0:
256,272,33083,6,0,P|192:304|128:304,1,127.500004863739
96,160,33492,1,0,0:0:0:0:
304,192,33628,1,0,0:0:0:0:
128,320,33765,5,0,0:0:0:0:
192,160,33901,1,0,0:0:0:0:
32,96,34037,1,0,0:0:0:0:
128,320,34174,6,0,L|192:304,1,63.7500024318696
400,256,34446,2,0,L|320:240,1,63.7500024318696
144,144,34719,2,0,L|208:128,1,63.7500024318696
464,64,34992,2,0,L|400:48,1,63.7500024318696
480,160,35265,5,0,0:0:0:0:
368,256,35401,1,0,0:0:0:0:
224,272,35537,1,0,0:0:0:0:
288,192,35674,5,0,0:0:0:0:
302,328,35810,5,0,0:0:0:0:
160,368,35946,1,0,0:0:0:0:
22,321,36083,1,0,0:0:0:0:
114,276,36219,5,0,0:0:0:0:
16,336,36356,5,0,0:0:0:0:
48,96,36492,1,0,0:0:0:0:
114,276,36628,1,0,0:0:0:0:
80,48,36765,1,0,0:0:0:0:
48,224,36901,5,0,0:0:0:0:
304,144,37037,1,0,0:0:0:0:
256,208,37174,5,0,0:0:0:0:
80,80,37310,1,0,0:0:0:0:
304,64,37446,6,0,L|368:64,1,63.7500024318696
176,192,37719,2,0,L|112:192,1,63.7500024318696
208,48,37992,1,0,0:0:0:0:
336,272,38128,1,0,0:0:0:0:
208,336,38265,2,0,L|272:336,1,63.7500024318696
464,208,38537,6,0,L|400:208,1,63.7500024318696
112,192,38810,2,0,L|176:192,1,63.7500024318696
80,288,39083,1,0,0:0:0:0:
48,48,39219,1,0,0:0:0:0:
144,352,39356,2,0,L|208:352,1,63.7500024318696
384,144,39628,5,0,0:0:0:0:
288,48,39765,1,0,0:0:0:0:
160,272,39901,1,0,0:0:0:0:
256,192,40037,1,0,0:0:0:0:
112,128,40174,5,0,0:0:0:0:
144,352,40310,1,0,0:0:0:0:
320,304,40446,1,0,0:0:0:0:
256,192,40583,1,0,0:0:0:0:
224,384,40719,5,0,0:0:0:0:
464,336,40856,1,0,0:0:0:0:
256,240,40992,1,0,0:0:0:0:
384,144,41128,1,0,0:0:0:0:
288,48,41265,6,0,L|288:176,1,127.500004863739
288,175,41810,5,0,0:0:0:0:
288,336,41946,2,0,P|240:320|224:320,1,63.7500024318696
384,144,42219,2,0,P|432:128|448:128,1,63.7500024318696,0|8,0:0|0:0,0:0:0:0:
368,256,42492,1,0,0:0:0:0:
384,48,42628,2,0,L|464:32,1,63.7500024318696
496,192,42901,5,0,0:0:0:0:
384,48,43037,1,0,0:0:0:0:
368,256,43174,1,0,0:0:0:0:
256,96,43310,1,0,0:0:0:0:
208,336,43446,1,8,0:0:0:0:
80,288,43583,2,0,L|48:288,2,31.8750012159348,0|0|0,0:0|0:0|0:0,0:0:0:0:
80,288,43856,1,0,0:0:0:0:
272,304,43992,5,0,0:0:0:0:
64,272,44128,2,0,P|64:240|80:192,1,63.7500024318696,0|0,0:0|0:0,0:0:0:0:
256,320,44401,2,0,L|256:384,1,63.7500024318696,0|8,0:0|0:0,0:0:0:0:
224,192,44674,1,0,0:0:0:0:
272,304,44810,2,0,L|272:384,1,63.7500024318696
224,208,45083,5,0,0:0:0:0:
128,352,45219,1,0,0:0:0:0:
176,112,45356,1,0,0:0:0:0:
256,256,45492,1,0,0:0:0:0:
352,144,45628,1,8,0:0:0:0:
352,320,45765,2,0,L|352:368,2,31.8750012159348,0|0|0,0:0|0:0|0:0,0:0:0:0:
352,320,46037,1,0,0:0:0:0:
352,144,46174,6,0,B|336:112|336:112|304:80,1,63.7500024318696
160,144,46446,2,0,B|176:112|176:112|208:80,1,63.7500024318696,0|0,0:0|0:0,0:0:0:0:
256,256,46719,1,8,0:0:0:0:
96,224,46856,1,0,0:0:0:0:
256,272,46992,1,0,0:0:0:0:
416,240,47128,1,0,0:0:0:0:
160,288,47265,6,0,L|144:352,1,63.7500024318696
352,288,47537,2,0,L|368:352,1,63.7500024318696
256,352,47810,1,8,0:0:0:0:
256,128,47946,1,0,0:0:0:0:
256,336,48083,1,0,0:0:0:0:
256,48,48219,1,0,0:0:0:0:
256,304,48356,5,0,0:0:0:0:
336,96,48492,2,0,L|336:160,1,63.7500024318696
144,272,48765,2,0,L|144:352,1,63.7500024318696,0|8,0:0|0:0,0:0:0:0:
176,96,49037,1,0,0:0:0:0:
48,144,49174,2,0,L|48:80,1,63.7500024318696
144,16,49446,5,0,0:0:0:0:
64,320,49583,1,0,0:0:0:0:
0,256,49719,5,0,0:0:0:0:
256,192,49856,1,0,0:0:0:0:
512,256,49992,1,8,0:0:0:0:
512,256,50265,1,0,0:0:0:0:
432,336,50401,1,0,0:0:0:0:
448,176,50537,6,0,L|512:176,1,63.7500024318696
288,272,50810,2,0,L|224:272,1,63.7500024318696
432,192,51083,1,8,0:0:0:0:
272,288,51219,1,0,0:0:0:0:
432,192,51356,1,0,0:0:0:0:
272,288,51492,1,0,0:0:0:0:
432,336,51628,5,0,0:0:0:0:
432,48,51765,2,0,L|432:112,1,63.7500024318696
304,176,52037,1,0,0:0:0:0:
352,32,52174,1,8,0:0:0:0:
352,32,52242,1,0,0:0:0:0:
352,32,52310,1,0,0:0:0:0:
384,272,52446,1,0,0:0:0:0:
208,144,52583,1,0,0:0:0:0:
432,144,52719,6,0,L|432:208,1,63.7500024318696
192,64,52992,2,0,L|192:-16,1,63.7500024318696
416,160,53265,1,8,0:0:0:0:
208,48,53401,1,0,0:0:0:0:
416,160,53537,1,0,0:0:0:0:
208,48,53674,1,0,0:0:0:0:
256,240,53810,5,0,0:0:0:0:
352,32,53946,1,0,0:0:0:0:
160,224,54083,1,0,0:0:0:0:
336,128,54219,1,0,0:0:0:0:
112,144,54356,1,8,0:0:0:0:
112,144,54424,1,0,0:0:0:0:
112,144,54492,1,0,0:0:0:0:
192,304,54628,1,0,0:0:0:0:
256,112,54765,1,0,0:0:0:0:
48,304,54901,6,0,L|112:288,1,63.7500024318696
288,240,55174,1,0,0:0:0:0:
192,320,55310,1,0,0:0:0:0:
192,48,55446,1,8,0:0:0:0:
192,320,55583,1,0,0:0:0:0:
192,48,55719,1,0,0:0:0:0:
192,320,55856,1,0,0:0:0:0:
288,240,55992,5,0,0:0:0:0:
176,208,56128,1,0,0:0:0:0:
192,320,56265,1,0,0:0:0:0:
288,240,56401,1,0,0:0:0:0:
0,288,56537,5,8,0:0:0:0:
288,240,56674,1,0,0:0:0:0:
0,288,56810,1,0,0:0:0:0:
288,240,56946,1,0,0:0:0:0:
0,288,57083,6,0,B|16:208|16:208|16:208,1,63.7500024318696
176,208,57356,2,0,L|160:144,1,63.7500024318696
336,208,57628,2,0,L|352:144,1,63.7500024318696,8|0,0:0|0:0,0:0:0:0:
512,288,57901,2,0,B|496:208|496:208|496:208,1,63.7500024318696
256,144,58174,5,0,0:0:0:0:
368,304,58310,1,0,0:0:0:0:
512,144,58446,1,0,0:0:0:0:
368,112,58583,1,0,0:0:0:0:
336,208,58719,1,0,0:0:0:0:
288,224,58787,1,0,0:0:0:0:
240,224,58856,1,0,0:0:0:0:
192,208,58924,1,0,0:0:0:0:
160,176,58992,1,0,0:0:0:0:
160,176,59265,6,0,B|144:224|176:256|160:304,1,127.500004863739
160,301,59674,1,0,0:0:0:0:
64,112,59810,1,8,0:0:0:0:
256,128,59946,1,0,0:0:0:0:
160,301,60083,1,0,0:0:0:0:
0,176,60219,1,0,0:0:0:0:
176,32,60356,6,0,L|176:96,1,63.7500024318696
48,336,60628,2,0,L|48:256,1,63.7500024318696
368,144,60901,2,0,L|368:272,1,127.500004863739,8|0,0:0|0:0,0:0:0:0:
368,271,61310,1,0,0:0:0:0:
304,80,61446,5,0,0:0:0:0:
464,192,61583,1,0,0:0:0:0:
256,336,61719,1,0,0:0:0:0:
256,192,61856,1,0,0:0:0:0:
256,192,61924,1,0,0:0:0:0:
256,192,61992,5,8,0:0:0:0:
352,368,62128,1,0,0:0:0:0:
160,368,62265,1,0,0:0:0:0:
256,192,62401,1,0,0:0:0:0:
352,64,62537,5,0,0:0:0:0:
176,176,62674,1,0,0:0:0:0:
304,288,62810,1,0,0:0:0:0:
32,352,62946,1,0,0:0:0:0:
80,80,63083,2,0,P|144:48|208:48,1,127.500004863739,8|0,0:0|0:0,0:0:0:0:
432,304,63628,6,0,P|368:336|304:336,1,127.500004863739
313,337,64037,1,0,0:0:0:0:
384,144,64174,1,8,0:0:0:0:
448,320,64310,1,0,0:0:0:0:
256,208,64446,1,0,0:0:0:0:
512,272,64583,1,0,0:0:0:0:
304,352,64719,5,0,0:0:0:0:
288,112,64856,1,0,0:0:0:0:
384,272,64992,5,0,0:0:0:0:
304,304,65083,1,0,0:0:0:0:
224,304,65174,1,0,0:0:0:0:
144,272,65265,1,8,0:0:0:0:
288,112,65401,1,0,0:0:0:0:
288,368,65537,6,0,L|224:368,1,63.7500024318696
432,176,65810,2,0,P|480:224|496:288,1,127.500004863739
256,320,66219,1,0,0:0:0:0:
80,176,66356,2,0,P|64:144|64:112,1,63.7500024318696,8|0,0:0|0:0,0:0:0:0:
256,240,66628,2,0,L|256:304,1,63.7500024318696
176,176,66901,5,0,0:0:0:0:
352,240,67037,1,0,0:0:0:0:
240,336,67174,1,0,0:0:0:0:
320,80,67310,1,0,0:0:0:0:
464,336,67446,5,8,0:0:0:0:
256,192,67583,1,0,0:0:0:0:
48,336,67719,1,0,0:0:0:0:
464,336,67856,1,0,0:0:0:0:
64,352,67992,6,0,P|48:288|48:224,1,127.500004863739
96,80,68401,1,0,0:0:0:0:
272,208,68537,1,8,0:0:0:0:
32,240,68674,5,0,0:0:0:0:
256,128,68810,1,0,0:0:0:0:
480,240,68946,1,0,0:0:0:0:
304,336,69083,5,0,0:0:0:0:
304,64,69219,1,0,0:0:0:0:
192,368,69356,5,0,0:0:0:0:
112,96,69492,1,0,0:0:0:0:
384,304,69628,5,8,0:0:0:0:
464,80,69764,1,0,0:0:0:0:
240,352,69901,5,0,0:0:0:0:
240,48,70037,1,0,0:0:0:0:
384,304,70174,6,0,L|320:288,1,63.7500024318696
144,256,70446,2,0,L|208:240,1,63.7500024318696
464,192,70719,2,0,L|400:176,1,63.7500024318696,8|0,0:0|0:0,0:0:0:0:
64,80,70991,2,0,L|128:64,1,63.7500024318696
256,32,71265,5,0,0:0:0:0:
192,240,71401,1,0,0:0:0:0:
64,80,71537,1,0,0:0:0:0:
256,32,71674,1,0,0:0:0:0:
192,240,71810,1,8,0:0:0:0:
64,80,71946,1,0,0:0:0:0:
256,32,72083,1,0,0:0:0:0:
192,240,72219,1,0,0:0:0:0:
64,80,72356,5,0,0:0:0:0:
448,80,72492,1,0,0:0:0:0:
128,160,72628,1,0,0:0:0:0:
384,160,72765,1,0,0:0:0:0:
96,240,72901,1,8,0:0:0:0:
400,240,73037,1,0,0:0:0:0:
176,320,73174,1,0,0:0:0:0:
336,320,73310,1,0,0:0:0:0:
256,192,73446,5,0,0:0:0:0:
80,336,73583,1,0,0:0:0:0:
432,336,73719,1,0,0:0:0:0:
256,96,73856,5,0,0:0:0:0:
128,208,73992,1,8,0:0:0:0:
368,208,74129,1,0,0:0:0:0:
176,112,74265,5,0,0:0:0:0:
336,112,74401,1,0,0:0:0:0:
64,80,74537,5,0,0:0:0:0:
256,352,74674,1,0,0:0:0:0:
448,80,74810,1,0,0:0:0:0:
64,80,74946,1,0,0:0:0:0:
256,352,75083,1,8,0:0:0:0:
448,80,75219,1,0,0:0:0:0:
64,80,75356,1,0,0:0:0:0:
256,352,75493,1,0,0:0:0:0:
448,80,75629,1,0,0:0:0:0:
64,80,75765,1,0,0:0:0:0:
256,352,75902,1,0,0:0:0:0:
448,80,76038,1,0,0:0:0:0:
64,80,76174,6,0,B|48:128|80:160|64:208,1,127.500004863739,8|0,0:0|0:0,0:0:0:0:
48,336,76719,2,0,P|112:304|176:304,1,127.500004863739
256,352,77128,1,0,0:0:0:0:
32,320,77265,5,8,0:0:0:0:
480,320,77401,5,0,0:0:0:0:
256,192,77537,1,0,0:0:0:0:
32,320,77674,1,0,0:0:0:0:
256,352,77810,2,0,L|256:208,1,127.500004863739
256,224,78219,1,0,0:0:0:0:
256,64,78356,2,0,P|224:64|192:80,1,63.7500024318696,8|0,0:0|0:0,0:0:0:0:
256,256,78628,2,0,P|288:256|320:240,1,63.7500024318696
256,160,78901,6,0,B|224:144|160:176|128:160,1,127.500004863739
336,112,79310,2,0,L|352:80,2,31.8750012159348,0|0|8,0:0|0:0|0:0,0:0:0:0:
336,112,79583,5,0,0:0:0:0:
320,288,79719,1,0,0:0:0:0:
480,336,79856,1,0,0:0:0:0:
368,32,79992,6,0,P|304:32|256:80,1,127.500004863739
384,192,80401,1,0,0:0:0:0:
512,80,80537,5,8,0:0:0:0:
256,0,80674,1,0,0:0:0:0:
48,192,80810,5,0,0:0:0:0:
256,112,80946,1,0,0:0:0:0:
64,176,81083,6,0,P|80:224|64:304,1,127.500004863739
256,320,81492,1,0,0:0:0:0:
448,176,81628,2,0,P|432:224|448:304,1,127.500004863739,8|0,0:0|0:0,0:0:0:0:
256,64,82037,1,0,0:0:0:0:
256,336,82174,5,0,0:0:0:0:
256,48,82310,1,0,0:0:0:0:
256,336,82446,1,0,0:0:0:0:
336,352,82537,1,0,0:0:0:0:
416,336,82628,1,0,0:0:0:0:
480,288,82719,5,8,0:0:0:0:
256,240,82856,1,0,0:0:0:0:
32,288,82992,1,0,0:0:0:0:
256,368,83128,1,0,0:0:0:0:
256,32,83265,6,0,B|240:64|272:112|256:160,1,127.500004863739
128,96,83674,1,0,0:0:0:0:
384,96,83810,1,8,0:0:0:0:
256,240,83946,1,0,0:0:0:0:
128,96,84083,1,0,0:0:0:0:
384,96,84219,1,0,0:0:0:0:
256,240,84355,5,0,0:0:0:0:
256,32,84492,1,0,0:0:0:0:
256,368,84628,1,0,0:0:0:0:
240,144,84765,1,0,0:0:0:0:
256,240,84901,5,8,0:0:0:0:
256,16,85038,1,0,0:0:0:0:
256,384,85174,1,0,0:0:0:0:
272,144,85311,1,0,0:0:0:0:
256,368,85446,6,0,L|128:352,1,127.500004863739
192,176,85856,1,0,0:0:0:0:
320,304,85992,2,0,L|352:288,2,31.8750012159348,8|0|0,0:0|0:0|0:0,0:0:0:0:
320,304,86265,5,0,0:0:0:0:
464,240,86401,1,0,0:0:0:0:
256,160,86537,5,0,0:0:0:0:
416,336,86674,1,0,0:0:0:0:
464,48,86810,1,0,0:0:0:0:
304,80,86946,1,0,0:0:0:0:
368,224,87083,2,0,L|368:160,1,63.7500024318696,8|0,0:0|0:0,0:0:0:0:
160,320,87356,2,0,L|160:256,1,63.7500024318696
256,352,87628,5,0,0:0:0:0:
48,320,87765,1,0,0:0:0:0:
256,160,87901,1,0,0:0:0:0:
432,256,88038,1,0,0:0:0:0:
256,352,88174,5,8,0:0:0:0:
112,208,88311,1,0,0:0:0:0:
256,160,88447,1,0,0:0:0:0:
368,352,88584,1,0,0:0:0:0:
48,320,88719,5,0,0:0:0:0:
464,192,88856,1,0,0:0:0:0:
48,144,88992,5,0,0:0:0:0:
464,272,89128,1,0,0:0:0:0:
48,224,89265,5,8,0:0:0:0:
464,112,89401,1,0,0:0:0:0:
48,48,89537,5,0,0:0:0:0:
464,352,89674,1,0,0:0:0:0:
256,64,89810,5,0,0:0:0:0:
256,320,89946,1,0,0:0:0:0:
256,64,90083,1,0,0:0:0:0:
256,320,90219,1,0,0:0:0:0:
256,64,90356,1,0,0:0:0:0:
256,320,90492,1,0,0:0:0:0:
256,64,90628,1,0,0:0:0:0:
256,320,90764,1,0,0:0:0:0:
256,64,90901,5,0,0:0:0:0:
256,320,91037,1,0,0:0:0:0:
256,64,91174,1,0,0:0:0:0:
256,320,91310,1,0,0:0:0:0:
256,64,91447,1,0,0:0:0:0:
256,320,91583,1,0,0:0:0:0:
256,64,91719,1,0,0:0:0:0:
256,320,91855,1,0,0:0:0:0:
256,64,91992,5,0,0:0:0:0:
256,320,92128,1,0,0:0:0:0:
256,64,92265,1,0,0:0:0:0:
256,320,92401,1,0,0:0:0:0:
256,64,92538,1,0,0:0:0:0:
256,320,92674,1,0,0:0:0:0:
256,64,92810,1,0,0:0:0:0:
256,320,92946,1,0,0:0:0:0:
256,64,93083,5,0,0:0:0:0:
48,336,93219,1,0,0:0:0:0:
464,336,93356,1,0,0:0:0:0:
256,64,93492,1,0,0:0:0:0:
48,336,93628,6,0,L|128:320,1,63.7500024318696,8|0,0:0|0:0,0:0:0:0:
368,256,93901,2,0,L|288:240,1,63.7500024318696
208,160,94174,6,0,P|192:240|224:336,1,170
368,256,94583,1,0,0:0:0:0:
400,128,94719,5,8,0:0:0:0:
384,336,94856,1,0,0:0:0:0:
384,336,94924,1,0,0:0:0:0:
384,336,94992,1,0,0:0:0:0:
192,176,95128,1,0,0:0:0:0:
416,112,95265,6,0,L|416:224,1,85
32,32,95537,2,0,L|32:128,1,85
224,368,95810,2,0,B|240:304|208:272|224:192,1,170,8|0,0:0|0:0,0:0:0:0:
320,240,96219,5,0,0:0:0:0:
128,320,96356,5,0,0:0:0:0:
336,256,96492,1,0,0:0:0:0:
176,160,96628,1,0,0:0:0:0:
288,48,96765,1,0,0:0:0:0:
115,332,96901,5,8,0:0:0:0:
344,262,97037,1,0,0:0:0:0:
168,156,97173,1,0,0:0:0:0:
291,33,97310,1,0,0:0:0:0:
101,346,97446,5,0,0:0:0:0:
352,269,97582,1,0,0:0:0:0:
159,153,97718,1,0,0:0:0:0:
294,17,97855,1,0,0:0:0:0:
256,320,97992,1,8,0:0:0:0:
256,320,98060,1,0,0:0:0:0:
256,320,98128,1,0,0:0:0:0:
256,320,98265,5,0,0:0:0:0:
256,96,98401,1,0,0:0:0:0:
336,352,98537,5,0,0:0:0:0:
64,272,98674,1,0,0:0:0:0:
240,224,98810,1,0,0:0:0:0:
176,64,98946,1,0,0:0:0:0:
128,336,99083,5,8,0:0:0:0:
176,352,99151,1,0,0:0:0:0:
224,352,99219,1,0,0:0:0:0:
272,336,99287,1,0,0:0:0:0:
304,304,99356,1,0,0:0:0:0:
192,176,99492,1,0,0:0:0:0:
48,352,99628,5,0,0:0:0:0:
384,320,99765,1,0,0:0:0:0:
208,160,99901,5,0,0:0:0:0:
240,368,100037,1,0,0:0:0:0:
288,80,100174,1,8,0:0:0:0:
240,64,100242,1,0,0:0:0:0:
192,64,100310,1,0,0:0:0:0:
144,80,100378,1,0,0:0:0:0:
112,112,100446,1,0,0:0:0:0:
304,240,100583,1,0,0:0:0:0:
288,0,100719,5,0,0:0:0:0:
256,256,100856,1,0,0:0:0:0:
256,80,100992,1,0,0:0:0:0:
288,336,101128,1,0,0:0:0:0:
240,16,101265,5,8,0:0:0:0:
272,272,101402,1,0,0:0:0:0:
272,96,101538,1,0,0:0:0:0:
240,352,101674,1,0,0:0:0:0:
256,176,101810,5,0,0:0:0:0:
464,336,101946,1,0,0:0:0:0:
48,336,102083,1,0,0:0:0:0:
256,176,102219,1,0,0:0:0:0:
464,336,102356,1,8,0:0:0:0:
416,320,102424,1,0,0:0:0:0:
368,320,102492,1,0,0:0:0:0:
320,336,102560,1,0,0:0:0:0:
272,352,102628,1,0,0:0:0:0:
224,352,102696,1,0,0:0:0:0:
176,336,102765,1,0,0:0:0:0:
144,304,102833,1,0,0:0:0:0:
144,256,102901,5,0,0:0:0:0:
256,48,103037,1,0,0:0:0:0:
368,256,103174,1,0,0:0:0:0:
166,243,103310,1,0,0:0:0:0:
256,76,103446,1,8,0:0:0:0:
345,243,103583,1,0,0:0:0:0:
184,232,103719,1,0,0:0:0:0:
256,99,103855,1,0,0:0:0:0:
327,232,103992,5,0,0:0:0:0:
184,232,104128,1,0,0:0:0:0:
416,208,104265,5,0,0:0:0:0:
96,208,104401,1,0,0:0:0:0:
256,176,104537,5,8,0:0:0:0:
256,192,104606,1,0,0:0:0:0:
256,208,104674,1,0,0:0:0:0:
256,352,104810,1,0,0:0:0:0:
160,128,104946,1,0,0:0:0:0:
352,128,105083,5,0,0:0:0:0:
256,288,105219,1,0,0:0:0:0:
160,128,105356,1,0,0:0:0:0:
371,115,105492,1,0,0:0:0:0:
256,307,105628,1,8,0:0:0:0:
140,115,105765,1,0,0:0:0:0:
394,99,105901,1,0,0:0:0:0:
256,330,106037,1,0,0:0:0:0:
117,99,106174,5,0,0:0:0:0:
394,99,106310,1,0,0:0:0:0:
48,144,106446,5,0,0:0:0:0:
464,144,106583,1,0,0:0:0:0:
256,256,106719,1,8,0:0:0:0:
256,240,106787,1,0,0:0:0:0:
256,224,106856,1,0,0:0:0:0:
256,208,106924,1,0,0:0:0:0:
256,192,106992,6,0,L|256:80,1,85
384,320,107265,6,0,P|368:352|320:384,1,85
128,320,107537,2,0,P|144:352|192:384,1,85
256,256,107810,5,8,0:0:0:0:
48,192,107946,1,0,0:0:0:0:
128,320,108083,2,0,L|224:336,1,85
384,128,108356,6,0,L|288:144,1,85
128,320,108628,2,0,L|224:336,1,85
480,224,108901,2,0,L|384:240,1,85,8|0,0:0|0:0,0:0:0:0:
48,192,109173,2,0,L|144:208,1,85
128,176,109446,6,0,P|144:96|224:48,1,170,0|0,0:0|0:0,0:0:0:0:
384,208,109992,2,0,P|368:288|288:336,1,170,0|0,0:0|0:0,0:0:0:0:
256,336,110401,1,0,0:0:0:0:
256,192,110537,5,0,0:0:0:0:
464,336,110674,1,0,0:0:0:0:
48,336,110810,1,0,0:0:0:0:
256,192,110946,1,0,0:0:0:0:
208,336,111083,6,0,L|144:304,1,42.5
272,272,111219,6,0,L|208:240,1,42.5
336,208,111356,6,0,L|272:176,1,42.5
400,144,111492,6,0,L|336:112,1,42.5
256,64,111628,5,0,0:0:0:0:
128,192,111765,1,0,0:0:0:0:
256,320,111901,1,0,0:0:0:0:
384,192,112037,1,0,0:0:0:0:
256,38,112174,5,2,0:0:0:0:
102,192,112311,1,0,0:0:0:0:
256,345,112447,1,0,0:0:0:0:
409,192,112583,1,0,0:0:0:0:
256,7,112719,5,0,0:0:0:0:
71,192,112856,1,0,0:0:0:0:
256,376,112992,1,0,0:0:0:0:
440,192,113128,1,0,0:0:0:0:
256,7,113265,5,2,0:0:0:0:
71,192,113402,1,0,0:0:0:0:
256,376,113538,1,0,0:0:0:0:
440,192,113674,1,0,0:0:0:0:
256,7,113810,5,0,0:0:0:0:
440,192,113947,1,0,0:0:0:0:
256,376,114083,1,0,0:0:0:0:
71,192,114219,1,0,0:0:0:0:
256,44,114356,5,2,0:0:0:0:
403,192,114493,1,0,0:0:0:0:
256,339,114629,1,0,0:0:0:0:
108,192,114765,1,0,0:0:0:0:
256,74,114901,5,0,0:0:0:0:
373,192,115038,1,0,0:0:0:0:
256,309,115174,1,0,0:0:0:0:
138,192,115310,1,0,0:0:0:0:
256,74,115446,1,2,0:0:0:0:
373,192,115583,1,0,0:0:0:0:
256,309,115719,1,0,0:0:0:0:
138,192,115855,1,0,0:0:0:0:
256,74,115992,5,0,0:0:0:0:
139,192,116128,1,0,0:0:0:0:
256,309,116265,1,0,0:0:0:0:
374,192,116401,1,0,0:0:0:0:
256,50,116537,5,2,0:0:0:0:
115,192,116673,1,0,0:0:0:0:
256,332,116810,1,0,0:0:0:0:
397,192,116946,1,0,0:0:0:0:
256,22,117083,5,0,0:0:0:0:
87,192,117219,1,0,0:0:0:0:
256,360,117356,1,0,0:0:0:0:
425,192,117492,1,0,0:0:0:0:
256,22,117628,1,2,0:0:0:0:
87,192,117764,1,0,0:0:0:0:
256,360,117901,1,0,0:0:0:0:
425,192,118037,1,0,0:0:0:0:
256,328,118174,5,0,0:0:0:0:
120,192,118310,1,0,0:0:0:0:
256,57,118447,1,0,0:0:0:0:
391,192,118583,1,0,0:0:0:0:
256,56,118719,5,2,0:0:0:0:
120,192,118855,1,0,0:0:0:0:
256,326,118992,1,0,0:0:0:0:
391,192,119128,1,0,0:0:0:0:
256,328,119265,5,0,0:0:0:0:
120,192,119401,1,0,0:0:0:0:
256,57,119538,1,0,0:0:0:0:
391,192,119674,1,0,0:0:0:0:
256,56,119810,5,2,0:0:0:0:
120,192,119946,1,0,0:0:0:0:
256,326,120083,1,0,0:0:0:0:
391,192,120219,1,0,0:0:0:0:
256,57,120356,5,0,0:0:0:0:
256,326,120492,5,0,0:0:0:0:
208,144,120628,1,0,0:0:0:0:
352,48,120765,1,0,0:0:0:0:
160,64,120901,1,2,0:0:0:0:
294,296,121037,5,0,0:0:0:0:
161,162,121174,1,0,0:0:0:0:
238,7,121310,1,0,0:0:0:0:
80,112,121446,1,0,0:0:0:0:
312,245,121582,5,0,0:0:0:0:
129,196,121718,1,0,0:0:0:0:
119,23,121855,1,0,0:0:0:0:
144,128,121992,1,2,0:0:0:0:
315,191,122128,5,0,0:0:0:0:
132,240,122264,1,0,0:0:0:0:
37,95,122401,1,0,0:0:0:0:
128,144,122536,5,0,0:0:0:0:
384,144,122674,1,0,0:0:0:0:
128,144,122809,1,0,0:0:0:0:
384,144,122947,1,0,0:0:0:0:
128,144,123082,1,2,0:0:0:0:
384,144,123220,1,0,0:0:0:0:
128,144,123355,1,0,0:0:0:0:
384,144,123493,1,0,0:0:0:0:
128,144,123627,5,0,0:0:0:0:
384,144,123765,1,0,0:0:0:0:
128,144,123900,1,0,0:0:0:0:
384,144,124038,1,0,0:0:0:0:
128,144,124173,1,2,0:0:0:0:
384,144,124311,1,0,0:0:0:0:
128,144,124446,1,0,0:0:0:0:
384,144,124584,1,0,0:0:0:0:
48,192,124719,5,0,0:0:0:0:
80,272,124856,5,0,0:0:0:0:
112,128,124992,1,0,0:0:0:0:
144,0,125128,1,0,0:0:0:0:
80,272,125265,5,2,0:0:0:0:
142,330,125402,5,0,0:0:0:0:
110,186,125538,1,0,0:0:0:0:
85,57,125674,1,0,0:0:0:0:
144,336,125810,5,0,0:0:0:0:
224,362,125947,5,0,0:0:0:0:
134,245,126083,1,0,0:0:0:0:
57,139,126219,1,0,0:0:0:0:
224,368,126356,5,2,0:0:0:0:
307,357,126493,5,0,0:0:0:0:
176,289,126629,1,0,0:0:0:0:
61,226,126765,1,0,0:0:0:0:
224,368,126901,5,0,0:0:0:0:
256,192,127037,1,0,0:0:0:0:
288,16,127174,1,0,0:0:0:0:
316,360,127310,5,0,0:0:0:0:
256,192,127446,1,0,0:0:0:0:
195,23,127583,1,0,0:0:0:0:
392,307,127719,5,0,0:0:0:0:
256,192,127855,1,0,0:0:0:0:
119,76,127992,1,0,0:0:0:0:
432,224,128128,5,0,0:0:0:0:
256,192,128264,1,0,0:0:0:0:
80,160,128401,1,0,0:0:0:0:
424,131,128537,5,0,0:0:0:0:
256,192,128673,1,0,0:0:0:0:
87,252,128810,1,0,0:0:0:0:
416,256,128946,5,0,0:0:0:0:
87,252,129083,2,0,P|64:192|80:128,1,127.500004863739
256,112,129492,1,0,0:0:0:0:
336,192,129628,5,8,0:0:0:0:
144,192,129765,1,0,0:0:0:0:
432,208,129901,5,0,0:0:0:0:
240,208,130038,1,0,0:0:0:0:
496,272,130174,6,0,P|519:212|503:148,1,127.500004863739
327,132,130583,1,0,0:0:0:0:
247,212,130719,5,8,0:0:0:0:
439,212,130856,1,0,0:0:0:0:
151,228,130992,5,0,0:0:0:0:
343,228,131128,1,0,0:0:0:0:
16,272,131265,5,0,0:0:0:0:
512,144,131401,1,0,0:0:0:0:
480,224,131537,1,0,0:0:0:0:
16,112,131674,1,0,0:0:0:0:
16,272,131810,5,8,0:0:0:0:
480,160,131946,1,0,0:0:0:0:
512,240,132083,1,0,0:0:0:0:
16,112,132219,1,0,0:0:0:0:
16,272,132356,5,0,0:0:0:0:
512,144,132492,1,0,0:0:0:0:
480,224,132628,1,0,0:0:0:0:
16,112,132765,1,0,0:0:0:0:
16,272,132901,5,8,0:0:0:0:
480,160,133037,1,0,0:0:0:0:
512,240,133173,1,0,0:0:0:0:
16,112,133310,1,0,0:0:0:0:
16,272,133446,6,0,P|80:240|144:240,1,127.500004863739
112,352,133856,1,0,0:0:0:0:
16,112,133992,1,8,0:0:0:0:
176,80,134128,1,0,0:0:0:0:
272,192,134265,5,0,0:0:0:0:
112,160,134401,1,0,0:0:0:0:
416,160,134537,6,0,P|352:192|288:192,1,127.500004863739
320,80,134947,1,0,0:0:0:0:
416,320,135083,1,8,0:0:0:0:
256,352,135219,1,0,0:0:0:0:
160,240,135356,5,0,0:0:0:0:
320,272,135492,1,0,0:0:0:0:
112,336,135628,5,0,0:0:0:0:
272,0,135765,1,0,0:0:0:0:
288,352,135901,1,0,0:0:0:0:
240,16,136037,1,0,0:0:0:0:
224,352,136174,5,8,0:0:0:0:
272,32,136310,1,0,0:0:0:0:
256,336,136446,1,0,0:0:0:0:
240,48,136583,1,0,0:0:0:0:
288,320,136719,6,0,L|224:304,1,63.7500024318696
224,64,136992,2,0,L|288:80,1,63.7500024318696
256,192,137265,1,8,0:0:0:0:
48,144,137401,5,0,0:0:0:0:
464,240,137537,1,0,0:0:0:0:
464,240,137810,5,0,0:0:0:0:
416,352,137946,5,0,0:0:0:0:
464,144,138083,1,0,0:0:0:0:
288,64,138219,1,0,0:0:0:0:
467,165,138356,5,8,0:0:0:0:
461,287,138492,5,0,0:0:0:0:
435,75,138629,1,0,0:0:0:0:
242,60,138765,1,0,0:0:0:0:
446,95,138901,5,0,0:0:0:0:
481,211,139037,5,0,0:0:0:0:
384,21,139174,1,0,0:0:0:0:
198,73,139310,1,0,0:0:0:0:
401,35,139446,5,8,0:0:0:0:
474,133,139582,5,0,0:0:0:0:
318,0,139719,1,0,0:0:0:0:
161,100,139855,1,0,0:0:0:0:
339,0,139992,5,0,0:0:0:0:
441,62,140128,5,0,0:0:0:0:
244,0,140265,1,0,0:0:0:0:
135,138,140401,1,0,0:0:0:0:
267,0,140537,5,8,0:0:0:0:
385,6,140673,5,0,0:0:0:0:
172,0,140810,1,0,0:0:0:0:
124,182,140946,1,0,0:0:0:0:
193,0,141083,5,0,0:0:0:0:
314,0,141219,5,0,0:0:0:0:
110,35,141356,1,0,0:0:0:0:
129,228,141492,1,0,0:0:0:0:
127,21,141628,5,8,0:0:0:0:
236,0,141764,5,0,0:0:0:0:
65,95,141901,1,0,0:0:0:0:
149,269,142037,1,0,0:0:0:0:
76,75,142174,5,0,0:0:0:0:
256,112,142310,1,0,0:0:0:0:
432,144,142446,1,0,0:0:0:0:
144,128,142583,5,0,0:0:0:0:
41,180,142719,5,8,0:0:0:0:
215,122,142855,1,0,0:0:0:0:
384,62,142991,1,0,0:0:0:0:
127,192,143128,5,0,0:0:0:0:
64,289,143265,5,0,0:0:0:0:
186,152,143401,1,0,0:0:0:0:
302,15,143537,1,0,0:0:0:0:
144,256,143674,5,0,0:0:0:0:
138,372,143810,5,8,0:0:0:0:
176,192,143946,1,0,0:0:0:0:
208,16,144082,1,0,0:0:0:0:
192,304,144219,5,0,0:0:0:0:
256,384,144356,5,0,0:0:0:0:
448,192,144492,1,0,0:0:0:0:
256,0,144628,1,0,0:0:0:0:
64,192,144765,1,0,0:0:0:0:
256,384,144901,5,0,0:0:0:0:
448,192,145037,1,0,0:0:0:0:
256,0,145173,1,0,0:0:0:0:
64,192,145310,1,0,0:0:0:0:
256,384,145446,5,0,0:0:0:0:
448,192,145582,1,0,0:0:0:0:
256,0,145718,1,0,0:0:0:0:
64,192,145855,1,0,0:0:0:0:
256,384,145992,5,0,0:0:0:0:
448,192,146128,1,0,0:0:0:0:
256,0,146264,1,0,0:0:0:0:
64,192,146401,1,0,0:0:0:0:
256,384,146537,6,0,B|272:320|240:272|256:208,1,170
254,215,146946,1,0,0:0:0:0:
336,304,147083,5,8,0:0:0:0:
288,320,147151,1,0,0:0:0:0:
240,320,147219,1,0,0:0:0:0:
192,304,147287,1,0,0:0:0:0:
160,272,147356,1,0,0:0:0:0:
272,128,147492,1,0,0:0:0:0:
416,336,147628,5,0,0:0:0:0:
160,160,147765,1,0,0:0:0:0:
192,384,147901,5,0,0:0:0:0:
256,48,148037,1,0,0:0:0:0:
336,192,148174,5,8,0:0:0:0:
80,144,148310,1,0,0:0:0:0:
192,272,148446,1,0,0:0:0:0:
160,0,148583,1,0,0:0:0:0:
128,320,148719,5,0,0:0:0:0:
176,336,148787,1,0,0:0:0:0:
224,336,148856,1,0,0:0:0:0:
272,320,148924,1,0,0:0:0:0:
304,288,148992,1,0,0:0:0:0:
336,96,149128,1,0,0:0:0:0:
336,96,149265,5,8,0:0:0:0:
352,144,149333,1,0,0:0:0:0:
352,192,149402,1,0,0:0:0:0:
336,240,149470,1,0,0:0:0:0:
304,272,149538,1,0,0:0:0:0:
112,304,149674,1,0,0:0:0:0:
256,144,149810,5,0,0:0:0:0:
464,336,149946,1,0,0:0:0:0:
48,336,150083,1,0,0:0:0:0:
256,144,150219,1,0,0:0:0:0:
464,336,150356,5,8,0:0:0:0:
416,352,150424,1,0,0:0:0:0:
368,352,150492,1,0,0:0:0:0:
320,336,150560,1,0,0:0:0:0:
272,320,150628,1,0,0:0:0:0:
224,320,150696,1,0,0:0:0:0:
176,336,150765,1,0,0:0:0:0:
128,352,150833,1,0,0:0:0:0:
80,336,150901,5,0,0:0:0:0:
160,176,151037,1,0,0:0:0:0:
240,336,151174,1,0,0:0:0:0:
0,304,151310,1,0,0:0:0:0:
160,176,151446,5,8,0:0:0:0:
208,160,151515,1,0,0:0:0:0:
256,160,151583,1,0,0:0:0:0:
304,176,151651,1,0,0:0:0:0:
336,208,151719,1,0,0:0:0:0:
256,352,151856,1,0,0:0:0:0:
208,80,151992,5,0,0:0:0:0:
352,288,152128,1,0,0:0:0:0:
224,240,152265,1,0,0:0:0:0:
464,144,152401,1,0,0:0:0:0:
352,288,152537,1,8,0:0:0:0:
368,240,152606,1,0,0:0:0:0:
368,192,152674,1,0,0:0:0:0:
352,144,152742,1,0,0:0:0:0:
320,96,152810,5,0,0:0:0:0:
256,352,152946,1,0,0:0:0:0:
480,256,153083,6,0,L|480:160,1,85
48,144,153356,2,0,L|48:48,1,85,0|0,0:0|0:0,0:0:0:0:
256,240,153628,2,0,L|256:352,1,85,8|0,0:0|0:0,0:0:0:0:
192,176,153901,1,0,0:0:0:0:
192,80,154037,1,0,0:0:0:0:
464,144,154174,5,0,0:0:0:0:
176,256,154310,1,0,0:0:0:0:
416,208,154446,1,0,0:0:0:0:
112,128,154583,1,0,0:0:0:0:
176,352,154719,5,8,0:0:0:0:
224,336,154787,1,0,0:0:0:0:
272,336,154856,1,0,0:0:0:0:
320,352,154924,1,0,0:0:0:0:
368,368,154992,1,0,0:0:0:0:
416,368,155060,1,0,0:0:0:0:
464,336,155128,1,0,0:0:0:0:
480,288,155196,1,0,0:0:0:0:
480,240,155265,5,0,0:0:0:0:
256,144,155401,1,0,0:0:0:0:
96,304,155537,1,0,0:0:0:0:
336,192,155674,1,0,0:0:0:0:
336,176,155742,1,0,0:0:0:0:
336,160,155810,5,8,0:0:0:0:
256,48,155946,1,0,0:0:0:0:
176,352,156083,1,0,0:0:0:0:
96,112,156219,1,0,0:0:0:0:
368,80,156356,5,0,0:0:0:0:
160,176,156492,1,0,0:0:0:0:
336,272,156628,1,0,0:0:0:0:
256,320,156765,1,0,0:0:0:0:
240,320,156833,1,0,0:0:0:0:
224,320,156901,5,8,0:0:0:0:
432,288,157037,1,0,0:0:0:0:
272,352,157174,2,0,L|160:352,1,85
64,272,157446,5,0,0:0:0:0:
112,256,157515,1,0,0:0:0:0:
144,224,157583,1,0,0:0:0:0:
160,176,157651,1,0,0:0:0:0:
160,128,157719,1,0,0:0:0:0:
32,160,157856,1,0,0:0:0:0:
224,320,157992,5,8,0:0:0:0:
272,336,158060,1,0,0:0:0:0:
320,336,158128,1,0,0:0:0:0:
368,320,158196,1,0,0:0:0:0:
416,288,158265,1,0,0:0:0:0:
464,96,158401,5,0,0:0:0:0:
193,15,158537,1,0,0:0:0:0:
174,56,158606,1,0,0:0:0:0:
176,107,158674,1,0,0:0:0:0:
192,152,158742,1,0,0:0:0:0:
224,192,158810,1,0,0:0:0:0:
270,226,158878,1,0,0:0:0:0:
301,265,158946,1,0,0:0:0:0:
303,316,159015,1,0,0:0:0:0:
284,357,159083,5,8,0:0:0:0:
96,288,159219,1,0,0:0:0:0:
272,96,159356,1,0,0:0:0:0:
352,192,159492,1,0,0:0:0:0:
112,192,159628,6,0,P|80:112|112:32,1,170
256,112,160037,1,0,0:0:0:0:
320,256,160174,2,0,P|288:272|240:272,1,85,8|0,0:0|0:0,0:0:0:0:
256,112,160446,2,0,P|288:96|336:96,1,85
432,336,160719,6,0,L|448:240,1,85
80,336,160992,2,0,L|64:240,1,85
256,32,161265,2,0,L|256:144,1,85,8|0,0:0|0:0,0:0:0:0:
256,336,161537,5,0,0:0:0:0:
256,128,161674,1,0,0:0:0:0:
320,224,161810,6,0,P|272:240|208:240,1,85
80,96,162083,2,0,P|128:80|192:80,1,85
496,256,162356,2,0,P|448:272|384:272,1,85,8|0,0:0|0:0,0:0:0:0:
256,128,162629,2,0,P|304:112|368:112,1,85
320,320,162901,5,0,0:0:0:0:
240,272,163037,2,0,L|192:288,2,42.5,0|0|0,0:0|0:0|0:0,0:0:0:0:
384,240,163310,1,0,0:0:0:0:
384,240,163378,1,0,0:0:0:0:
384,240,163446,6,0,P|400:160|384:64,1,170,8|0,0:0|0:0,0:0:0:0:
387,73,163992,5,0,0:0:0:0:
304,208,164128,1,0,0:0:0:0:
496,144,164265,1,0,0:0:0:0:
272,48,164401,2,0,L|224:64,2,42.5,0|0|8,0:0|0:0|0:0,0:0:0:0:
272,48,164674,5,0,0:0:0:0:
464,240,164810,1,0,0:0:0:0:
208,336,164946,1,0,0:0:0:0:
272,48,165083,5,0,0:0:0:0:
208,240,165219,1,0,0:0:0:0:
416,176,165356,1,0,0:0:0:0:
272,48,165492,2,0,L|272:0,2,42.5,0|0|8,0:0|0:0|0:0,0:0:0:0:
272,48,165765,5,0,0:0:0:0:
288,288,165901,1,0,0:0:0:0:
48,144,166037,1,0,0:0:0:0:
464,144,166174,5,0,0:0:0:0:
320,336,166310,1,0,0:0:0:0:
256,144,166446,1,0,0:0:0:0:
192,336,166583,1,0,0:0:0:0:
48,144,166719,5,8,0:0:0:0:
192,336,166855,1,0,0:0:0:0:
256,144,166991,1,0,0:0:0:0:
320,336,167128,1,0,0:0:0:0:
464,144,167265,5,0,0:0:0:0:
320,336,167401,1,0,0:0:0:0:
256,144,167537,1,0,0:0:0:0:
192,336,167674,1,0,0:0:0:0:
48,144,167810,5,8,0:0:0:0:
192,336,167946,1,0,0:0:0:0:
256,144,168082,1,0,0:0:0:0:
320,336,168219,1,0,0:0:0:0:
464,144,168356,6,0,P|480:192|480:240,1,85
256,272,168628,1,0,0:0:0:0:
176,208,168765,1,0,0:0:0:0:
336,208,168901,1,8,0:0:0:0:
160,304,169037,1,0,0:0:0:0:
144,304,169106,1,0,0:0:0:0:
128,304,169174,1,0,0:0:0:0:
48,256,169310,1,0,0:0:0:0:
256,144,169446,5,0,0:0:0:0:
352,304,169583,1,0,0:0:0:0:
160,304,169719,1,0,0:0:0:0:
256,144,169856,1,0,0:0:0:0:
288,368,169992,5,8,0:0:0:0:
240,384,170060,1,0,0:0:0:0:
192,384,170128,1,0,0:0:0:0:
144,368,170196,1,0,0:0:0:0:
112,336,170265,1,0,0:0:0:0:
96,288,170333,1,0,0:0:0:0:
96,240,170401,1,0,0:0:0:0:
112,192,170469,1,0,0:0:0:0:
96,144,170537,5,0,0:0:0:0:
16,352,170674,1,0,0:0:0:0:
256,240,170810,1,0,0:0:0:0:
256,48,170946,1,0,0:0:0:0:
416,144,171083,1,8,0:0:0:0:
496,352,171220,1,0,0:0:0:0:
256,240,171356,5,0,0:0:0:0:
256,48,171492,1,0,0:0:0:0:
416,144,171628,5,0,0:0:0:0:
496,352,171765,1,0,0:0:0:0:
256,240,171901,1,0,0:0:0:0:
256,48,172037,1,0,0:0:0:0:
96,144,172174,1,8,0:0:0:0:
16,352,172311,1,0,0:0:0:0:
256,240,172447,5,0,0:0:0:0:
256,48,172583,1,0,0:0:0:0:
212,328,172719,6,0,P|260:336|300:328,1,85
256,144,172992,1,0,0:0:0:0:
128,257,173128,6,0,P|157:296|190:319,1,85,0|8,0:0|0:0,0:0:0:0:
289,158,173401,1,0,0:0:0:0:
120,148,173537,6,0,P|112:196|119:236,1,85
304,191,173810,1,0,0:0:0:0:
190,64,173946,6,0,P|151:93|128:126,1,85
289,225,174219,1,0,0:0:0:0:
300,56,174356,6,0,P|252:48|212:55,1,85,8|0,0:0|0:0,0:0:0:0:
256,239,174629,1,0,0:0:0:0:
256,128,174765,1,0,0:0:0:0:
160,336,174901,5,0,0:0:0:0:
352,304,175037,1,0,0:0:0:0:
160,256,175174,1,0,0:0:0:0:
352,224,175310,1,0,0:0:0:0:
160,176,175446,1,8,0:0:0:0:
352,144,175582,1,0,0:0:0:0:
160,96,175719,1,0,0:0:0:0:
352,64,175855,1,0,0:0:0:0:
256,112,175992,5,0,0:0:0:0:
448,144,176128,1,0,0:0:0:0:
256,192,176265,1,0,0:0:0:0:
448,224,176401,1,0,0:0:0:0:
256,272,176537,1,8,0:0:0:0:
448,304,176673,1,0,0:0:0:0:
256,352,176810,1,0,0:0:0:0:
448,384,176946,1,0,0:0:0:0:
120,236,177083,6,0,P|112:188|120:148,1,85
304,192,177356,1,0,0:0:0:0:
191,320,177492,6,0,P|152:291|129:258,1,85,0|8,0:0|0:0,0:0:0:0:
290,159,177765,1,0,0:0:0:0:
300,328,177901,6,0,P|252:336|212:329,1,85
257,144,178174,1,0,0:0:0:0:
384,258,178310,6,0,P|355:297|322:320,1,85
223,159,178583,1,0,0:0:0:0:
392,148,178719,6,0,P|400:196|393:236,1,85,8|0,0:0|0:0,0:0:0:0:
209,192,178993,1,0,0:0:0:0:
320,192,179129,1,0,0:0:0:0:
120,236,179265,6,0,P|112:188|119:148,1,85
392,148,179537,2,0,P|400:196|393:236,1,85
64,304,179810,6,0,L|16:320,1,42.5,8|0,0:0|0:0,0:0:0:0:
80,224,179946,2,0,L|32:224,1,42.5
48,144,180083,2,0,L|-16:144,1,42.5
112,64,180219,2,0,L|64:48,1,42.5
416,304,180356,6,0,L|464:320,1,42.5
464,224,180492,2,0,L|512:224,1,42.5
432,144,180629,2,0,L|496:144,1,42.5
448,64,180765,2,0,L|496:48,1,42.5
256,192,180901,1,8,0:0:0:0:
204,244,181446,2,0,P|221:129|296:253,1,340,2|0,0:0|0:0,0:0:0:0:
204,244,182674,5,0,0:0:0:0:
128,112,182810,1,0,0:0:0:0:
256,32,182946,1,0,0:0:0:0:
384,112,183083,1,0,0:0:0:0:
304,240,183219,1,0,0:0:0:0:
128,112,183356,5,0,0:0:0:0:
384,112,183492,1,0,0:0:0:0:
256,320,183628,5,0,0:0:0:0:
128,224,183765,1,0,0:0:0:0:
272,176,183901,1,0,0:0:0:0:
160,336,184037,1,0,0:0:0:0:
176,128,184174,1,8,0:0:0:0:
336,256,184310,1,0,0:0:0:0:
64,304,184446,1,0,0:0:0:0:
96,48,184583,1,0,0:0:0:0:
208,240,184719,5,0,0:0:0:0:
80,144,184856,1,0,0:0:0:0:
352,176,184992,1,0,0:0:0:0:
96,384,185128,1,0,0:0:0:0:
256,48,185265,6,0,L|256:96,1,42.5,8|0,0:0|0:0,0:0:0:0:
176,128,185401,2,0,L|176:176,1,42.5
240,240,185537,2,0,L|240:288,1,42.5
320,320,185673,2,0,L|320:368,1,42.5
464,240,185810,5,0,0:0:0:0:
304,144,185946,1,0,0:0:0:0:
336,336,186083,1,0,0:0:0:0:
368,80,186219,1,0,0:0:0:0:
224,224,186356,1,8,0:0:0:0:
432,336,186492,1,0,0:0:0:0:
480,128,186628,1,0,0:0:0:0:
208,128,186765,1,0,0:0:0:0:
384,272,186901,5,0,0:0:0:0:
448,32,187037,1,0,0:0:0:0:
272,64,187174,1,0,0:0:0:0:
512,256,187310,1,0,0:0:0:0:
144,192,187446,6,0,L|144:240,1,42.5,8|0,0:0|0:0,0:0:0:0:
224,64,187583,2,0,L|224:112,1,42.5
320,160,187719,2,0,L|320:208,1,42.5
416,272,187856,2,0,L|416:320,1,42.5
256,336,187992,5,0,0:0:0:0:
480,128,188128,1,0,0:0:0:0:
400,288,188265,1,0,0:0:0:0:
224,160,188401,1,0,0:0:0:0:
352,384,188537,5,8,0:0:0:0:
384,80,188674,1,0,0:0:0:0:
288,240,188810,5,0,0:0:0:0:
496,224,188946,1,0,0:0:0:0:
224,144,189083,5,0,0:0:0:0:
16,160,189219,1,0,0:0:0:0:
96,336,189356,5,0,0:0:0:0:
128,32,189493,1,0,0:0:0:0:
32,176,189628,5,8,0:0:0:0:
320,144,189765,1,0,0:0:0:0:
224,48,189901,1,0,0:0:0:0:
0,288,190037,1,0,0:0:0:0:
320,144,190174,5,0,0:0:0:0:
192,368,190310,1,0,0:0:0:0:
160,112,190446,1,0,0:0:0:0:
320,304,190583,1,0,0:0:0:0:
128,208,190719,5,8,0:0:0:0:
320,48,190856,1,0,0:0:0:0:
224,272,190992,1,0,0:0:0:0:
48,48,191128,1,0,0:0:0:0:
464,192,191265,5,0,0:0:0:0:
240,128,191401,1,0,0:0:0:0:
304,208,191537,1,0,0:0:0:0:
416,16,191674,1,0,0:0:0:0:
128,64,191810,1,8,0:0:0:0:
112,112,191878,1,0,0:0:0:0:
112,160,191946,1,0,0:0:0:0:
128,208,192015,1,0,0:0:0:0:
160,240,192083,1,0,0:0:0:0:
464,192,192219,1,0,0:0:0:0:
256,0,192356,5,0,0:0:0:0:
432,272,192492,1,0,0:0:0:0:
496,96,192628,1,0,0:0:0:0:
240,128,192765,1,0,0:0:0:0:
272,288,192901,5,8,0:0:0:0:
336,48,193037,1,0,0:0:0:0:
32,144,193174,1,0,0:0:0:0:
176,352,193310,1,0,0:0:0:0:
176,64,193446,5,0,0:0:0:0:
48,336,193583,1,0,0:0:0:0:
416,144,193719,1,0,0:0:0:0:
64,32,193856,1,0,0:0:0:0:
320,288,193992,1,8,0:0:0:0:
368,272,194060,1,0,0:0:0:0:
400,240,194128,1,0,0:0:0:0:
416,192,194196,1,0,0:0:0:0:
416,144,194265,1,0,0:0:0:0:
96,192,194401,1,0,0:0:0:0:
272,368,194537,5,0,0:0:0:0:
320,48,194674,1,0,0:0:0:0:
144,272,194810,1,0,0:0:0:0:
496,160,194946,1,0,0:0:0:0:
192,96,195083,5,8,0:0:0:0:
176,368,195219,1,0,0:0:0:0:
448,48,195356,1,0,0:0:0:0:
96,96,195492,1,0,0:0:0:0:
240,272,195628,5,0,0:0:0:0:
384,112,195765,1,0,0:0:0:0:
144,16,195901,1,0,0:0:0:0:
80,352,196037,1,0,0:0:0:0:
317,61,196174,1,8,0:0:0:0:
280,27,196242,1,0,0:0:0:0:
237,6,196310,1,0,0:0:0:0:
187,1,196378,1,0,0:0:0:0:
144,16,196446,1,0,0:0:0:0:
256,192,196583,1,0,0:0:0:0:
448,48,196719,5,0,0:0:0:0:
64,48,196856,1,0,0:0:0:0:
240,368,196992,1,0,0:0:0:0:
272,288,197128,1,0,0:0:0:0:
240,208,197265,1,8,0:0:0:0:
256,128,197401,5,0,0:0:0:0:
464,336,197537,1,0,0:0:0:0:
48,336,197674,1,0,0:0:0:0:
256,64,197810,5,0,0:0:0:0:
336,192,197946,1,0,0:0:0:0:
144,288,198083,1,0,0:0:0:0:
448,352,198219,1,0,0:0:0:0:
256,0,198356,5,8,0:0:0:0:
0,192,198492,1,0,0:0:0:0:
256,384,198628,1,0,0:0:0:0:
512,192,198765,1,0,0:0:0:0:
256,0,198901,6,0,P|208:64|208:160,1,170
424,144,199310,1,0,0:0:0:0:
80,240,199446,2,0,P|139:293|235:301,1,170,8|0,0:0|0:0,0:0:0:0:
256,0,199856,1,0,0:0:0:0:
176,320,199992,5,0,0:0:0:0:
456,128,200128,1,0,0:0:0:0:
56,128,200265,1,0,0:0:0:0:
336,320,200401,1,0,0:0:0:0:
256,0,200537,6,0,L|256:48,1,42.5,8|0,0:0|0:0,0:0:0:0:
80,336,200674,2,0,L|80:288,1,42.5
176,160,200810,2,0,L|176:208,1,42.5
256,288,200946,2,0,L|256:224,1,42.5
320,112,201083,5,0,0:0:0:0:
256,288,201219,1,0,0:0:0:0:
80,336,201356,1,0,0:0:0:0:
347,146,201492,5,0,0:0:0:0:
215,279,201628,1,8,0:0:0:0:
35,248,201765,1,0,0:0:0:0:
358,189,201901,5,0,0:0:0:0:
182,253,202037,1,0,0:0:0:0:
32,149,202174,5,0,0:0:0:0:
176,48,202310,1,0,0:0:0:0:
256,288,202446,1,0,0:0:0:0:
336,48,202583,1,0,0:0:0:0:
416,176,202719,1,8,0:0:0:0:
368,192,202787,1,0,0:0:0:0:
320,192,202856,1,0,0:0:0:0:
272,176,202924,1,0,0:0:0:0:
232,160,202992,1,0,0:0:0:0:
184,144,203060,1,0,0:0:0:0:
136,144,203128,1,0,0:0:0:0:
88,160,203196,1,0,0:0:0:0:
56,192,203265,5,0,0:0:0:0:
256,288,203401,1,0,0:0:0:0:
416,176,203537,1,0,0:0:0:0:
114,333,203674,5,0,0:0:0:0:
323,259,203810,1,8,0:0:0:0:
357,67,203946,1,0,0:0:0:0:
256,384,204083,5,0,0:0:0:0:
352,192,204219,1,0,0:0:0:0:
256,32,204355,5,0,0:0:0:0:
176,336,204492,1,0,0:0:0:0:
416,160,204628,1,0,0:0:0:0:
96,160,204765,1,0,0:0:0:0:
336,336,204901,1,8,0:0:0:0:
320,288,204969,1,0,0:0:0:0:
320,240,205037,1,0,0:0:0:0:
336,192,205106,1,0,0:0:0:0:
368,160,205174,1,0,0:0:0:0:
448,272,205310,1,0,0:0:0:0:
64,272,205446,5,0,0:0:0:0:
112,288,205515,1,0,0:0:0:0:
160,272,205583,1,0,0:0:0:0:
192,240,205651,1,0,0:0:0:0:
208,192,205719,1,0,0:0:0:0:
192,144,205787,1,0,0:0:0:0:
240,144,205856,1,0,0:0:0:0:
272,112,205924,1,0,0:0:0:0:
288,64,205992,5,8,0:0:0:0:
112,192,206128,1,0,0:0:0:0:
432,192,206265,1,0,0:0:0:0:
288,64,206401,1,0,0:0:0:0:
112,192,206537,5,0,0:0:0:0:
112,144,206606,1,0,0:0:0:0:
128,96,206674,1,0,0:0:0:0:
160,64,206742,1,0,0:0:0:0:
208,48,206810,1,0,0:0:0:0:
192,96,206878,1,0,0:0:0:0:
192,144,206946,1,0,0:0:0:0:
208,192,207015,1,0,0:0:0:0:
240,224,207083,5,8,0:0:0:0:
400,80,207219,1,0,0:0:0:0:
80,80,207356,1,0,0:0:0:0:
240,224,207492,1,0,0:0:0:0:
400,80,207628,5,0,0:0:0:0:
416,128,207696,1,0,0:0:0:0:
416,176,207765,1,0,0:0:0:0:
400,224,207833,1,0,0:0:0:0:
368,256,207901,1,0,0:0:0:0:
320,272,207969,1,0,0:0:0:0:
272,272,208037,1,0,0:0:0:0:
224,256,208106,1,0,0:0:0:0:
256,224,208174,5,8,0:0:0:0:
272,176,208242,1,0,0:0:0:0:
272,128,208310,1,0,0:0:0:0:
256,80,208378,1,0,0:0:0:0:
224,48,208446,1,0,0:0:0:0:
176,32,208515,1,0,0:0:0:0:
128,32,208583,1,0,0:0:0:0:
80,48,208651,1,0,0:0:0:0:
112,80,208719,5,0,0:0:0:0:
128,128,208787,1,0,0:0:0:0:
128,176,208856,1,0,0:0:0:0:
112,224,208924,1,0,0:0:0:0:
80,192,208992,5,0,0:0:0:0:
48,224,209060,1,0,0:0:0:0:
32,272,209128,1,0,0:0:0:0:
32,320,209196,1,0,0:0:0:0:
80,304,209265,5,8,0:0:0:0:
128,304,209333,1,0,0:0:0:0:
176,320,209401,1,0,0:0:0:0:
208,352,209469,1,0,0:0:0:0:
240,320,209537,1,0,0:0:0:0:
288,304,209606,1,0,0:0:0:0:
336,304,209674,1,0,0:0:0:0:
384,320,209742,1,0,0:0:0:0:
416,352,209810,5,0,0:0:0:0:
96,352,209946,1,0,0:0:0:0:
384,240,210083,1,0,0:0:0:0:
128,240,210219,1,0,0:0:0:0:
336,160,210356,1,8,0:0:0:0:
176,160,210492,1,0,0:0:0:0:
432,96,210628,1,0,0:0:0:0:
80,96,210765,1,0,0:0:0:0:
256,288,210901,5,0,0:0:0:0:
480,32,211037,1,0,0:0:0:0:
32,32,211174,1,0,0:0:0:0:
256,368,211310,1,0,0:0:0:0:
256,80,211446,6,0,L|256:144,1,42.5,8|0,0:0|0:0,0:0:0:0:
384,224,211583,2,0,L|384:288,1,42.5
256,368,211719,2,0,L|256:320,1,42.5
128,224,211856,2,0,L|128:288,1,42.5
256,64,211992,5,0,0:0:0:0:
384,224,212128,1,0,0:0:0:0:
256,368,212265,1,0,0:0:0:0:
128,224,212401,1,0,0:0:0:0:
256,64,212537,5,8,0:0:0:0:
128,224,212673,1,0,0:0:0:0:
256,368,212810,1,0,0:0:0:0:
384,224,212946,1,0,0:0:0:0:
256,64,213083,5,0,0:0:0:0:
336,352,213219,1,0,0:0:0:0:
176,352,213356,1,0,0:0:0:0:
256,64,213492,1,0,0:0:0:0:
336,352,213628,6,0,L|320:304,1,42.5,8|0,0:0|0:0,0:0:0:0:
224,224,213765,2,0,L|240:176,1,42.5
304,16,213901,2,0,L|288:64,1,42.5
144,80,214038,2,0,L|160:128,1,42.5
256,368,214174,5,0,0:0:0:0:
384,112,214310,1,0,0:0:0:0:
80,208,214446,1,0,0:0:0:0:
352,272,214583,1,0,0:0:0:0:
208,144,214719,5,8,0:0:0:0:
128,336,214856,1,0,0:0:0:0:
448,208,214992,1,0,0:0:0:0:
48,112,215128,1,0,0:0:0:0:
208,272,215265,5,0,0:0:0:0:
224,64,215401,1,0,0:0:0:0:
304,336,215537,5,0,0:0:0:0:
288,128,215673,1,0,0:0:0:0:
288,256,215810,5,8,0:0:0:0:
272,48,215946,1,0,0:0:0:0:
192,320,216082,5,0,0:0:0:0:
208,112,216218,1,0,0:0:0:0:
288,336,216356,6,0,P|208:368|128:336,1,170
224,48,216901,2,0,P|304:16|384:48,1,170
256,192,217446,5,0,0:0:0:0:
128,176,217583,1,0,0:0:0:0:
384,208,217719,5,0,0:0:0:0:
0,192,217856,1,0,0:0:0:0:
512,192,217992,5,0,0:0:0:0:
128,208,218128,1,0,0:0:0:0:
384,192,218265,5,0,0:0:0:0:
256,176,218401,1,0,0:0:0:0:
512,208,218537,6,0,P|512:256|496:288,1,85
256,176,219092,2,0,P|256:128|272:96,1,85
352,160,219509,1,0,0:0:0:0:
112,272,219648,5,0,0:0:0:0:
112,224,219717,1,0,0:0:0:0:
112,176,219787,1,0,0:0:0:0:
112,128,219856,1,0,0:0:0:0:
112,80,219925,1,0,0:0:0:0:
160,80,219995,1,0,0:0:0:0:
192,80,220064,5,0,0:0:0:0:
240,80,220134,1,0,0:0:0:0:
208,336,220481,5,0,0:0:0:0:
240,144,220759,6,0,P|238:93|222:48,1,85
8,208,221319,2,0,P|9:258|25:303,1,85
256,256,221740,1,0,0:0:0:0:
112,304,221880,5,0,0:0:0:0:
112,288,221950,1,0,0:0:0:0:
112,272,222020,1,0,0:0:0:0:
112,256,222090,1,0,0:0:0:0:
112,240,222160,1,0,0:0:0:0:
112,224,222230,1,0,0:0:0:0:
112,208,222301,1,0,0:0:0:0:
112,192,222371,1,0,0:0:0:0:
145,280,222581,5,0,0:0:0:0:
32,224,222721,1,0,0:0:0:0:
288,160,222861,1,0,0:0:0:0:
208,352,223001,6,0,P|176:368|128:368,1,85
288,160,223567,2,0,P|320:144|368:144,1,85
352,256,223991,1,0,0:0:0:0:
176,192,224133,6,0,P|192:128|192:96,1,85,2|0,0:0|0:0,0:0:0:0:
352,256,224699,2,0,P|336:320|336:352,1,85,0|0,0:0|0:0,0:0:0:0:
464,240,225265,5,0,0:0:0:0:
304,48,225550,1,0,0:0:0:0:
208,336,225836,5,0,0:0:0:0:
48,144,226128,1,0,0:0:0:0:
256,240,226421,5,2,0:0:0:0:
304,128,226728,1,0,0:0:0:0:
128,144,227036,5,0,0:0:0:0:
80,256,227343,1,0,0:0:0:0:
304,336,227667,6,0,P|320:288|320:240,1,85
208,48,228279,2,0,P|192:96|192:144,1,85
208,240,228738,1,0,0:0:0:0:
416,96,228891,5,0,0:0:0:0:
384,112,228968,1,0,0:0:0:0:
352,128,229044,1,0,0:0:0:0:
320,144,229121,1,0,0:0:0:0:
288,160,229197,1,0,0:0:0:0:
256,176,229274,5,0,0:0:0:0:
224,192,229350,1,0,0:0:0:0:
208,176,229427,1,0,0:0:0:0:
192,144,229503,1,0,0:0:0:0:
176,112,229580,5,0,0:0:0:0:
263,174,229809,1,0,0:0:0:0:
192,320,230115,6,0,P|240:336|288:336,1,85
264,176,230812,2,0,P|216:160|168:160,1,85
192,320,231335,1,0,0:0:0:0:
288,80,231510,6,0,L|112:80,1,170,2|0,0:0|0:0,0:0:0:0:
118,80,232556,1,0,0:0:0:0:
256,240,232905,5,0,0:0:0:0:
288,80,233083,5,0,0:0:0:0:
176,176,233262,1,0,0:0:0:0:
224,320,233440,1,0,0:0:0:0:
320,176,233619,5,0,0:0:0:0:
192,80,233797,1,0,0:0:0:0:
144,272,233976,1,0,0:0:0:0:
384,96,234155,1,0,0:0:0:0:
240,0,234333,5,2,0:0:0:0:
96,208,234512,1,0,0:0:0:0:
336,304,234690,1,0,0:0:0:0:
80,96,234869,1,0,0:0:0:0:
224,368,235047,5,0,0:0:0:0:
336,16,235226,1,0,0:0:0:0:
176,192,235405,1,0,0:0:0:0:
464,224,235583,1,0,0:0:0:0:
256,80,235762,6,0,L|256:320,1,233.75
256,335,237142,5,2,0:0:0:0:
48,192,237510,1,0,0:0:0:0:
464,192,237878,1,0,0:0:0:0:
256,335,238246,1,0,0:0:0:0:
144,256,238614,2,0,L|96:304,1,42.5
