osu file format v14

[General]
AudioFilename: audio.mp3
AudioLeadIn: 0
PreviewTime: 2879
Countdown: 0
SampleSet: None
StackLeniency: 0.2
Mode: 0
LetterboxInBreaks: 0
WidescreenStoryboard: 1
SamplesMatchPlaybackRate: 1

[Editor]
DistanceSpacing: 4.3
BeatDivisor: 2
GridSize: 16
TimelineZoom: 1.9

[Metadata]
Title:Flower Dance
TitleUnicode:Flower Dance
Artist:Nightcore
ArtistUnicode:Nightcore
Creator:Ickey
Version:Dance Old
Source:
Tags:Dance Jump Nightcore Flower
BeatmapID:2501835
BeatmapSetID:679406

[Difficulty]
HPDrainRate:5
CircleSize:3.8
OverallDifficulty:8
ApproachRate:9.5
SliderMultiplier:1.39999990463257
SliderTickRate:1

[Events]
//Background and Video events
0,0,"bg.jpg",0,0
//Break Periods
2,22339,23831
//Storyboard Layer 0 (Background)
//Storyboard Layer 1 (Fail)
//Storyboard Layer 2 (Pass)
//Storyboard Layer 3 (Foreground)
//Storyboard Layer 4 (Overlay)
//Storyboard Sound Samples

[TimingPoints]
2879,340.909090909091,4,2,0,40,1,0
24356,272.727272727273,4,2,0,50,1,0
24356,-66.6666666666667,4,2,0,50,0,0
41810,-66.6666666666667,4,2,0,50,0,1
58992,-66.6666666666667,4,2,0,50,0,0
111628,-66.6666666666667,4,2,0,60,0,1
129083,-66.6666666666667,4,2,0,50,0,0
180901,-200,4,2,0,40,0,0

[HitObjects]
208,176,2879,5,0,0:0:0:0:
352,256,3219,1,0,0:0:0:0:
144,128,3560,1,0,0:0:0:0:
272,48,3901,1,0,0:0:0:0:
48,80,4242,2,0,B|104:168|40:232|168:328,1,279.999980926514
171,164,5286,6,0,P|181:91|148:63,1,69.9999952316285
336,308,5606,6,0,P|336:268|400:192,2,139.999990463257
80,256,6629,1,0,0:0:0:0:
396,48,6969,2,0,P|464:52|448:224,1,279.999980926514
144,16,7992,1,0,0:0:0:0:
136,192,8333,6,0,L|16:272,2,139.999990463257
256,368,9356,1,0,0:0:0:0:
256,0,9697,6,0,B|304:80|176:128|256:272,1,279.999980926514
256,352,10549,5,0,0:0:0:0:
256,48,10719,1,0,0:0:0:0:
256,320,10890,1,0,0:0:0:0:
256,16,11060,5,0,0:0:0:0:
480,208,11401,1,0,0:0:0:0:
32,208,11742,1,0,0:0:0:0:
256,16,12083,1,0,0:0:0:0:
32,208,12424,1,0,0:0:0:0:
480,208,12765,1,0,0:0:0:0:
256,16,13106,1,0,0:0:0:0:
256,304,13447,1,0,0:0:0:0:
464,48,13788,6,0,L|464:192,1,139.999990463257
16,16,14469,1,0,0:0:0:0:
80,176,14810,1,0,0:0:0:0:
156,312,15151,2,0,P|64:320|80:176,1,279.999980926514
64,48,16174,5,0,0:0:0:0:
256,208,16344,1,0,0:0:0:0:
64,336,16515,1,0,0:0:0:0:
400,160,16856,1,0,0:0:0:0:
64,48,17197,1,0,0:0:0:0:
224,208,17538,1,0,0:0:0:0:
384,80,17879,1,0,0:0:0:0:
512,192,18560,5,0,0:0:0:0:
256,192,18731,1,0,0:0:0:0:
0,192,18901,5,0,0:0:0:0:
256,192,19072,1,0,0:0:0:0:
256,333,19242,5,0,0:0:0:0:
64,48,19583,1,0,0:0:0:0:
256,333,19924,5,0,0:0:0:0:
448,48,20265,1,0,0:0:0:0:
352,320,20606,5,0,0:0:0:0:
96,96,20947,1,0,0:0:0:0:
432,208,21288,1,0,0:0:0:0:
112,272,21629,1,0,0:0:0:0:
256,128,21969,2,0,L|256:176,2,34.9999976158143
468,348,24356,6,0,P|440:308|496:160,1,209.99999370575
256,304,25037,1,0,0:0:0:0:
148,162,25174,1,0,0:0:0:0:
300,7,25310,1,0,0:0:0:0:
320,176,25446,2,0,B|272:288|-16:304|240:32|384:176|208:288|128:288,1,419.999987411499
224,304,26537,6,0,P|124:232|224:64,1,314.999990558624
256,48,27083,6,0,L|256:144,2,52.4999984264374
160,272,27356,1,0,0:0:0:0:
368,112,27492,1,0,0:0:0:0:
256,336,27628,2,0,L|256:272,2,52.4999984264374
256,48,27901,2,0,L|256:112,2,52.4999984264374
208,256,28174,5,0,0:0:0:0:
304,48,28310,1,0,0:0:0:0:
304,256,28446,5,0,0:0:0:0:
208,48,28583,1,0,0:0:0:0:
304,256,28719,2,0,B|416:256|528:128|416:0|288:0,1,419.999987411499
64,336,29810,5,0,0:0:0:0:
416,176,30083,2,0,L|476:208,4,52.4999984264374
213,333,30628,5,0,0:0:0:0:
411,78,30901,1,0,0:0:0:0:
100,291,31174,1,0,0:0:0:0:
425,234,31446,1,0,0:0:0:0:
86,36,31719,1,0,0:0:0:0:
397,319,31992,1,0,0:0:0:0:
86,121,32265,1,0,0:0:0:0:
256,333,32538,1,0,0:0:0:0:
440,50,32810,1,0,0:0:0:0:
384,352,33083,6,0,P|420:148|240:96,1,419.999987411499
208,112,33765,5,0,0:0:0:0:
96,320,33901,1,0,0:0:0:0:
304,48,34037,1,0,0:0:0:0:
192,272,34174,2,0,P|240:336|448:176,1,419.999987411499
432,192,35265,5,0,0:0:0:0:
304,336,35537,1,0,0:0:0:0:
304,192,35810,1,0,0:0:0:0:
432,336,36083,1,0,0:0:0:0:
240,112,36356,5,0,0:0:0:0:
464,112,36492,1,0,0:0:0:0:
240,112,36628,1,0,0:0:0:0:
448,240,36765,1,0,0:0:0:0:
165,210,36901,6,0,L|64:240,1,104.999996852875
160,112,37174,2,0,L|48:80,1,104.999996852875
256,224,37446,6,0,P|256:112|256:128,3,104.999996852875
320,256,37992,5,0,0:0:0:0:
160,128,38128,1,0,0:0:0:0:
352,144,38265,1,0,0:0:0:0:
192,256,38401,1,0,0:0:0:0:
256,80,38537,6,0,L|368:80,1,104.999996852875
240,288,38810,2,0,L|128:288,1,104.999996852875
128,96,39083,2,0,L|32:32,1,104.999996852875
384,96,39356,2,0,L|480:32,1,104.999996852875
160,176,39628,5,0,0:0:0:0:
176,288,39765,1,0,0:0:0:0:
368,176,39901,1,0,0:0:0:0:
352,288,40037,1,0,0:0:0:0:
224,176,40174,1,0,0:0:0:0:
256,288,40310,1,0,0:0:0:0:
448,192,40446,1,0,0:0:0:0:
432,288,40583,1,0,0:0:0:0:
272,176,40719,6,0,L|176:112,1,104.999996852875
352,0,40992,5,0,0:0:0:0:
272,256,41128,1,0,0:0:0:0:
368,160,41265,1,0,0:0:0:0:
112,288,41537,1,0,0:0:0:0:
448,192,41810,6,0,L|496:96,1,104.999996852875
80,192,42083,2,0,L|16:96,1,104.999996852875
220,353,42356,5,0,0:0:0:0:
192,80,42492,1,0,0:0:0:0:
112,240,42628,2,0,L|32:336,1,104.999996852875
304,272,42901,5,0,0:0:0:0:
400,352,43037,1,0,0:0:0:0:
208,272,43174,1,0,0:0:0:0:
112,352,43310,1,0,0:0:0:0:
256,336,43446,5,0,0:0:0:0:
256,320,43515,1,0,0:0:0:0:
256,304,43583,1,0,0:0:0:0:
256,256,43719,2,0,B|256:224|256:128,1,104.999996852875
256,96,43992,5,0,0:0:0:0:
400,144,44128,1,0,0:0:0:0:
256,96,44265,1,0,0:0:0:0:
112,144,44401,1,0,0:0:0:0:
336,240,44537,6,0,L|432:304,1,104.999996852875
176,240,44810,2,0,L|80:304,1,104.999996852875
400,80,45083,2,0,B|528:80,1,104.999996852875
112,80,45356,2,0,L|0:80,1,104.999996852875
256,192,45628,1,0,0:0:0:0:
256,192,45696,1,0,0:0:0:0:
256,192,45765,1,0,0:0:0:0:
256,288,45901,5,0,0:0:0:0:
256,64,46037,1,0,0:0:0:0:
128,256,46174,6,0,L|32:320,1,104.999996852875
384,256,46446,2,0,L|480:304,1,104.999996852875
192,112,46719,1,0,0:0:0:0:
256,304,46856,1,0,0:0:0:0:
304,112,46992,1,0,0:0:0:0:
192,208,47265,5,0,0:0:0:0:
96,128,47401,1,0,0:0:0:0:
320,208,47537,1,0,0:0:0:0:
416,128,47674,1,0,0:0:0:0:
256,280,47810,2,0,L|256:176,2,104.999996852875
160,240,48356,2,0,L|64:176,1,104.999996852875
352,240,48628,2,0,L|448:176,1,104.999996852875
224,96,48901,2,0,L|144:0,1,104.999996852875
288,96,49174,2,0,L|368:0,1,104.999996852875
256,288,49446,5,0,0:0:0:0:
64,352,49719,1,0,0:0:0:0:
448,352,49992,1,0,0:0:0:0:
256,48,50265,5,0,0:0:0:0:
256,64,50333,1,0,0:0:0:0:
256,80,50401,1,0,0:0:0:0:
256,96,50469,1,0,0:0:0:0:
256,112,50537,1,0,0:0:0:0:
212,180,50674,1,0,0:0:0:0:
304,192,50810,1,0,0:0:0:0:
156,224,50946,1,0,0:0:0:0:
356,232,51083,1,0,0:0:0:0:
216,280,51219,1,0,0:0:0:0:
296,292,51356,1,0,0:0:0:0:
152,328,51492,1,0,0:0:0:0:
360,336,51628,6,0,L|464:352,1,104.999996852875
116,236,51901,2,0,L|0:208,1,104.999996852875
212,112,52174,1,0,0:0:0:0:
212,112,52242,1,0,0:0:0:0:
212,112,52310,1,0,0:0:0:0:
352,112,52446,1,0,0:0:0:0:
416,200,52583,1,0,0:0:0:0:
448,304,52719,1,0,0:0:0:0:
192,48,52992,5,0,0:0:0:0:
288,224,53128,1,0,0:0:0:0:
288,48,53265,1,0,0:0:0:0:
192,224,53401,1,0,0:0:0:0:
352,112,53537,5,0,0:0:0:0:
304,256,53674,1,0,0:0:0:0:
128,224,53810,2,0,L|64:128,1,104.999996852875
144,48,54083,2,0,L|208:144,1,104.999996852875
304,144,54356,1,0,0:0:0:0:
304,144,54424,1,0,0:0:0:0:
304,144,54492,1,0,0:0:0:0:
288,272,54628,1,0,0:0:0:0:
224,64,54765,1,0,0:0:0:0:
416,160,54901,1,0,0:0:0:0:
128,128,55174,5,0,0:0:0:0:
176,272,55310,1,0,0:0:0:0:
256,176,55446,1,0,0:0:0:0:
336,272,55583,1,0,0:0:0:0:
384,128,55719,1,0,0:0:0:0:
384,128,55992,5,0,0:0:0:0:
331,218,56128,1,0,0:0:0:0:
279,128,56265,1,0,0:0:0:0:
384,128,56401,1,0,0:0:0:0:
176,240,56537,6,0,L|80:288,1,104.999996852875
384,128,56810,1,0,0:0:0:0:
176,240,56946,1,0,0:0:0:0:
448,176,57083,6,0,L|512:80,1,104.999996852875
374,152,57356,2,0,L|416:55,1,104.999996852875
300,137,57628,2,0,L|316:22,1,104.999996852875
212,137,57901,2,0,L|197:33,1,104.999996852875
138,152,58174,2,0,L|96:55,1,104.999996852875
64,176,58446,2,0,L|5:88,1,104.999996852875
96,272,58719,5,0,0:0:0:0:
133,285,58787,1,0,0:0:0:0:
171,295,58856,1,0,0:0:0:0:
209,301,58924,1,0,0:0:0:0:
249,303,58992,1,0,0:0:0:0:
288,302,59060,1,0,0:0:0:0:
327,297,59128,1,0,0:0:0:0:
366,289,59196,1,0,0:0:0:0:
403,276,59265,1,0,0:0:0:0:
80,224,59537,5,0,0:0:0:0:
272,128,59674,1,0,0:0:0:0:
80,128,59810,1,0,0:0:0:0:
272,224,59946,1,0,0:0:0:0:
176,224,60083,5,0,0:0:0:0:
368,128,60219,1,0,0:0:0:0:
176,128,60356,1,0,0:0:0:0:
368,224,60492,1,0,0:0:0:0:
272,224,60628,5,0,0:0:0:0:
464,128,60765,1,0,0:0:0:0:
272,128,60901,2,0,P|176:160|84:242,1,209.99999370575
64,288,61310,5,0,0:0:0:0:
208,320,61446,1,0,0:0:0:0:
144,144,61583,1,0,0:0:0:0:
384,272,61719,1,0,0:0:0:0:
272,96,61856,1,0,0:0:0:0:
240,224,61992,1,0,0:0:0:0:
240,224,62060,1,0,0:0:0:0:
240,224,62128,1,0,0:0:0:0:
368,192,62265,5,0,0:0:0:0:
144,192,62401,1,0,0:0:0:0:
384,80,62537,6,0,L|384:144,2,52.4999984264374
128,80,62810,2,0,L|128:144,2,52.4999984264374
176,240,63083,5,0,0:0:0:0:
464,176,63219,1,0,0:0:0:0:
224,320,63356,2,0,L|112:384,1,104.999996852875
288,96,63628,6,0,B|416:-16|560:96|560:304|352:304,1,419.999987411499
48,160,64719,1,0,0:0:0:0:
144,64,64992,5,0,0:0:0:0:
220,51,65082,1,0,0:0:0:0:
299,51,65173,1,0,0:0:0:0:
375,64,65264,1,0,0:0:0:0:
496,240,65537,1,0,0:0:0:0:
112,320,65810,5,0,0:0:0:0:
176,128,66083,1,0,0:0:0:0:
464,80,66356,1,0,0:0:0:0:
288,240,66628,1,0,0:0:0:0:
144,48,66901,1,0,0:0:0:0:
416,160,67174,1,0,0:0:0:0:
176,192,67446,1,0,0:0:0:0:
432,272,67719,1,0,0:0:0:0:
256,32,67992,6,0,B|304:96|208:304|256:384,1,314.999990558624
112,320,68537,2,0,P|128:288|192:256,1,104.999996852875
400,320,68810,2,0,P|384:288|304:256,1,104.999996852875
256,16,69083,1,0,0:0:0:0:
256,96,69628,1,0,0:0:0:0:
96,32,70174,5,0,0:0:0:0:
176,272,70446,1,0,0:0:0:0:
368,192,70719,1,0,0:0:0:0:
64,64,70992,1,0,0:0:0:0:
256,57,71265,5,0,0:0:0:0:
368,16,71401,1,0,0:0:0:0:
236,132,71537,5,0,0:0:0:0:
352,160,71674,1,0,0:0:0:0:
197,202,71810,5,0,0:0:0:0:
304,272,71946,1,0,0:0:0:0:
144,261,72083,5,0,0:0:0:0:
192,368,72219,1,0,0:0:0:0:
128,176,72356,6,0,L|32:224,3,104.999996852875
183,119,72901,5,0,0:0:0:0:
255,246,73037,1,0,0:0:0:0:
328,119,73174,2,0,L|400:32,1,104.999996852875
255,206,73446,5,0,0:0:0:0:
163,299,73583,1,0,0:0:0:0:
347,299,73719,1,0,0:0:0:0:
255,113,73856,1,0,0:0:0:0:
163,237,73992,1,0,0:0:0:0:
347,237,74128,1,0,0:0:0:0:
255,113,74265,2,0,L|256:0,1,104.999996852875
110,83,74537,6,0,L|16:32,1,104.999996852875
255,264,74810,6,0,L|256:368,1,104.999996852875
401,83,75083,6,0,L|496:32,1,104.999996852875
110,83,75356,5,0,0:0:0:0:
255,264,75492,1,0,0:0:0:0:
401,83,75628,1,0,0:0:0:0:
110,83,75765,1,0,0:0:0:0:
255,264,75901,1,0,0:0:0:0:
404,83,76037,1,0,0:0:0:0:
110,83,76174,1,0,0:0:0:0:
48,224,76719,6,0,B|96:320|240:288,1,209.99999370575
304,272,77128,1,0,0:0:0:0:
112,272,77265,1,0,0:0:0:0:
304,224,77401,1,0,0:0:0:0:
112,224,77537,1,0,0:0:0:0:
208,368,77674,5,0,0:0:0:0:
208,224,77810,2,0,B|192:80|320:48|320:48,1,209.99999370575
272,176,78219,1,0,0:0:0:0:
304,96,78356,2,0,B|464:128|400:288,1,209.99999370575
272,176,78765,1,0,0:0:0:0:
448,80,78901,6,0,P|480:208|368:272,1,209.99999370575
272,176,79310,1,0,0:0:0:0:
304,320,79446,1,0,0:0:0:0:
256,336,79514,1,0,0:0:0:0:
208,320,79583,1,0,0:0:0:0:
144,224,79719,1,0,0:0:0:0:
368,224,79856,1,0,0:0:0:0:
128,240,79992,2,0,L|192:240,2,52.4999984264374
400,240,80265,2,0,L|336:240,2,52.4999984264374
176,160,80537,5,0,0:0:0:0:
336,160,80674,1,0,0:0:0:0:
135,160,80810,1,0,0:0:0:0:
376,160,80946,1,0,0:0:0:0:
256,384,81083,6,0,B|128:240|400:192|256:0,1,419.999987411499
416,160,82174,5,0,0:0:0:0:
59,60,82446,1,0,0:0:0:0:
59,159,82537,1,0,0:0:0:0:
91,240,82628,1,0,0:0:0:0:
157,306,82719,1,0,0:0:0:0:
432,80,82992,1,0,0:0:0:0:
64,80,83265,1,0,0:0:0:0:
327,263,83537,5,0,0:0:0:0:
256,163,83674,1,0,0:0:0:0:
184,263,83810,1,0,0:0:0:0:
327,192,83946,1,0,0:0:0:0:
184,192,84083,1,0,0:0:0:0:
256,292,84219,1,0,0:0:0:0:
320,64,84356,6,0,L|208:32,1,104.999996852875
400,192,84628,5,0,0:0:0:0:
160,192,84765,1,0,0:0:0:0:
384,128,84901,1,0,0:0:0:0:
160,208,85037,1,0,0:0:0:0:
384,256,85174,1,0,0:0:0:0:
160,176,85310,1,0,0:0:0:0:
336,160,85446,6,0,P|400:176|464:320,1,209.99999370575
208,228,85856,1,0,0:0:0:0:
280,340,85992,1,0,0:0:0:0:
264,136,86128,1,0,0:0:0:0:
164,320,86265,1,0,0:0:0:0:
128,176,86401,1,0,0:0:0:0:
324,312,86537,2,0,L|432:352,1,104.999996852875
176,144,86810,6,0,L|96:48,1,104.999996852875
368,192,87083,1,0,0:0:0:0:
240,272,87219,1,0,0:0:0:0:
288,144,87356,1,0,0:0:0:0:
144,272,87492,1,0,0:0:0:0:
190,44,87628,5,0,0:0:0:0:
303,162,87901,5,0,0:0:0:0:
220,282,88174,5,0,0:0:0:0:
305,384,88446,5,0,0:0:0:0:
368,288,88719,5,0,0:0:0:0:
160,288,88856,1,0,0:0:0:0:
368,224,88992,5,0,0:0:0:0:
160,224,89128,1,0,0:0:0:0:
368,160,89265,5,0,0:0:0:0:
160,160,89401,1,0,0:0:0:0:
368,96,89537,5,0,0:0:0:0:
160,96,89674,1,0,0:0:0:0:
368,96,89810,6,0,L|480:96,1,104.999996852875
368,192,90083,2,0,L|480:192,1,104.999996852875
368,288,90356,5,0,0:0:0:0:
256,288,90492,1,0,0:0:0:0:
144,288,90628,2,0,L|32:288,1,104.999996852875
144,192,90901,1,0,0:0:0:0:
256,192,91037,1,0,0:0:0:0:
368,192,91174,2,0,L|480:192,1,104.999996852875
368,96,91446,1,0,0:0:0:0:
256,96,91583,1,0,0:0:0:0:
144,96,91719,2,0,L|32:96,1,104.999996852875
256,256,91992,5,0,0:0:0:0:
192,192,92128,1,0,0:0:0:0:
256,128,92265,1,0,0:0:0:0:
320,192,92401,1,0,0:0:0:0:
256,304,92537,5,0,0:0:0:0:
144,192,92674,1,0,0:0:0:0:
256,80,92810,1,0,0:0:0:0:
368,192,92946,1,0,0:0:0:0:
256,304,93083,2,0,L|176:224,1,104.999996852875
480,304,93356,5,0,0:0:0:0:
368,192,93492,1,0,0:0:0:0:
256,304,93628,1,0,0:0:0:0:
128,320,93901,6,0,P|85:215|144:96,1,209.99999370575
256,128,94446,5,0,0:0:0:0:
128,368,94719,1,0,0:0:0:0:
256,64,94992,1,0,0:0:0:0:
256,384,95265,1,0,0:0:0:0:
256,0,95537,1,0,0:0:0:0:
384,368,95810,1,0,0:0:0:0:
199,180,96083,1,0,0:0:0:0:
312,180,96219,1,0,0:0:0:0:
207,299,96356,5,0,0:0:0:0:
295,231,96492,1,0,0:0:0:0:
221,143,96628,1,0,0:0:0:0:
306,72,96765,1,0,0:0:0:0:
199,309,96901,1,0,0:0:0:0:
301,234,97037,1,0,0:0:0:0:
215,138,97174,1,0,0:0:0:0:
313,59,97310,1,0,0:0:0:0:
194,320,97446,1,0,0:0:0:0:
305,238,97583,1,0,0:0:0:0:
211,133,97719,1,0,0:0:0:0:
319,48,97856,1,0,0:0:0:0:
260,196,97992,6,0,L|224:256,2,52.4999984264374
256,288,98265,6,0,L|256:176,1,104.999996852875
256,128,98537,1,0,0:0:0:0:
208,144,98810,5,0,0:0:0:0:
144,272,98946,1,0,0:0:0:0:
304,144,99083,5,0,0:0:0:0:
368,272,99219,1,0,0:0:0:0:
256,48,99356,5,0,0:0:0:0:
144,240,99628,6,0,L|144:352,1,104.999996852875
368,240,99901,2,0,L|368:352,1,104.999996852875
256,208,100174,2,0,L|256:96,1,104.999996852875
256,103,100446,1,0,0:0:0:0:
64,96,100719,5,0,0:0:0:0:
96,240,100856,1,0,0:0:0:0:
128,96,100992,1,0,0:0:0:0:
160,240,101128,1,0,0:0:0:0:
192,96,101265,1,0,0:0:0:0:
224,240,101401,1,0,0:0:0:0:
256,96,101537,1,0,0:0:0:0:
288,240,101674,1,0,0:0:0:0:
352,160,101810,5,0,0:0:0:0:
64,160,102083,1,0,0:0:0:0:
480,160,102356,1,0,0:0:0:0:
416,256,102629,1,0,0:0:0:0:
384,289,102697,1,0,0:0:0:0:
346,314,102765,1,0,0:0:0:0:
303,330,102833,1,0,0:0:0:0:
256,336,102901,2,0,L|144:336,1,104.999996852875
256,240,103174,2,0,L|368:240,1,104.999996852875
256,160,103447,2,0,L|144:160,1,104.999996852875
256,80,103719,2,0,L|368:80,1,104.999996852875
156,91,103992,5,0,0:0:0:0:
313,136,104128,1,0,0:0:0:0:
334,336,104265,1,0,0:0:0:0:
153,256,104401,1,0,0:0:0:0:
256,224,104537,5,0,0:0:0:0:
256,224,104606,1,0,0:0:0:0:
256,224,104674,1,0,0:0:0:0:
153,256,104810,6,0,L|57:320,1,104.999996852875
65,314,105083,1,0,0:0:0:0:
80,192,105356,6,0,L|192:192,1,104.999996852875
304,80,105628,1,0,0:0:0:0:
304,304,105765,1,0,0:0:0:0:
384,192,105901,2,0,L|224:192,1,104.999996852875
80,192,106174,5,0,0:0:0:0:
384,192,106310,1,0,0:0:0:0:
208,80,106446,1,0,0:0:0:0:
208,304,106583,1,0,0:0:0:0:
256,176,106719,2,0,L|256:96,2,52.4999984264374
176,304,106992,5,0,0:0:0:0:
336,304,107128,1,0,0:0:0:0:
256,64,107265,1,0,0:0:0:0:
160,304,107537,5,0,0:0:0:0:
272,224,107674,1,0,0:0:0:0:
240,80,107810,1,0,0:0:0:0:
208,256,107946,1,0,0:0:0:0:
304,80,108083,1,0,0:0:0:0:
112,112,108356,5,0,0:0:0:0:
186,330,108492,1,0,0:0:0:0:
256,244,108628,1,0,0:0:0:0:
325,330,108765,1,0,0:0:0:0:
400,112,108901,1,0,0:0:0:0:
325,330,109037,1,0,0:0:0:0:
256,244,109174,1,0,0:0:0:0:
186,330,109310,1,0,0:0:0:0:
112,112,109446,1,0,0:0:0:0:
64,368,109720,5,0,0:0:0:0:
64,16,109993,1,0,0:0:0:0:
416,192,110265,1,0,0:0:0:0:
64,368,110538,1,0,0:0:0:0:
64,16,110810,1,0,0:0:0:0:
256,32,111083,5,0,0:0:0:0:
263,68,111151,1,0,0:0:0:0:
265,106,111219,1,0,0:0:0:0:
262,143,111287,1,0,0:0:0:0:
255,180,111355,1,0,0:0:0:0:
249,217,111423,1,0,0:0:0:0:
246,254,111492,1,0,0:0:0:0:
248,292,111560,1,0,0:0:0:0:
256,336,111628,1,2,0:0:0:0:
202,176,111901,5,0,0:0:0:0:
266,256,112037,1,0,0:0:0:0:
330,336,112174,1,0,0:0:0:0:
240,80,112446,5,0,0:0:0:0:
304,160,112582,1,0,0:0:0:0:
368,240,112719,1,2,0:0:0:0:
108,181,112992,5,0,0:0:0:0:
172,261,113128,1,0,0:0:0:0:
236,340,113265,1,0,0:0:0:0:
256,176,113537,2,0,L|256:288,1,104.999996852875
96,128,113810,5,2,0:0:0:0:
96,256,113946,1,0,0:0:0:0:
224,256,114083,1,0,0:0:0:0:
224,128,114219,1,0,0:0:0:0:
412,125,114356,5,0,0:0:0:0:
414,257,114492,1,0,0:0:0:0:
283,257,114628,1,0,0:0:0:0:
283,126,114765,1,0,0:0:0:0:
347,192,114901,5,2,0:0:0:0:
255,284,115037,1,0,0:0:0:0:
161,192,115174,1,0,0:0:0:0:
254,99,115310,1,0,0:0:0:0:
351,192,115446,1,0,0:0:0:0:
255,284,115583,1,0,0:0:0:0:
160,192,115719,2,0,L|32:144,1,104.999996852875
58,42,115992,5,2,0:0:0:0:
92,175,116128,1,0,0:0:0:0:
92,75,116265,5,0,0:0:0:0:
224,109,116401,1,0,0:0:0:0:
125,109,116537,5,0,0:0:0:0:
158,242,116674,1,0,0:0:0:0:
158,142,116810,5,0,0:0:0:0:
291,175,116946,1,0,0:0:0:0:
191,175,117083,5,2,0:0:0:0:
224,308,117219,1,0,0:0:0:0:
224,208,117356,5,0,0:0:0:0:
357,242,117492,1,0,0:0:0:0:
258,242,117628,5,0,0:0:0:0:
308,358,117765,1,0,0:0:0:0:
288,272,117901,6,0,L|256:160,1,104.999996852875
259,171,118174,5,2,0:0:0:0:
208,256,118310,1,0,0:0:0:0:
240,96,118446,1,0,0:0:0:0:
352,208,118583,1,0,0:0:0:0:
184,72,118719,6,0,L|160:192,1,104.999996852875
328,72,118992,6,0,L|352:192,1,104.999996852875
114,106,119265,5,2,0:0:0:0:
114,243,119401,1,0,0:0:0:0:
395,140,119537,1,0,0:0:0:0:
395,209,119674,1,0,0:0:0:0:
114,106,119810,1,0,0:0:0:0:
114,243,119946,1,0,0:0:0:0:
395,140,120083,1,0,0:0:0:0:
395,209,120219,1,0,0:0:0:0:
228,140,120356,6,0,P|227:203|446:248,1,314.999990558624,2|0,0:0|0:0,0:0:0:0:
384,48,120901,5,0,0:0:0:0:
271,124,121037,1,0,0:0:0:0:
291,245,121174,1,0,0:0:0:0:
217,94,121310,1,0,0:0:0:0:
299,54,121446,5,2,0:0:0:0:
218,164,121582,1,0,0:0:0:0:
278,270,121719,1,0,0:0:0:0:
157,154,121856,1,0,0:0:0:0:
215,87,121992,5,0,0:0:0:0:
183,219,122128,1,0,0:0:0:0:
280,294,122265,1,0,0:0:0:0:
123,234,122401,1,0,0:0:0:0:
368,272,122537,6,2,L|480:272,1,104.999996852875,2|0,0:0|0:0,0:0:0:0:
144,272,122810,2,0,L|16:272,1,104.999996852875
368,272,123083,1,0,0:0:0:0:
144,272,123219,1,0,0:0:0:0:
368,272,123356,1,0,0:0:0:0:
144,272,123492,1,0,0:0:0:0:
256,112,123628,6,0,L|256:224,1,104.999996852875,2|0,0:0|0:0,0:0:0:0:
256,336,123901,5,0,0:0:0:0:
256,112,124037,1,0,0:0:0:0:
144,272,124173,6,0,L|32:272,1,104.999996852875
368,272,124446,2,0,L|480:272,1,104.999996852875
182,262,124719,5,2,0:0:0:0:
358,193,124856,1,0,0:0:0:0:
184,120,124992,5,0,0:0:0:0:
256,293,125128,1,0,0:0:0:0:
328,120,125265,5,0,0:0:0:0:
154,193,125401,1,0,0:0:0:0:
328,264,125537,6,0,L|288:160,1,104.999996852875
176,308,125810,5,2,0:0:0:0:
256,90,125946,1,0,0:0:0:0:
335,308,126083,1,0,0:0:0:0:
116,151,126219,1,0,0:0:0:0:
393,151,126356,1,0,0:0:0:0:
176,308,126492,1,0,0:0:0:0:
256,112,126628,6,0,L|256:224,1,104.999996852875
368,160,126901,2,0,L|272:224,1,104.999996852875
143,160,127174,2,0,L|240:224,1,104.999996852875
320,288,127446,2,0,L|240:208,1,104.999996852875
192,288,127719,2,0,L|272:208,1,104.999996852875
176,192,127992,5,0,0:0:0:0:
176,192,128060,1,0,0:0:0:0:
176,192,128128,1,0,0:0:0:0:
256,192,128265,1,0,0:0:0:0:
336,192,128401,1,0,0:0:0:0:
336,192,128469,1,0,0:0:0:0:
336,192,128537,1,0,0:0:0:0:
256,96,128674,1,0,0:0:0:0:
256,320,128810,2,0,L|256:352,8,26.2499992132187
48,96,129356,5,0,0:0:0:0:
176,96,129492,1,0,0:0:0:0:
112,256,129628,1,0,0:0:0:0:
448,96,129901,5,0,0:0:0:0:
320,96,130037,1,0,0:0:0:0:
384,256,130174,1,0,0:0:0:0:
336,128,130446,5,0,0:0:0:0:
224,304,130583,1,0,0:0:0:0:
176,128,130719,5,0,0:0:0:0:
288,304,130856,1,0,0:0:0:0:
256,128,130992,6,0,L|256:16,1,104.999996852875
220,16,131265,5,0,0:0:0:0:
288,16,131401,1,0,0:0:0:0:
152,64,131537,1,0,0:0:0:0:
358,64,131674,1,0,0:0:0:0:
202,112,131810,1,0,0:0:0:0:
305,112,131946,1,0,0:0:0:0:
256,176,132083,2,0,L|256:320,1,104.999996852875
134,224,132356,5,0,0:0:0:0:
375,224,132492,1,0,0:0:0:0:
185,272,132628,1,0,0:0:0:0:
324,272,132765,1,0,0:0:0:0:
202,320,132901,1,0,0:0:0:0:
305,320,133037,1,0,0:0:0:0:
152,368,133174,1,0,0:0:0:0:
358,368,133310,1,0,0:0:0:0:
256,368,133446,6,0,B|224:272|288:208|256:32,1,314.999990558624
248,88,133992,1,0,0:0:0:0:
264,124,134060,1,0,0:0:0:0:
248,160,134128,1,0,0:0:0:0:
256,256,134265,2,0,P|256:288|288:352,1,104.999996852875
400,336,134537,5,0,0:0:0:0:
320,160,134674,1,0,0:0:0:0:
432,256,134810,1,0,0:0:0:0:
240,144,134946,1,0,0:0:0:0:
384,176,135083,1,0,0:0:0:0:
160,192,135219,1,0,0:0:0:0:
320,224,135356,2,0,L|432:256,1,104.999996852875
448,276,135628,5,0,0:0:0:0:
337,301,135765,1,0,0:0:0:0:
227,326,135901,1,0,0:0:0:0:
446,113,136037,5,0,0:0:0:0:
349,174,136174,1,0,0:0:0:0:
254,234,136310,1,0,0:0:0:0:
292,64,136446,5,0,0:0:0:0:
226,156,136583,1,0,0:0:0:0:
161,249,136719,1,0,0:0:0:0:
132,56,136856,5,0,0:0:0:0:
109,166,136993,1,0,0:0:0:0:
87,277,137129,1,0,0:0:0:0:
256,192,137265,5,0,0:0:0:0:
48,48,137537,5,0,0:0:0:0:
276,171,137810,5,8,0:0:0:0:
368,80,137946,1,0,0:0:0:0:
276,212,138083,5,0,0:0:0:0:
368,304,138219,1,0,0:0:0:0:
235,212,138356,5,0,0:0:0:0:
144,304,138492,1,0,0:0:0:0:
235,171,138628,5,0,0:0:0:0:
144,80,138765,1,0,0:0:0:0:
313,133,138901,5,8,0:0:0:0:
368,80,139037,1,0,0:0:0:0:
313,249,139174,1,0,0:0:0:0:
368,304,139310,1,0,0:0:0:0:
197,249,139447,1,0,0:0:0:0:
144,304,139583,1,0,0:0:0:0:
197,133,139719,1,0,0:0:0:0:
144,80,139856,1,0,0:0:0:0:
320,208,139992,6,0,L|336:320,1,104.999996852875,8|0,0:0|0:0,0:0:0:0:
192,176,140265,2,0,L|176:64,1,104.999996852875
336,368,140537,2,0,L|320:256,1,104.999996852875
176,16,140810,2,0,L|192:160,1,104.999996852875
192,208,141083,5,8,0:0:0:0:
314,179,141219,1,0,0:0:0:0:
224,264,141356,5,0,0:0:0:0:
284,119,141492,1,0,0:0:0:0:
243,302,141628,5,0,0:0:0:0:
265,81,141765,1,0,0:0:0:0:
254,322,141901,5,0,0:0:0:0:
254,60,142037,1,0,0:0:0:0:
256,160,142174,6,0,B|320:272|160:368|160:176|320:224|256:384,1,314.999990558624
192,320,142719,2,0,L|112:240,1,104.999996852875
320,320,142992,2,0,L|416:224,1,104.999996852875
256,288,143265,6,0,B|96:144|416:144|256:0,1,314.999990558624
168,152,143810,5,0,0:0:0:0:
344,152,143946,1,0,0:0:0:0:
256,176,144083,2,0,L|256:288,1,104.999996852875
256,336,144356,1,0,0:0:0:0:
256,192,144628,12,0,146265,0:0:0:0:
256,176,146537,6,0,B|272:224|240:352|16:368,1,314.999990558624
400,320,147083,5,0,0:0:0:0:
208,155,147219,1,0,0:0:0:0:
345,191,147356,5,0,0:0:0:0:
73,73,147492,1,0,0:0:0:0:
240,208,147628,6,0,P|320:224|496:80,1,314.999990558624
224,295,148174,5,0,0:0:0:0:
94,125,148310,1,0,0:0:0:0:
140,330,148446,6,0,L|48:384,1,104.999996852875
240,370,148719,5,0,0:0:0:0:
224,285,148856,1,0,0:0:0:0:
286,341,148991,1,0,0:0:0:0:
219,226,149128,1,0,0:0:0:0:
324,304,149264,1,0,0:0:0:0:
203,174,149401,1,0,0:0:0:0:
357,259,149537,1,0,0:0:0:0:
178,123,149674,1,0,0:0:0:0:
378,210,149809,1,0,0:0:0:0:
145,81,149946,1,0,0:0:0:0:
390,157,150082,1,0,0:0:0:0:
102,45,150219,1,0,0:0:0:0:
390,103,150355,1,0,0:0:0:0:
57,19,150492,1,0,0:0:0:0:
383,51,150628,2,0,L|512:64,1,104.999996852875
224,32,150901,6,0,L|128:48,1,52.4999984264374
304,128,151037,2,0,L|368:144,1,52.4999984264374
208,240,151174,2,0,L|144:256,1,52.4999984264374
320,304,151310,2,0,L|384:320,1,52.4999984264374
224,32,151446,5,0,0:0:0:0:
304,128,151583,1,0,0:0:0:0:
208,240,151719,5,0,0:0:0:0:
320,304,151856,1,0,0:0:0:0:
128,320,151992,6,0,L|80:288,1,52.4999984264374
176,224,152128,2,0,L|128:192,1,52.4999984264374
224,128,152264,2,0,L|176:96,1,52.4999984264374
272,32,152401,2,0,L|224:0,1,52.4999984264374
347,113,152537,5,0,0:0:0:0:
248,227,152674,1,0,0:0:0:0:
388,247,152810,1,0,0:0:0:0:
347,113,152946,1,0,0:0:0:0:
80,272,153083,6,0,L|48:384,1,104.999996852875
128,112,153356,1,0,0:0:0:0:
176,368,153492,1,0,0:0:0:0:
224,112,153628,2,0,L|240:0,1,104.999996852875
304,256,153901,1,0,0:0:0:0:
352,0,154037,1,0,0:0:0:0:
400,256,154174,2,0,L|430:407,1,104.999996852875
415,194,154446,5,0,0:0:0:0:
154,158,154992,1,0,0:0:0:0:
388,64,155265,6,0,P|463:193|384:320,1,314.999990558624
383,320,155810,5,0,0:0:0:0:
176,192,155946,1,0,0:0:0:0:
383,320,156083,1,0,0:0:0:0:
176,192,156219,1,0,0:0:0:0:
384,320,156356,6,0,P|464:192|304:48,1,314.999990558624
388,64,156901,5,0,0:0:0:0:
176,192,157037,1,0,0:0:0:0:
388,64,157174,1,0,0:0:0:0:
176,192,157310,1,0,0:0:0:0:
256,384,157446,6,0,P|288:320|272:288,1,104.999996852875
464,192,157719,2,0,P|423:160|373:171,1,104.999996852875
256,0,157992,2,0,P|224:64|240:96,1,104.999996852875
48,192,158265,2,0,P|88:223|138:212,1,104.999996852875
256,144,158537,5,0,0:0:0:0:
336,272,158674,1,0,0:0:0:0:
256,144,158810,5,0,0:0:0:0:
176,272,158946,1,0,0:0:0:0:
256,144,159083,5,0,0:0:0:0:
176,16,159219,1,0,0:0:0:0:
256,144,159356,5,0,0:0:0:0:
336,16,159492,1,0,0:0:0:0:
128,48,159628,6,0,P|96:160|304:352,2,419.999987411499
192,112,160856,5,0,0:0:0:0:
272,112,160992,1,0,0:0:0:0:
192,112,161128,1,0,0:0:0:0:
352,112,161265,1,0,0:0:0:0:
272,112,161401,1,0,0:0:0:0:
432,112,161537,2,0,P|480:240|448:272,1,104.999996852875
442,258,161810,5,0,0:0:0:0:
230,103,161946,1,0,0:0:0:0:
276,262,162083,1,0,0:0:0:0:
442,258,162219,1,0,0:0:0:0:
499,123,162356,1,0,0:0:0:0:
276,262,162492,1,0,0:0:0:0:
384,137,162628,1,0,0:0:0:0:
401,332,162765,1,0,0:0:0:0:
148,143,162901,1,0,0:0:0:0:
383,47,163037,1,0,0:0:0:0:
332,264,163174,1,0,0:0:0:0:
223,34,163310,1,0,0:0:0:0:
200,269,163446,1,0,0:0:0:0:
256,48,163992,6,0,P|400:96|368:288,1,314.999990558624
336,304,164537,1,0,0:0:0:0:
176,128,164810,5,0,0:0:0:0:
384,224,164946,1,0,0:0:0:0:
176,256,165083,5,0,0:0:0:0:
320,64,165219,1,0,0:0:0:0:
176,128,165356,5,0,0:0:0:0:
384,224,165492,1,0,0:0:0:0:
176,256,165628,1,0,0:0:0:0:
320,64,165765,1,0,0:0:0:0:
320,256,165901,6,0,P|256:320|176:304,1,104.999996852875
117,271,166174,5,0,0:0:0:0:
102,130,166310,1,0,0:0:0:0:
243,45,166446,1,0,0:0:0:0:
117,271,166583,5,0,0:0:0:0:
102,130,166719,1,0,0:0:0:0:
243,45,166856,1,0,0:0:0:0:
117,271,166992,5,0,0:0:0:0:
102,130,167128,1,0,0:0:0:0:
243,45,167265,1,0,0:0:0:0:
117,271,167401,5,0,0:0:0:0:
102,130,167537,1,0,0:0:0:0:
243,45,167674,1,0,0:0:0:0:
192,192,167810,6,0,P|288:240|288:256,1,104.999996852875
281,219,168083,6,0,P|242:186|192:192,1,104.999996852875
80,208,168356,6,0,P|112:304|352:272,1,314.999990558624
256,224,168901,5,0,0:0:0:0:
416,304,169037,1,0,0:0:0:0:
256,176,169173,1,0,0:0:0:0:
112,256,169310,1,0,0:0:0:0:
256,128,169446,1,0,0:0:0:0:
416,208,169582,1,0,0:0:0:0:
256,80,169719,1,0,0:0:0:0:
112,160,169855,1,0,0:0:0:0:
256,32,169992,1,0,0:0:0:0:
416,112,170128,1,0,0:0:0:0:
336,160,170265,6,0,P|240:208|208:208,1,104.999996852875
372,27,170537,5,0,0:0:0:0:
127,140,170674,1,0,0:0:0:0:
372,38,170810,5,0,0:0:0:0:
127,150,170946,1,0,0:0:0:0:
372,48,171083,5,0,0:0:0:0:
127,161,171219,1,0,0:0:0:0:
372,58,171356,5,0,0:0:0:0:
127,171,171492,1,0,0:0:0:0:
372,68,171628,5,0,0:0:0:0:
127,181,171765,1,0,0:0:0:0:
372,79,171901,5,0,0:0:0:0:
127,192,172037,1,0,0:0:0:0:
288,344,172174,6,0,P|296:232|344:192,1,104.999996852875
289,242,172446,2,0,P|312:132|304:100,1,104.999996852875
428,240,172719,5,0,0:0:0:0:
376,72,172856,1,0,0:0:0:0:
192,72,172992,1,0,0:0:0:0:
433,209,173128,5,0,0:0:0:0:
353,52,173265,1,0,0:0:0:0:
172,84,173401,1,0,0:0:0:0:
434,181,173537,5,0,0:0:0:0:
330,39,173674,1,0,0:0:0:0:
156,99,173810,1,0,0:0:0:0:
430,153,173946,5,0,0:0:0:0:
305,29,174083,1,0,0:0:0:0:
143,116,174219,1,0,0:0:0:0:
256,192,174356,6,0,P|336:276|344:276,1,104.999996852875
256,192,174628,6,0,P|176:108|168:108,1,104.999996852875
237,271,174901,5,0,0:0:0:0:
274,111,175037,1,0,0:0:0:0:
171,228,175174,5,0,0:0:0:0:
339,155,175310,1,0,0:0:0:0:
159,152,175446,5,0,0:0:0:0:
352,230,175582,1,0,0:0:0:0:
191,89,175719,5,0,0:0:0:0:
319,293,175855,1,0,0:0:0:0:
256,64,175992,5,0,0:0:0:0:
254,319,176128,1,0,0:0:0:0:
324,64,176265,5,0,0:0:0:0:
186,318,176401,1,0,0:0:0:0:
198,112,176537,6,0,P|240:142|256:192,1,104.999996852875
313,271,176809,6,0,P|271:241|256:192,1,104.999996852875
226,153,177083,6,0,P|147:68|115:56,1,104.999996852875
398,272,177356,1,0,0:0:0:0:
226,153,177492,2,0,P|166:243|165:293,1,104.999996852875
425,32,177765,1,0,0:0:0:0:
226,153,177901,2,0,P|330:206|384:186,1,104.999996852875
432,272,178174,5,0,0:0:0:0:
432,144,178310,1,0,0:0:0:0:
304,144,178446,1,0,0:0:0:0:
304,272,178583,1,0,0:0:0:0:
432,272,178719,5,0,0:0:0:0:
304,272,178856,1,0,0:0:0:0:
432,144,178992,2,0,L|320:144,1,104.999996852875
160,272,179265,5,0,0:0:0:0:
112,112,179401,1,0,0:0:0:0:
352,272,179537,5,0,0:0:0:0:
400,112,179674,1,0,0:0:0:0:
256,256,179810,5,0,0:0:0:0:
256,80,179946,1,0,0:0:0:0:
144,336,180083,5,0,0:0:0:0:
80,80,180219,1,0,0:0:0:0:
368,336,180355,5,0,0:0:0:0:
432,80,180492,1,0,0:0:0:0:
256,320,180628,5,0,0:0:0:0:
256,48,180764,1,0,0:0:0:0:
256,224,180901,6,0,B|240:272|272:320|256:368,1,139.999990463257
