osu file format v14

[General]
AudioFilename: audio.mp3
AudioLeadIn: 0
PreviewTime: -1
Countdown: 1
SampleSet: None
StackLeniency: 0.5
Mode: 0
LetterboxInBreaks: 0
WidescreenStoryboard: 0

[Editor]
Bookmarks: 25567
DistanceSpacing: 1.8
BeatDivisor: 4
GridSize: 8
TimelineZoom: 1.4

[Metadata]
Title:Despacito (Rock cover)(Short ver.)
TitleUnicode:Despacito (Rock cover)(Short ver.)
Artist:Nightcore
ArtistUnicode:Nightcore
Creator:_Tit
Version:Not this one
Source:
Tags:despacito rock short cover
BeatmapID:2016037
BeatmapSetID:962861

[Difficulty]
HPDrainRate:5
CircleSize:4
OverallDifficulty:8
ApproachRate:9.5
SliderMultiplier:2
SliderTickRate:1

[Events]
//Background and Video events
0,0,"wallpaper-2692837.jpg",0,0
//Break Periods
//Storyboard Layer 0 (Background)
//Storyboard Layer 1 (Fail)
//Storyboard Layer 2 (Pass)
//Storyboard Layer 3 (Foreground)
//Storyboard Sound Samples

[TimingPoints]
202,264.084507042254,4,1,0,70,1,0
202,-200,4,1,0,40,0,0
8648,-100,4,3,0,50,0,0
17099,-100,4,3,0,55,0,0
21852,-111.111111111111,4,3,0,50,0,0
22381,-125,4,3,0,50,0,0
22909,-142.857142857143,4,3,0,50,0,0
23437,-100,4,3,0,55,0,0
25550,-133.333333333333,4,3,0,50,0,0
29511,-66.6666666666667,4,3,0,65,0,0
34000,-100,4,3,0,65,0,0
38226,-100,4,3,0,65,0,0
41395,-100,4,3,0,55,0,0
42451,-100,4,3,0,60,0,0
42979,-66.6666666666667,4,3,0,70,0,0
50906,-66.6666666666667,4,3,0,80,0,1
57240,-100,4,3,0,80,0,1
58300,-133.333333333333,4,3,0,50,0,0
59356,-66.6666666666667,4,3,0,80,0,1
62922,-57.1428571428571,4,3,0,80,0,1
64110,-50,4,3,0,80,0,1
66751,-100,4,3,0,80,0,1
67807,-66.6666666666667,4,3,0,80,0,1
68335,-57.1428571428571,4,3,0,80,0,1
75202,-66.6666666666667,4,3,0,80,0,0

[HitObjects]
201,155,202,5,0,0:0:0:0:
259,193,466,1,0,0:0:0:0:
191,146,730,1,0,0:0:0:0:
260,192,994,1,0,0:0:0:0:
181,138,1258,1,0,0:0:0:0:
262,191,1522,1,0,0:0:0:0:
171,129,1786,1,0,0:0:0:0:
262,191,2050,2,0,L|343:247,1,50
441,309,2314,5,0,0:0:0:0:
391,217,2578,1,0,0:0:0:0:
460,320,2842,1,0,0:0:0:0:
405,219,3106,1,0,0:0:0:0:
479,331,3371,1,0,0:0:0:0:
419,221,3635,1,0,0:0:0:0:
497,342,3899,1,0,0:0:0:0:
432,222,4163,2,0,L|394:152,1,50
339,34,4427,5,0,0:0:0:0:
297,152,4691,1,0,0:0:0:0:
362,36,4955,1,0,0:0:0:0:
274,141,5219,1,0,0:0:0:0:
387,47,5483,1,0,0:0:0:0:
257,123,5747,1,0,0:0:0:0:
406,70,6011,1,0,0:0:0:0:
245,98,6275,2,0,L|154:115,1,50
2,139,6540,5,0,0:0:0:0:
56,297,6804,1,0,0:0:0:0:
23,128,7068,1,0,0:0:0:0:
49,307,7332,1,0,0:0:0:0:
56,117,7596,5,0,0:0:0:0:
190,58,7860,1,0,0:0:0:0:
248,192,8124,1,0,0:0:0:0:
114,251,8388,1,0,0:0:0:0:
48,65,8652,5,0,3:0:0:0:
48,65,8916,1,0,3:0:0:0:
239,122,9180,2,0,B|316:145|316:145|364:129|364:129|440:148,1,200,8|0,3:0|3:0,3:0:0:0:
512,217,9709,1,0,3:0:0:0:
512,217,9973,1,0,3:0:0:0:
321,278,10237,2,0,B|243:301|243:301|195:285|195:285|119:304,1,200,8|0,3:0|3:0,3:0:0:0:
30,319,10765,5,0,3:0:0:0:
30,319,11029,1,0,3:0:0:0:
159,166,11293,2,0,P|187:106|118:-5,2,200,8|0|0,3:0|3:0|3:0,3:0:0:0:
96,243,12085,1,0,3:0:0:0:
295,237,12349,2,0,P|379:191|391:96,1,200,8|0,3:0|3:0,3:0:0:0:
351,2,12878,5,4,3:0:0:0:
351,2,13142,1,0,3:0:0:0:
181,108,13406,2,0,B|219:171|219:171|266:185|266:185|306:251,1,200,8|0,3:0|3:0,3:0:0:0:
355,338,13934,1,0,0:0:0:0:
355,338,14198,1,0,3:0:0:0:
512,215,14462,2,0,B|473:151|473:151|426:137|426:137|386:71,1,200,8|0,3:0|3:0,3:0:0:0:
288,91,14990,5,0,3:0:0:0:
288,91,15254,1,0,3:0:0:0:
153,242,15518,1,8,3:0:0:0:
234,185,15782,2,0,P|149:139|65:194,2,200,0|0|0,3:0|3:0|3:0,3:0:0:0:
68,298,16575,2,0,P|150:346|233:300,1,200,8|0,3:0|3:0,3:0:0:0:
318,246,17103,5,4,3:0:0:0:
318,246,17367,1,0,3:0:0:0:
321,46,17631,2,0,B|387:49|387:49|421:88|421:88|507:96,1,200,8|0,3:0|3:0,3:0:0:0:
501,195,18159,1,0,3:0:0:0:
501,195,18423,1,0,3:0:0:0:
302,170,18687,2,0,B|235:166|235:166|201:127|201:127|115:119,1,200,8|0,3:0|3:0,3:0:0:0:
277,97,19216,5,0,3:0:0:0:
277,97,19480,1,0,3:0:0:0:
394,258,19744,2,0,P|432:159|543:119,2,200,8|0|0,3:0|3:0|3:0,3:0:0:0:
434,347,20536,1,0,3:0:0:0:
338,171,20800,2,0,P|233:149|138:220,1,200,8|0,3:0|3:0,3:0:0:0:
0,259,21328,6,0,L|154:116,1,200,4|0,3:0|3:0,3:0:0:0:
63,91,21856,2,0,L|261:81,1,179.999994506836,4|0,3:0|3:0,3:0:0:0:
183,27,22385,2,0,L|337:145,1,160,4|0,3:0|3:0,3:0:0:0:
302,55,22913,2,0,L|335:212,1,139.999995727539,4|0,3:0|3:0,3:0:0:0:
452,179,23441,5,0,3:0:0:0:
452,179,23705,1,0,3:0:0:0:
509,96,23969,2,0,B|424:21|424:21|324:9,1,200,8|0,3:0|3:0,3:0:0:0:
238,0,24497,1,0,0:0:0:0:
203,93,24761,1,0,3:0:0:0:
120,179,25025,1,8,3:0:0:0:
134,279,25290,1,0,3:0:0:0:
223,323,25554,6,0,P|374:302|428:151,1,300.000011444092,2|0,3:0|3:0,3:0:0:0:
401,32,26214,1,2,3:0:0:0:
384,105,26346,1,2,3:0:0:0:
333,160,26478,1,2,3:0:0:0:
258,189,26610,2,0,P|214:201|162:195,1,75.0000028610231,2|0,0:0|0:0,0:0:0:0:
35,195,26874,1,2,3:0:0:0:
74,130,27006,1,2,3:0:0:0:
140,93,27138,2,0,P|182:70|238:72,1,75.0000028610231,2|0,0:0|0:0,0:0:0:0:
355,95,27402,1,2,3:0:0:0:
424,183,27534,2,0,L|426:251,1,37.5000014305115,2|0,3:0|3:0,3:0:0:0:
398,246,27666,6,0,P|332:195|259:169,1,150.000005722046,2|0,3:0|3:0,3:0:0:0:
197,84,28062,2,0,P|185:165|200:241,1,150.000005722046,2|0,3:0|3:0,3:0:0:0:
157,337,28459,2,0,P|233:305|291:255,1,150.000005722046,2|0,3:0|3:0,3:0:0:0:
447,112,29515,2,0,B|420:119|420:119|356:87|356:87|308:103,1,150.000005722046,8|0,3:0|3:0,3:0:0:0:
143,156,29779,6,0,P|87:160|50:234,1,100,2|0,3:0|3:0,3:0:0:0:
48,339,30043,2,0,P|96:340|134:308,1,100,10|0,3:0|3:0,3:0:0:0:
67,68,30307,1,0,0:0:0:0:
67,68,30439,1,0,0:0:0:0:
138,233,30571,2,0,L|251:227,1,100,10|0,3:0|3:0,3:0:0:0:
487,219,30835,5,0,0:0:0:0:
487,219,30967,1,0,0:0:0:0:
431,79,31099,2,0,P|386:31|313:27,1,100,10|0,3:0|3:0,3:0:0:0:
108,8,31363,1,0,0:0:0:0:
108,8,31496,1,0,0:0:0:0:
197,133,31628,2,0,L|281:248,1,100,10|0,0:0|0:0,0:0:0:0:
157,78,31892,6,0,B|186:117|186:117|264:119,1,100,2|0,0:0|0:0,0:0:0:0:
470,118,32156,2,0,B|510:118|510:118|460:200,1,100,8|0,0:0|0:0,0:0:0:0:
384,318,32420,1,0,0:0:0:0:
384,318,32552,1,0,0:0:0:0:
296,199,32684,2,0,L|212:84,1,100,8|0,0:0|0:0,0:0:0:0:
336,254,32948,6,0,B|307:215|307:215|229:213,1,100,2|0,0:0|0:0,0:0:0:0:
55,217,33212,2,0,B|2:217|2:217|41:267,1,100,8|0,3:0|3:0,3:0:0:0:
120,349,33476,1,0,3:0:0:0:
120,349,33608,1,0,3:0:0:0:
283,348,33740,2,0,L|372:302,1,100,8|0,3:0|3:0,3:0:0:0:
361,173,34004,6,0,P|405:132|417:80,1,100,2|0,3:0|3:0,3:0:0:0:
295,6,34268,2,0,P|251:47|239:99,1,100,10|0,3:0|3:0,3:0:0:0:
267,179,34532,1,0,3:0:0:0:
267,179,34665,1,2,3:0:0:0:
443,272,34797,2,0,P|402:306|333:350,1,100,8|0,0:0|0:0,0:0:0:0:
266,313,35061,5,0,0:0:0:0:
266,313,35193,1,0,0:0:0:0:
166,69,35325,2,0,P|138:115|108:190,1,100,8|0,0:0|0:0,0:0:0:0:
156,251,35589,1,0,0:0:0:0:
156,251,35721,1,0,0:0:0:0:
333,121,35853,2,0,L|257:215,1,100,8|0,0:0|0:0,0:0:0:0:
48,313,36117,6,0,L|45:193,1,100,2|0,3:0|3:0,3:0:0:0:
136,35,36381,2,0,L|139:155,1,100,10|0,3:0|3:0,3:0:0:0:
192,219,36645,1,0,0:0:0:0:
192,219,36777,1,0,0:0:0:0:
435,191,36909,2,0,P|429:259|370:303,1,100,10|0,3:0|3:0,3:0:0:0:
264,315,37173,1,0,3:0:0:0:
264,315,37305,1,0,0:0:0:0:
358,219,37437,2,0,L|252:128,1,100,8|0,3:0|3:0,3:0:0:0:
201,87,37702,1,0,3:0:0:0:
201,87,37834,1,0,0:0:0:0:
46,86,37966,2,0,P|29:147|39:196,1,100,8|0,0:0|0:0,0:0:0:0:
81,323,38230,6,0,P|142:307|179:274,1,100
268,174,38494,2,0,P|223:128|176:112,1,100
140,201,38758,2,0,L|85:101,1,100,2|0,3:0|3:0,3:0:0:0:
344,142,39022,2,0,L|392:229,1,100,10|0,3:0|3:0,3:0:0:0:
106,201,39286,2,0,P|83:157|80:96,1,100,2|0,3:0|3:0,3:0:0:0:
312,15,39550,2,0,P|335:59|338:120,1,100,10|0,3:0|3:0,3:0:0:0:
256,324,39814,2,0,L|163:290,1,100,2|0,3:0|3:0,3:0:0:0:
384,171,40078,2,0,L|478:206,1,100,10|0,3:0|3:0,3:0:0:0:
302,141,40342,5,0,3:0:0:0:
220,111,40474,1,0,3:0:0:0:
296,295,40606,1,8,3:0:0:0:
63,265,40871,1,0,3:0:0:0:
7,197,41003,1,0,3:0:0:0:
206,209,41135,1,8,3:0:0:0:
313,81,41399,6,0,P|386:103|420:118,2,100,2|0|8,3:0|3:0|3:0,3:0:0:0:
330,347,41927,2,0,P|297:278|285:242,2,100,2|0|8,3:0|3:0|3:0,3:0:0:0:
24,170,42455,5,10,3:0:0:0:
24,170,42587,2,0,P|88:177|141:198,2,100,0|0|0,3:0|3:0|3:0,3:0:0:0:
275,299,42983,1,10,3:0:0:0:
191,175,43115,1,2,3:0:0:0:
326,241,43247,1,2,3:0:0:0:
177,253,43379,1,2,3:0:0:0:
370,94,43511,5,10,3:0:0:0:
234,29,43643,1,2,3:0:0:0:
462,130,43775,1,2,3:0:0:0:
316,168,43907,1,2,3:0:0:0:
500,339,44040,2,0,P|418:331|339:294,1,150.000005722046,10|0,3:0|3:0,3:0:0:0:
293,235,44304,2,0,P|218:241|149:268,1,150.000005722046,10|0,3:0|3:0,3:0:0:0:
11,320,44568,1,10,3:0:0:0:
71,220,44700,2,0,P|202:167|359:169,1,300.000011444092
478,223,45096,5,10,3:0:0:0:
385,106,45228,1,2,3:0:0:0:
391,261,45360,1,2,3:0:0:0:
473,151,45492,1,2,3:0:0:0:
183,228,45624,1,10,3:0:0:0:
37,200,45756,1,2,3:0:0:0:
174,140,45888,1,2,3:0:0:0:
90,264,46020,1,2,3:0:0:0:
84,12,46152,1,10,3:0:0:0:
352,48,46284,5,8,3:0:0:0:
503,182,46416,1,8,3:0:0:0:
307,293,46548,2,0,B|180:364|180:364|207:209,1,300.000011444092,10|0,3:0|3:0,3:0:0:0:
244,0,46944,1,8,3:0:0:0:
138,117,47209,5,2,3:0:0:0:
227,233,47341,1,2,3:0:0:0:
14,158,47473,1,10,3:0:0:0:
122,261,47605,1,2,3:0:0:0:
6,356,47737,1,2,3:0:0:0:
194,365,47869,1,2,3:0:0:0:
10,234,48001,1,10,3:0:0:0:
152,186,48133,1,2,3:0:0:0:
36,89,48265,6,0,P|114:31|211:12,1,150.000005722046,2|0,3:0|3:0,3:0:0:0:
388,16,48529,1,10,3:0:0:0:
305,122,48661,2,0,P|263:183|262:257,1,150.000005722046,10|0,3:0|3:0,3:0:0:0:
355,329,48925,1,2,3:0:0:0:
355,329,49057,2,0,P|470:240|480:95,1,300.000011444092,10|0,3:0|3:0,3:0:0:0:
415,3,49453,1,0,3:0:0:0:
327,189,49585,1,8,3:0:0:0:
16,174,49849,5,0,3:0:0:0:
40,26,49981,1,0,3:0:0:0:
186,224,50113,1,8,3:0:0:0:
488,198,50378,1,0,3:0:0:0:
345,243,50510,1,0,3:0:0:0:
456,23,50642,1,8,3:0:0:0:
112,372,50906,6,0,P|124:236|228:95,1,300.000011444092,10|0,3:0|3:0,3:0:0:0:
340,20,51302,1,0,3:0:0:0:
415,107,51434,5,10,3:0:0:0:
149,152,51566,1,2,3:0:0:0:
418,177,51698,5,10,3:0:0:0:
167,74,51830,1,2,3:0:0:0:
433,30,51962,5,10,3:0:0:0:
243,223,52094,1,2,3:0:0:0:
351,186,52226,5,10,3:0:0:0:
83,217,52358,1,2,3:0:0:0:
324,96,52490,5,10,3:0:0:0:
139,293,52622,1,2,3:0:0:0:
403,241,52754,5,10,3:0:0:0:
173,111,52886,1,2,3:0:0:0:
172,110,53018,6,0,P|179:195|336:330,1,300.000011444092,10|8,3:0|3:0,3:0:0:0:
479,325,53415,1,0,3:0:0:0:
376,124,53547,5,10,3:0:0:0:
280,376,53679,1,2,3:0:0:0:
324,72,53811,5,10,3:0:0:0:
366,338,53943,1,2,3:0:0:0:
252,52,54075,5,10,3:0:0:0:
422,262,54207,1,2,3:0:0:0:
179,70,54339,5,10,3:0:0:0:
431,167,54471,1,2,3:0:0:0:
124,122,54603,5,10,3:0:0:0:
391,80,54735,1,2,3:0:0:0:
102,194,54867,5,10,3:0:0:0:
312,24,54999,1,2,3:0:0:0:
312,24,55131,6,0,P|290:160|157:247,1,300.000011444092,2|0,3:0|3:0,3:0:0:0:
256,384,55659,6,0,P|218:309|222:232,1,150.000005722046,6|0,3:0|3:0,3:0:0:0:
364,34,55923,2,0,P|402:109|398:186,1,150.000005722046,6|0,3:0|3:0,3:0:0:0:
203,362,56187,2,0,P|192:278|223:207,1,150.000005722046,6|0,3:0|3:0,3:0:0:0:
424,70,56451,2,0,P|434:153|404:224,1,150.000005722046,6|0,3:0|3:0,3:0:0:0:
160,323,56716,2,0,P|179:241|232:185,1,150.000005722046,6|0,3:0|3:0,3:0:0:0:
468,125,56980,2,0,P|449:207|396:263,1,150.000005722046,6|0,3:0|3:0,3:0:0:0:
209,300,57244,6,0,L|204:348,3,50,0|0|0|0,3:0|3:0|3:0|3:0,3:0:0:0:
147,259,57508,2,0,L|118:300,3,50,0|0|0|0,3:0|3:0|3:0|3:0,3:0:0:0:
119,222,57772,2,0,L|78:252,3,50,0|0|0|0,3:0|3:0|3:0|3:0,3:0:0:0:
116,189,58036,2,0,L|67:203,3,50,0|0|0|0,3:0|3:0|3:0|3:0,3:0:0:0:
91,157,58300,6,0,B|155:91|155:91|309:108,1,225.000008583069
394,139,58828,2,0,B|330:205|330:205|176:188,1,225.000008583069
103,21,59356,2,0,L|271:42,1,150.000005722046
381,274,59621,2,0,L|213:253,1,150.000005722046,8|0,0:0|0:0,0:0:0:0:
509,126,59885,5,0,0:0:0:0:
509,126,60017,1,0,0:0:0:0:
240,97,60149,2,0,B|206:96|206:96|159:129|159:129|51:107,1,150.000005722046,8|0,0:0|0:0,0:0:0:0:
7,72,60413,2,0,B|41:73|41:73|88:40|88:40|196:62,1,150.000005722046
44,350,60677,1,8,0:0:0:0:
163,343,60809,2,0,P|231:332|251:200,1,150.000005722046
250,95,61073,1,0,0:0:0:0:
356,62,61205,2,0,P|351:130|143:111,2,300.000011444092,8|0|8,0:0|0:0|0:0,0:0:0:0:
63,348,61997,5,0,0:0:0:0:
63,348,62129,1,0,0:0:0:0:
113,246,62261,2,0,P|159:203|251:227,1,150.000005722046,8|0,0:0|0:0,0:0:0:0:
188,293,62525,2,0,P|271:303|328:243,1,150.000005722046
358,6,62790,1,8,0:0:0:0:
242,48,62922,2,0,B|188:72|188:72|171:112|171:112|97:151,1,175.00000166893
0,201,63186,1,0,0:0:0:0:
254,136,63318,2,0,B|345:114|345:114|499:361,2,350.00000333786,8|0|8,0:0|0:0|0:0,0:0:0:0:
133,169,64110,5,0,0:0:0:0:
133,169,64242,1,0,0:0:0:0:
311,366,64374,2,0,B|200:302|200:302|176:216,1,200,8|0,0:0|0:0,0:0:0:0:
154,84,64638,2,0,B|264:147|264:147|288:233,1,200
19,359,64902,1,8,0:0:0:0:
26,219,65034,2,0,P|79:121|163:107,1,200
253,211,65298,2,0,P|199:308|115:322,1,200,0|8,0:0|0:0,0:0:0:0:
145,215,65694,5,0,0:0:0:0:
261,26,65959,2,0,P|415:88|419:195,1,200,8|0,0:0|0:0,0:0:0:0:
441,209,66223,1,0,0:0:0:0:
353,163,66355,1,0,0:0:0:0:
370,353,66487,1,8,0:0:0:0:
116,340,66751,2,0,B|69:223|69:223|197:102,1,300
290,30,67279,2,0,B|336:146|336:146|209:265,1,300
34,170,67807,6,0,L|143:65,1,150.000005722046
373,199,68071,2,0,L|264:301,1,150.000005722046,8|0,0:0|0:0,0:0:0:0:
403,332,68335,1,0,0:0:0:0:
403,332,68467,1,0,0:0:0:0:
164,219,68599,2,0,P|74:198|-35:265,1,175.00000166893,8|0,0:0|0:0,0:0:0:0:
13,351,68863,2,0,P|102:371|212:304,1,175.00000166893
429,141,69128,1,8,0:0:0:0:
512,36,69260,2,0,P|396:6|307:193,1,350.00000333786
430,364,69656,1,8,0:0:0:0:
256,345,69920,6,0,P|184:315|114:234,1,175.00000166893
18,13,70184,2,0,P|90:43|160:124,1,175.00000166893,8|0,0:0|0:0,0:0:0:0:
302,121,70448,1,0,0:0:0:0:
302,121,70580,1,0,0:0:0:0:
50,195,70712,2,0,B|-3:216|-3:216|121:225,1,175.00000166893,8|0,0:0|0:0,0:0:0:0:
267,263,70976,2,0,B|320:242|320:242|196:233,1,175.00000166893
463,246,71240,1,8,0:0:0:0:
224,136,71372,2,0,B|58:39|58:39|270:30,1,350.00000333786
472,20,71768,1,8,0:0:0:0:
334,121,72032,6,0,B|281:160|281:160|276:200|276:200|198:260,1,175.00000166893
0,384,72297,2,0,B|53:345|53:345|58:305|58:305|136:245,1,175.00000166893,8|0,0:0|0:0,0:0:0:0:
65,151,72561,1,0,0:0:0:0:
65,151,72693,1,0,0:0:0:0:
292,307,72825,2,0,P|380:338|464:308,1,175.00000166893,8|0,0:0|0:0,0:0:0:0:
512,208,73089,2,0,P|423:176|339:206,1,175.00000166893
130,311,73353,1,8,0:0:0:0:
41,363,73485,2,0,P|80:213|224:270,1,350.00000333786
410,251,73881,1,8,0:0:0:0:
329,88,74145,6,0,P|247:34|160:27,1,175.00000166893
72,96,74409,2,0,P|154:150|241:157,1,175.00000166893,8|0,0:0|0:0,0:0:0:0:
351,158,74673,1,0,0:0:0:0:
257,237,74805,1,0,0:0:0:0:
507,158,74937,1,8,0:0:0:0:
256,192,75202,12,0,75994,0:0:0:0:
