osu file format v14

[General]
AudioFilename: audio.mp3
AudioLeadIn: 0
PreviewTime: 117868
Countdown: 0
SampleSet: Soft
StackLeniency: 0.3
Mode: 0
LetterboxInBreaks: 1
WidescreenStoryboard: 1

[Editor]
DistanceSpacing: 1.8
BeatDivisor: 4
GridSize: 4
TimelineZoom: 2.400005

[Metadata]
Title:Cambodia
TitleUnicode:Cambodia
Artist:Nightcore
ArtistUnicode:Nightcore
Creator:ShiroSagiri
Version:Insane
Source:
Tags:
BeatmapID:1426326
BeatmapSetID:674034

[Difficulty]
HPDrainRate:6
CircleSize:4
OverallDifficulty:7
ApproachRate:9
SliderMultiplier:1.7
SliderTickRate:2

[Events]
//Background and Video events
0,0,"sad-girl-cute-eyes.jpg",0,0
//Break Periods
2,8075,12891
2,90182,93449
//Storyboard Layer 0 (Background)
//Storyboard Layer 1 (Fail)
//Storyboard Layer 2 (Pass)
//Storyboard Layer 3 (Foreground)
//Storyboard Sound Samples

[TimingPoints]
130,387.296669248644,4,2,0,30,1,0
14072,-125,4,2,0,40,0,0
26466,-111.111111111111,4,2,0,40,0,0
38859,-100,4,1,1,60,0,0
51253,-95.2380952380952,4,1,1,60,0,0
63646,-90.9090909090909,4,1,1,60,0,1
75652,-90.9090909090909,4,1,1,60,0,0
76040,-83.3333333333333,4,1,1,60,0,1
88433,-90.9090909090909,4,2,0,60,0,0
88820,-111.111111111111,4,2,0,50,0,0
89208,-142.857142857143,4,2,0,40,0,0
89595,-200,4,2,0,30,0,0
94049,-100,4,2,0,30,0,0
94630,-111.111111111111,4,2,0,30,0,0
107023,-100,4,2,0,40,0,0
119417,-83.3333333333333,4,1,1,60,0,1
131423,-83.3333333333333,4,1,1,60,0,0
131810,-76.9230769230769,4,1,1,60,0,1
143817,-76.9230769230769,4,1,1,60,0,0
144204,-71.4285714285714,4,1,1,60,0,1
156597,-83.3333333333333,4,2,0,60,0,0
156985,-100,4,2,0,50,0,0
157372,-125,4,2,0,40,0,0
157759,-166.666666666667,4,2,0,30,0,0

[Colours]
Combo1 : 40,40,64
Combo2 : 86,128,82
Combo3 : 175,249,252

[HitObjects]
160,200,1098,6,0,L|68:236,2,85,2|2|2,0:0|0:0|0:0,0:0:0:0:
232,244,1679,2,0,P|244:180|160:116,1,170,6|0,0:0|0:0,0:0:0:0:
156,284,2260,2,0,P|224:332|304:292,1,170,2|2,0:0|0:0,0:0:0:0:
316,216,2841,5,2,0:0:0:0:
171,116,3034,1,2,0:0:0:0:
232,244,3228,2,0,P|324:304|384:272,1,170,6|0,0:0|0:0,0:0:0:0:
256,88,3809,2,0,P|164:28|104:60,1,170,2|2,0:0|0:0,0:0:0:0:
128,236,4390,5,2,0:0:0:0:
316,216,4583,1,2,0:0:0:0:
172,116,4777,2,0,B|152:160|152:160|88:144|56:188|52:220,1,170,6|0,0:0|0:0,0:0:0:0:
10,328,5358,2,0,B|30:285|30:285|88:304|124:260|128:236,1,170,2|2,0:0|0:0,0:0:0:0:
104,84,5939,5,2,0:0:0:0:
248,136,6133,1,2,0:0:0:0:
128,236,6326,2,0,P|152:272|208:288,1,85,2|0,0:0|0:0,0:0:0:0:
324,108,6714,2,0,P|300:72|244:56,1,85,2|0,0:0|0:0,0:0:0:0:
288,268,7101,2,0,P|324:244|340:188,1,85,2|0,0:0|0:0,0:0:0:0:
160,72,7488,2,0,P|124:96|108:152,1,85,2|0,0:0|0:0,0:0:0:0:
224,168,7875,1,2,0:0:0:0:
148,156,13491,6,0,L|64:132,2,85,2|2|2,0:0|0:0|0:0,0:0:0:0:
224,184,14072,6,0,P|312:156|320:96,1,136,6|2,0:0|0:0,0:0:0:0:
211,54,14653,2,0,L|248:112,1,68,2|0,0:0|0:0,0:0:0:0:
300,48,15040,1,0,0:0:0:0:
164,124,15234,1,2,0:0:0:0:
336,52,15428,1,0,0:0:0:0:
148,156,15621,6,0,P|144:200|160:232,1,68,2|0,0:0|0:0,0:0:0:0:
268,328,16009,1,2,0:0:0:0:
289,179,16202,2,0,P|256:174|224:184,1,68,2|0,0:0|0:0,0:0:0:0:
224,264,16590,1,0,0:0:0:0:
356,228,16783,1,2,0:0:0:0:
268,328,16977,1,0,0:0:0:0:
289,179,17171,6,0,L|304:104,1,68,2|0,0:0|0:0,0:0:0:0:
292,0,17558,1,2,0:0:0:0:
232,96,17751,2,0,L|217:171,1,68,2|0,0:0|0:0,0:0:0:0:
368,156,18139,1,0,0:0:0:0:
152,116,18332,1,2,0:0:0:0:
288,40,18526,1,0,0:0:0:0:
308,252,18720,6,0,B|272:264|236:240|236:240|192:252|156:216,1,136,2|2,0:0|0:0,0:0:0:0:
273,112,19301,2,0,P|288:142|288:175,1,68,2|0,0:0|0:0,0:0:0:0:
220,316,19688,1,0,0:0:0:0:
216,160,19882,1,2,0:0:0:0:
308,252,20075,1,0,0:0:0:0:
144,332,20269,6,0,P|148:284|180:252,1,68,2|0,0:0|0:0,0:0:0:0:
216,160,20656,1,2,0:0:0:0:
400,160,20850,2,0,P|396:208|364:240,1,68,2|0,0:0|0:0,0:0:0:0:
328,332,21237,1,0,0:0:0:0:
216,160,21431,1,2,0:0:0:0:
220,316,21624,1,0,0:0:0:0:
108,144,21818,6,0,P|120:104|152:76,1,68,2|0,0:0|0:0,0:0:0:0:
256,96,22205,1,2,0:0:0:0:
374,85,22399,2,0,P|396:111|404:144,1,68,2|0,0:0|0:0,0:0:0:0:
300,224,22786,1,0,0:0:0:0:
256,96,22980,1,2,0:0:0:0:
212,224,23174,1,0,0:0:0:0:
196,44,23367,6,0,P|256:16|316:44,1,136,2|2,0:0|0:0,0:0:0:0:
224,164,23948,2,0,P|252:172|296:160,1,68,2|0,0:0|0:0,0:0:0:0:
164,116,24336,1,0,0:0:0:0:
256,244,24529,1,2,0:0:0:0:
348,116,24723,1,0,0:0:0:0:
256,244,24916,6,0,L|256:92,1,136,2|2,0:0|0:0,0:0:0:0:
324,288,25497,2,0,L|324:368,1,68,2|0,0:0|0:0,0:0:0:0:
328,208,25885,1,0,0:0:0:0:
248,324,26078,1,2,0:0:0:0:
108,308,26272,1,0,0:0:0:0:
224,128,26466,6,0,P|200:52|164:84,1,152.999995330811,6|2,0:0|0:0,0:0:0:0:
92,200,27047,2,0,L|148:148,1,76.4999976654053,2|0,0:0|0:0,0:0:0:0:
320,92,27434,1,0,0:0:0:0:
200,204,27628,1,2,0:0:0:0:
356,252,27821,1,0,0:0:0:0:
320,92,28015,6,0,P|268:72|224:92,1,76.4999976654053,6|0,0:0|0:0,0:0:0:0:
200,204,28402,1,2,0:0:0:0:
176,60,28596,2,0,P|207:14|255:6,1,76.4999976654053,2|2,0:0|0:0,0:0:0:0:
320,92,28983,1,0,0:0:0:0:
264,268,29177,1,2,0:0:0:0:
136,140,29370,1,0,0:0:0:0:
184,284,29564,6,0,P|204:324|244:344,1,76.4999976654053,6|0,0:0|0:0,0:0:0:0:
136,140,29951,1,2,0:0:0:0:
300,206,30145,2,0,P|292:242|264:268,1,76.4999976654053,2|0,0:0|0:0,0:0:0:0:
104,232,30532,1,0,0:0:0:0:
228,204,30726,1,2,0:0:0:0:
60,168,30920,1,0,0:0:0:0:
264,140,31113,6,0,B|292:120|328:128|352:148|352:148|400:164|432:128,1,152.999995330811,6|2,0:0|0:0,0:0:0:0:
312,56,31694,2,0,P|344:60|384:80,1,76.4999976654053,2|0,0:0|0:0,0:0:0:0:
300,206,32081,1,0,0:0:0:0:
224,64,32275,1,2,0:0:0:0:
60,168,32469,1,0,0:0:0:0:
212,252,32662,6,0,P|240:288|296:300,1,76.4999976654053,6|0,0:0|0:0,0:0:0:0:
300,206,33050,1,2,0:0:0:0:
160,308,33243,2,0,P|184:336|228:360,1,76.4999976654053,2|0,0:0|0:0,0:0:0:0:
220,164,33631,1,0,0:0:0:0:
64,84,33824,1,2,0:0:0:0:
212,172,34018,1,0,0:0:0:0:
72,76,34212,6,0,P|136:48|212:96,1,152.999995330811,6|2,0:0|0:0,0:0:0:0:
168,228,34793,2,0,P|204:244|256:224,1,76.4999976654053,2|0,0:0|0:0,0:0:0:0:
136,132,35180,1,0,0:0:0:0:
256,32,35373,1,2,0:0:0:0:
376,132,35567,1,0,0:0:0:0:
300,280,35761,6,0,P|300:232|328:188,1,76.4999976654053,6|0,0:0|0:0,0:0:0:0:
256,136,36148,1,2,0:0:0:0:
212,280,36342,2,0,B|224:216|176:184|176:184|128:204|92:160|44:196,1,229.499992996216,2|0,0:0|0:0,0:0:0:0:
417,126,37310,5,2,0:0:0:0:
363,267,37504,1,0,0:0:0:0:
212,280,37697,1,2,0:0:0:0:
417,126,37891,1,2,0:0:0:0:
212,280,38085,2,0,P|164:304|112:296,1,76.4999976654053,2|0,0:0|0:0,0:0:0:0:
418,126,38472,2,0,P|466:102|518:110,1,76.4999976654053,2|0,0:0|0:0,0:0:0:0:
363,267,38859,6,0,B|312:256|304:212|304:212|244:216|228:152,1,170,6|0,0:0|0:0,0:0:0:0:
380,192,39440,1,2,0:0:0:0:
163,147,39634,2,0,P|228:98|300:136,1,170,2|0,0:0|0:0,0:0:0:0:
252,280,40215,1,2,0:0:0:0:
235,173,40408,2,0,B|220:52|220:52|160:8,1,170,2|0,0:0|0:0,0:0:0:0:
96,120,40989,5,0,0:0:0:0:
236,172,41183,1,2,0:0:0:0:
108,44,41377,1,0,0:0:0:0:
60,228,41570,1,2,0:0:0:0:
32,68,41764,1,0,0:0:0:0:
182,24,41958,6,0,B|232:60|232:60|264:28|312:24|356:72,1,170,6|0,0:0|0:0,0:0:0:0:
464,56,42538,1,2,0:0:0:0:
344,124,42732,2,0,B|312:132|288:112|288:112|248:152|196:128|196:128|156:100,2,170,2|0|2,0:0|0:0|0:0,0:0:0:0:
280,236,43700,5,0,0:0:0:0:
232,60,43894,1,2,0:0:0:0:
168,172,44088,1,0,0:0:0:0:
344,148,44281,5,2,0:0:0:0:
253,239,44475,1,0,0:0:0:0:
252,57,44669,1,2,0:0:0:0:
161,148,44862,1,0,0:0:0:0:
344,168,45056,6,0,B|416:220|416:220|384:304,1,170,6|0,0:0|0:0,0:0:0:0:
344,168,45637,1,2,0:0:0:0:
312,328,45831,2,0,B|240:276|240:276|272:192,1,170,2|0,0:0|0:0,0:0:0:0:
312,328,46411,1,2,0:0:0:0:
276,120,46605,2,0,B|252:116|220:124|200:156|200:156|160:124|176:72,1,170,2|0,0:0|0:0,0:0:0:0:
324,48,47186,5,0,0:0:0:0:
268,200,47380,1,2,0:0:0:0:
92,96,47573,1,0,0:0:0:0:
344,168,47767,1,2,0:0:0:0:
113,175,47961,1,0,0:0:0:0:
276,120,48154,6,0,P|240:64|176:124,1,170,6|0,0:0|0:0,0:0:0:0:
332,248,48735,1,2,0:0:0:0:
304,20,48929,2,0,P|212:-8|148:20,2,170,2|0|2,0:0|0:0|0:0,0:0:0:0:
224,168,49897,5,0,0:0:0:0:
88,72,50091,1,2,0:0:0:0:
152,288,50284,1,0,0:0:0:0:
144,20,50478,5,2,0:0:0:0:
224,168,50672,1,0,0:0:0:0:
360,72,50865,1,2,0:0:0:0:
296,288,51059,1,0,0:0:0:0:
176,112,51253,6,0,P|236:96|276:120,2,89.2499972763062,6|2|2,0:0|0:0|0:0,0:0:0:0:
224,336,51834,1,0,0:0:0:0:
300,168,52027,2,0,P|332:128|328:76,1,89.2499972763062,6|0,0:0|0:0,0:0:0:0:
184,272,52415,2,0,P|152:312|156:364,1,89.2499972763062,6|0,0:0|0:0,0:0:0:0:
284,36,52802,6,0,P|320:16|384:36,2,89.2499972763062,6|2|2,0:0|0:0|0:0,0:0:0:0:
244,220,53383,1,0,0:0:0:0:
224,336,53576,2,0,P|272:352|319:329,1,89.2499972763062,6|0,0:0|0:0,0:0:0:0:
256,104,53964,2,0,P|208:88|161:111,1,89.2499972763062,6|0,0:0|0:0,0:0:0:0:
224,336,54351,5,6,0:0:0:0:
256,104,54545,1,2,0:0:0:0:
306,339,54738,1,2,0:0:0:0:
173,100,54932,1,0,0:0:0:0:
388,308,55126,2,0,P|428:268|424:208,1,89.2499972763062,4|0,0:0|0:0,0:0:0:0:
96,144,55513,2,0,P|56:184|60:244,1,89.2499972763062,4|0,0:0|0:0,0:0:0:0:
224,336,55900,5,6,0:0:0:0:
132,212,56094,1,2,0:0:0:0:
256,104,56288,1,2,0:0:0:0:
356,240,56481,1,0,0:0:0:0:
181,277,56675,2,0,P|120:292|84:276,1,89.2499972763062,6|0,0:0|0:0,0:0:0:0:
164,55,57062,2,0,L|174:144,1,89.2499972763062,6|0,0:0|0:0,0:0:0:0:
256,192,57449,12,4,63259,0:0:0:0:
256,28,63453,5,4,0:0:0:0:
158,260,63646,6,0,P|104:240|88:116,1,187.000005706787,6|0,0:0|0:0,0:0:0:0:
244,312,64227,1,2,0:0:0:0:
164,168,64421,2,0,P|229:119|324:168,1,187.000005706787,2|0,0:0|0:0,0:0:0:0:
158,260,65002,1,2,0:0:0:0:
324,248,65195,2,0,P|400:201|399:112,1,187.000005706787,2|0,0:0|0:0,0:0:0:0:
244,212,65776,5,0,0:0:0:0:
368,348,65970,1,2,0:0:0:0:
317,157,66164,1,0,0:0:0:0:
240,304,66357,1,2,0:0:0:0:
156,160,66551,1,0,0:0:0:0:
268,52,66745,6,0,B|296:92|344:84|344:84|404:112|392:176,1,187.000005706787,6|0,0:0|0:0,0:0:0:0:
328,8,67325,1,2,0:0:0:0:
317,157,67519,2,0,B|316:204|344:228|376:236|376:236|332:320,2,187.000005706787,2|0|2,0:0|0:0|0:0,0:0:0:0:
148,52,68487,5,0,0:0:0:0:
364,52,68681,1,2,0:0:0:0:
194,157,68875,1,0,0:0:0:0:
317,157,69068,1,2,0:0:0:0:
147,262,69262,1,0,0:0:0:0:
363,262,69456,5,10,0:0:0:0:
148,52,69649,5,8,0:0:0:0:
317,157,69843,6,0,B|359:234|487:138|487:254,1,187.000005706787,6|0,0:0|0:0,0:0:0:0:
396,284,70424,1,2,0:0:0:0:
384,96,70617,2,0,B|341:18|213:114|213:-1,1,187.000005706787,2|0,0:0|0:0,0:0:0:0:
92,16,71198,1,2,0:0:0:0:
172,96,71392,2,0,P|204:184|136:248,1,187.000005706787,2|0,0:0|0:0,0:0:0:0:
8,304,71973,5,0,0:0:0:0:
120,164,72167,1,2,0:0:0:0:
256,256,72360,1,0,0:0:0:0:
392,164,72554,1,2,0:0:0:0:
504,304,72748,1,0,0:0:0:0:
344,240,72941,6,0,B|316:168|252:172|252:172|280:144|276:100,1,187.000005706787,6|0,0:0|0:0,0:0:0:0:
392,164,73522,1,2,0:0:0:0:
256,256,73716,2,0,P|176:216|184:128,2,187.000005706787,2|0|2,0:0|0:0|0:0,0:0:0:0:
348,128,74684,5,0,0:0:0:0:
416,272,74878,1,2,0:0:0:0:
256,256,75071,1,0,0:0:0:0:
431,90,75265,1,2,0:0:0:0:
340,220,75459,1,0,0:0:0:0:
274,74,75652,5,10,0:0:0:0:
416,272,75846,5,8,0:0:0:0:
180,240,76040,6,0,B|192:192|228:180|256:180|256:180|236:120|284:88,1,203.999993774414,6|0,0:0|0:0,0:0:0:0:
256,256,76621,1,2,0:0:0:0:
328,148,76814,2,0,B|384:160|412:116|412:116|432:144|432:144|475:127|516:160,1,203.999993774414,2|0,0:0|0:0,0:0:0:0:
348,76,77395,1,2,0:0:0:0:
256,256,77589,2,0,P|184:320|104:252,1,203.999993774414,2|0,0:0|0:0,0:0:0:0:
24,140,78170,5,0,0:0:0:0:
180,240,78363,1,2,0:0:0:0:
248,68,78557,1,0,0:0:0:0:
100,284,78751,1,2,0:0:0:0:
264,198,78944,1,0,0:0:0:0:
149,54,79138,6,0,B|120:104|176:192|124:280,1,203.999993774414,6|0,0:0|0:0,0:0:0:0:
28,368,79719,1,2,0:0:0:0:
72,220,79913,2,0,B|112:152|200:184|204:236|204:236|248:228,2,203.999993774414,2|0|2,0:0|0:0|0:0,0:0:0:0:
308,216,80881,5,0,0:0:0:0:
36,340,81075,1,2,0:0:0:0:
32,104,81268,1,0,0:0:0:0:
308,216,81462,1,2,0:0:0:0:
72,212,81655,1,0,0:0:0:0:
344,336,81849,5,10,0:0:0:0:
32,104,82043,5,8,0:0:0:0:
268,288,82236,6,0,P|184:340|112:268,1,203.999993774414,6|0,0:0|0:0,0:0:0:0:
288,384,82817,1,2,0:0:0:0:
192,260,83011,2,0,P|152:208|36:256,1,203.999993774414,2|0,0:0|0:0,0:0:0:0:
256,208,83592,1,2,0:0:0:0:
114,280,83786,2,0,L|124:60,1,203.999993774414,2|0,0:0|0:0,0:0:0:0:
296,40,84367,5,0,0:0:0:0:
216,184,84560,1,2,0:0:0:0:
352,92,84754,1,0,0:0:0:0:
400,248,84947,1,2,0:0:0:0:
428,84,85141,1,0,0:0:0:0:
249,116,85335,6,0,B|288:132|292:176|292:176|344:196|344:196|368:168|408:172,1,203.999993774414,6|0,0:0|0:0,0:0:0:0:
352,92,85916,1,2,0:0:0:0:
216,184,86109,2,0,B|220:232|260:244|260:244|288:256|288:256|296:312|356:320,2,203.999993774414,2|0|2,0:0|0:0|0:0,0:0:0:0:
296,40,87078,5,0,0:0:0:0:
364,244,87271,1,2,0:0:0:0:
216,184,87465,1,0,0:0:0:0:
156,332,87659,1,2,0:0:0:0:
364,244,87852,1,0,0:0:0:0:
140,240,88046,5,10,0:0:0:0:
296,40,88239,5,8,0:0:0:0:
132,156,88433,6,0,P|168:108|228:104,1,93.5000028533936,6|0,0:0|0:0,0:0:0:0:
264,328,88820,6,0,L|204:256,1,76.4999976654053,2|0,0:0|0:0,0:0:0:0:
265,157,89208,6,0,P|244:177|216:184,1,59.4999981842042,2|0,0:0|0:0,0:0:0:0:
104,262,89595,6,0,L|140:240,1,42.5,2|0,0:0|0:0,0:0:0:0:
216,183,89982,5,2,0:0:0:0:
388,128,94049,6,0,L|472:48,2,85,2|2|2,0:0|0:0|0:0,0:0:0:0:
348,204,94630,6,0,B|312:188|304:152|304:152|252:216,1,152.999995330811,6|2,0:0|0:0,0:0:0:0:
248,108,95211,2,0,L|199:167,1,76.4999976654053,2|0,0:0|0:0,0:0:0:0:
308,268,95598,1,0,0:0:0:0:
152,280,95792,1,2,0:0:0:0:
276,340,95985,1,0,0:0:0:0:
136,204,96179,6,0,P|126:171|140:128,1,76.4999976654053,2|0,0:0|0:0,0:0:0:0:
240,24,96566,1,2,0:0:0:0:
272,172,96760,2,0,P|239:181|196:168,1,76.4999976654053,2|0,0:0|0:0,0:0:0:0:
92,68,97147,1,0,0:0:0:0:
238,106,97341,1,2,0:0:0:0:
72,144,97535,1,0,0:0:0:0:
240,24,97728,6,0,P|276:32|312:80,1,76.4999976654053,2|0,0:0|0:0,0:0:0:0:
340,192,98116,1,2,0:0:0:0:
203,171,98309,2,0,P|211:135|259:99,1,76.4999976654053,2|0,0:0|0:0,0:0:0:0:
371,71,98697,1,0,0:0:0:0:
276,168,98890,1,2,0:0:0:0:
371,71,99084,1,0,0:0:0:0:
200,44,99277,6,0,P|140:112|128:192,1,152.999995330811,2|2,0:0|0:0,0:0:0:0:
288,280,99858,2,0,L|264:176,1,76.4999976654053,2|0,0:0|0:0,0:0:0:0:
284,68,100246,1,0,0:0:0:0:
196,204,100439,1,2,0:0:0:0:
352,220,100633,1,0,0:0:0:0:
224,324,100827,6,0,P|256:352|312:348,1,76.4999976654053,2|0,0:0|0:0,0:0:0:0:
196,204,101214,1,2,0:0:0:0:
352,248,101408,2,0,P|320:276|264:272,1,76.4999976654053,2|0,0:0|0:0,0:0:0:0:
260,152,101795,1,0,0:0:0:0:
168,272,101989,1,2,0:0:0:0:
332,176,102182,1,0,0:0:0:0:
184,128,102376,6,0,P|212:88|256:76,1,76.4999976654053,2|0,0:0|0:0,0:0:0:0:
168,272,102763,1,2,0:0:0:0:
260,152,102957,2,0,P|300:180|312:224,1,76.4999976654053,2|0,0:0|0:0,0:0:0:0:
232,320,103344,1,0,0:0:0:0:
240,220,103538,1,2,0:0:0:0:
144,196,103731,1,0,0:0:0:0:
232,320,103925,6,0,P|288:336|364:280,1,152.999995330811,2|2,0:0|0:0,0:0:0:0:
446,166,104506,2,0,P|411:179|392:211,1,76.4999976654053,2|0,0:0|0:0,0:0:0:0:
392,384,104893,1,0,0:0:0:0:
284,252,105087,1,2,0:0:0:0:
460,236,105281,1,0,0:0:0:0:
232,320,105474,6,0,P|200:272|240:180,1,152.999995330811,2|2,0:0|0:0,0:0:0:0:
331,102,106055,2,0,P|329:139|308:171,1,76.4999976654053,2|0,0:0|0:0,0:0:0:0:
252,112,106442,1,0,0:0:0:0:
284,252,106636,1,2,0:0:0:0:
136,184,106830,1,0,0:0:0:0:
384,216,107023,6,0,B|436:232|472:184|472:184|444:148|464:96,1,170,6|2,0:0|0:0,0:0:0:0:
396,292,107604,2,0,P|332:276|312:240,1,85,2|0,0:0|0:0,0:0:0:0:
252,112,107992,1,0,0:0:0:0:
192,320,108185,1,2,0:0:0:0:
136,184,108379,1,0,0:0:0:0:
328,300,108573,6,0,P|376:280|392:232,1,85,6|0,0:0|0:0,0:0:0:0:
284,180,108960,1,2,0:0:0:0:
328,300,109154,2,0,P|348:348|396:364,1,85,2|0,0:0|0:0,0:0:0:0:
448,256,109541,1,0,0:0:0:0:
256,256,109734,1,2,0:0:0:0:
64,256,109928,1,0,0:0:0:0:
204,200,110122,6,0,P|248:180|300:196,1,85,6|0,0:0|0:0,0:0:0:0:
160,276,110509,1,2,0:0:0:0:
308,312,110703,2,0,P|264:332|212:316,1,85,2|0,0:0|0:0,0:0:0:0:
352,240,111090,1,0,0:0:0:0:
292,112,111284,1,2,0:0:0:0:
256,256,111477,1,0,0:0:0:0:
248,48,111671,6,0,B|208:80|216:124|216:124|176:84|120:108,1,170,6|2,0:0|0:0,0:0:0:0:
292,112,112252,2,0,P|320:80|320:24,1,85,2|0,0:0|0:0,0:0:0:0:
168,24,112639,1,0,0:0:0:0:
160,176,112833,1,2,0:0:0:0:
248,48,113026,1,0,0:0:0:0:
88,208,113220,6,0,P|116:244|168:248,1,85,6|0,0:0|0:0,0:0:0:0:
256,156,113607,1,2,0:0:0:0:
424,208,113801,2,0,P|396:244|344:248,1,85,2|0,0:0|0:0,0:0:0:0:
256,76,114188,1,0,0:0:0:0:
256,332,114382,1,2,0:0:0:0:
256,156,114576,1,0,0:0:0:0:
464,268,114769,6,0,P|496:216|428:136,1,170,6|2,0:0|0:0,0:0:0:0:
196,208,115350,2,0,P|232:232|292:224,1,85,2|0,0:0|0:0,0:0:0:0:
424,208,115738,1,0,0:0:0:0:
256,156,115931,1,2,0:0:0:0:
438,137,116125,1,0,0:0:0:0:
272,232,116319,6,0,L|212:316,1,85,6|0,0:0|0:0,0:0:0:0:
256,156,116706,1,2,0:0:0:0:
296,328,116899,2,0,B|344:260|344:260|388:288|436:256,2,170,2|0|0,0:0|0:0|0:0,0:0:0:0:
196,204,117868,5,2,0:0:0:0:
387,197,118061,1,2,0:0:0:0:
216,288,118255,1,2,0:0:0:0:
316,156,118449,1,2,0:0:0:0:
296,328,118642,2,0,P|264:368|200:368,1,85,2|0,0:0|0:0,0:0:0:0:
236,128,119030,5,10,0:0:0:0:
476,328,119223,5,8,0:0:0:0:
136,264,119417,6,0,P|56:192|112:88,1,203.999993774414,6|0,0:0|0:0,0:0:0:0:
216,0,119998,1,2,0:0:0:0:
252,208,120191,2,0,B|156:172|156:172|192:60,1,203.999993774414,2|0,0:0|0:0,0:0:0:0:
336,228,120772,1,2,0:0:0:0:
207,277,120966,2,0,P|173:188|248:128,1,203.999993774414,2|0,0:0|0:0,0:0:0:0:
296,316,121547,5,0,0:0:0:0:
144,328,121741,1,2,0:0:0:0:
264,196,121934,1,0,0:0:0:0:
416,184,122128,1,2,0:0:0:0:
296,68,122322,1,0,0:0:0:0:
144,80,122515,6,0,P|100:168|172:240,1,203.999993774414,6|0,0:0|0:0,0:0:0:0:
256,148,123096,1,2,0:0:0:0:
224,280,123290,2,0,B|200:316|160:324|124:304|124:304|68:308|56:360,2,203.999993774414,2|0|2,0:0|0:0|0:0,0:0:0:0:
344,236,124258,5,0,0:0:0:0:
256,48,124452,1,2,0:0:0:0:
56,104,124645,1,0,0:0:0:0:
343,122,124839,1,2,0:0:0:0:
148,52,125033,1,0,0:0:0:0:
48,232,125226,5,10,0:0:0:0:
344,236,125420,5,8,0:0:0:0:
116,192,125614,6,0,P|212:244|280:180,1,203.999993774414,6|0,0:0|0:0,0:0:0:0:
428,104,126195,1,2,0:0:0:0:
276,20,126388,2,0,P|182:77|204:168,1,203.999993774414,2|0,0:0|0:0,0:0:0:0:
196,332,126969,1,2,0:0:0:0:
344,244,127163,2,0,P|341:134|251:107,1,203.999993774414,2|0,0:0|0:0,0:0:0:0:
100,108,127744,5,0,0:0:0:0:
344,244,127937,1,2,0:0:0:0:
44,244,128131,1,0,0:0:0:0:
180,68,128325,1,2,0:0:0:0:
180,296,128518,1,0,0:0:0:0:
92,184,128712,6,0,L|308:184,1,203.999993774414,6|0,0:0|0:0,0:0:0:0:
308,28,129293,1,2,0:0:0:0:
168,100,129487,2,0,B|160:156|212:184|212:184|160:208|184:284,2,203.999993774414,2|0|2,0:0|0:0|0:0,0:0:0:0:
16,184,130455,5,0,0:0:0:0:
92,336,130648,1,2,0:0:0:0:
212,184,130842,1,0,0:0:0:0:
420,48,131036,1,2,0:0:0:0:
300,200,131229,1,0,0:0:0:0:
496,200,131423,5,10,0:0:0:0:
224,48,131617,5,8,0:0:0:0:
240,264,131810,6,0,B|268:296|328:296|360:264|360:264|392:288|392:288|448:256,1,220.999989883423,6|0,0:0|0:0,0:0:0:0:
300,200,132391,1,2,0:0:0:0:
433,135,132585,2,0,B|392:112|392:112|360:136|360:136|328:104|268:104|240:136,1,220.999989883423,2|0,0:0|0:0,0:0:0:0:
152,272,133166,1,2,0:0:0:0:
300,200,133360,2,0,B|324:44|324:44|288:48|268:24,1,220.999989883423,2|0,0:0|0:0,0:0:0:0:
132,76,133940,5,0,0:0:0:0:
104,216,134134,1,2,0:0:0:0:
204,52,134328,1,0,0:0:0:0:
156,268,134521,1,2,0:0:0:0:
276,32,134715,1,0,0:0:0:0:
212,316,134909,6,0,P|380:316|408:252,1,220.999989883423,6|0,0:0|0:0,0:0:0:0:
272,156,135490,1,2,0:0:0:0:
405,38,135683,2,0,P|468:124|432:224,2,220.999989883423,2|0|2,0:0|0:0|0:0,0:0:0:0:
256,76,136652,5,0,0:0:0:0:
104,40,136845,1,2,0:0:0:0:
256,156,137039,1,0,0:0:0:0:
184,336,137233,1,2,0:0:0:0:
256,76,137426,1,0,0:0:0:0:
328,336,137620,5,10,0:0:0:0:
28,64,137813,5,8,0:0:0:0:
324,116,138007,6,0,B|384:128|412:88|412:88|404:140|452:168|452:168|460:204,1,220.999989883423,6|0,0:0|0:0,0:0:0:0:
328,196,138588,1,2,0:0:0:0:
348,36,138782,2,0,P|464:20|488:128,1,220.999989883423,2|0,0:0|0:0,0:0:0:0:
256,208,139363,1,2,0:0:0:0:
216,36,139556,2,0,P|332:20|356:128,1,220.999989883423,2|0,0:0|0:0,0:0:0:0:
184,160,140137,5,0,0:0:0:0:
296,328,140331,1,2,0:0:0:0:
280,92,140525,1,0,0:0:0:0:
492,196,140718,1,2,0:0:0:0:
236,212,140912,1,0,0:0:0:0:
368,296,141105,6,0,B|408:228|408:228|404:168|404:168|356:100,1,220.999989883423,6|0,0:0|0:0,0:0:0:0:
160,216,141686,1,2,0:0:0:0:
332,204,141880,2,0,B|480:196|480:196|472:144|472:144|448:104,2,220.999989883423,2|0|2,0:0|0:0|0:0,0:0:0:0:
108,128,142848,5,0,0:0:0:0:
88,352,143042,1,2,0:0:0:0:
276,256,143236,1,0,0:0:0:0:
32,232,143429,1,2,0:0:0:0:
220,136,143623,1,0,0:0:0:0:
0,320,143817,5,10,0:0:0:0:
308,168,144010,5,8,0:0:0:0:
208,352,144204,6,0,P|340:356|392:268,1,237.999992736817,6|0,0:0|0:0,0:0:0:0:
296,76,144785,1,2,0:0:0:0:
92,64,144978,2,0,P|72:188|104:312,1,237.999992736817,2|0,0:0|0:0,0:0:0:0:
256,180,145559,1,2,0:0:0:0:
415,296,145753,2,0,P|440:180|420:64,1,237.999992736817,2|0,0:0|0:0,0:0:0:0:
164,140,146334,5,0,0:0:0:0:
272,324,146528,1,2,0:0:0:0:
376,136,146721,1,0,0:0:0:0:
132,284,146915,1,2,0:0:0:0:
410,282,147109,1,0,0:0:0:0:
266,42,147302,6,0,P|103:72|64:148,1,237.999992736817,6|0,0:0|0:0,0:0:0:0:
216,196,147883,1,2,0:0:0:0:
168,344,148077,2,0,B|284:376|284:376|348:272,2,237.999992736817,2|0|2,0:0|0:0|0:0,0:0:0:0:
124,204,149045,5,0,0:0:0:0:
304,204,149239,1,2,0:0:0:0:
116,284,149432,1,0,0:0:0:0:
312,124,149626,1,2,0:0:0:0:
40,320,149820,1,0,0:0:0:0:
388,88,150013,5,10,0:0:0:0:
0,48,150207,5,8,0:0:0:0:
216,252,150401,6,0,P|296:304|400:224,1,237.999992736817,6|0,0:0|0:0,0:0:0:0:
456,28,150982,1,2,0:0:0:0:
304,204,151175,2,0,B|260:200|236:136|272:92|272:92|224:44|160:80,1,237.999992736817,2|0,0:0|0:0,0:0:0:0:
328,140,151756,1,2,0:0:0:0:
180,144,151950,2,0,B|136:144|112:112|108:84|108:84|16:84|16:184,1,237.999992736817,2|0,0:0|0:0,0:0:0:0:
164,332,152531,5,0,0:0:0:0:
320,284,152724,1,2,0:0:0:0:
240,128,152918,1,0,0:0:0:0:
252,344,153112,1,2,0:0:0:0:
88,236,153305,1,0,0:0:0:0:
320,184,153499,6,0,B|416:152|416:152|380:128|380:48|428:36,1,237.999992736817,6|0,0:0|0:0,0:0:0:0:
480,268,154080,1,2,0:0:0:0:
468,96,154274,2,0,B|328:96|328:96|296:60|296:60|224:60,2,237.999992736817,2|0|2,0:0|0:0|0:0,0:0:0:0:
404,240,155242,5,0,0:0:0:0:
296,60,155435,1,2,0:0:0:0:
44,96,155629,1,0,0:0:0:0:
108,240,155823,1,2,0:0:0:0:
216,60,156016,1,0,0:0:0:0:
368,140,156210,1,2,0:0:0:0:
144,140,156404,1,0,0:0:0:0:
256,320,156597,6,0,P|303:345|372:328,1,101.999996887207,6|0,0:0|0:0,0:0:0:0:
316,264,156985,6,0,P|362:264|409:233,1,85,2|0,0:0|0:0,0:0:0:0:
344,184,157372,6,0,P|384:161|406:132,1,68,2|0,0:0|0:0,0:0:0:0:
324,100,157759,6,0,P|344:72|348:36,1,50.9999984436036,2|0,0:0|0:0,0:0:0:0:
264,40,158147,5,2,0:0:0:0:
