osu file format v14

[General]
AudioFilename: audio.mp3
AudioLeadIn: 1000
PreviewTime: 63028
Countdown: 0
SampleSet: Soft
StackLeniency: 0.7
Mode: 3
LetterboxInBreaks: 0
SpecialStyle: 0
WidescreenStoryboard: 1

[Editor]
Bookmarks: 19139,36917,54695,134695,152473,232473
DistanceSpacing: 1
BeatDivisor: 2
GridSize: 8
TimelineZoom: 1.2

[Metadata]
Title:Close to gray
TitleUnicode:限りなく灰色へ
Artist:Nightcord at 25:00 x Kagamine Rin
ArtistUnicode:25時、ナイトコードで。 × 鏡音リン
Creator:Ryu Sei
Version:Close to easy
Source:プロジェクトセカイ カラフルステージ! feat. 初音ミク
Tags:Project SEKAI Colorful Stage! feat. Hatsune Miku Kagirinaku Haiiro e Infinitely Grey vocaloid surii Three すりぃ Shinonome Ena 東雲絵名 Suzuki Minori 鈴木みのり Yoisaki Kanade 宵崎奏 Kusunoki Tomori 楠木ともり Asahina Mafuyu 朝比奈まふゆ Tanabe Rui 田辺留依 Akiyama Mizuki 暁山瑞希 Satou Hinata 佐藤日向 N25 ニーゴ niigo SEGA Colorful Palette electronic pop japanese j-pop jpop 25 ji 25-ji, Nightcord de. 満たされないペイルカラー mitasa renai pale color Insatiable Pale Color
BeatmapID:3682430
BeatmapSetID:1796206

[Difficulty]
HPDrainRate:6
CircleSize:4
OverallDifficulty:6
ApproachRate:5
SliderMultiplier:1.4
SliderTickRate:1

[Events]
//Background and Video events
0,0,"ENAAAAAAAAA.jpg",0,0
//Break Periods
//Storyboard Layer 0 (Background)
//Storyboard Layer 1 (Fail)
//Storyboard Layer 2 (Pass)
//Storyboard Layer 3 (Foreground)
//Storyboard Layer 4 (Overlay)
//Storyboard Sound Samples
Sample,36130,0,"snare.wav",70
Sample,36176,0,"snare.wav",70
Sample,36223,0,"snare.wav",70
Sample,36269,0,"snare.wav",70
Sample,36315,0,"snare.wav",70
Sample,36547,0,"snare.wav",70
Sample,36824,0,"snare.wav",70
Sample,37473,0,"clap.wav",70
Sample,41084,0,"kick-thump.wav",22
Sample,41130,0,"kick-thump.wav",22
Sample,41176,0,"kick-thump.wav",22
Sample,41223,0,"kick-thump.wav",22
Sample,41269,0,"kick-thump.wav",22
Sample,41315,0,"kick-thump.wav",22
Sample,41917,0,"clap.wav",70
Sample,45806,0,"kick-thump.wav",70
Sample,47195,0,"kick-thump.wav",70
Sample,49973,0,"kick-thump.wav",22
Sample,50019,0,"kick-thump.wav",22
Sample,50065,0,"kick-thump.wav",22
Sample,50112,0,"kick-thump.wav",22
Sample,50158,0,"kick-thump.wav",22
Sample,50204,0,"kick-thump.wav",22
Sample,50806,0,"clap.wav",70
Sample,54463,0,"snare.wav",70
Sample,54510,0,"snare.wav",70
Sample,54556,0,"snare.wav",70
Sample,54602,0,"snare.wav",70
Sample,54649,0,"snare.wav",70
Sample,55158,0,"kick-thump.wav",70
Sample,55250,0,"clap.wav",70
Sample,55528,0,"kick-thump.wav",70
Sample,56084,0,"kick-thump.wav",70
Sample,56362,0,"clap.wav",70
Sample,57380,0,"kick-thump.wav",70
Sample,57473,0,"clap.wav",70
Sample,57750,0,"kick-thump.wav",70
Sample,57936,0,"snare.wav",70
Sample,58213,0,"snare.wav",70
Sample,58306,0,"snare.wav",70
Sample,58306,0,"kick-thump.wav",70
Sample,58584,0,"snare.wav",70
Sample,58584,0,"clap.wav",70
Sample,58862,0,"snare.wav",70
Sample,59047,0,"snare.wav",70
Sample,59139,0,"snare.wav",70
Sample,59417,0,"snare.wav",70
Sample,59463,0,"snare.wav",70
Sample,59510,0,"snare.wav",70
Sample,59556,0,"snare.wav",70
Sample,59602,0,"snare.wav",70
Sample,59602,0,"kick-thump.wav",70
Sample,59649,0,"snare.wav",70
Sample,59695,0,"snare.wav",70
Sample,59695,0,"clap.wav",70
Sample,59973,0,"snare.wav",70
Sample,59973,0,"kick-thump.wav",70
Sample,60019,0,"snare.wav",70
Sample,60065,0,"snare.wav",70
Sample,60112,0,"snare.wav",70
Sample,60158,0,"snare.wav",70
Sample,60204,0,"snare.wav",70
Sample,60250,0,"snare.wav",70
Sample,60528,0,"snare.wav",70
Sample,60528,0,"kick-thump.wav",70
Sample,60574,0,"snare.wav",70
Sample,60621,0,"snare.wav",70
Sample,60667,0,"snare.wav",70
Sample,60713,0,"snare.wav",70
Sample,60760,0,"snare.wav",70
Sample,60806,0,"snare.wav",70
Sample,60806,0,"clap.wav",70
Sample,63584,0,"finish.wav",70
Sample,80528,0,"clap.wav",70
Sample,80528,0,"snap.wav",70
Sample,80806,0,"snare-long.wav",70
Sample,93028,0,"clap.wav",70
Sample,93584,0,"kick-thump.wav",70
Sample,95250,0,"clap.wav",70
Sample,96362,0,"clap.wav",70
Sample,98028,0,"tap.wav",70
Sample,98306,0,"rim.wav",70
Sample,98375,0,"rim.wav",70
Sample,98445,0,"rim.wav",70
Sample,98514,0,"rim.wav",70
Sample,98584,0,"tap.wav",70
Sample,98769,0,"rim.wav",70
Sample,98862,0,"tap.wav",70
Sample,117473,0,"clap.wav",70
Sample,118584,0,"clap.wav",70
Sample,118908,0,"kick-thump.wav",22
Sample,118954,0,"kick-thump.wav",22
Sample,119000,0,"kick-thump.wav",22
Sample,119047,0,"kick-thump.wav",22
Sample,119093,0,"kick-thump.wav",22
Sample,133908,0,"snare.wav",70
Sample,133954,0,"snare.wav",70
Sample,134000,0,"snare.wav",70
Sample,134047,0,"snare.wav",70
Sample,134093,0,"snare.wav",70
Sample,134139,0,"snare.wav",70
Sample,134139,0,"clap.wav",70
Sample,134324,0,"snare.wav",70
Sample,134602,0,"snare.wav",70
Sample,143908,0,"kick-thump.wav",22
Sample,143954,0,"kick-thump.wav",22
Sample,144000,0,"kick-thump.wav",22
Sample,144047,0,"kick-thump.wav",22
Sample,144093,0,"kick-thump.wav",22
Sample,150991,0,"snare.wav",70
Sample,151547,0,"snare.wav",70
Sample,152241,0,"snare.wav",70
Sample,152287,0,"snare.wav",70
Sample,152334,0,"snare.wav",70
Sample,152380,0,"snare.wav",70
Sample,152426,0,"snare.wav",70
Sample,161362,0,"finish.wav",70
Sample,178306,0,"clap.wav",70
Sample,178584,0,"snare-long.wav",70
Sample,190806,0,"clap.wav",70
Sample,191362,0,"kick-thump.wav",70
Sample,193028,0,"clap.wav",70
Sample,194139,0,"clap.wav",70
Sample,195806,0,"tap.wav",70
Sample,196084,0,"rim.wav",70
Sample,196153,0,"rim.wav",70
Sample,196223,0,"rim.wav",70
Sample,196292,0,"rim.wav",70
Sample,196362,0,"tap.wav",70
Sample,196547,0,"rim.wav",70
Sample,213862,0,"rim.wav",70
Sample,213931,0,"rim.wav",70
Sample,214000,0,"rim.wav",70
Sample,214070,0,"rim.wav",70
Sample,214324,0,"rim.wav",70
Sample,233028,0,"clap.wav",70
Sample,234139,0,"clap.wav",70
Sample,237473,0,"clap.wav",70
Sample,238584,0,"clap.wav",70
Sample,241917,0,"clap.wav",70
Sample,243028,0,"clap.wav",70

[TimingPoints]
1362,555.555555555556,4,2,1,53,1,0
99139,-100,4,2,1,53,0,1
116917,-100,4,2,1,53,0,0
196917,-100,4,2,1,53,0,1
214139,-100,4,2,1,53,0,0
214695,-100,4,2,1,53,0,1
248028,-100,4,2,1,53,0,0

[HitObjects]
448,192,1362,5,0,0:0:0:0:
192,192,2195,1,0,0:0:0:0:
64,192,3584,1,0,0:0:0:0:
320,192,4417,1,0,0:0:0:0:
448,192,5806,1,0,0:0:0:0:
192,192,6639,1,0,0:0:0:0:
64,192,8028,1,0,0:0:0:0:
320,192,8862,1,0,0:0:0:0:
448,192,10250,1,0,0:0:0:0:
320,192,10250,1,0,0:0:0:0:
320,192,10806,1,0,0:0:0:0:
192,192,11084,1,0,0:0:0:0:
64,192,11084,1,0,0:0:0:0:
448,192,11917,1,0,0:0:0:0:
320,192,12195,1,0,0:0:0:0:
64,192,12473,1,0,0:0:0:0:
192,192,12473,1,0,0:0:0:0:
192,192,13028,1,0,0:0:0:0:
320,192,13306,1,0,0:0:0:0:
448,192,13306,1,0,0:0:0:0:
64,192,14139,1,0,0:0:0:0:
192,192,14417,1,0,0:0:0:0:
448,192,14695,1,0,0:0:0:0:
320,192,14695,1,0,0:0:0:0:
320,192,15250,1,0,0:0:0:0:
192,192,15528,1,0,0:0:0:0:
64,192,15528,1,0,0:0:0:0:
448,192,16362,1,0,0:0:0:0:
320,192,16639,1,0,0:0:0:0:
64,192,16917,1,0,0:0:0:0:
192,192,16917,1,0,0:0:0:0:
192,192,17473,1,0,0:0:0:0:
320,192,17750,1,0,0:0:0:0:
448,192,17750,1,0,0:0:0:0:
64,192,19139,1,0,0:0:0:0:
192,192,19139,1,0,0:0:0:70:kick-thump.wav
192,192,19973,1,0,0:0:0:0:
64,192,19973,1,0,0:0:0:70:kick-thump.wav
320,192,21362,1,0,0:0:0:0:
64,192,21362,1,0,0:0:0:70:kick-thump.wav
320,192,22195,1,0,0:0:0:0:
64,192,22195,1,0,0:0:0:70:kick-thump.wav
448,192,23584,1,0,0:0:0:0:
64,192,23584,1,0,0:0:0:70:kick-thump.wav
448,192,24417,1,0,0:0:0:0:
64,192,24417,1,0,0:0:0:70:kick-thump.wav
448,192,25806,1,0,0:0:0:0:
192,192,25806,1,0,0:0:0:70:kick-thump.wav
448,192,26639,1,0,0:0:0:0:
192,192,26639,1,0,0:0:0:70:kick-thump.wav
448,192,28028,1,0,0:0:0:0:
320,192,28028,1,0,0:0:0:70:kick-thump.wav
448,192,28862,1,0,0:0:0:0:
320,192,28862,1,0,0:0:0:70:kick-thump.wav
448,192,30250,1,0,0:0:0:0:
192,192,30250,1,0,0:0:0:70:kick-thump.wav
448,192,31084,1,0,0:0:0:0:
192,192,31084,1,0,0:0:0:70:kick-thump.wav
448,192,32473,1,0,0:0:0:0:
64,192,32473,1,0,0:0:0:70:kick-thump.wav
448,192,33306,1,0,0:0:0:0:
64,192,33306,1,0,0:0:0:70:kick-thump.wav
320,192,34695,1,0,0:0:0:0:
64,192,34695,1,0,0:0:0:70:kick-thump.wav
320,192,35528,1,0,0:0:0:0:
64,192,35528,1,0,0:0:0:70:kick-thump.wav
192,192,36084,1,0,0:0:0:70:snare.wav
448,192,36362,1,0,0:0:0:70:snare.wav
320,192,36639,1,0,0:0:0:70:snare.wav
192,192,36917,1,0,0:0:0:0:
64,192,36917,1,0,0:0:0:70:kick-thump.wav
320,192,37195,1,0,0:0:0:0:
192,192,37195,1,0,0:0:0:70:kick-thump.wav
448,192,37750,1,0,0:0:0:0:
192,192,37750,1,0,0:0:0:70:kick-thump.wav
320,192,38028,1,0,0:0:0:0:
448,192,38306,1,0,0:0:0:70:kick-thump.wav
192,192,38584,1,0,0:0:0:0:
64,192,38584,1,0,0:0:0:70:clap.wav
448,192,39139,1,0,0:0:0:70:kick-thump.wav
192,192,39417,1,0,0:0:0:70:kick-thump.wav
64,192,39695,1,0,0:0:0:70:clap.wav
448,192,39973,1,0,0:0:0:70:kick-thump.wav
64,192,40250,1,0,0:0:0:0:
192,192,40528,1,0,0:0:0:70:kick-thump.wav
320,192,40806,1,0,0:0:0:70:clap.wav
320,192,41362,1,0,0:0:0:0:
448,192,41362,1,0,0:0:0:70:kick-thump.wav
192,192,41639,1,0,0:0:0:0:
320,192,41639,1,0,0:0:0:70:kick-thump.wav
64,192,42195,1,0,0:0:0:0:
320,192,42195,1,0,0:0:0:70:kick-thump.wav
192,192,42473,1,0,0:0:0:0:
64,192,42750,1,0,0:0:0:70:kick-thump.wav
320,192,43028,1,0,0:0:0:0:
448,192,43028,1,0,0:0:0:70:clap.wav
64,192,43584,1,0,0:0:0:70:kick-thump.wav
320,192,43862,1,0,0:0:0:70:kick-thump.wav
448,192,44139,1,0,0:0:0:70:clap.wav
64,192,44417,1,0,0:0:0:70:kick-thump.wav
448,192,44695,1,0,0:0:0:0:
320,192,44973,1,0,0:0:0:70:kick-thump.wav
192,192,45250,1,0,0:0:0:70:clap.wav
64,192,45528,1,0,0:0:0:0:
192,192,46084,1,0,0:0:0:0:
64,192,46084,1,0,0:0:0:70:kick-thump.wav
192,192,46362,1,0,0:0:0:70:clap.wav
320,192,46639,1,0,0:0:0:0:
448,192,46639,1,0,0:0:0:70:kick-thump.wav
320,192,46917,1,0,0:0:0:0:
192,192,47473,1,0,0:0:0:0:
64,192,47473,1,0,0:0:0:70:clap.wav
448,192,48028,1,0,0:0:0:70:kick-thump.wav
192,192,48306,1,0,0:0:0:70:kick-thump.wav
64,192,48584,1,0,0:0:0:70:clap.wav
448,192,48862,1,0,0:0:0:70:kick-thump.wav
64,192,49139,1,0,0:0:0:0:
192,192,49417,1,0,0:0:0:70:kick-thump.wav
320,192,49695,1,0,0:0:0:70:clap.wav
320,192,50250,1,0,0:0:0:0:
448,192,50250,1,0,0:0:0:70:kick-thump.wav
192,192,50528,1,0,0:0:0:0:
320,192,50528,1,0,0:0:0:70:kick-thump.wav
64,192,51084,1,0,0:0:0:0:
320,192,51084,1,0,0:0:0:70:kick-thump.wav
192,192,51362,1,0,0:0:0:0:
64,192,51639,1,0,0:0:0:70:kick-thump.wav
320,192,51917,1,0,0:0:0:0:
448,192,51917,1,0,0:0:0:70:clap.wav
64,192,52473,1,0,0:0:0:70:kick-thump.wav
320,192,52750,1,0,0:0:0:70:kick-thump.wav
448,192,53028,1,0,0:0:0:70:clap.wav
64,192,53306,1,0,0:0:0:70:kick-thump.wav
192,192,53862,1,0,0:0:0:0:
320,192,54139,1,0,0:0:0:70:snare.wav
192,192,54417,1,0,0:0:0:70:snare.wav
64,192,54695,128,0,56917:0:0:0:70:kick-thump.wav
192,192,56917,128,0,59139:0:0:0:70:kick-thump.wav
320,192,59139,128,0,61362:0:0:0:70:kick-thump.wav
64,192,61362,1,0,0:0:0:0:
448,192,63028,128,0,63584:0:0:0:70:kick-thump.wav
192,192,63584,1,0,0:0:0:70:clap.wav
64,192,63584,1,0,0:0:0:70:kick-thump.wav
192,192,64417,1,0,0:0:0:70:clap.wav
64,192,64417,1,0,0:0:0:70:kick-thump.wav
448,192,65250,1,0,0:0:0:0:
192,192,65806,1,0,0:0:0:70:clap.wav
64,192,65806,1,0,0:0:0:70:kick-thump.wav
192,192,66639,1,0,0:0:0:70:clap.wav
64,192,66639,1,0,0:0:0:70:kick-thump.wav
448,192,67195,1,0,0:0:0:70:snap.wav
320,192,67473,1,0,0:0:0:70:snap.wav
448,192,67750,1,0,0:0:0:70:snap.wav
64,192,68028,1,0,0:0:0:70:clap.wav
192,192,68028,1,0,0:0:0:70:kick-thump.wav
64,192,68862,1,0,0:0:0:70:clap.wav
192,192,68862,1,0,0:0:0:70:kick-thump.wav
448,192,69695,1,0,0:0:0:0:
64,192,70250,1,0,0:0:0:70:clap.wav
192,192,70250,1,0,0:0:0:70:kick-thump.wav
64,192,71084,1,0,0:0:0:70:clap.wav
192,192,71084,1,0,0:0:0:70:kick-thump.wav
448,192,71639,1,0,0:0:0:70:snap.wav
192,192,71917,1,0,0:0:0:70:snare-long.wav
320,192,72473,1,0,0:0:0:70:clap.wav
448,192,72473,1,0,0:0:0:70:kick-thump.wav
320,192,73306,1,0,0:0:0:70:clap.wav
448,192,73306,1,0,0:0:0:70:kick-thump.wav
64,192,74139,1,0,0:0:0:0:
320,192,74695,1,0,0:0:0:70:clap.wav
448,192,74695,1,0,0:0:0:70:kick-thump.wav
320,192,75528,1,0,0:0:0:70:clap.wav
448,192,75528,1,0,0:0:0:70:kick-thump.wav
64,192,76084,1,0,0:0:0:70:snap.wav
192,192,76362,1,0,0:0:0:70:snap.wav
64,192,76639,1,0,0:0:0:70:snap.wav
448,192,76917,1,0,0:0:0:70:clap.wav
320,192,76917,1,0,0:0:0:70:kick-thump.wav
448,192,77750,1,0,0:0:0:70:clap.wav
320,192,77750,1,0,0:0:0:70:kick-thump.wav
64,192,78584,1,0,0:0:0:0:
448,192,79139,1,0,0:0:0:70:clap.wav
320,192,79139,1,0,0:0:0:70:kick-thump.wav
448,192,79973,1,0,0:0:0:70:clap.wav
320,192,79973,1,0,0:0:0:70:kick-thump.wav
320,192,80806,128,0,81362:0:0:0:70:kick-thump.wav
64,192,81362,1,0,0:0:0:70:kick-thump.wav
448,192,81639,1,0,0:0:0:0:
448,192,81917,1,0,0:0:0:70:clap.wav
64,192,82195,1,0,0:0:0:70:kick-thump.wav
192,192,82473,1,0,0:0:0:0:
320,192,82750,1,0,0:0:0:0:
320,192,83028,1,0,0:0:0:70:clap.wav
448,192,83306,1,0,0:0:0:0:
192,192,83584,1,0,0:0:0:0:
64,192,83584,1,0,0:0:0:70:kick-thump.wav
448,192,84139,1,0,0:0:0:70:clap.wav
192,192,84417,1,0,0:0:0:0:
320,192,84417,1,0,0:0:0:70:kick-thump.wav
448,192,84973,1,0,0:0:0:0:
192,192,85250,1,0,0:0:0:0:
64,192,85250,1,0,0:0:0:70:clap.wav
448,192,85806,1,0,0:0:0:70:kick-thump.wav
64,192,86084,1,0,0:0:0:0:
64,192,86362,1,0,0:0:0:70:clap.wav
448,192,86639,1,0,0:0:0:70:kick-thump.wav
320,192,86917,1,0,0:0:0:0:
192,192,87195,1,0,0:0:0:0:
192,192,87473,1,0,0:0:0:70:clap.wav
64,192,87750,1,0,0:0:0:0:
448,192,88028,1,0,0:0:0:0:
320,192,88028,1,0,0:0:0:70:kick-thump.wav
64,192,88584,1,0,0:0:0:70:clap.wav
192,192,88862,1,0,0:0:0:0:
320,192,88862,1,0,0:0:0:70:kick-thump.wav
64,192,89417,1,0,0:0:0:0:
448,192,89695,1,0,0:0:0:0:
320,192,89695,1,0,0:0:0:70:clap.wav
64,192,90250,1,0,0:0:0:70:kick-thump.wav
448,192,90528,1,0,0:0:0:0:
192,192,90806,1,0,0:0:0:70:clap.wav
448,192,90806,1,0,0:0:0:70:kick-thump.wav
448,192,91084,1,0,0:0:0:0:
320,192,91362,1,0,0:0:0:70:kick-thump.wav
64,192,91639,1,0,0:0:0:0:
192,192,91917,1,0,0:0:0:70:clap.wav
64,192,91917,1,0,0:0:0:70:kick-thump.wav
64,192,92195,1,0,0:0:0:0:
320,192,92473,1,0,0:0:0:0:
192,192,92473,1,0,0:0:0:70:kick-thump.wav
448,192,93028,1,0,0:0:0:70:kick-thump.wav
192,192,93306,1,0,0:0:0:0:
320,192,93306,1,0,0:0:0:0:
448,192,93862,1,0,0:0:0:0:
64,192,94139,1,0,0:0:0:70:clap.wav
192,192,94139,1,0,0:0:0:70:kick-thump.wav
448,192,94695,1,0,0:0:0:70:kick-thump.wav
448,192,94973,1,0,0:0:0:70:kick-thump.wav
64,192,95250,1,0,0:0:0:70:kick-thump.wav
64,192,95528,1,0,0:0:0:70:kick-thump.wav
448,192,95806,1,0,0:0:0:70:kick-thump.wav
448,192,96084,1,0,0:0:0:70:kick-thump.wav
64,192,96362,1,0,0:0:0:70:kick-thump.wav
64,192,96639,1,0,0:0:0:70:kick-thump.wav
320,192,99139,1,0,0:0:0:70:kick-thump.wav
320,192,99417,1,0,0:0:0:0:
64,192,99695,1,0,0:0:0:0:
192,192,99695,1,0,0:0:0:70:clap.wav
448,192,99973,1,0,0:0:0:70:kick-thump.wav
448,192,100250,1,0,0:0:0:0:
448,192,100528,1,0,0:0:0:70:kick-thump.wav
64,192,100806,1,0,0:0:0:0:
192,192,100806,1,0,0:0:0:70:clap.wav
192,192,101362,1,0,0:0:0:70:kick-thump.wav
192,192,101639,1,0,0:0:0:0:
448,192,101917,1,0,0:0:0:0:
320,192,101917,1,0,0:0:0:70:clap.wav
64,192,102195,1,0,0:0:0:70:kick-thump.wav
64,192,102473,1,0,0:0:0:0:
64,192,102750,1,0,0:0:0:70:kick-thump.wav
448,192,103028,1,0,0:0:0:0:
320,192,103028,1,0,0:0:0:70:clap.wav
192,192,103584,1,0,0:0:0:70:kick-thump.wav
192,192,103862,1,0,0:0:0:0:
64,192,104139,1,0,0:0:0:0:
320,192,104139,1,0,0:0:0:70:clap.wav
448,192,104417,1,0,0:0:0:70:kick-thump.wav
448,192,104695,1,0,0:0:0:0:
448,192,104973,1,0,0:0:0:70:kick-thump.wav
64,192,105250,1,0,0:0:0:0:
320,192,105250,1,0,0:0:0:70:clap.wav
320,192,105806,1,0,0:0:0:70:kick-thump.wav
320,192,106084,1,0,0:0:0:0:
448,192,106362,1,0,0:0:0:0:
192,192,106362,1,0,0:0:0:70:clap.wav
64,192,106639,1,0,0:0:0:70:kick-thump.wav
64,192,106917,1,0,0:0:0:0:
64,192,107195,1,0,0:0:0:70:kick-thump.wav
448,192,107473,1,0,0:0:0:0:
192,192,107473,1,0,0:0:0:70:clap.wav
192,192,108028,1,0,0:0:0:70:kick-thump.wav
192,192,108306,1,0,0:0:0:0:
320,192,108584,1,0,0:0:0:0:
448,192,108584,1,0,0:0:0:70:clap.wav
64,192,108862,1,0,0:0:0:70:kick-thump.wav
64,192,109139,1,0,0:0:0:0:
64,192,109417,1,0,0:0:0:70:kick-thump.wav
320,192,109695,1,0,0:0:0:0:
448,192,109695,1,0,0:0:0:70:clap.wav
320,192,110250,1,0,0:0:0:70:kick-thump.wav
320,192,110528,1,0,0:0:0:0:
192,192,110806,1,0,0:0:0:0:
64,192,110806,1,0,0:0:0:70:clap.wav
448,192,111084,1,0,0:0:0:70:kick-thump.wav
448,192,111362,1,0,0:0:0:0:
448,192,111639,1,0,0:0:0:70:kick-thump.wav
192,192,111917,1,0,0:0:0:0:
64,192,111917,1,0,0:0:0:70:clap.wav
320,192,112473,1,0,0:0:0:70:kick-thump.wav
320,192,112750,1,0,0:0:0:0:
192,192,113028,1,0,0:0:0:0:
448,192,113028,1,0,0:0:0:70:clap.wav
64,192,113306,1,0,0:0:0:70:kick-thump.wav
64,192,113584,1,0,0:0:0:0:
64,192,113862,1,0,0:0:0:70:kick-thump.wav
192,192,114139,1,0,0:0:0:0:
448,192,114139,1,0,0:0:0:70:clap.wav
192,192,114695,1,0,0:0:0:70:kick-thump.wav
192,192,114973,1,0,0:0:0:0:
320,192,115250,1,0,0:0:0:0:
64,192,115250,1,0,0:0:0:70:clap.wav
448,192,115528,1,0,0:0:0:70:kick-thump.wav
448,192,115806,1,0,0:0:0:0:
448,192,116084,1,0,0:0:0:70:kick-thump.wav
320,192,116362,1,0,0:0:0:0:
64,192,116362,1,0,0:0:0:70:clap.wav
320,192,116917,1,0,0:0:0:0:
192,192,116917,1,0,0:0:0:70:kick-thump.wav
64,192,117750,1,0,0:0:0:0:
448,192,117750,1,0,0:0:0:0:
320,192,118862,1,0,0:0:0:22:kick-thump.wav
64,192,119139,1,0,0:0:0:70:kick-thump.wav
320,192,119695,1,0,0:0:0:70:clap.wav
192,192,119695,1,0,0:0:0:70:kick-thump.wav
64,192,120250,1,0,0:0:0:70:kick-thump.wav
448,192,120806,1,0,0:0:0:70:clap.wav
320,192,120806,1,0,0:0:0:70:kick-thump.wav
192,192,121362,1,0,0:0:0:70:kick-thump.wav
448,192,121917,1,0,0:0:0:70:clap.wav
64,192,121917,1,0,0:0:0:70:kick-thump.wav
320,192,122473,1,0,0:0:0:70:kick-thump.wav
448,192,123028,1,0,0:0:0:70:clap.wav
192,192,123028,1,0,0:0:0:70:kick-thump.wav
64,192,123584,1,0,0:0:0:70:kick-thump.wav
448,192,124139,1,0,0:0:0:70:clap.wav
320,192,124139,1,0,0:0:0:70:kick-thump.wav
192,192,124695,1,0,0:0:0:70:kick-thump.wav
448,192,125250,1,0,0:0:0:70:clap.wav
64,192,125250,1,0,0:0:0:70:kick-thump.wav
320,192,125806,1,0,0:0:0:70:kick-thump.wav
64,192,126362,1,0,0:0:0:70:clap.wav
192,192,126362,1,0,0:0:0:70:kick-thump.wav
448,192,126917,1,0,0:0:0:70:kick-thump.wav
320,192,127473,1,0,0:0:0:70:clap.wav
192,192,127473,1,0,0:0:0:70:kick-thump.wav
64,192,128028,1,0,0:0:0:70:kick-thump.wav
448,192,128584,1,0,0:0:0:70:clap.wav
320,192,128584,1,0,0:0:0:70:kick-thump.wav
192,192,129139,1,0,0:0:0:70:kick-thump.wav
448,192,129695,1,0,0:0:0:70:clap.wav
64,192,129695,1,0,0:0:0:70:kick-thump.wav
192,192,130250,1,0,0:0:0:70:kick-thump.wav
320,192,130806,1,0,0:0:0:70:clap.wav
448,192,130806,1,0,0:0:0:70:kick-thump.wav
64,192,131362,1,0,0:0:0:70:kick-thump.wav
320,192,131917,1,0,0:0:0:70:clap.wav
192,192,131917,1,0,0:0:0:70:kick-thump.wav
448,192,132473,1,0,0:0:0:70:kick-thump.wav
192,192,133028,1,0,0:0:0:70:clap.wav
64,192,133028,1,0,0:0:0:70:kick-thump.wav
320,192,133584,1,0,0:0:0:70:kick-thump.wav
448,192,133862,1,0,0:0:0:70:snare.wav
64,192,134139,1,0,0:0:0:70:kick-thump.wav
192,192,134417,1,0,0:0:0:70:snare.wav
448,192,134695,1,0,0:0:0:70:kick-thump.wav
448,192,134973,1,0,0:0:0:0:
192,192,135250,1,0,0:0:0:70:clap.wav
64,192,135250,1,0,0:0:0:70:kick-thump.wav
320,192,135528,1,0,0:0:0:0:
320,192,135806,1,0,0:0:0:70:kick-thump.wav
64,192,136084,1,0,0:0:0:0:
448,192,136362,1,0,0:0:0:70:clap.wav
320,192,136362,1,0,0:0:0:70:kick-thump.wav
64,192,136917,1,0,0:0:0:70:kick-thump.wav
320,192,137195,1,0,0:0:0:0:
448,192,137473,1,0,0:0:0:70:clap.wav
64,192,137473,1,0,0:0:0:70:kick-thump.wav
192,192,137750,1,0,0:0:0:0:
448,192,138028,1,0,0:0:0:70:kick-thump.wav
192,192,138306,1,0,0:0:0:0:
448,192,138584,1,0,0:0:0:70:clap.wav
64,192,138584,1,0,0:0:0:70:kick-thump.wav
320,192,138862,1,0,0:0:0:0:
64,192,139139,1,0,0:0:0:70:kick-thump.wav
64,192,139417,1,0,0:0:0:0:
448,192,139695,1,0,0:0:0:70:clap.wav
320,192,139695,1,0,0:0:0:70:kick-thump.wav
192,192,139973,1,0,0:0:0:0:
192,192,140250,1,0,0:0:0:70:kick-thump.wav
448,192,140528,1,0,0:0:0:0:
192,192,140806,1,0,0:0:0:70:clap.wav
64,192,140806,1,0,0:0:0:70:kick-thump.wav
448,192,141362,1,0,0:0:0:70:kick-thump.wav
192,192,141639,1,0,0:0:0:0:
448,192,141917,1,0,0:0:0:70:clap.wav
64,192,141917,1,0,0:0:0:70:kick-thump.wav
320,192,142195,1,0,0:0:0:0:
64,192,142473,1,0,0:0:0:70:kick-thump.wav
320,192,142750,1,0,0:0:0:0:
448,192,143028,1,0,0:0:0:70:clap.wav
64,192,143028,1,0,0:0:0:70:kick-thump.wav
192,192,143306,1,0,0:0:0:0:
448,192,143862,1,0,0:0:0:22:kick-thump.wav
192,192,144139,1,0,0:0:0:70:clap.wav
64,192,144139,1,0,0:0:0:70:kick-thump.wav
320,192,144417,1,0,0:0:0:0:
320,192,144695,1,0,0:0:0:70:kick-thump.wav
64,192,144973,1,0,0:0:0:0:
448,192,145250,1,0,0:0:0:70:clap.wav
320,192,145250,1,0,0:0:0:70:kick-thump.wav
64,192,145806,1,0,0:0:0:70:kick-thump.wav
320,192,146084,1,0,0:0:0:0:
448,192,146362,1,0,0:0:0:70:clap.wav
64,192,146362,1,0,0:0:0:70:kick-thump.wav
192,192,146639,1,0,0:0:0:0:
448,192,146917,1,0,0:0:0:70:kick-thump.wav
192,192,147195,1,0,0:0:0:0:
448,192,147473,1,0,0:0:0:70:clap.wav
64,192,147473,1,0,0:0:0:70:kick-thump.wav
320,192,147750,1,0,0:0:0:0:
64,192,148028,1,0,0:0:0:70:kick-thump.wav
64,192,148306,1,0,0:0:0:0:
448,192,148584,1,0,0:0:0:70:clap.wav
320,192,148584,1,0,0:0:0:70:kick-thump.wav
192,192,148862,1,0,0:0:0:0:
192,192,149139,1,0,0:0:0:70:kick-thump.wav
448,192,149417,1,0,0:0:0:0:
192,192,149695,1,0,0:0:0:70:clap.wav
64,192,149695,1,0,0:0:0:70:kick-thump.wav
448,192,150250,1,0,0:0:0:70:kick-thump.wav
192,192,150528,1,0,0:0:0:70:snare.wav
448,192,150806,1,0,0:0:0:70:clap.wav
64,192,150806,1,0,0:0:0:70:kick-thump.wav
320,192,151084,1,0,0:0:0:0:
64,192,151362,1,0,0:0:0:70:kick-thump.wav
320,192,151639,1,0,0:0:0:70:snare.wav
448,192,151917,1,0,0:0:0:70:clap.wav
64,192,151917,1,0,0:0:0:70:kick-thump.wav
192,192,152195,1,0,0:0:0:70:snare.wav
448,192,152473,128,0,154695:0:0:0:70:finish.wav
320,192,154695,128,0,156917:0:0:0:0:
192,192,156917,128,0,159139:0:0:0:0:
64,192,159139,1,0,0:0:0:0:
64,192,160806,128,0,161362:0:0:0:70:kick-thump.wav
320,192,161362,1,0,0:0:0:70:clap.wav
448,192,161362,1,0,0:0:0:70:kick-thump.wav
320,192,162195,1,0,0:0:0:70:clap.wav
448,192,162195,1,0,0:0:0:70:kick-thump.wav
64,192,163028,1,0,0:0:0:0:
320,192,163584,1,0,0:0:0:70:clap.wav
448,192,163584,1,0,0:0:0:70:kick-thump.wav
320,192,164417,1,0,0:0:0:70:clap.wav
448,192,164417,1,0,0:0:0:70:kick-thump.wav
64,192,164973,1,0,0:0:0:70:snap.wav
192,192,165250,1,0,0:0:0:70:snap.wav
64,192,165528,1,0,0:0:0:70:snap.wav
448,192,165806,1,0,0:0:0:70:clap.wav
320,192,165806,1,0,0:0:0:70:kick-thump.wav
448,192,166639,1,0,0:0:0:70:clap.wav
320,192,166639,1,0,0:0:0:70:kick-thump.wav
64,192,167473,1,0,0:0:0:0:
448,192,168028,1,0,0:0:0:70:clap.wav
320,192,168028,1,0,0:0:0:70:kick-thump.wav
448,192,168862,1,0,0:0:0:70:clap.wav
320,192,168862,1,0,0:0:0:70:kick-thump.wav
64,192,169417,1,0,0:0:0:70:snap.wav
320,192,169695,1,0,0:0:0:70:snare-long.wav
192,192,170250,1,0,0:0:0:70:clap.wav
64,192,170250,1,0,0:0:0:70:kick-thump.wav
192,192,171084,1,0,0:0:0:70:clap.wav
64,192,171084,1,0,0:0:0:70:kick-thump.wav
448,192,171917,1,0,0:0:0:0:
192,192,172473,1,0,0:0:0:70:clap.wav
64,192,172473,1,0,0:0:0:70:kick-thump.wav
192,192,173306,1,0,0:0:0:70:clap.wav
64,192,173306,1,0,0:0:0:70:kick-thump.wav
448,192,173862,1,0,0:0:0:70:snap.wav
320,192,174139,1,0,0:0:0:70:snap.wav
448,192,174417,1,0,0:0:0:70:snap.wav
64,192,174695,1,0,0:0:0:70:clap.wav
192,192,174695,1,0,0:0:0:70:kick-thump.wav
64,192,175528,1,0,0:0:0:70:clap.wav
192,192,175528,1,0,0:0:0:70:kick-thump.wav
448,192,176362,1,0,0:0:0:0:
64,192,176917,1,0,0:0:0:70:clap.wav
192,192,176917,1,0,0:0:0:70:kick-thump.wav
64,192,177750,1,0,0:0:0:70:clap.wav
192,192,177750,1,0,0:0:0:70:kick-thump.wav
448,192,178306,1,0,0:0:0:70:snap.wav
192,192,178584,128,0,179139:0:0:0:70:kick-thump.wav
448,192,179139,1,0,0:0:0:70:kick-thump.wav
64,192,179417,1,0,0:0:0:0:
64,192,179695,1,0,0:0:0:70:clap.wav
448,192,179973,1,0,0:0:0:70:kick-thump.wav
320,192,180250,1,0,0:0:0:0:
192,192,180528,1,0,0:0:0:0:
192,192,180806,1,0,0:0:0:70:clap.wav
64,192,181084,1,0,0:0:0:0:
320,192,181362,1,0,0:0:0:0:
448,192,181362,1,0,0:0:0:70:kick-thump.wav
64,192,181917,1,0,0:0:0:70:clap.wav
320,192,182195,1,0,0:0:0:0:
192,192,182195,1,0,0:0:0:70:kick-thump.wav
64,192,182750,1,0,0:0:0:0:
320,192,183028,1,0,0:0:0:0:
448,192,183028,1,0,0:0:0:70:clap.wav
64,192,183584,1,0,0:0:0:70:kick-thump.wav
448,192,183862,1,0,0:0:0:0:
448,192,184139,1,0,0:0:0:70:clap.wav
64,192,184417,1,0,0:0:0:70:kick-thump.wav
192,192,184695,1,0,0:0:0:0:
320,192,184973,1,0,0:0:0:0:
320,192,185250,1,0,0:0:0:70:clap.wav
448,192,185528,1,0,0:0:0:0:
64,192,185806,1,0,0:0:0:0:
192,192,185806,1,0,0:0:0:70:kick-thump.wav
448,192,186362,1,0,0:0:0:70:clap.wav
320,192,186639,1,0,0:0:0:0:
192,192,186639,1,0,0:0:0:70:kick-thump.wav
448,192,187195,1,0,0:0:0:0:
64,192,187473,1,0,0:0:0:0:
192,192,187473,1,0,0:0:0:70:clap.wav
448,192,188028,1,0,0:0:0:70:kick-thump.wav
64,192,188306,1,0,0:0:0:0:
320,192,188584,1,0,0:0:0:70:clap.wav
64,192,188584,1,0,0:0:0:70:kick-thump.wav
64,192,188862,1,0,0:0:0:0:
192,192,189139,1,0,0:0:0:70:kick-thump.wav
448,192,189417,1,0,0:0:0:0:
320,192,189695,1,0,0:0:0:70:clap.wav
448,192,189695,1,0,0:0:0:70:kick-thump.wav
448,192,189973,1,0,0:0:0:0:
192,192,190250,1,0,0:0:0:0:
320,192,190250,1,0,0:0:0:70:kick-thump.wav
64,192,190806,1,0,0:0:0:70:kick-thump.wav
320,192,191084,1,0,0:0:0:0:
192,192,191084,1,0,0:0:0:0:
64,192,191639,1,0,0:0:0:0:
448,192,191917,1,0,0:0:0:70:clap.wav
320,192,191917,1,0,0:0:0:70:kick-thump.wav
64,192,192473,1,0,0:0:0:70:kick-thump.wav
64,192,192750,1,0,0:0:0:70:kick-thump.wav
448,192,193028,1,0,0:0:0:70:kick-thump.wav
448,192,193306,1,0,0:0:0:70:kick-thump.wav
192,192,193584,1,0,0:0:0:70:kick-thump.wav
192,192,193862,1,0,0:0:0:70:kick-thump.wav
320,192,194139,1,0,0:0:0:70:kick-thump.wav
320,192,194417,1,0,0:0:0:70:kick-thump.wav
64,192,196639,1,0,0:0:0:70:tap.wav
192,192,196917,1,0,0:0:0:70:kick-thump.wav
192,192,197195,1,0,0:0:0:0:
448,192,197473,1,0,0:0:0:0:
320,192,197473,1,0,0:0:0:70:clap.wav
64,192,197750,1,0,0:0:0:70:kick-thump.wav
64,192,198028,1,0,0:0:0:0:
64,192,198306,1,0,0:0:0:70:kick-thump.wav
448,192,198584,1,0,0:0:0:0:
320,192,198584,1,0,0:0:0:70:clap.wav
320,192,199139,1,0,0:0:0:70:kick-thump.wav
320,192,199417,1,0,0:0:0:0:
64,192,199695,1,0,0:0:0:0:
192,192,199695,1,0,0:0:0:70:clap.wav
448,192,199973,1,0,0:0:0:70:kick-thump.wav
448,192,200250,1,0,0:0:0:0:
448,192,200528,1,0,0:0:0:70:kick-thump.wav
64,192,200806,1,0,0:0:0:0:
192,192,200806,1,0,0:0:0:70:clap.wav
320,192,201362,1,0,0:0:0:70:kick-thump.wav
320,192,201639,1,0,0:0:0:0:
448,192,201917,1,0,0:0:0:0:
192,192,201917,1,0,0:0:0:70:clap.wav
64,192,202195,1,0,0:0:0:70:kick-thump.wav
64,192,202473,1,0,0:0:0:0:
64,192,202750,1,0,0:0:0:70:kick-thump.wav
448,192,203028,1,0,0:0:0:0:
192,192,203028,1,0,0:0:0:70:clap.wav
192,192,203584,1,0,0:0:0:70:kick-thump.wav
192,192,203862,1,0,0:0:0:0:
64,192,204139,1,0,0:0:0:0:
320,192,204139,1,0,0:0:0:70:clap.wav
448,192,204417,1,0,0:0:0:70:kick-thump.wav
448,192,204695,1,0,0:0:0:0:
448,192,204973,1,0,0:0:0:70:kick-thump.wav
64,192,205250,1,0,0:0:0:0:
320,192,205250,1,0,0:0:0:70:clap.wav
192,192,205806,1,0,0:0:0:70:kick-thump.wav
320,192,205991,1,0,0:0:0:70:kick-thump.wav
448,192,206176,1,0,0:0:0:70:kick-thump.wav
192,192,206362,1,0,0:0:0:0:
64,192,206362,1,0,0:0:0:70:clap.wav
448,192,206639,1,0,0:0:0:70:kick-thump.wav
448,192,206917,1,0,0:0:0:0:
448,192,207195,1,0,0:0:0:70:kick-thump.wav
192,192,207473,1,0,0:0:0:0:
64,192,207473,1,0,0:0:0:70:clap.wav
192,192,208028,1,0,0:0:0:70:kick-thump.wav
192,192,208306,1,0,0:0:0:0:
320,192,208584,1,0,0:0:0:0:
448,192,208584,1,0,0:0:0:70:clap.wav
64,192,208862,1,0,0:0:0:70:kick-thump.wav
64,192,209139,1,0,0:0:0:0:
64,192,209417,1,0,0:0:0:70:kick-thump.wav
320,192,209695,1,0,0:0:0:0:
448,192,209695,1,0,0:0:0:70:clap.wav
192,192,210250,1,0,0:0:0:70:kick-thump.wav
192,192,210528,1,0,0:0:0:0:
320,192,210806,1,0,0:0:0:0:
64,192,210806,1,0,0:0:0:70:clap.wav
448,192,211084,1,0,0:0:0:70:kick-thump.wav
448,192,211362,1,0,0:0:0:0:
448,192,211639,1,0,0:0:0:70:kick-thump.wav
320,192,211917,1,0,0:0:0:0:
64,192,211917,1,0,0:0:0:70:clap.wav
320,192,212473,1,0,0:0:0:70:kick-thump.wav
320,192,212750,1,0,0:0:0:0:
192,192,213028,1,0,0:0:0:0:
448,192,213028,1,0,0:0:0:70:clap.wav
64,192,213306,1,0,0:0:0:70:kick-thump.wav
448,192,213584,1,0,0:0:0:0:
320,192,213584,1,0,0:0:0:70:tap.wav
192,192,213862,128,0,214139:0:0:0:70:kick-thump.wav
320,192,214139,1,0,0:0:0:70:tap.wav
448,192,214139,1,0,0:0:0:70:clap.wav
64,192,214417,1,0,0:0:0:0:
192,192,214417,1,0,0:0:0:70:tap.wav
448,192,214695,1,0,0:0:0:70:finish.wav
320,192,214695,1,0,0:0:0:70:kick-thump.wav
448,192,214973,1,0,0:0:0:0:
64,192,215250,1,0,0:0:0:70:clap.wav
192,192,215250,1,0,0:0:0:70:kick-thump.wav
320,192,215528,1,0,0:0:0:0:
320,192,215806,1,0,0:0:0:0:
192,192,215806,1,0,0:0:0:70:kick-thump.wav
320,192,216084,1,0,0:0:0:0:
448,192,216362,1,0,0:0:0:70:clap.wav
192,192,216362,1,0,0:0:0:70:kick-thump.wav
64,192,216917,1,0,0:0:0:0:
192,192,216917,1,0,0:0:0:70:kick-thump.wav
64,192,217195,1,0,0:0:0:0:
448,192,217473,1,0,0:0:0:70:clap.wav
320,192,217473,1,0,0:0:0:70:kick-thump.wav
192,192,217750,1,0,0:0:0:0:
192,192,218028,1,0,0:0:0:0:
320,192,218028,1,0,0:0:0:70:kick-thump.wav
192,192,218306,1,0,0:0:0:0:
64,192,218584,1,0,0:0:0:70:clap.wav
320,192,218584,1,0,0:0:0:70:kick-thump.wav
448,192,219139,1,0,0:0:0:0:
192,192,219139,1,0,0:0:0:70:kick-thump.wav
448,192,219417,1,0,0:0:0:0:
64,192,219695,1,0,0:0:0:70:clap.wav
320,192,219695,1,0,0:0:0:70:kick-thump.wav
192,192,219973,1,0,0:0:0:0:
192,192,220250,1,0,0:0:0:0:
320,192,220250,1,0,0:0:0:70:kick-thump.wav
192,192,220528,1,0,0:0:0:0:
448,192,220806,1,0,0:0:0:70:clap.wav
320,192,220806,1,0,0:0:0:70:kick-thump.wav
64,192,221362,1,0,0:0:0:0:
320,192,221362,1,0,0:0:0:70:kick-thump.wav
64,192,221639,1,0,0:0:0:0:
448,192,221917,1,0,0:0:0:70:clap.wav
192,192,221917,1,0,0:0:0:70:kick-thump.wav
320,192,222195,1,0,0:0:0:0:
320,192,222473,1,0,0:0:0:0:
192,192,222473,1,0,0:0:0:70:kick-thump.wav
320,192,222750,1,0,0:0:0:0:
64,192,223028,1,0,0:0:0:70:clap.wav
192,192,223028,1,0,0:0:0:70:kick-thump.wav
64,192,223584,1,0,0:0:0:0:
192,192,223584,1,0,0:0:0:70:kick-thump.wav
64,192,223862,1,0,0:0:0:0:
448,192,224139,1,0,0:0:0:70:clap.wav
320,192,224139,1,0,0:0:0:70:kick-thump.wav
192,192,224417,1,0,0:0:0:0:
192,192,224695,1,0,0:0:0:0:
320,192,224695,1,0,0:0:0:70:kick-thump.wav
192,192,224973,1,0,0:0:0:0:
64,192,225250,1,0,0:0:0:70:clap.wav
320,192,225250,1,0,0:0:0:70:kick-thump.wav
448,192,225806,1,0,0:0:0:0:
320,192,225806,1,0,0:0:0:70:kick-thump.wav
448,192,226084,1,0,0:0:0:0:
64,192,226362,1,0,0:0:0:70:clap.wav
192,192,226362,1,0,0:0:0:70:kick-thump.wav
320,192,226639,1,0,0:0:0:0:
320,192,226917,1,0,0:0:0:0:
192,192,226917,1,0,0:0:0:70:kick-thump.wav
320,192,227195,1,0,0:0:0:0:
448,192,227473,1,0,0:0:0:70:clap.wav
192,192,227473,1,0,0:0:0:70:kick-thump.wav
64,192,228028,1,0,0:0:0:0:
320,192,228028,1,0,0:0:0:70:kick-thump.wav
64,192,228306,1,0,0:0:0:0:
448,192,228584,1,0,0:0:0:70:clap.wav
192,192,228584,1,0,0:0:0:70:kick-thump.wav
320,192,228862,1,0,0:0:0:0:
320,192,229139,1,0,0:0:0:0:
192,192,229139,1,0,0:0:0:70:kick-thump.wav
320,192,229417,1,0,0:0:0:0:
64,192,229695,1,0,0:0:0:70:clap.wav
192,192,229695,1,0,0:0:0:70:kick-thump.wav
448,192,230250,1,0,0:0:0:0:
192,192,230250,1,0,0:0:0:70:kick-thump.wav
448,192,230528,1,0,0:0:0:0:
64,192,230806,1,0,0:0:0:70:clap.wav
320,192,230806,1,0,0:0:0:70:kick-thump.wav
192,192,231084,1,0,0:0:0:0:
192,192,231362,1,0,0:0:0:0:
320,192,231362,1,0,0:0:0:70:kick-thump.wav
192,192,231639,1,0,0:0:0:0:
448,192,231917,1,0,0:0:0:70:clap.wav
320,192,231917,1,0,0:0:0:70:kick-thump.wav
192,192,232473,128,0,233584:0:0:0:70:kick-thump.wav
320,192,232750,1,0,0:0:0:0:
320,192,233028,1,0,0:0:0:70:kick-thump.wav
64,192,233584,128,0,234695:0:0:0:70:kick-thump.wav
448,192,233862,1,0,0:0:0:0:
448,192,234139,1,0,0:0:0:70:kick-thump.wav
320,192,234695,1,0,0:0:0:0:
192,192,234695,1,0,0:0:0:70:kick-thump.wav
64,192,234973,1,0,0:0:0:0:
320,192,235250,1,0,0:0:0:70:clap.wav
192,192,235250,1,0,0:0:0:70:kick-thump.wav
64,192,235528,1,0,0:0:0:0:
448,192,235806,1,0,0:0:0:0:
320,192,235806,1,0,0:0:0:70:kick-thump.wav
64,192,236084,1,0,0:0:0:0:
320,192,236362,1,0,0:0:0:70:clap.wav
192,192,236362,1,0,0:0:0:70:kick-thump.wav
64,192,236639,1,0,0:0:0:0:
320,192,236917,128,0,238028:0:0:0:70:kick-thump.wav
192,192,237195,1,0,0:0:0:0:
192,192,237473,1,0,0:0:0:70:kick-thump.wav
448,192,238028,128,0,239139:0:0:0:70:kick-thump.wav
64,192,238306,1,0,0:0:0:0:
64,192,238584,1,0,0:0:0:70:kick-thump.wav
192,192,239139,1,0,0:0:0:0:
320,192,239139,1,0,0:0:0:70:kick-thump.wav
448,192,239417,1,0,0:0:0:0:
192,192,239695,1,0,0:0:0:70:clap.wav
320,192,239695,1,0,0:0:0:70:kick-thump.wav
448,192,239973,1,0,0:0:0:0:
64,192,240250,1,0,0:0:0:0:
192,192,240250,1,0,0:0:0:70:kick-thump.wav
448,192,240528,1,0,0:0:0:0:
192,192,240806,1,0,0:0:0:70:clap.wav
320,192,240806,1,0,0:0:0:70:kick-thump.wav
448,192,241084,1,0,0:0:0:0:
192,192,241362,128,0,242473:0:0:0:70:kick-thump.wav
320,192,241639,1,0,0:0:0:0:
320,192,241917,1,0,0:0:0:70:kick-thump.wav
64,192,242473,128,0,243584:0:0:0:70:kick-thump.wav
448,192,242750,1,0,0:0:0:0:
448,192,243028,1,0,0:0:0:70:kick-thump.wav
192,192,243584,1,0,0:0:0:0:
320,192,243584,1,0,0:0:0:70:kick-thump.wav
64,192,243862,1,0,0:0:0:0:
192,192,244139,1,0,0:0:0:70:clap.wav
320,192,244139,1,0,0:0:0:70:kick-thump.wav
64,192,244417,1,0,0:0:0:0:
320,192,244695,1,0,0:0:0:0:
448,192,244695,1,0,0:0:0:70:kick-thump.wav
64,192,244973,1,0,0:0:0:0:
192,192,245250,1,0,0:0:0:70:clap.wav
320,192,245250,1,0,0:0:0:70:kick-thump.wav
64,192,245528,1,0,0:0:0:0:
320,192,245806,1,0,0:0:0:0:
448,192,245806,1,0,0:0:0:70:kick-thump.wav
448,192,246084,1,0,0:0:0:70:kick-thump.wav
64,192,246362,1,0,0:0:0:70:clap.wav
192,192,246362,1,0,0:0:0:70:kick-thump.wav
64,192,246639,1,0,0:0:0:70:kick-thump.wav
320,192,246917,1,0,0:0:0:0:
448,192,246917,1,0,0:0:0:70:kick-thump.wav
448,192,247195,1,0,0:0:0:70:kick-thump.wav
64,192,247473,1,0,0:0:0:70:clap.wav
192,192,247473,1,0,0:0:0:70:kick-thump.wav
64,192,247750,1,0,0:0:0:70:kick-thump.wav
64,192,249695,128,0,250250:0:0:0:70:kick-thump.wav
320,192,250250,1,0,0:0:0:0:
448,192,250250,1,0,0:0:0:70:finish.wav
320,192,250806,1,0,0:0:0:0:
192,192,251084,1,0,0:0:0:0:
64,192,251084,1,0,0:0:0:0:
448,192,251917,1,0,0:0:0:0:
320,192,252195,1,0,0:0:0:0:
64,192,252473,1,0,0:0:0:0:
192,192,252473,1,0,0:0:0:0:
192,192,253028,1,0,0:0:0:0:
320,192,253306,1,0,0:0:0:0:
448,192,253306,1,0,0:0:0:0:
64,192,254139,1,0,0:0:0:0:
192,192,254417,1,0,0:0:0:0:
448,192,254695,1,0,0:0:0:0:
320,192,254695,1,0,0:0:0:0:
320,192,255250,1,0,0:0:0:0:
192,192,255528,1,0,0:0:0:0:
64,192,255528,1,0,0:0:0:0:
448,192,256362,1,0,0:0:0:0:
320,192,256639,1,0,0:0:0:0:
64,192,256917,1,0,0:0:0:0:
192,192,256917,1,0,0:0:0:0:
192,192,257473,1,0,0:0:0:0:
320,192,257750,1,0,0:0:0:0:
448,192,257750,1,0,0:0:0:0:
64,192,258584,1,0,0:0:0:0:
192,192,258862,1,0,0:0:0:0:
320,192,259139,1,0,0:0:0:0:
448,192,259139,1,0,0:0:0:0:
320,192,259695,1,0,0:0:0:0:
64,192,259973,1,0,0:0:0:0:
192,192,259973,1,0,0:0:0:0:
448,192,260806,1,0,0:0:0:0:
320,192,261084,1,0,0:0:0:0:
192,192,261362,1,0,0:0:0:0:
64,192,261362,1,0,0:0:0:0:
192,192,261917,1,0,0:0:0:0:
448,192,262195,1,0,0:0:0:0:
320,192,262195,1,0,0:0:0:0:
64,192,263028,1,0,0:0:0:0:
192,192,263306,1,0,0:0:0:0:
320,192,263584,1,0,0:0:0:0:
448,192,263584,1,0,0:0:0:0:
320,192,264139,1,0,0:0:0:0:
64,192,264417,1,0,0:0:0:0:
192,192,264417,1,0,0:0:0:0:
448,192,265250,1,0,0:0:0:0:
320,192,265528,1,0,0:0:0:0:
192,192,265806,1,0,0:0:0:0:
64,192,265806,1,0,0:0:0:0:
192,192,266362,1,0,0:0:0:0:
448,192,266639,1,0,0:0:0:0:
320,192,266639,1,0,0:0:0:0:
448,192,267473,1,0,0:0:0:0:
320,192,267750,1,0,0:0:0:0:
64,192,268028,128,0,272473:0:0:0:0:
