osu file format v14

[General]
AudioFilename: audio.mp3
AudioLeadIn: 0
PreviewTime: 101619
Countdown: 0
SampleSet: None
StackLeniency: 0.7
Mode: 0
LetterboxInBreaks: 0
WidescreenStoryboard: 0

[Editor]
Bookmarks: 40988
DistanceSpacing: 1.3
BeatDivisor: 1
GridSize: 8
TimelineZoom: 1

[Metadata]
Title:Dead V
TitleUnicode:Dead V
Artist:Nightcall
ArtistUnicode:Nightcall
Creator:Hakito007
Version:Hard
Source:
Tags:piano epic
BeatmapID:1299471
BeatmapSetID:616139

[Difficulty]
HPDrainRate:5
CircleSize:4.4
OverallDifficulty:6
ApproachRate:8
SliderMultiplier:2.4
SliderTickRate:1

[Events]
//Background and Video events
0,0,"deadv.jpg",0,0
//Break Periods
2,74030,80470
2,142200,146303
//Storyboard Layer 0 (Background)
//Storyboard Layer 1 (Fail)
//Storyboard Layer 2 (Pass)
//Storyboard Layer 3 (Foreground)
//Storyboard Sound Samples

[TimingPoints]
567,631.578947368421,4,1,0,30,1,0
101619,-100,4,1,0,30,0,1
142040,-100,4,1,0,30,0,0
182461,-100,4,1,0,30,0,1
243093,-100,4,1,0,30,0,0

[Colours]
Combo1 : 255,209,70
Combo2 : 96,0,202
Combo3 : 64,128,128
Combo4 : 242,24,57

[HitObjects]
256,192,567,5,0,2:2:0:0:
0,32,3093,1,0,2:2:0:0:
496,40,5619,5,0,2:2:0:0:
24,304,8145,1,0,2:2:0:0:
408,320,10672,5,0,2:2:0:0:
248,64,13198,1,0,2:2:0:0:
56,216,15724,5,0,2:2:0:0:
456,80,18251,1,0,2:2:0:0:
152,88,19514,1,0,2:2:0:0:
296,328,20777,5,0,2:2:0:0:
80,48,23303,1,0,2:2:0:0:
216,304,24567,1,0,2:2:0:0:
384,48,25830,5,0,2:2:0:0:
96,328,28356,1,0,2:2:0:0:
384,264,29619,1,0,2:2:0:0:
128,48,30882,5,0,2:2:0:0:
344,320,33409,1,0,2:2:0:0:
88,192,34672,1,0,2:2:0:0:
288,40,35935,5,0,2:2:0:0:
32,184,38461,1,0,2:2:0:0:
352,320,39724,1,0,2:2:0:0:
304,96,40988,6,0,P|384:176|304:232,1,240,0|0,2:2|2:2,2:2:0:0:
208,232,42251,2,0,P|128:152|208:96,1,240,0|0,2:2|2:2,2:2:0:0:
328,144,43514,6,0,P|248:64|192:144,1,240,0|0,2:2|2:2,2:2:0:0:
192,232,44777,2,0,P|272:312|328:216,1,240,0|0,2:2|2:2,2:2:0:0:
304,8,46040,6,0,L|496:192,1,240,0|0,2:2|2:2,2:2:0:0:
432,216,47303,2,0,L|224:360,1,240,0|0,2:2|2:2,2:2:0:0:
192,328,48567,2,0,L|0:136,1,240,0|0,2:2|2:2,2:2:0:0:
64,136,49830,2,0,L|272:-24,1,240,0|0,2:2|2:2,2:2:0:0:
408,48,51093,6,0,B|304:280|304:280|240:48|240:48|144:280,1,720,0|0,2:2|2:2,2:2:0:0:
128,80,53619,6,0,B|360:88|360:88|136:200|136:200|400:216,1,720,0|0,2:2|2:2,2:2:0:0:
304,344,56145,6,0,B|248:360|48:344|128:320|24:224|8:176|48:152|-8:104|64:56|112:32|24:32|120:-24|184:-56|160:-64|248:-56|248:-24|488:-16|344:-8|408:24|416:24|432:72|432:88|448:168|424:144|440:208|424:256|416:280|400:288|376:296|312:320|256:336|176:328|144:320|96:296|144:248|56:232|40:168|49:126|56:96|96:48|128:-8|152:0|240:16|312:16|328:56|320:64|360:112|344:56|336:64|440:216|368:200|328:240|256:256|232:232|200:200|168:176|184:160|176:152|208:112|256:128,1,1920,0|0,2:2|2:2,2:2:0:0:
328,136,61830,1,0,2:2:0:0:
400,168,62461,1,0,2:2:0:0:
464,224,63093,1,0,2:2:0:0:
400,288,63724,5,0,2:2:0:0:
304,312,64356,1,0,2:2:0:0:
216,296,64988,1,0,2:2:0:0:
136,256,65619,1,0,2:2:0:0:
128,72,66251,5,0,2:2:0:0:
208,48,66882,1,0,2:2:0:0:
288,40,67514,1,0,2:2:0:0:
368,56,68145,1,0,2:2:0:0:
384,160,68777,5,0,2:2:0:0:
312,216,69409,1,0,2:2:0:0:
224,248,70040,1,0,2:2:0:0:
136,240,70672,1,0,2:2:0:0:
216,328,71303,5,0,2:2:0:0:
288,256,71935,1,0,2:2:0:0:
320,160,72566,1,0,2:2:0:0:
312,56,73198,1,0,2:2:0:0:
208,160,73830,5,0,2:2:0:0:
176,128,81370,5,8,2:2:0:0:
424,240,81686,1,0,2:2:0:0:
320,40,82002,1,0,2:2:0:0:
264,288,82318,1,0,2:2:0:0:
128,200,82634,5,8,2:2:0:0:
272,72,82949,1,0,2:2:0:0:
392,248,83265,1,0,2:2:0:0:
440,72,83581,1,0,2:2:0:0:
288,248,83897,5,8,2:2:0:0:
160,96,84213,1,0,2:2:0:0:
384,184,84528,1,0,2:2:0:0:
304,24,84844,1,0,2:2:0:0:
208,176,85160,5,8,2:2:0:0:
8,232,85476,1,0,2:2:0:0:
88,64,85791,1,0,2:2:0:0:
320,88,86107,1,0,2:2:0:0:
216,256,86423,5,8,2:2:0:0:
240,40,86739,1,0,2:2:0:0:
368,216,87055,1,0,2:2:0:0:
472,80,87370,1,0,2:2:0:0:
448,264,87686,5,8,2:2:0:0:
272,216,88002,1,0,2:2:0:0:
240,56,88318,1,0,2:2:0:0:
112,224,88634,1,0,2:2:0:0:
64,88,88949,5,8,2:2:0:0:
208,256,89265,1,0,2:2:0:0:
352,152,89581,1,0,2:2:0:0:
200,104,89897,1,0,2:2:0:0:
352,248,90212,5,8,2:2:0:0:
256,144,90528,1,0,2:2:0:0:
136,296,90844,1,0,2:2:0:0:
312,328,91160,1,0,2:2:0:0:
192,176,91476,5,8,2:2:0:0:
360,128,91791,1,0,2:2:0:0:
456,312,92107,1,8,2:2:0:0:
264,240,92423,1,0,2:2:0:0:
408,144,92739,5,8,2:2:0:0:
232,120,93055,1,0,2:2:0:0:
328,256,93370,1,8,2:2:0:0:
152,208,93685,1,0,2:2:0:0:
184,336,94001,5,8,2:2:0:0:
256,136,94317,1,0,2:2:0:0:
400,200,94633,1,8,2:2:0:0:
192,288,94949,1,0,2:2:0:0:
328,320,95264,5,8,2:2:0:0:
160,200,95580,1,0,2:2:0:0:
320,88,95896,1,8,2:2:0:0:
136,56,96212,1,0,2:2:0:0:
264,192,96527,5,8,2:2:0:0:
72,152,96843,1,8,2:2:0:0:
136,296,97159,1,8,2:2:0:0:
208,88,97475,1,8,2:2:0:0:
64,72,97791,5,8,2:2:0:0:
184,208,98106,1,8,2:2:0:0:
360,152,98422,1,8,2:2:0:0:
224,104,98738,1,8,2:2:0:0:
344,264,99054,5,8,2:2:0:0:
184,272,99370,1,8,2:2:0:0:
384,152,99685,1,8,2:2:0:0:
248,56,100001,1,8,2:2:0:0:
256,192,100317,5,4,2:2:0:0:
256,192,100356,12,0,101303,2:2:0:0:
256,192,101580,5,0,1:2:0:0:
400,272,102212,1,0,1:2:0:0:
128,288,102843,5,0,1:2:0:0:
104,232,103159,1,4,1:2:0:0:
304,72,103791,5,0,1:2:0:0:
360,96,104106,1,4,1:2:0:0:
192,272,104738,5,0,1:2:0:0:
136,304,105054,1,4,1:2:0:0:
368,296,105685,5,0,1:2:0:0:
416,256,106001,1,4,1:2:0:0:
440,200,106317,1,4,1:2:0:0:
112,176,106633,5,0,1:2:0:0:
256,64,107264,1,0,1:2:0:0:
352,152,107896,5,0,1:2:0:0:
376,208,108212,1,4,1:2:0:0:
184,112,108843,5,0,1:2:0:0:
232,72,109159,1,4,1:2:0:0:
256,280,109791,5,0,1:2:0:0:
312,304,110107,1,4,1:2:0:0:
112,200,110738,5,0,1:2:0:0:
88,144,111054,1,4,1:2:0:0:
96,80,111370,1,4,1:2:0:0:
296,56,111685,5,0,1:2:0:0:
344,224,112317,1,0,1:2:0:0:
168,288,112949,5,0,1:2:0:0:
104,272,113264,1,4,1:2:0:0:
336,296,113896,5,0,1:2:0:0:
400,288,114212,1,4,1:2:0:0:
184,120,114843,5,0,1:2:0:0:
160,64,115159,1,4,1:2:0:0:
304,72,115790,1,0,1:2:0:0:
360,48,116106,1,4,1:2:0:0:
424,64,116422,1,4,1:2:0:0:
192,272,116738,5,0,1:2:0:0:
400,256,117370,1,0,1:2:0:0:
240,40,118001,5,0,1:2:0:0:
264,96,118317,1,4,1:2:0:0:
352,320,118948,5,0,1:2:0:0:
288,328,119263,1,4,1:2:0:0:
56,128,119895,5,0,1:2:0:0:
72,184,120211,1,4,1:2:0:0:
256,200,120842,5,0,1:2:0:0:
312,176,121158,1,4,1:2:0:0:
368,184,121474,1,4,1:2:0:0:
416,216,121790,5,0,1:2:0:0:
408,48,122421,1,0,1:2:0:0:
184,40,123053,5,0,1:2:0:0:
160,96,123369,1,4,1:2:0:0:
96,272,124000,5,0,1:2:0:0:
40,248,124316,1,4,1:2:0:0:
224,320,124948,5,0,1:2:0:0:
288,320,125263,1,4,1:2:0:0:
432,304,125895,5,0,1:2:0:0:
400,256,126211,1,4,1:2:0:0:
352,224,126526,1,4,1:2:0:0:
296,208,126842,5,0,1:2:0:0:
104,128,127474,1,0,1:2:0:0:
224,64,128105,5,0,1:2:0:0:
280,48,128421,1,4,1:2:0:0:
456,208,129053,5,0,1:2:0:0:
440,152,129369,1,4,1:2:0:0:
216,304,130000,5,0,1:2:0:0:
280,312,130316,1,4,1:2:0:0:
120,192,130948,5,0,1:2:0:0:
136,136,131263,1,4,1:2:0:0:
176,96,131579,1,4,1:2:0:0:
232,80,131895,5,0,1:2:0:0:
432,304,132527,1,0,1:2:0:0:
128,296,133158,5,0,1:2:0:0:
176,256,133474,1,4,1:2:0:0:
336,96,134105,5,0,1:2:0:0:
288,56,134421,1,4,1:2:0:0:
352,256,135053,5,0,1:2:0:0:
320,304,135369,1,4,1:2:0:0:
152,312,136000,5,0,1:2:0:0:
104,272,136316,1,4,1:2:0:0:
48,264,136632,1,4,1:2:0:0:
0,304,136948,5,0,1:2:0:0:
104,64,137579,1,0,1:2:0:0:
432,112,138211,5,0,1:2:0:0:
448,168,138527,1,4,1:2:0:0:
304,328,139158,5,0,1:2:0:0:
240,328,139474,1,4,1:2:0:0:
312,128,140105,5,0,1:2:0:0:
344,80,140421,1,4,1:2:0:0:
128,64,141053,5,0,1:2:0:0:
104,120,141369,1,4,1:2:0:0:
128,176,141684,1,4,1:2:0:0:
176,216,142000,5,8,1:2:0:0:
367,56,147053,6,0,P|250:62|176:152,1,240,0|0,2:2|2:2,2:2:0:0:
248,168,148316,2,0,P|305:175|343:132,1,120,0|0,2:2|2:2,2:2:0:0:
393,225,149263,2,0,P|335:231|304:280,1,120,0|0,2:2|2:2,2:2:0:0:
384,320,150211,2,0,P|456:272|464:208,1,120,0|0,2:2|2:2,2:2:0:0:
448,152,151158,2,0,L|360:56,3,120,0|0|0|0,2:2|2:2|2:2|2:2,2:2:0:0:
264,72,152737,5,0,2:2:0:0:
270,163,153369,2,0,P|213:171|176:128,1,120,0|0,2:2|2:2,2:2:0:0:
118,225,154316,2,0,P|176:231|208:280,1,120,0|0,2:2|2:2,2:2:0:0:
128,320,155264,2,0,P|56:272|48:208,1,120,0|0,2:2|2:2,2:2:0:0:
64,152,156211,2,0,L|152:56,3,120,0|0|0|0,2:2|2:2|2:2|2:2,2:2:0:0:
248,312,157790,5,0,2:2:0:0:
241,220,158422,2,0,P|298:212|336:256,1,120,0|0,2:2|2:2,2:2:0:0:
393,158,159369,2,0,P|335:152|304:104,1,120,0|0,2:2|2:2,2:2:0:0:
384,64,160317,2,0,P|456:112|464:176,1,120,0|0,2:2|2:2,2:2:0:0:
448,232,161264,2,0,L|360:328,3,120,0|0|0|0,2:2|2:2|2:2|2:2,2:2:0:0:
216,312,162843,6,0,P|56:288|24:176,1,240,0|0,2:2|2:2,2:2:0:0:
8,160,163791,2,0,P|24:56|152:24,1,240,0|0,2:2|2:2,2:2:0:0:
152,104,164738,2,0,P|136:216|240:288,1,240,0|0,2:2|2:2,2:2:0:0:
312,224,165685,2,0,P|232:112|280:16,1,240,0|0,2:2|2:2,2:2:0:0:
352,72,166633,2,0,P|336:127|379:165,2,120,0|0|0,2:2|2:2|2:2,2:2:0:0:
448,168,167895,6,0,P|455:283|367:358,1,240,0|0,2:2|2:2,2:2:0:0:
295,376,168843,2,0,P|184:353|155:243,1,240,0|0,2:2|2:2,2:2:0:0:
240,232,169790,2,0,P|353:247|423:156,1,240,0|0,2:2|2:2,2:2:0:0:
359,72,170737,2,0,P|274:148|163:117,1,240,0|0,2:2|2:2,2:2:0:0:
208,32,171685,2,0,P|262:48|300:5,2,120,0|0|0,2:2|2:2|2:2,2:2:0:0:
112,208,172949,6,0,P|136:48|248:16,1,240,0|0,2:2|2:2,2:2:0:0:
264,0,173897,2,0,P|368:16|400:144,1,240,0|0,2:2|2:2,2:2:0:0:
320,144,174844,2,0,P|208:128|136:232,1,240,0|0,2:2|2:2,2:2:0:0:
200,304,175791,2,0,P|312:224|408:272,1,240,0|0,2:2|2:2,2:2:0:0:
352,344,176739,2,0,P|297:328|259:371,2,120,0|0|0,2:2|2:2|2:2,2:2:0:0:
224,312,178001,6,0,P|64:288|32:176,1,240,0|0,2:2|2:2,2:2:0:0:
16,160,178949,2,0,P|32:56|160:24,1,240,0|0,2:2|2:2,2:2:0:0:
208,64,179896,1,0,2:2:0:0:
256,96,181159,5,2,2:2:0:0:
352,192,181475,1,2,2:2:0:0:
256,288,181791,1,2,2:2:0:0:
160,192,182106,1,2,2:2:0:0:
144,312,182578,1,0,2:2:0:0:
152,304,182736,1,8,2:2:0:0:
256,48,183051,1,0,2:2:0:0:
256,56,183209,1,8,2:2:0:0:
368,312,183526,1,0,2:2:0:0:
360,304,183684,1,8,2:2:0:0:
120,80,183999,1,0,2:2:0:0:
128,88,184157,1,8,2:2:0:0:
392,80,184473,1,0,2:2:0:0:
384,88,184631,1,8,2:2:0:0:
144,312,184947,1,0,2:2:0:0:
152,304,185105,1,8,2:2:0:0:
256,48,185420,1,0,2:2:0:0:
256,56,185578,1,8,2:2:0:0:
368,312,185895,1,0,2:2:0:0:
360,304,186053,1,8,2:2:0:0:
120,80,186368,1,0,2:2:0:0:
128,88,186526,1,8,2:2:0:0:
392,80,186842,1,0,2:2:0:0:
384,88,187000,1,8,2:2:0:0:
152,304,187315,1,8,2:2:0:0:
232,320,187631,5,0,2:2:0:0:
272,320,187791,1,8,2:2:0:0:
360,264,188104,1,0,2:2:0:0:
384,224,188264,1,8,2:2:0:0:
392,128,188578,1,0,2:2:0:0:
376,88,188738,1,8,2:2:0:0:
280,40,189052,1,0,2:2:0:0:
232,32,189212,1,8,2:2:0:0:
144,104,189525,1,0,2:2:0:0:
120,144,189685,1,8,2:2:0:0:
120,256,189999,1,0,2:2:0:0:
144,296,190159,1,8,2:2:0:0:
248,328,190473,1,0,2:2:0:0:
296,320,190631,1,8,2:2:0:0:
392,248,190947,1,0,2:2:0:0:
408,200,191104,1,8,2:2:0:0:
376,96,191420,1,0,2:2:0:0:
344,56,191578,1,8,2:2:0:0:
232,48,191894,1,0,2:2:0:0:
184,64,192052,1,8,2:2:0:0:
112,128,192368,1,8,2:2:0:0:
112,312,192684,5,0,2:2:0:0:
120,304,192842,1,8,2:2:0:0:
400,272,193157,1,0,2:2:0:0:
392,264,193315,1,8,2:2:0:0:
112,232,193631,1,0,2:2:0:0:
120,224,193789,1,8,2:2:0:0:
400,192,194105,1,0,2:2:0:0:
392,184,194263,1,8,2:2:0:0:
112,152,194578,1,0,2:2:0:0:
120,144,194736,1,8,2:2:0:0:
400,112,195052,1,0,2:2:0:0:
392,104,195210,1,8,2:2:0:0:
112,72,195526,1,0,2:2:0:0:
120,64,195684,1,8,2:2:0:0:
400,32,196000,1,0,2:2:0:0:
392,24,196158,1,8,2:2:0:0:
264,160,196473,1,0,2:2:0:0:
256,168,196631,1,8,2:2:0:0:
120,304,196947,1,0,2:2:0:0:
112,312,197105,1,8,2:2:0:0:
256,304,197421,1,8,2:2:0:0:
280,320,197736,5,0,2:2:0:0:
240,320,197894,1,8,2:2:0:0:
152,264,198209,1,0,2:2:0:0:
128,224,198367,1,8,2:2:0:0:
120,128,198683,1,0,2:2:0:0:
136,88,198841,1,8,2:2:0:0:
232,40,199157,1,0,2:2:0:0:
280,32,199315,1,8,2:2:0:0:
368,104,199630,1,0,2:2:0:0:
392,144,199788,1,8,2:2:0:0:
392,256,200104,1,0,2:2:0:0:
368,296,200262,1,8,2:2:0:0:
264,328,200578,1,0,2:2:0:0:
216,320,200736,1,8,2:2:0:0:
120,248,201052,1,0,2:2:0:0:
104,200,201209,1,8,2:2:0:0:
136,96,201525,1,0,2:2:0:0:
168,56,201683,1,8,2:2:0:0:
280,48,201999,1,0,2:2:0:0:
328,64,202157,1,8,2:2:0:0:
400,128,202473,1,8,2:2:0:0:
368,312,202789,5,0,2:2:0:0:
360,304,202947,1,8,2:2:0:0:
256,48,203262,1,0,2:2:0:0:
256,56,203420,1,8,2:2:0:0:
144,312,203737,1,0,2:2:0:0:
152,304,203895,1,8,2:2:0:0:
392,80,204210,1,0,2:2:0:0:
384,88,204368,1,8,2:2:0:0:
120,80,204684,1,0,2:2:0:0:
128,88,204842,1,8,2:2:0:0:
368,312,205158,1,0,2:2:0:0:
360,304,205316,1,8,2:2:0:0:
256,48,205631,1,0,2:2:0:0:
256,56,205789,1,8,2:2:0:0:
144,312,206106,1,0,2:2:0:0:
152,304,206264,1,8,2:2:0:0:
392,80,206579,1,0,2:2:0:0:
384,88,206737,1,8,2:2:0:0:
120,80,207053,1,0,2:2:0:0:
128,88,207211,1,8,2:2:0:0:
360,304,207526,1,8,2:2:0:0:
280,320,207842,5,0,2:2:0:0:
240,320,208000,1,8,2:2:0:0:
152,264,208315,1,0,2:2:0:0:
128,224,208473,1,8,2:2:0:0:
120,128,208789,1,0,2:2:0:0:
136,88,208947,1,8,2:2:0:0:
232,40,209263,1,0,2:2:0:0:
280,32,209421,1,8,2:2:0:0:
368,104,209736,1,0,2:2:0:0:
392,144,209894,1,8,2:2:0:0:
392,256,210210,1,0,2:2:0:0:
368,296,210368,1,8,2:2:0:0:
264,328,210684,1,0,2:2:0:0:
216,320,210842,1,8,2:2:0:0:
120,248,211158,1,0,2:2:0:0:
104,200,211315,1,8,2:2:0:0:
136,96,211631,1,0,2:2:0:0:
168,56,211789,1,8,2:2:0:0:
280,48,212105,1,0,2:2:0:0:
328,64,212263,1,8,2:2:0:0:
400,128,212579,1,8,2:2:0:0:
376,336,212895,5,0,2:2:0:0:
368,328,213053,1,8,2:2:0:0:
336,48,213368,1,0,2:2:0:0:
328,56,213526,1,8,2:2:0:0:
296,336,213842,1,0,2:2:0:0:
288,328,214000,1,8,2:2:0:0:
256,48,214316,1,0,2:2:0:0:
248,56,214474,1,8,2:2:0:0:
216,336,214789,1,0,2:2:0:0:
208,328,214947,1,8,2:2:0:0:
176,48,215263,1,0,2:2:0:0:
168,56,215421,1,8,2:2:0:0:
136,336,215737,1,0,2:2:0:0:
128,328,215895,1,8,2:2:0:0:
96,48,216211,1,0,2:2:0:0:
88,56,216369,1,8,2:2:0:0:
224,184,216684,1,0,2:2:0:0:
232,192,216842,1,8,2:2:0:0:
368,328,217158,1,0,2:2:0:0:
376,336,217316,1,8,2:2:0:0:
368,192,217632,1,8,2:2:0:0:
232,320,217947,5,0,2:2:0:0:
272,320,218105,1,8,2:2:0:0:
360,264,218420,1,0,2:2:0:0:
384,224,218578,1,8,2:2:0:0:
392,128,218894,1,0,2:2:0:0:
376,88,219052,1,8,2:2:0:0:
280,40,219368,1,0,2:2:0:0:
232,32,219526,1,8,2:2:0:0:
144,104,219841,1,0,2:2:0:0:
120,144,219999,1,8,2:2:0:0:
120,256,220315,1,0,2:2:0:0:
144,296,220473,1,8,2:2:0:0:
248,328,220789,1,0,2:2:0:0:
296,320,220947,1,8,2:2:0:0:
392,248,221263,1,0,2:2:0:0:
408,200,221420,1,8,2:2:0:0:
376,96,221736,1,0,2:2:0:0:
344,56,221894,1,8,2:2:0:0:
232,48,222210,1,0,2:2:0:0:
184,64,222368,1,8,2:2:0:0:
112,128,222684,1,8,2:2:0:0:
144,312,223000,5,0,2:2:0:0:
152,304,223158,1,8,2:2:0:0:
256,48,223473,1,0,2:2:0:0:
256,56,223631,1,8,2:2:0:0:
368,312,223948,1,0,2:2:0:0:
360,304,224106,1,8,2:2:0:0:
120,80,224421,1,0,2:2:0:0:
128,88,224579,1,8,2:2:0:0:
392,80,224895,1,0,2:2:0:0:
384,88,225053,1,8,2:2:0:0:
144,312,225369,1,0,2:2:0:0:
152,304,225527,1,8,2:2:0:0:
256,48,225842,1,0,2:2:0:0:
256,56,226000,1,8,2:2:0:0:
368,312,226317,1,0,2:2:0:0:
360,304,226475,1,8,2:2:0:0:
120,80,226790,1,0,2:2:0:0:
128,88,226948,1,8,2:2:0:0:
392,80,227264,1,0,2:2:0:0:
384,88,227422,1,8,2:2:0:0:
152,304,227737,1,8,2:2:0:0:
232,320,228053,5,0,2:2:0:0:
272,320,228211,1,8,2:2:0:0:
360,264,228526,1,0,2:2:0:0:
384,224,228684,1,8,2:2:0:0:
392,128,229000,1,0,2:2:0:0:
376,88,229158,1,8,2:2:0:0:
280,40,229474,1,0,2:2:0:0:
232,32,229632,1,8,2:2:0:0:
144,104,229947,1,0,2:2:0:0:
120,144,230105,1,8,2:2:0:0:
120,256,230421,1,0,2:2:0:0:
144,296,230579,1,8,2:2:0:0:
248,328,230895,1,0,2:2:0:0:
296,320,231053,1,8,2:2:0:0:
392,248,231369,1,0,2:2:0:0:
408,200,231526,1,8,2:2:0:0:
376,96,231842,1,0,2:2:0:0:
344,56,232000,1,8,2:2:0:0:
232,48,232316,1,0,2:2:0:0:
184,64,232474,1,8,2:2:0:0:
112,128,232790,1,8,2:2:0:0:
69,175,233106,5,0,2:2:0:0:
80,175,233264,1,8,2:2:0:0:
301,350,233579,1,0,2:2:0:0:
301,339,233737,1,8,2:2:0:0:
125,118,234053,1,0,2:2:0:0:
137,118,234211,1,8,2:2:0:0:
357,293,234527,1,0,2:2:0:0:
357,282,234685,1,8,2:2:0:0:
182,61,235000,1,0,2:2:0:0:
193,61,235158,1,8,2:2:0:0:
414,237,235474,1,0,2:2:0:0:
414,225,235632,1,8,2:2:0:0:
239,5,235948,1,0,2:2:0:0:
250,5,236106,1,8,2:2:0:0:
470,180,236422,1,0,2:2:0:0:
470,169,236580,1,8,2:2:0:0:
284,175,236895,1,0,2:2:0:0:
272,175,237053,1,8,2:2:0:0:
80,175,237369,1,0,2:2:0:0:
69,175,237527,1,8,2:2:0:0:
176,271,237843,1,8,2:2:0:0:
280,320,238158,5,0,2:2:0:0:
240,320,238316,1,8,2:2:0:0:
152,264,238631,1,0,2:2:0:0:
128,224,238789,1,8,2:2:0:0:
120,128,239105,1,0,2:2:0:0:
136,88,239263,1,8,2:2:0:0:
232,40,239579,1,0,2:2:0:0:
280,32,239737,1,8,2:2:0:0:
368,104,240052,1,0,2:2:0:0:
392,144,240210,1,8,2:2:0:0:
392,256,240526,1,0,2:2:0:0:
368,296,240684,1,8,2:2:0:0:
264,328,241000,1,0,2:2:0:0:
216,320,241158,1,8,2:2:0:0:
120,248,241474,1,0,2:2:0:0:
104,200,241631,1,8,2:2:0:0:
136,96,241947,1,0,2:2:0:0:
168,56,242105,1,8,2:2:0:0:
280,48,242421,1,0,2:2:0:0:
328,64,242579,1,8,2:2:0:0:
400,128,242895,1,8,2:2:0:0:
