osu file format v14

[General]
AudioFilename: audio.mp3
AudioLeadIn: 0
PreviewTime: 13773
Countdown: 0
SampleSet: Soft
StackLeniency: 0.3
Mode: 0
LetterboxInBreaks: 0
WidescreenStoryboard: 1

[Editor]
DistanceSpacing: 1
BeatDivisor: 5
GridSize: 32
TimelineZoom: 1.7

[Metadata]
Title:Sailor Moon Theme (TV Size)
TitleUnicode:Sailor Moon Theme (TV Size)
Artist:Nicole Price and Brynn Price
ArtistUnicode:Nicole Price and Brynn Price
Creator:Glaceon
Version:Normal
Source:Sailor Moon
Tags:anime female vocals english pop op opening pretty soldier guardian 美少女戦士セーラームーン moonlight densetsu legend ムーンライト伝説
BeatmapID:3078727
BeatmapSetID:1502714

[Difficulty]
HPDrainRate:3
CircleSize:3
OverallDifficulty:4
ApproachRate:5
SliderMultiplier:1.1
SliderTickRate:1

[Events]
//Background and Video events
0,0,"minako.jpg",0,0
//Break Periods
//Storyboard Layer 0 (Background)
//Storyboard Layer 1 (Fail)
//Storyboard Layer 2 (Pass)
//Storyboard Layer 3 (Foreground)
//Storyboard Layer 4 (Overlay)
//Storyboard Sound Samples

[TimingPoints]
9999,458.015267175573,4,2,22,50,1,0
9999,-142.857142857143,4,2,22,50,0,0
10342,-142.857142857143,4,2,22,5,0,0
10457,427.960057061341,4,2,22,50,1,0
10884,-100,4,2,22,30,0,0
10991,-100,4,2,22,35,0,0
11098,-100,4,2,22,40,0,0
11205,-100,4,2,22,45,0,0
11312,-100,4,2,22,50,0,0
11740,-111.111111111111,4,2,22,50,0,0
13238,-111.111111111111,4,2,22,35,0,0
13880,427.960057061341,4,2,22,65,1,0
13880,-99.9999999999999,4,2,22,65,0,1
14307,-99.9999999999999,4,2,22,65,0,1
17731,-99.9999999999999,4,2,22,65,0,1
21155,-99.9999999999999,4,2,22,65,0,1
24150,-99.9999999999999,4,2,22,65,0,1
26504,-99.9999999999999,4,2,22,40,0,1
26718,-99.9999999999999,4,2,22,65,0,1
27574,-99.9999999999999,4,2,22,65,0,1
39557,-125,4,2,22,65,0,0
41269,-100,4,2,22,65,0,0
48009,-100,4,2,22,5,0,0
48116,-99.9999999999999,4,2,22,65,0,0
53893,-99.9999999999999,4,2,22,40,0,0
54107,-99.9999999999999,4,2,22,65,0,0
54963,-111.111111111111,4,2,22,60,0,0
63951,-111.111111111111,4,2,22,60,0,0
68658,-100,4,2,22,65,0,1
68979,-100,4,2,22,5,0,1
69086,-99.9999999999999,4,2,22,65,0,1
72510,-99.9999999999999,4,2,22,65,0,1
75933,-99.9999999999999,4,2,22,65,0,1
80427,-99.9999999999999,4,2,22,65,0,0
82353,-99.9999999999999,4,2,22,65,0,1
83851,-99.9999999999999,4,2,22,65,0,0
84707,-99.9999999999999,4,2,22,40,0,0
84921,-99.9999999999999,4,2,22,65,0,0
85777,-99.9999999999999,4,2,22,65,0,1
87917,-99.9999999999999,4,2,22,65,0,0

[Colours]
Combo1 : 255,119,119
Combo2 : 255,222,32
Combo3 : 165,157,208

[HitObjects]
96,57,9998,5,2,0:0:0:0:
168,150,10457,2,0,L|168:214,1,55,0|0,1:2|1:2,0:0:0:0:
190,255,10884,2,0,P|244:237|303:268,1,110,8|8,3:2|3:2,0:0:0:0:
382,293,11740,2,0,L|382:227,1,49.4999984893799,14|0,0:0|1:2,0:0:0:0:
418,209,12168,2,0,L|418:143,1,49.4999984893799,10|2,0:0|1:2,0:0:0:0:
395,121,12596,1,14,0:0:0:0:
395,121,12810,1,6,1:2:0:0:
313,65,13238,2,0,L|313:4,2,49.4999984893799,8|8|8,2:3|2:3|2:3,0:0:0:0:
267,96,13880,6,0,B|196:86|229:118|141:103,1,110,6|10,1:2|0:0,0:0:0:0:
109,81,14521,2,0,P|125:115|95:196,1,110,2|2,0:0|0:0,0:0:0:0:
73,225,15163,1,10,0:0:0:0:
143,309,15591,1,2,1:2:0:0:
248,278,16019,2,0,L|367:278,1,110,10|0,0:0|1:2,0:0:0:0:
445,211,16875,1,8,0:0:0:0:
401,111,17303,6,0,P|347:91|284:121,1,110,2|10,1:2|0:0,0:0:0:0:
258,144,17945,2,0,P|206:159|156:139,1,110,2|0,0:0|0:0,0:0:0:0:
123,95,18587,1,10,0:0:0:0:
21,136,19015,1,2,1:2:0:0:
35,245,19443,2,0,L|35:373,1,110,10|0,0:0|1:2,0:0:0:0:
139,320,20299,1,12,0:0:0:0:
238,367,20727,6,0,L|238:257,1,110,2|10,1:2|0:0,0:0:0:0:
201,216,21369,2,0,L|201:106,1,110,2|2,0:0|0:0,0:0:0:0:
233,61,22011,2,0,L|290:61,1,55,10|2,0:0|0:0,0:0:0:0:
332,93,22439,1,6,1:2:0:0:
434,52,22867,1,6,1:2:0:0:
434,52,23723,1,10,2:3:0:0:
500,139,24151,5,6,1:2:0:0:
438,229,24579,1,2,1:2:0:0:
336,200,25006,1,6,1:2:0:0:
336,200,25220,1,6,1:2:0:0:
265,284,25648,2,0,L|132:284,1,110,6|0,1:2|3:2,0:0:0:0:
110,250,26290,1,10,0:0:0:0:
29,175,26718,2,0,L|29:104,1,55,8|2,0:0|1:2,0:0:0:0:
29,64,27146,1,12,2:3:0:0:
138,50,27574,6,0,P|189:67|257:36,1,110,4|10,1:2|0:0,0:0:0:0:
289,21,28216,1,2,0:0:0:0:
289,21,28430,2,0,L|354:21,1,55,2|2,1:2|0:0,0:0:0:0:
393,44,28858,1,10,0:0:0:0:
485,104,29286,2,0,L|485:217,1,110,0|8,1:2|0:0,0:0:0:0:
451,258,29928,2,0,P|400:241|332:272,1,110,0|2,0:0|0:0,0:0:0:0:
303,290,30570,1,10,0:0:0:0:
254,191,30998,6,0,L|141:191,1,110,0|10,1:2|0:0,0:0:0:0:
93,168,31640,2,0,P|76:219|107:287,1,110,2|2,0:0|0:0,0:0:0:0:
124,315,32282,1,10,0:0:0:0:
230,287,32710,2,0,L|295:287,1,55,2|2,1:2|0:0,0:0:0:0:
328,321,33138,2,0,L|393:321,1,55,10|2,0:0|0:0,0:0:0:0:
431,294,33566,1,2,1:2:0:0:
501,209,33994,2,0,L|501:135,1,55,10|2,0:0|0:0,0:0:0:0:
478,103,34422,6,0,P|427:86|359:117,1,110,2|10,1:2|0:0,0:0:0:0:
338,143,35064,1,2,0:0:0:0:
237,97,35491,1,2,0:0:0:0:
152,166,35919,1,2,0:0:0:0:
152,166,36133,2,0,P|135:217|166:285,1,110,2|10,1:2|0:0,0:0:0:0:
257,315,36989,1,0,1:2:0:0:
257,315,37203,2,0,L|257:371,2,55,2|10|2,0:0|0:0|0:0,0:0:0:0:
291,272,37845,5,2,1:2:0:0:
234,177,38273,1,10,0:0:0:0:
286,82,38701,1,2,1:2:0:0:
286,82,38915,2,0,P|235:65|167:96,1,110,2|8,0:0|2:3,0:0:0:0:
149,110,39557,2,0,L|149:259,2,132,8|8|10,3:2|2:3|0:0,0:0:0:0:
71,31,41269,5,6,1:2:0:0:
5,119,41697,1,10,0:0:0:0:
60,213,42125,1,2,1:2:0:0:
35,320,42553,2,0,L|91:320,1,55,10|2,0:0|0:0,0:0:0:0:
132,285,42981,2,0,L|188:285,1,55,2|2,1:2|0:0,0:0:0:0:
239,302,43409,2,0,P|222:250|239:199,1,110,10|0,0:0|1:2,0:0:0:0:
337,148,44265,2,0,L|408:149,1,55,10|2,0:0|0:0,0:0:0:0:
443,169,44693,5,2,1:2:0:0:
501,75,45121,1,10,0:0:0:0:
418,2,45549,1,2,1:2:0:0:
317,45,45977,2,0,L|262:44,1,55,10|2,0:0|0:0,0:0:0:0:
219,8,46404,2,0,L|164:7,1,55,2|2,1:2|0:0,0:0:0:0:
120,41,46832,1,10,0:0:0:0:
34,110,47260,2,0,L|34:172,1,55,0|0,1:2|1:2,0:0:0:0:
55,216,47688,1,12,0:0:0:0:
158,254,48116,6,0,L|275:254,1,110,2|10,1:2|0:0,0:0:0:0:
308,215,48758,2,0,L|425:215,1,110,2|2,0:0|0:0,0:0:0:0:
468,238,49400,1,10,0:0:0:0:
456,347,49828,2,0,L|399:347,1,55,2|2,1:2|0:0,0:0:0:0:
357,312,50256,2,0,L|247:312,1,110,10|0,0:0|1:2,0:0:0:0:
204,276,50898,2,0,L|147:276,2,55,10|10|10,2:3|0:0|2:3,0:0:0:0:
244,238,51540,5,6,1:2:0:0:
259,129,51968,1,14,3:2:0:0:
160,94,52396,1,6,3:2:0:0:
160,94,52610,1,6,3:2:0:0:
81,171,53038,1,14,1:2:0:0:
137,265,53466,2,0,L|137:332,1,55,8|10,2:3|0:0,0:0:0:0:
233,372,54108,1,8,0:0:0:0:
326,313,54536,1,8,2:3:0:0:
292,208,54964,6,0,L|292:103,2,98.9999969787599,6|8|0,1:2|0:0|1:2,0:0:0:0:
388,231,56248,1,8,0:0:0:0:
451,154,56676,2,0,L|451:57,2,74.2499977340699,2|2|2,1:2|0:0|0:0,0:0:0:0:
490,184,57531,2,0,L|490:295,1,98.9999969787599,2|8,1:2|0:0,0:0:0:0:
461,324,58173,1,2,0:0:0:0:
461,324,58387,2,0,P|412:308|356:332,1,98.9999969787599,2|8,1:2|0:0,0:0:0:0:
270,337,59243,2,0,P|223:350|177:334,1,98.9999969787599,0|8,1:2|0:0,0:0:0:0:
118,254,60099,5,0,1:2:0:0:
118,254,60313,2,0,L|118:137,1,98.9999969787599,2|2,0:0|0:0,0:0:0:0:
119,105,60955,2,0,L|181:105,1,49.4999984893799,2|2,1:2|0:0,0:0:0:0:
210,131,61383,1,10,0:0:0:0:
275,56,61811,2,0,L|392:56,2,98.9999969787599,6|8|0,1:2|0:0|1:2,0:0:0:0:
210,131,63095,1,8,0:0:0:0:
261,215,63523,1,2,1:2:0:0:
188,282,63951,1,6,1:2:0:0:
102,231,64379,1,10,2:3:0:0:
102,231,65235,5,6,1:2:0:0:
58,142,65663,1,10,0:0:0:0:
125,69,66091,2,0,L|191:69,1,49.4999984893799,2|2,0:0|0:0,0:0:0:0:
220,89,66519,1,8,0:0:0:0:
297,27,66947,2,0,L|363:27,1,49.4999984893799,2|2,0:0|0:0,0:0:0:0:
397,47,67375,1,10,0:0:0:0:
397,47,67588,1,10,0:0:0:0:
490,162,68230,1,8,2:3:0:0:
432,255,68658,6,0,L|319:256,1,110,6|10,1:2|0:0,0:0:0:0:
292,209,69300,2,0,L|179:210,1,110,2|2,0:0|0:0,0:0:0:0:
132,234,69942,1,10,0:0:0:0:
40,172,70370,1,2,1:2:0:0:
79,69,70798,2,0,P|130:52|181:69,1,110,10|0,0:0|1:2,0:0:0:0:
283,112,71654,1,8,0:0:0:0:
382,65,72082,6,0,P|398:116|381:167,1,110,2|10,1:2|0:0,0:0:0:0:
330,189,72724,2,0,P|312:240|329:291,1,110,2|0,0:0|0:0,0:0:0:0:
377,319,73366,1,10,0:0:0:0:
274,360,73794,1,2,1:2:0:0:
206,273,74222,2,0,L|94:273,1,110,10|0,0:0|1:2,0:0:0:0:
37,179,75078,1,8,0:0:0:0:
101,90,75506,6,0,L|211:90,1,110,6|10,1:2|0:0,0:0:0:0:
255,123,76148,2,0,L|365:123,1,110,2|2,0:0|0:0,0:0:0:0:
418,109,76790,2,0,L|418:177,1,55,10|2,0:0|0:0,0:0:0:0:
451,207,77218,1,2,1:2:0:0:
378,289,77646,2,0,P|326:305|275:288,1,110,10|0,0:0|1:2,0:0:0:0:
231,253,78287,2,0,L|170:253,2,55,10|10|10,2:3|0:0|2:3,0:0:0:0:
272,217,78929,5,6,1:2:0:0:
310,113,79357,1,14,1:2:0:0:
224,52,79785,1,6,1:2:0:0:
224,52,79999,1,6,1:2:0:0:
130,110,80427,1,6,1:2:0:0:
152,217,80855,2,0,L|152:285,1,55,8|8,0:0|0:0,0:0:0:0:
113,311,81283,1,8,2:3:0:0:
113,311,81497,2,0,L|113:379,2,55,8|2|10,0:0|1:2|0:0,0:0:0:0:
46,223,82353,5,6,1:2:0:0:
83,119,82781,1,14,1:2:0:0:
196,130,83209,1,6,1:2:0:0:
196,130,83423,1,6,1:2:0:0:
254,37,83851,2,0,P|305:20|356:37,1,110,6|8,1:2|2:3,0:0:0:0:
398,74,84493,1,10,0:0:0:0:
336,165,84921,2,0,L|336:231,1,55,8|2,0:0|1:2,0:0:0:0:
372,261,85349,1,10,2:3:0:0:
279,320,85777,6,0,L|208:320,1,55,14|8,0:0|2:3,0:0:0:0:
184,290,86205,1,8,0:0:0:0:
184,290,86419,1,8,2:3:0:0:
154,183,86847,2,0,L|209:183,1,55,10|10,3:2|3:2,0:0:0:0:
257,157,87275,1,14,3:2:0:0:
404,230,87917,1,2,0:0:0:0:
256,192,88131,12,8,90313,3:2:0:0:
